osu file format v14

[General]
AudioFilename: audio.mp3
AudioLeadIn: 0
PreviewTime: 112989
Countdown: 0
SampleSet: Normal
StackLeniency: 0.7
Mode: 0
LetterboxInBreaks: 0
WidescreenStoryboard: 0

[Editor]
Bookmarks: 1472,3114,19614,20064,21114,21264,24264,25314,26214,51864,107064,138564,216039,216864,236964,330049,332749,342949,363799,377299,382549,463031,483499
DistanceSpacing: 1.1
BeatDivisor: 4
GridSize: 4
TimelineZoom: 2

[Metadata]
Title:Inside the Winter Storm
TitleUnicode:Inside the Winter Storm
Artist:DragonForce
ArtistUnicode:DragonForce
Creator:Janssen
Version:Legend
Source:
Tags:Ultra Beatdown Speed Metal Power Deathstreams Streams zigizigiefe zp theart herman li Atsuro
BeatmapID:1294935
BeatmapSetID:613814

[Difficulty]
HPDrainRate:5.5
CircleSize:4.5
OverallDifficulty:9.5
ApproachRate:9.5
SliderMultiplier:1.8
SliderTickRate:2

[Events]
//Background and Video events
0,0,"bg.png",0,0
//Break Periods
2,31971,36046
2,132771,135646
2,158964,176896
2,239364,245703
2,435856,438731
//Storyboard Layer 0 (Background)
//Storyboard Layer 1 (Fail)
//Storyboard Layer 2 (Pass)
//Storyboard Layer 3 (Foreground)
//Storyboard Sound Samples

[TimingPoints]
571,300,4,1,1,50,1,0
571,-125,4,1,1,50,0,0
6271,-100,4,1,1,50,0,0
6571,-125,4,1,1,50,0,0
8971,-111.111111111111,4,1,1,50,0,0
10171,-142.857142857143,4,1,1,40,0,0
11371,-125,4,1,1,30,0,0
11971,-111.111111111111,4,1,1,40,0,0
12571,-90.9090909090909,4,1,1,60,0,0
25771,-83.3333333333333,4,1,1,60,0,0
26671,-76.9230769230769,4,1,1,60,0,0
26971,-90.9090909090909,4,1,1,60,0,0
36571,-400,4,1,1,50,0,0
36646,-400,4,1,1,15,0,0
39571,-100,4,1,1,30,0,0
40171,-100,4,1,1,40,0,0
40771,-100,4,1,1,50,0,0
44071,-810,4,1,1,40,0,0
44108,-810,4,1,1,5,0,0
46171,-100,4,1,1,50,0,0
65371,-90.9090909090909,4,1,1,50,0,0
74971,-100,4,1,1,50,0,0
94171,-90.9090909090909,4,1,1,50,0,0
103471,-76.9230769230769,4,1,1,50,0,0
103771,-90.9090909090909,4,1,1,50,0,0
110971,-100,4,1,1,40,0,0
111271,-90.9090909090909,4,1,1,40,0,0
111571,-83.3333333333333,4,1,1,50,0,0
111871,-76.9230769230769,4,1,1,50,0,0
112171,-71.4285714285714,4,1,1,60,0,0
112471,-66.6666666666667,4,1,1,60,0,0
112771,-62.5,4,1,1,70,0,0
113071,-200,4,1,1,40,0,0
113371,-83.3333333333333,4,1,1,60,0,0
118171,-95.2380952380952,4,1,1,60,0,0
122971,-83.3333333333333,4,1,1,60,0,0
130171,-200,4,1,1,60,0,0
130246,-200,4,1,1,10,0,0
132496,-200,4,1,1,60,0,0
136171,-400,4,1,1,60,0,0
136246,-400,4,1,1,15,0,0
137371,-90.9090909090909,4,1,1,68,0,1
146971,-83.3333333333333,4,1,1,68,0,1
156571,-200,4,2,1,70,0,0
177421,-200,4,2,1,50,0,0
192571,-100,4,1,1,40,0,0
193771,-100,4,1,1,50,0,0
194371,-100,4,1,1,60,0,0
194971,-400,4,1,1,60,0,0
196096,-400,4,1,1,15,0,0
196171,-125,4,1,1,60,0,0
197296,-400,4,1,1,15,0,0
197371,-90.9090909090909,4,1,1,68,0,1
206971,-83.3333333333333,4,1,1,68,0,1
233371,-76.9230769230769,4,1,1,68,0,1
235771,-83.3333333333333,4,1,1,68,0,1
236971,-100,4,1,1,60,0,0
239371,428.571428571429,4,1,1,40,1,0
246228,-200,4,1,1,50,0,0
246335,-200,4,1,1,15,0,0
251317,-200,4,1,1,10,0,0
251371,-200,4,1,1,50,0,0
251478,-200,4,1,1,15,0,0
252978,-200,4,1,1,10,0,0
253085,-100,4,1,1,40,0,0
265085,-83.3333333333333,4,1,1,50,0,0
321656,300,4,1,1,60,1,0
328856,-100,4,1,1,45,0,0
332456,-76.9230769230769,4,1,1,60,0,0
333656,-100,4,1,1,60,0,0
334856,-86.9565217391304,4,1,1,60,0,0
339056,-76.9230769230769,4,1,1,60,0,0
339656,-86.9565217391304,4,1,1,60,0,0
341756,-74.0740740740741,4,1,1,60,0,0
342056,-83.3333333333333,4,1,1,60,0,0
348956,-66.6666666666667,4,1,1,60,0,0
349256,-83.3333333333333,4,1,1,60,0,0
354056,-80,4,1,1,75,0,1
363656,-76.9230769230769,4,1,1,75,0,1
373256,-83.3333333333333,4,1,1,60,0,0
374456,-66.6666666666667,4,1,1,60,0,0
374906,-83.3333333333333,4,1,1,60,0,0
376856,-76.9230769230769,4,1,1,60,0,0
377456,-83.3333333333333,4,1,1,60,0,0
381656,-71.4285714285714,4,1,1,60,0,0
381956,-76.9230769230769,4,1,1,60,0,0
382256,-83.3333333333333,4,1,1,60,0,0
382556,-90.9090909090909,4,1,1,60,0,0
382856,-76.9230769230769,4,1,1,75,0,1
390056,-100,4,1,1,50,0,0
390356,-142.857142857143,4,1,1,50,0,0
391256,-111.111111111111,4,1,1,50,0,0
391856,-100,4,1,1,50,0,0
392456,-83.3333333333333,4,1,1,60,0,0
402056,-80,4,1,1,75,0,1
409256,-76.9230769230769,4,1,1,75,0,1
416456,-80,4,1,1,60,0,0
433256,-200,4,1,1,60,0,0
433274,-200,4,1,1,15,0,0
435656,-200,4,1,1,60,0,0
439256,-142.857142857143,4,1,1,45,0,0
440456,-90.9090909090909,4,1,1,68,0,1
450056,-80,4,1,1,68,0,1
476456,-80,4,1,1,60,0,0
478856,-80,4,1,1,68,0,1
481256,-80,4,1,1,60,0,0
481631,-80,4,1,1,50,0,0
482531,-80,4,1,1,30,0,0
482606,-80,4,1,1,60,0,0
482681,-80,4,1,1,30,0,0
482756,-80,4,1,1,50,0,0
482831,-80,4,1,1,30,0,0
482906,-80,4,1,1,50,0,0
482981,-80,4,1,1,30,0,0
483056,-80,4,1,1,50,0,0
483131,-80,4,1,1,30,0,0
483206,-80,4,1,1,50,0,0
483281,-80,4,1,1,30,0,0
483356,-80,4,1,1,50,0,0
483431,-80,4,1,1,30,0,0
483506,-80,4,1,1,50,0,0
483581,-80,4,1,1,30,0,0
483656,-80,4,1,1,70,0,1
486056,-74.0740740740741,4,1,1,70,0,1
487481,-74.0740740740741,4,1,1,15,0,1
487556,-74.0740740740741,4,1,1,45,0,1
487781,-74.0740740740741,4,1,1,15,0,1
487856,-74.0740740740741,4,1,1,80,0,1
488193,-74.0740740740741,4,1,1,5,0,1
488756,-74.0740740740741,4,1,1,5,0,0

[Colours]
Combo1 : 26,116,242
Combo2 : 164,32,240
Combo3 : 37,185,239
Combo4 : 23,209,116
Combo5 : 226,45,124

[HitObjects]
104,144,571,5,8,0:3:0:0:
256,100,721,1,4,0:3:0:0:
104,144,871,2,0,P|56:116|28:88,1,72,2|0,2:0|2:0,2:0:0:0:
86,241,1171,2,0,P|119:228|150:209,1,72,2|0,2:0|2:0,2:0:0:0:
230,201,1471,2,0,P|229:256|219:294,1,72,2|0,2:0|2:0,2:0:0:0:
136,76,1771,5,2,2:2:0:0:
136,76,1921,1,0,2:2:0:0:
208,28,2071,1,2,2:2:0:0:
208,28,2221,1,0,2:2:0:0:
256,100,2371,1,2,2:2:0:0:
256,100,2521,1,0,2:2:0:0:
328,52,2671,1,2,2:2:0:0:
328,52,2821,1,0,2:2:0:0:
360,252,2971,5,8,0:3:0:0:
468,128,3121,1,4,1:3:0:0:
360,252,3271,2,0,L|276:244,1,72,2|0,2:0|2:0,2:0:0:0:
152,194,3571,2,0,L|224:188,1,72,2|0,2:0|2:0,2:0:0:0:
88,252,3871,2,0,L|16:245,1,72,2|0,2:0|2:0,2:0:0:0:
72,52,4171,5,2,2:2:0:0:
112,128,4321,1,0,2:2:0:0:
27,125,4471,1,2,2:2:0:0:
27,125,4621,1,0,2:2:0:0:
157,55,4771,1,2,2:2:0:0:
157,55,4921,1,0,2:2:0:0:
256,192,5071,1,8,1:0:0:0:
355,55,5221,1,8,1:3:0:0:
256,192,5371,5,4,1:3:0:0:
256,192,5521,1,0,2:0:0:0:
312,260,5671,2,0,L|400:248,1,72,2|0,2:0|2:0,2:0:0:0:
200,124,5971,2,0,L|112:136,1,72,2|0,2:0|2:0,2:0:0:0:
418,320,6271,6,0,P|454:284|454:220,1,90,12|0,0:0|2:0,0:0:0:0:
419,60,6571,1,2,2:0:0:0:
389,125,6721,1,0,2:0:0:0:
309,41,6871,1,2,2:0:0:0:
315,112,7021,1,0,2:0:0:0:
204,79,7171,1,2,2:0:0:0:
244,138,7321,1,0,2:0:0:0:
196,317,7471,1,4,0:0:0:0:
156,257,7621,1,0,2:0:0:0:
356,257,7771,5,12,0:0:0:0:
316,317,7921,1,0,2:0:0:0:
416,296,8071,2,0,P|427:263|422:228,1,72,2|0,2:0|2:0,2:0:0:0:
333,118,8371,1,2,2:0:0:0:
268,149,8521,1,0,2:0:0:0:
365,181,8671,2,0,P|392:157|404:124,1,72,2|0,2:0|2:0,2:0:0:0:
164,29,8971,6,0,L|155:73,3,40.4999987640381,4|0|0|0,0:1|2:0|2:0|2:0,0:0:0:0:
122,92,9271,2,0,L|131:136,3,40.4999987640381,2|0|0|0,2:0|2:0|2:0|2:0,2:0:0:0:
114,169,9571,1,2,2:0:0:0:
127,184,9646,1,2,2:0:0:0:
140,199,9721,1,2,2:0:0:0:
154,214,9796,1,2,2:0:0:0:
167,229,9871,1,8,0:3:0:0:
29,244,10021,5,8,0:3:0:0:
182,368,10171,2,0,L|237:361,15,31.4999990386963,12|0|0|0|0|0|0|0|0|0|0|0|0|0|0|0,1:3|2:0|2:0|2:0|2:0|2:0|2:0|2:0|2:0|2:0|2:0|2:0|2:0|2:0|2:0|2:0,2:0:0:0:
236,287,11371,6,0,P|255:295|279:316,2,36,8|0|0,0:0|0:0|0:0,0:0:0:0:
292,375,11596,2,0,P|308:367|322:355,2,36,8|0|0,0:0|0:0|0:0,0:0:0:0:
344,280,11821,2,0,P|360:286|375:296,1,36,8|0,0:0|0:0,0:0:0:0:
472,229,11971,6,0,L|432:222,2,40.4999987640381,8|0|0,0:0|0:0|0:0,0:0:0:0:
450,110,12196,2,0,L|416:133,2,40.4999987640381,8|0|0,0:0|0:0|0:0,0:0:0:0:
354,39,12421,2,0,L|347:79,1,40.4999987640381,8|0,0:0|0:0,0:0:0:0:
319,190,12571,5,4,0:0:0:0:
224,244,12721,1,8,0:0:0:0:
187,249,12796,1,0,0:0:0:0:
151,239,12871,1,0,0:0:0:0:
122,217,12946,1,0,0:0:0:0:
105,184,13021,2,0,P|99:159|100:135,1,49.5000015106202,8|0,0:0|0:0,0:0:0:0:
152,48,13171,1,0,0:0:0:0:
188,53,13246,1,0,0:0:0:0:
225,58,13321,1,8,0:0:0:0:
262,63,13396,1,0,0:0:0:0:
298,69,13471,2,0,L|346:77,1,49.5000015106202
452,99,13621,1,8,0:0:0:0:
483,81,13696,1,0,0:0:0:0:
507,52,13771,5,0,0:0:0:0:
416,1,13921,1,8,0:0:0:0:
381,180,14071,1,0,0:0:0:0:
413,198,14146,1,0,0:0:0:0:
449,204,14221,1,8,0:0:0:0:
347,78,14371,2,0,L|298:69,1,49.5000015106202
274,152,14521,2,0,L|208:163,1,49.5000015106202,8|0,0:0|0:0,0:0:0:0:
174,99,14671,2,0,L|121:89,1,49.5000015106202
101,173,14821,2,0,L|52:181,1,49.5000015106202,8|0,0:0|0:0,0:0:0:0:
57,267,14971,5,4,0:3:0:0:
166,328,15121,1,8,0:0:0:0:
202,321,15196,1,0,0:0:0:0:
239,315,15271,1,0,0:0:0:0:
275,308,15346,1,0,0:0:0:0:
312,302,15421,2,0,L|365:292,1,49.5000015106202,8|0,0:0|0:0,0:0:0:0:
430,234,15571,2,0,L|377:224,1,49.5000015106202
312,166,15721,2,0,L|365:156,1,49.5000015106202,8|0,0:0|0:0,0:0:0:0:
430,98,15871,1,0,0:0:0:0:
430,98,15946,1,0,0:0:0:0:
430,98,16021,2,0,L|377:88,1,49.5000015106202,8|0,0:0|0:0,0:0:0:0:
256,67,16171,5,0,0:0:0:0:
227,91,16246,1,0,0:0:0:0:
208,123,16321,1,8,0:0:0:0:
270,305,16471,1,0,0:0:0:0:
329,183,16621,1,8,0:0:0:0:
148,245,16771,6,0,L|95:255,1,49.5000015106202
64,352,16921,2,0,L|112:342,1,49.5000015106202,8|0,0:0|0:0,0:0:0:0:
134,157,17071,2,0,L|81:167,1,49.5000015106202
50,264,17221,2,0,L|98:254,1,49.5000015106202,8|0,0:0|0:0,0:0:0:0:
120,69,17371,5,4,0:3:0:0:
207,119,17521,1,8,0:0:0:0:
243,112,17596,1,0,0:0:0:0:
279,105,17671,1,0,0:0:0:0:
316,98,17746,1,0,0:0:0:0:
352,91,17821,2,0,L|400:81,1,49.5000015106202,8|0,0:0|0:0,0:0:0:0:
509,61,17971,1,0,0:0:0:0:
510,97,18046,1,0,0:0:0:0:
499,133,18121,1,8,0:0:0:0:
476,162,18196,1,0,0:0:0:0:
445,182,18271,2,0,P|422:191|397:192,1,49.5000015106202
279,105,18421,1,8,0:0:0:0:
316,98,18496,1,0,0:0:0:0:
352,91,18571,5,0,0:0:0:0:
509,61,18721,1,8,0:0:0:0:
300,212,18871,2,0,L|396:192,1,99.0000030212403,0|8,0:0|0:0,0:0:0:0:
270,59,19171,2,0,L|280:107,1,49.5000015106202
300,212,19321,2,0,L|310:260,1,49.5000015106202,8|0,0:0|0:0,0:0:0:0:
188,181,19471,2,0,L|236:171,1,49.5000015106202
341,151,19621,2,0,L|389:141,1,49.5000015106202,8|0,0:0|0:0,0:0:0:0:
270,59,19771,5,4,0:0:0:0:
228,69,19846,1,0,0:0:0:0:
196,98,19921,1,8,0:0:0:0:
182,138,19996,1,0,0:0:0:0:
188,180,20071,2,0,L|201:228,1,49.5000015106202,8|0,0:0|0:0,0:0:0:0:
229,337,20221,1,8,0:0:0:0:
115,193,20371,5,0,0:0:0:0:
47,363,20521,1,8,0:0:0:0:
88,352,20596,1,0,0:0:0:0:
120,323,20671,1,0,0:0:0:0:
134,283,20746,1,0,0:0:0:0:
128,241,20821,2,0,L|115:193,1,49.5000015106202,8|0,0:0|0:0,0:0:0:0:
88,89,20971,5,2,0:0:0:0:
42,273,21121,1,0,0:0:0:0:
298,141,21271,1,2,0:0:0:0:
115,193,21421,1,0,0:0:0:0:
271,37,21571,1,2,0:0:0:0:
225,221,21721,1,0,0:0:0:0:
481,89,21871,1,2,0:0:0:0:
298,141,22021,1,0,0:0:0:0:
478,295,22171,5,4,0:0:0:0:
432,163,22321,1,8,0:0:0:0:
399,180,22396,1,0,0:0:0:0:
372,205,22471,1,0,0:0:0:0:
352,236,22546,1,0,0:0:0:0:
341,271,22621,2,0,L|331:332,1,49.5000015106202,8|0,0:0|0:0,0:0:0:0:
242,376,22771,1,0,0:0:0:0:
205,369,22846,1,0,0:0:0:0:
168,362,22921,1,8,0:0:0:0:
132,356,22996,1,0,0:0:0:0:
95,349,23071,2,0,L|21:333,1,49.5000015106202
0,238,23221,1,8,0:0:0:0:
36,244,23296,1,0,0:0:0:0:
73,251,23371,5,4,0:3:0:0:
205,195,23521,1,8,0:0:0:0:
0,148,23671,2,0,L|97:169,1,99.0000030212403,0|8,0:0|0:0,0:0:0:0:
0,47,23971,2,0,L|48:57,1,49.5000015106202
126,100,24121,2,0,L|174:89,1,49.5000015106202,8|0,0:0|0:0,0:0:0:0:
252,47,24271,2,0,L|300:57,1,49.5000015106202
378,100,24421,2,0,L|426:89,1,49.5000015106202,8|0,0:0|0:0,0:0:0:0:
506,7,24571,5,4,0:3:0:0:
362,28,24721,1,8,0:0:0:0:
370,64,24796,1,0,0:0:0:0:
378,100,24871,1,0,0:0:0:0:
386,136,24946,1,0,0:0:0:0:
387,172,25021,1,8,0:0:0:0:
365,201,25096,1,0,0:0:0:0:
330,211,25171,1,0,0:0:0:0:
285,82,25321,1,8,0:0:0:0:
250,92,25396,1,0,0:0:0:0:
228,121,25471,1,0,0:0:0:0:
230,158,25546,1,0,0:0:0:0:
238,194,25621,1,8,0:0:0:0:
246,230,25696,1,0,0:0:0:0:
254,266,25771,5,0,0:0:0:0:
365,201,25921,1,8,0:0:0:0:
169,282,26071,2,0,P|142:280|117:270,1,53.9999983520508,2|0,0:0|0:0,0:0:0:0:
1,216,26221,2,0,P|28:214|53:204,1,53.9999983520508,10|0,0:0|0:0,0:0:0:0:
185,148,26371,1,0,0:0:0:0:
185,148,26446,1,0,0:0:0:0:
185,148,26521,1,8,0:0:0:0:
112,26,26671,2,0,L|142:78,1,58.4999973220826,2|0,0:0|0:0,0:0:0:0:
256,263,26821,2,0,L|226:212,1,58.4999973220826,10|0,0:0|0:0,0:0:0:0:
288,81,26971,5,4,0:0:0:0:
114,187,27121,1,8,0:0:0:0:
94,219,27196,1,0,0:0:0:0:
87,255,27271,1,0,0:0:0:0:
94,291,27346,1,0,0:0:0:0:
113,322,27421,2,0,L|163:344,1,49.5000015106202,8|0,0:0|0:0,0:0:0:0:
285,351,27571,1,0,0:0:0:0:
322,344,27646,1,0,0:0:0:0:
359,337,27721,1,8,0:0:0:0:
395,331,27796,1,0,0:0:0:0:
432,324,27871,2,0,L|495:311,1,49.5000015106202
512,209,28021,1,8,0:0:0:0:
476,215,28096,1,0,0:0:0:0:
439,222,28171,5,0,0:0:0:0:
320,172,28321,1,8,0:0:0:0:
502,121,28471,2,0,L|454:131,1,49.5000015106202
384,71,28621,2,0,L|336:81,1,49.5000015106202,8|0,0:0|0:0,0:0:0:0:
319,172,28771,2,0,L|271:182,1,49.5000015106202
438,222,28921,2,0,L|390:232,1,49.5000015106202,8|0,0:0|0:0,0:0:0:0:
376,323,29071,2,0,L|328:333,1,49.5000015106202
257,273,29221,2,0,L|209:283,1,49.5000015106202,8|0,0:0|0:0,0:0:0:0:
152,384,29371,5,6,0:0:0:0:
111,367,29446,1,0,0:0:0:0:
81,333,29521,1,0,0:0:0:0:
72,290,29596,1,0,0:0:0:0:
78,246,29671,1,0,0:0:0:0:
105,210,29746,1,0,0:0:0:0:
145,190,29821,1,10,0:0:0:0:
174,225,29896,1,0,0:0:0:0:
213,248,29971,1,0,0:0:0:0:
257,256,30046,1,0,0:0:0:0:
302,248,30121,1,0,0:0:0:0:
341,225,30196,1,0,0:0:0:0:
369,191,30271,2,0,P|381:169|389:146,1,49.5000015106202,2|0,0:0|0:0,0:0:0:0:
477,65,30421,2,0,P|490:86|497:109,1,49.5000015106202
486,282,30571,5,6,0:0:0:0:
469,313,30646,1,0,0:0:0:0:
451,346,30721,2,0,L|408:322,1,49.5000015106202,0|0,0:0|0:0,0:0:0:0:
227,198,30871,5,6,0:0:0:0:
244,167,30946,1,0,0:0:0:0:
262,134,31021,2,0,L|305:158,1,49.5000015106202,0|0,0:0|0:0,0:0:0:0:
314,369,31171,5,6,0:0:0:0:
283,352,31246,1,0,0:0:0:0:
250,334,31321,2,0,L|274:291,1,49.5000015106202,0|0,0:0|0:0,0:0:0:0:
398,110,31471,5,6,0:0:0:0:
429,127,31546,1,0,0:0:0:0:
462,145,31621,2,0,L|438:188,1,49.5000015106202,0|0,0:0|0:0,0:0:0:0:
173,294,31771,5,14,0:0:0:0:
88,304,36571,6,0,B|124:272|168:272|168:272|136:240|88:240|88:240|104:212|136:208|136:208|121:178|88:176|88:176|94:152|112:144|112:144|107:121|88:112|88:112|90:91|103:80|103:80|100:64|88:56,1,438.75,4|0,0:0|2:0,0:0:0:0:
30,31,39571,5,4,0:3:0:0:
30,31,39721,1,4,0:3:0:0:
44,119,39871,1,4,0:3:0:0:
44,119,40021,1,4,0:3:0:0:
63,225,40171,1,4,0:3:0:0:
63,225,40321,1,4,0:3:0:0:
85,349,40471,5,4,0:3:0:0:
85,349,40621,1,4,0:3:0:0:
256,256,40771,1,4,0:3:0:0:
256,256,40921,1,4,0:3:0:0:
427,349,41071,1,4,0:3:0:0:
427,349,41221,1,4,0:3:0:0:
423,155,41371,5,8,0:0:0:0:
394,173,41446,1,0,0:0:0:0:
366,191,41521,1,0,0:0:0:0:
364,228,41596,1,8,0:0:0:0:
336,246,41671,1,0,0:0:0:0:
308,264,41746,1,0,0:0:0:0:
305,301,41821,1,8,0:0:0:0:
277,319,41896,1,0,0:0:0:0:
249,337,41971,2,0,L|200:368,3,45,8|0|0|0,0:0|0:0|0:0|0:0,0:0:0:0:
140,360,42271,2,0,L|101:335,3,45,8|0|0|0,0:0|0:0|0:0|0:0,0:0:0:0:
180,292,42571,5,4,0:3:0:0:
60,136,42721,1,8,0:0:0:0:
68,157,42796,1,0,0:0:0:0:
76,178,42871,1,0,0:0:0:0:
84,199,42946,1,0,0:0:0:0:
92,220,43021,2,0,L|136:215,1,45,4|0,0:3|0:0,0:0:0:0:
256,180,43171,1,8,0:0:0:0:
264,201,43246,1,0,0:0:0:0:
272,222,43321,1,0,0:0:0:0:
280,243,43396,1,0,0:0:0:0:
288,264,43471,2,0,L|332:259,1,45,4|0,0:3|0:0,0:0:0:0:
408,312,43621,2,0,L|452:307,1,45,4|0,0:3|0:0,0:0:0:0:
464,124,43771,6,0,P|412:156|420:232,1,135,8|0,0:0|2:0,0:0:0:0:
468,189,44071,6,0,B|460:184|460:184|452:187|452:187|444:182|444:182|436:186|436:186|428:181|428:181|420:184|420:184|412:180|412:180|404:183|404:183|396:178|396:178|388:182|388:182|380:177|380:177|372:180|372:180|364:175|364:175|356:179|356:179|348:174|348:174|340:177|340:177|332:177,1,150,8|0,0:0|2:0,0:2:0:0:
256,192,46171,5,4,0:0:0:0:
328,264,46321,1,8,0:0:0:0:
184,264,46471,1,0,0:0:0:0:
184,264,46546,1,0,0:0:0:0:
184,264,46621,2,0,P|156:216|160:168,1,90,8|0,0:0|0:0,0:0:0:0:
196,40,46921,1,8,0:0:0:0:
104,90,47071,1,0,0:0:0:0:
104,90,47146,1,0,0:0:0:0:
104,90,47221,1,8,0:0:0:0:
246,131,47371,6,0,L|348:120,1,90,2|8,0:0|0:0,0:0:0:0:
408,72,47671,1,0,0:0:0:0:
260,220,47821,2,0,L|361:208,1,90,10|0,0:0|0:0,0:0:0:0:
422,160,48121,1,8,0:0:0:0:
246,131,48271,1,2,0:0:0:0:
309,298,48421,1,8,0:0:0:0:
133,269,48571,6,0,L|31:257,1,90,2|8,0:0|0:0,0:0:0:0:
229,232,48871,1,0,0:0:0:0:
76,339,49021,2,0,P|50:302|42:258,1,90,8|0,0:0|0:0,0:0:0:0:
79,102,49321,1,8,0:0:0:0:
155,168,49471,1,0,0:0:0:0:
155,168,49546,1,0,0:0:0:0:
155,168,49621,1,8,0:0:0:0:
345,102,49771,6,0,P|385:75|413:43,1,90,2|8,0:0|0:0,0:0:0:0:
345,234,50071,2,0,P|388:255|430:263,1,90,2|8,0:0|0:0,0:0:0:0:
269,78,50371,1,2,0:0:0:0:
269,258,50521,1,8,0:0:0:0:
193,102,50671,1,2,0:0:0:0:
345,234,50821,1,8,0:0:0:0:
154,299,50971,5,6,0:0:0:0:
231,212,51121,1,8,0:0:0:0:
100,96,51271,1,0,0:0:0:0:
100,96,51346,1,0,0:0:0:0:
100,96,51421,2,0,P|66:75|17:70,1,90,8|0,0:0|0:0,0:0:0:0:
32,165,51721,1,8,0:0:0:0:
193,102,51871,2,0,P|227:80|276:75,1,90,0|8,0:0|0:0,0:0:0:0:
397,197,52171,6,0,P|360:177|331:137,1,90,0|8,0:0|0:0,0:0:0:0:
423,103,52471,1,0,0:0:0:0:
465,266,52621,2,0,P|430:287|381:292,1,90,8|0,0:0|0:0,0:0:0:0:
255,212,52921,1,8,0:0:0:0:
129,293,53071,1,0,0:0:0:0:
129,293,53146,1,0,0:0:0:0:
129,293,53221,1,8,0:0:0:0:
55,166,53371,6,0,L|35:123,1,45,4|0,0:0|0:0,0:0:0:0:
3,51,53521,1,8,0:0:0:0:
35,43,53596,1,8,0:0:0:0:
68,49,53671,1,8,0:0:0:0:
96,68,53746,1,8,0:0:0:0:
113,97,53821,1,4,0:3:0:0:
130,125,53896,1,4,0:3:0:0:
157,144,53971,1,8,0:0:0:0:
190,151,54046,1,8,0:0:0:0:
223,143,54121,1,8,0:0:0:0:
250,124,54196,1,8,0:0:0:0:
267,96,54271,2,0,P|276:62|281:41,1,45,4|0,0:3|0:0,0:0:0:0:
350,51,54421,2,0,P|355:72|361:94,1,45,4|0,0:3|0:0,0:0:0:0:
411,158,54571,5,10,0:0:0:0:
411,158,54646,1,0,0:0:0:0:
411,158,54721,2,0,L|478:146,1,45
330,206,54871,1,10,0:0:0:0:
330,206,54946,1,0,0:0:0:0:
330,206,55021,2,0,L|263:194,1,45
411,254,55171,1,10,0:0:0:0:
411,254,55246,1,0,0:0:0:0:
411,254,55321,2,0,L|478:242,1,45
330,302,55471,2,0,L|263:290,1,45,10|0,0:0|0:0,0:0:0:0:
204,342,55621,2,0,L|137:330,1,45,2|0,0:0|0:0,0:0:0:0:
78,382,55771,5,4,0:0:0:0:
111,252,55921,1,8,0:0:0:0:
15,158,56071,1,0,0:0:0:0:
15,158,56146,1,0,0:0:0:0:
15,158,56221,2,0,L|42:53,1,90,8|0,0:0|0:0,0:0:0:0:
100,18,56521,1,8,0:0:0:0:
132,163,56671,1,0,0:0:0:0:
132,163,56746,1,0,0:0:0:0:
132,163,56821,1,8,0:0:0:0:
307,124,56971,6,0,P|353:137|397:168,1,90,2|8,0:0|0:0,0:0:0:0:
440,235,57271,1,0,0:0:0:0:
262,201,57421,2,0,P|216:213|172:244,1,90,10|0,0:0|0:0,0:0:0:0:
129,311,57721,1,8,0:0:0:0:
132,163,57871,1,2,0:0:0:0:
262,201,58021,1,8,0:0:0:0:
55,300,58171,6,0,P|21:266|-1:217,1,90,2|8,0:0|0:0,0:0:0:0:
5,83,58471,1,0,0:0:0:0:
220,145,58621,2,0,L|132:163,1,90,8|0,0:0|0:0,0:0:0:0:
69,124,58921,1,8,0:0:0:0:
290,191,59071,1,0,0:0:0:0:
290,191,59146,1,0,0:0:0:0:
290,191,59221,1,0,0:0:0:0:
415,71,59371,6,0,L|504:54,1,90,2|8,0:0|0:0,0:0:0:0:
290,191,59671,1,2,0:0:0:0:
435,155,59821,1,8,0:0:0:0:
331,46,59971,1,2,0:0:0:0:
373,215,60121,1,8,0:0:0:0:
269,106,60271,1,2,0:0:0:0:
457,240,60421,1,8,0:0:0:0:
248,336,60571,5,2,0:0:0:0:
228,218,60721,1,8,0:0:0:0:
50,274,60871,1,0,0:0:0:0:
50,274,60946,1,0,0:0:0:0:
50,274,61021,2,0,L|34:185,1,90,8|0,0:0|0:0,0:0:0:0:
20,78,61321,1,8,0:0:0:0:
139,233,61471,1,0,0:0:0:0:
139,233,61546,1,0,0:0:0:0:
139,233,61621,1,8,0:0:0:0:
317,203,61771,6,0,L|405:187,1,90,0|8,0:3|0:0,0:0:0:0:
487,173,62071,1,0,0:0:0:0:
326,279,62221,2,0,P|271:265|247:232,1,90,8|0,0:0|0:0,0:0:0:0:
348,124,62521,1,8,0:0:0:0:
459,250,62671,1,0,0:0:0:0:
459,250,62746,1,0,0:0:0:0:
459,250,62821,1,8,0:0:0:0:
508,87,62971,5,8,0:0:0:0:
492,62,63046,1,0,0:0:0:0:
476,37,63121,1,0,0:0:0:0:
460,11,63196,1,8,0:0:0:0:
443,36,63271,1,0,0:0:0:0:
427,61,63346,1,0,0:0:0:0:
411,86,63421,1,8,0:0:0:0:
395,61,63496,1,0,0:0:0:0:
379,36,63571,1,8,0:0:0:0:
350,70,63646,1,0,0:0:0:0:
309,89,63721,1,0,0:0:0:0:
265,88,63796,1,0,0:0:0:0:
220,65,63871,1,8,0:0:0:0:
180,46,63946,1,0,0:0:0:0:
135,46,64021,1,0,0:0:0:0:
95,64,64096,1,0,0:0:0:0:
66,99,64171,5,6,0:3:0:0:
253,219,64321,1,4,0:3:0:0:
220,65,64471,1,6,0:3:0:0:
99,253,64621,1,4,0:3:0:0:
342,252,64771,1,6,0:3:0:0:
220,65,64921,1,4,0:3:0:0:
188,218,65071,1,6,0:3:0:0:
375,99,65221,1,4,0:3:0:0:
494,286,65371,6,0,L|483:346,1,49.5000015106202,6|0,0:0|0:0,0:0:0:0:
379,379,65521,1,8,0:0:0:0:
369,372,65596,1,0,0:0:0:0:
360,366,65671,2,0,L|368:317,1,49.5000015106202,2|0,0:0|0:0,0:0:0:0:
279,232,65821,2,0,L|270:280,1,49.5000015106202,10|0,0:0|0:0,0:0:0:0:
164,325,65971,1,0,0:0:0:0:
154,318,66046,1,0,0:0:0:0:
145,312,66121,2,0,L|153:263,1,49.5000015106202,10|0,0:0|0:0,0:0:0:0:
64,178,66271,2,0,L|53:238,1,49.5000015106202,2|0,0:0|0:0,0:0:0:0:
63,350,66421,2,0,L|71:301,1,49.5000015106202,8|0,0:0|0:0,0:0:0:0:
217,202,66571,6,0,L|157:191,1,49.5000015106202,2|0,0:0|0:0,0:0:0:0:
79,108,66721,1,8,0:0:0:0:
86,98,66796,1,0,0:0:0:0:
92,89,66871,2,0,L|140:97,1,49.5000015106202,2|0,0:0|0:0,0:0:0:0:
278,117,67021,2,0,L|218:106,1,49.5000015106202,10|0,0:0|0:0,0:0:0:0:
140,23,67171,1,0,0:0:0:0:
147,13,67246,1,0,0:0:0:0:
153,4,67321,2,0,L|201:12,1,49.5000015106202,10|0,0:0|0:0,0:0:0:0:
339,32,67471,2,0,L|279:21,1,49.5000015106202,2|0,0:0|0:0,0:0:0:0:
180,99,67621,2,0,L|229:108,1,49.5000015106202,8|0,0:0|0:0,0:0:0:0:
353,126,67771,6,0,L|401:117,1,49.5000015106202,2|0,0:0|0:0,0:0:0:0:
466,30,67921,1,8,0:0:0:0:
460,19,67996,1,0,0:0:0:0:
454,11,68071,2,0,L|405:19,1,49.5000015106202,2|0,0:0|0:0,0:0:0:0:
238,147,68221,2,0,L|286:138,1,49.5000015106202,10|0,0:0|0:0,0:0:0:0:
351,51,68371,1,0,0:0:0:0:
345,40,68446,1,0,0:0:0:0:
339,32,68521,2,0,L|290:40,1,49.5000015106202,10|0,0:0|0:0,0:0:0:0:
123,168,68671,2,0,L|171:159,1,49.5000015106202,2|0,0:0|0:0,0:0:0:0:
224,53,68821,2,0,L|175:61,1,49.5000015106202,8|0,0:0|0:0,0:0:0:0:
58,196,68971,6,0,P|85:230|110:234,1,49.5000015106202,2|0,0:0|0:0,0:0:0:0:
230,168,69121,1,8,0:0:0:0:
224,157,69196,1,0,0:0:0:0:
218,149,69271,2,0,P|175:155|159:175,1,49.5000015106202,2|0,0:0|0:0,0:0:0:0:
138,319,69421,2,0,P|165:353|190:357,1,49.5000015106202,10|0,0:0|0:0,0:0:0:0:
310,291,69571,1,0,0:0:0:0:
304,280,69646,1,0,0:0:0:0:
298,272,69721,2,0,P|255:278|239:298,1,49.5000015106202,10|0,0:0|0:0,0:0:0:0:
364,335,69871,2,0,P|379:294|370:270,1,49.5000015106202,2|0,0:0|0:0,0:0:0:0:
320,174,70021,2,0,P|347:207|372:212,1,49.5000015106202,8|0,0:0|0:0,0:0:0:0:
481,216,70171,6,0,P|438:222|422:242,1,49.5000015106202,6|0,0:0|0:0,0:0:0:0:
316,316,70321,1,8,0:0:0:0:
310,327,70396,1,0,0:0:0:0:
304,335,70471,2,0,L|255:327,1,49.5000015106202,2|0,0:0|0:0,0:0:0:0:
136,307,70621,2,0,L|185:315,1,49.5000015106202,10|0,0:0|0:0,0:0:0:0:
292,243,70771,1,0,0:0:0:0:
286,254,70846,1,0,0:0:0:0:
280,262,70921,2,0,L|231:254,1,49.5000015106202,10|0,0:0|0:0,0:0:0:0:
112,234,71071,2,0,L|161:242,1,49.5000015106202,2|0,0:0|0:0,0:0:0:0:
216,133,71221,2,0,L|208:182,1,49.5000015106202,8|0,0:0|0:0,0:0:0:0:
176,363,71371,6,0,L|184:314,1,49.5000015106202,2|0,0:0|0:0,0:0:0:0:
51,222,71521,1,8,0:0:0:0:
57,233,71596,1,0,0:0:0:0:
63,241,71671,2,0,L|112:233,1,49.5000015106202,2|0,0:0|0:0,0:0:0:0:
231,254,71821,2,0,L|239:205,1,49.5000015106202,10|0,0:0|0:0,0:0:0:0:
106,113,71971,1,0,0:0:0:0:
112,124,72046,1,0,0:0:0:0:
118,132,72121,2,0,L|167:124,1,49.5000015106202,10|0,0:0|0:0,0:0:0:0:
286,145,72271,2,0,L|294:96,1,49.5000015106202,2|0,0:0|0:0,0:0:0:0:
421,68,72421,2,0,L|413:117,1,49.5000015106202,8|0,0:0|0:0,0:0:0:0:
387,266,72571,5,2,0:0:0:0:
424,279,72646,1,0,0:0:0:0:
458,258,72721,1,0,0:0:0:0:
462,218,72796,1,0,0:0:0:0:
434,190,72871,1,0,0:0:0:0:
395,195,72946,1,0,0:0:0:0:
373,227,73021,1,10,0:0:0:0:
333,239,73096,1,0,0:0:0:0:
294,229,73171,1,0,0:0:0:0:
263,202,73246,1,0,0:0:0:0:
251,163,73321,1,0,0:0:0:0:
258,123,73396,1,0,0:0:0:0:
285,91,73471,1,10,0:0:0:0:
306,125,73546,1,0,0:0:0:0:
328,159,73621,1,0,0:0:0:0:
350,193,73696,1,0,0:0:0:0:
373,227,73771,5,10,0:0:0:0:
330,254,73846,1,0,0:0:0:0:
288,281,73921,1,0,0:0:0:0:
246,309,73996,1,0,0:0:0:0:
204,336,74071,2,4,L|153:324,1,49.5000015106202,4|4,0:3|0:3,0:3:0:0:
119,241,74221,2,4,L|68:229,1,49.5000015106202,4|4,0:3|0:3,0:3:0:0:
7,136,74371,1,10,0:0:0:0:
56,148,74446,1,0,0:0:0:0:
104,161,74521,1,0,0:0:0:0:
153,174,74596,1,0,0:0:0:0:
201,187,74671,2,4,L|252:175,1,49.5000015106202,4|4,0:3|0:3,0:3:0:0:
286,92,74821,2,4,L|337:80,1,49.5000015106202,4|4,0:3|0:3,0:3:0:0:
473,131,74971,5,4,0:0:0:0:
428,36,75121,1,8,0:0:0:0:
378,175,75271,1,0,0:0:0:0:
378,175,75346,1,0,0:0:0:0:
378,175,75421,2,0,L|415:256,1,90,8|0,0:0|0:0,0:0:0:0:
454,326,75721,1,8,0:0:0:0:
493,226,75871,1,0,0:0:0:0:
493,226,75946,1,0,0:0:0:0:
493,226,76021,1,8,0:0:0:0:
338,287,76171,6,0,P|292:278|251:257,1,90,2|8,0:0|0:0,0:0:0:0:
144,147,76471,1,0,0:0:0:0:
26,286,76621,2,0,P|72:277|113:256,1,90,10|0,0:0|0:0,0:0:0:0:
220,146,76921,1,8,0:0:0:0:
110,34,77071,1,2,0:0:0:0:
110,34,77146,1,0,0:0:0:0:
110,34,77221,1,8,0:0:0:0:
167,207,77371,6,0,P|207:226|251:235,1,90,2|8,0:0|0:0,0:0:0:0:
344,214,77671,1,0,0:0:0:0:
232,332,77821,2,0,P|272:312|316:303,1,90,8|0,0:0|0:0,0:0:0:0:
409,324,78121,1,8,0:0:0:0:
444,161,78271,1,0,0:0:0:0:
444,161,78346,1,0,0:0:0:0:
444,161,78421,1,8,0:0:0:0:
316,303,78571,5,2,0:0:0:0:
351,140,78721,1,8,0:0:0:0:
497,253,78871,1,2,0:0:0:0:
334,218,79021,1,8,0:0:0:0:
462,81,79171,1,2,0:0:0:0:
409,324,79321,1,10,0:0:0:0:
270,169,79471,1,0,0:0:0:0:
316,303,79621,1,8,0:0:0:0:
136,215,79771,6,0,P|100:150|96:112,1,90,6|8,0:3|0:0,0:0:0:0:
98,34,80071,1,0,0:0:0:0:
279,98,80221,2,0,P|213:134|176:138,1,90,8|0,0:0|0:0,0:0:0:0:
97,135,80521,1,8,0:0:0:0:
278,204,80671,1,0,0:0:0:0:
278,204,80746,1,0,0:0:0:0:
278,204,80821,1,8,0:0:0:0:
428,80,80971,6,0,P|470:61|512:63,1,90,4|8,0:3|0:0,0:0:0:0:
487,154,81271,1,0,0:0:0:0:
350,79,81421,2,0,P|308:59|266:61,1,90,8|0,0:0|0:0,0:0:0:0:
291,153,81721,1,8,0:0:0:0:
390,11,81871,1,0,0:0:0:0:
390,210,82021,1,8,0:0:0:0:
266,61,82171,5,8,0:0:0:0:
235,74,82246,1,0,0:0:0:0:
211,97,82321,1,0,0:0:0:0:
197,128,82396,1,0,0:0:0:0:
194,161,82471,2,4,P|205:202|212:217,1,45,4|4,0:3|0:3,0:3:0:0:
297,210,82621,2,4,P|286:250|279:265,1,45,4|4,0:3|0:3,0:3:0:0:
209,345,82771,5,8,0:0:0:0:
175,348,82846,1,0,0:0:0:0:
142,340,82921,1,0,0:0:0:0:
115,320,82996,1,0,0:0:0:0:
96,293,83071,2,4,P|84:253|83:236,1,45,4|4,0:3|0:3,0:3:0:0:
25,161,83221,2,4,P|53:131|67:121,1,45,4|4,0:3|0:3,0:3:0:0:
102,33,83371,5,8,0:0:0:0:
135,41,83446,1,0,0:0:0:0:
165,57,83521,1,0,0:0:0:0:
188,82,83596,1,0,0:0:0:0:
202,112,83671,1,4,0:3:0:0:
216,81,83746,1,0,0:0:0:0:
239,57,83821,1,0,0:0:0:0:
268,40,83896,1,0,0:0:0:0:
301,33,83971,5,6,0:3:0:0:
318,75,84046,1,0,0:0:0:0:
346,109,84121,1,0,0:0:0:0:
384,133,84196,1,0,0:0:0:0:
428,143,84271,1,6,0:3:0:0:
451,181,84346,1,0,0:0:0:0:
461,224,84421,1,0,0:0:0:0:
457,269,84496,1,0,0:0:0:0:
439,310,84571,5,4,0:0:0:0:
332,234,84721,1,8,0:0:0:0:
198,329,84871,1,0,0:0:0:0:
198,329,84946,1,0,0:0:0:0:
198,329,85021,2,0,P|155:320|117:295,1,90,8|0,0:0|0:0,0:0:0:0:
58,215,85321,1,8,0:0:0:0:
57,376,85471,1,0,0:0:0:0:
57,376,85546,1,0,0:0:0:0:
57,376,85621,1,8,0:0:0:0:
219,216,85771,6,0,L|223:117,1,90,2|8,0:0|0:0,0:0:0:0:
174,47,86071,1,0,0:0:0:0:
308,207,86221,2,0,L|312:108,1,90,10|0,0:0|0:0,0:0:0:0:
263,38,86521,1,8,0:0:0:0:
219,216,86671,1,2,0:0:0:0:
219,216,86746,1,0,0:0:0:0:
219,216,86821,1,8,0:0:0:0:
401,108,86971,6,0,L|311:116,1,90,2|8,0:0|0:0,0:0:0:0:
219,216,87271,1,0,0:0:0:0:
413,183,87421,2,0,P|453:165|474:126,1,90
389,33,87721,1,8,0:0:0:0:
330,197,87871,1,0,0:0:0:0:
330,197,87946,1,0,0:0:0:0:
330,197,88021,1,8,0:0:0:0:
126,123,88171,6,0,L|30:94,1,90,2|8,0:0|0:0,0:0:0:0:
264,58,88471,1,2,0:0:0:0:
191,263,88621,1,8,0:0:0:0:
330,197,88771,1,2,0:0:0:0:
126,123,88921,1,8,0:0:0:0:
338,108,89071,1,2,0:0:0:0:
117,213,89221,1,8,0:0:0:0:
319,352,89371,5,2,0:0:0:0:
258,224,89521,1,8,0:0:0:0:
418,148,89671,1,0,0:0:0:0:
418,148,89746,1,0,0:0:0:0:
418,148,89821,2,0,P|466:103|484:72,1,90,8|0,0:0|0:0,0:0:0:0:
421,0,90121,1,8,0:0:0:0:
253,156,90271,2,0,P|315:175|351:175,1,90
240,35,90571,5,0,0:0:0:0:
132,169,90721,1,8,0:0:0:0:
119,48,90871,1,0,0:0:0:0:
240,237,91021,2,0,P|259:299|259:335,1,90,8|0,0:0|0:0,0:0:0:0:
145,306,91321,1,8,0:0:0:0:
253,156,91471,2,0,P|311:187|336:212,1,90,0|8,0:0|0:0,0:0:0:0:
512,101,91771,6,0,P|490:109|471:119,1,45,8|0,0:0|0:0,0:0:0:0:
440,222,91921,1,4,0:3:0:0:
440,222,91996,1,4,0:3:0:0:
440,222,92071,2,0,P|418:213|399:203,1,45,8|0,0:0|0:0,0:0:0:0:
368,101,92221,2,0,P|346:109|327:119,1,45,8|0,0:0|0:0,0:0:0:0:
296,222,92371,1,4,0:3:0:0:
296,222,92446,1,4,0:3:0:0:
296,222,92521,2,0,P|274:213|255:203,1,45,8|0,0:0|0:0,0:0:0:0:
224,101,92671,2,0,P|202:109|183:119,1,45,8|0,0:0|0:0,0:0:0:0:
152,222,92821,2,0,P|130:213|111:203,1,45,4|0,0:3|0:0,0:0:0:0:
23,77,92971,5,10,0:0:0:0:
224,101,93121,1,4,0:3:0:0:
201,301,93271,1,4,0:3:0:0:
0,279,93421,1,4,0:3:0:0:
119,116,93571,1,10,0:0:0:0:
98,317,93721,1,4,0:3:0:0:
8,205,93871,1,4,0:3:0:0:
209,227,94021,1,4,0:3:0:0:
129,42,94171,6,0,P|78:53|48:99,1,99.0000030212403,4|0,0:0|0:0,0:0:0:0:
109,216,94471,1,0,0:0:0:0:
299,115,94621,2,0,P|209:151|118:115,1,198.000006042481,8|8,0:0|0:0,0:0:0:0:
290,43,95071,2,0,P|341:54|371:100,1,99.0000030212403,0|8,0:0|0:0,0:0:0:0:
362,314,95371,6,0,P|346:264|370:215,1,99.0000030212403,0|8,0:0|0:0,0:0:0:0:
481,160,95671,1,0,0:0:0:0:
299,115,95821,2,0,P|244:197|235:295,1,198.000006042481,8|8,0:0|0:0,0:0:0:0:
104,112,96271,2,0,P|136:149|158:193,1,99.0000030212403,0|8,0:0|0:0,0:0:0:0:
60,364,96571,6,0,L|76:266,1,99.0000030212403,4|0,0:0|0:0,0:0:0:0:
104,112,96871,1,0,0:0:0:0:
352,192,97021,2,0,B|256:228|256:160|160:192,1,198.000006042481,8|8,0:0|0:0,0:0:0:0:
364,267,97471,2,0,P|410:243|427:190,1,99.0000030212403,0|8,0:0|0:0,0:0:0:0:
371,44,97771,5,8,0:0:0:0:
366,80,97846,1,0,0:0:0:0:
361,117,97921,1,0,0:0:0:0:
356,154,97996,1,0,0:0:0:0:
351,191,98071,2,0,L|293:183,1,49.5000015106202,4|0,0:3|0:0,0:0:0:0:
236,113,98221,2,0,L|177:104,1,49.5000015106202,4|0,0:3|0:0,0:0:0:0:
119,33,98371,1,8,0:0:0:0:
114,69,98446,1,0,0:0:0:0:
109,106,98521,1,0,0:0:0:0:
104,143,98596,1,0,0:0:0:0:
99,180,98671,2,0,L|148:186,1,49.5000015106202,4|0,0:3|0:0,0:0:0:0:
214,258,98821,2,0,L|264:265,1,49.5000015106202,4|0,0:3|0:0,0:0:0:0:
329,336,98971,5,4,0:0:0:0:
335,198,99121,1,8,0:0:0:0:
451,272,99271,1,0,0:0:0:0:
234,357,99421,2,0,L|135:343,1,99.0000030212403,8|0,0:0|0:0,0:0:0:0:
371,269,99721,1,8,0:0:0:0:
164,251,99871,2,0,L|262:264,1,99.0000030212403,0|8,0:0|0:0,0:0:0:0:
503,138,100171,6,0,P|470:175|428:200,1,99.0000030212403,0|8,0:0|0:0,0:0:0:0:
290,90,100471,1,0,0:0:0:0:
263,264,100621,2,0,P|293:225|334:197,1,99.0000030212403,8|0,0:0|0:0,0:0:0:0:
477,300,100921,1,8,0:0:0:0:
503,138,101071,2,0,P|472:99|431:71,1,99.0000030212403,0|8,0:0|0:0,0:0:0:0:
191,104,101371,6,0,L|289:89,1,99.0000030212403,0|8,0:0|0:0,0:0:0:0:
431,71,101671,1,0,0:0:0:0:
192,194,101821,2,0,P|144:181|111:145,1,99.0000030212403,8|0,0:0|0:0,0:0:0:0:
191,15,102121,1,8,0:0:0:0:
192,194,102271,2,0,L|193:292,1,99.0000030212403,0|8,0:0|0:0,0:0:0:0:
2,137,102571,5,8,0:0:0:0:
34,112,102646,1,0,0:0:0:0:
74,101,102721,1,0,0:0:0:0:
115,105,102796,1,0,0:0:0:0:
151,124,102871,1,0,0:0:0:0:
178,155,102946,1,0,0:0:0:0:
192,194,103021,1,8,0:0:0:0:
206,155,103096,1,0,0:0:0:0:
233,124,103171,1,0,0:0:0:0:
269,105,103246,1,0,0:0:0:0:
310,101,103321,1,0,0:0:0:0:
350,112,103396,1,0,0:0:0:0:
381,136,103471,6,2,P|453:157|444:83,1,175.499991966248,8|0,0:0|2:0,0:0:0:0:
320,191,103771,6,0,L|332:289,1,99.0000030212403,6|8,0:0|0:0,0:0:0:0:
438,225,104071,1,0,0:0:0:0:
213,253,104221,2,0,P|168:236|131:202,1,99.0000030212403,10|0,0:0|0:0,0:0:0:0:
84,76,104521,1,8,0:0:0:0:
320,191,104671,2,0,P|365:173|402:139,1,99.0000030212403,2|8,0:0|0:0,0:0:0:0:
179,32,104971,6,0,L|151:134,1,99.0000030212403,2|8,0:0|0:0,0:0:0:0:
111,277,105271,1,0,0:0:0:0:
302,248,105421,2,0,L|200:220,1,99.0000030212403,10|0,0:0|0:0,0:0:0:0:
56,182,105721,1,8,0:0:0:0:
279,141,105871,1,2,0:0:0:0:
227,328,106021,1,8,0:0:0:0:
449,286,106171,5,6,0:3:0:0:
302,248,106321,1,8,0:0:0:0:
408,139,106471,1,0,0:0:0:0:
168,141,106621,2,0,P|208:227|302:248,1,198.000006042481,8|8,0:0|0:0,0:0:0:0:
483,79,107071,2,0,P|452:117|407:138,1,99.0000030212403,0|8,0:0|0:0,0:0:0:0:
117,87,107371,6,0,P|150:70|174:68,1,49.5000015106202,8|0,0:0|0:0,0:0:0:0:
308,38,107521,1,0,0:0:0:0:
315,74,107596,1,0,0:0:0:0:
323,110,107671,1,0,0:0:0:0:
330,146,107746,1,0,0:0:0:0:
338,183,107821,2,0,P|314:177|293:164,1,49.5000015106202,8|0,0:0|0:0,0:0:0:0:
117,87,107971,1,0,0:0:0:0:
109,123,108046,1,0,0:0:0:0:
101,159,108121,1,0,0:0:0:0:
94,195,108196,1,0,0:0:0:0:
87,232,108271,2,0,P|110:226|131:213,1,49.5000015106202,8|0,0:0|0:0,0:0:0:0:
338,183,108421,2,0,P|314:177|293:164,1,49.5000015106202,8|0,0:0|0:0,0:0:0:0:
124,51,108571,5,4,0:0:0:0:
388,333,109771,5,4,0:3:0:0:
152,286,110971,6,2,L|141:188,1,90,4|0,0:3|2:0,0:0:0:0:
358,89,111271,2,2,L|370:187,1,99.0000030212403,4|0,0:3|2:0,0:0:0:0:
126,303,111571,6,2,L|142:197,1,107.999996704102,4|0,0:3|2:0,0:0:0:0:
389,72,111871,2,2,L|371:188,1,116.999994644165,4|0,0:3|2:0,0:0:0:0:
92,312,112171,6,2,L|142:197,1,125.999996154785,4|0,0:3|2:0,0:0:0:0:
424,63,112471,2,2,L|371:188,1,135.000005149842,4|0,0:3|2:0,0:0:0:0:
51,308,112771,6,2,L|142:195,1,144,4|0,0:3|2:0,0:0:0:0:
419,244,113071,6,0,P|381:261|341:257,1,67.5,0|0,2:2|2:0,0:0:0:0:
458,312,113371,6,0,P|410:335|357:338,1,107.999996704102,4|8,0:0|0:0,0:0:0:0:
141,196,113671,1,0,0:0:0:0:
191,321,113821,2,0,P|234:291|264:246,1,107.999996704102,8|0,0:0|0:0,0:0:0:0:
190,72,114121,1,8,0:0:0:0:
141,196,114271,1,0,0:0:0:0:
313,121,114421,1,8,0:0:0:0:
387,292,114571,5,4,0:3:0:0:
499,142,114721,1,8,0:0:0:0:
328,217,114871,1,0,0:0:0:0:
231,9,115021,2,0,L|332:48,1,107.999996704102,8|0,0:0|0:0,0:0:0:0:
291,305,115321,2,0,P|249:271|232:221,1,107.999996704102,8|0,0:0|0:0,0:0:0:0:
410,79,115621,1,8,0:0:0:0:
126,220,115771,6,0,B|181:230|181:230|232:220,1,107.999996704102,4|8,0:0|0:0,0:0:0:0:
181,83,116071,1,0,0:0:0:0:
30,317,116221,2,0,B|78:345|78:345|129:354,1,107.999996704102,8|0,0:0|0:0,0:0:0:0:
292,306,116521,1,8,0:0:0:0:
51,144,116671,2,0,B|82:189|82:189|125:219,1,107.999996704102,0|8,0:0|0:0,0:0:0:0:
380,192,116971,5,4,0:3:0:0:
171,105,117121,1,8,0:0:0:0:
205,64,117196,1,0,0:0:0:0:
256,49,117271,1,0,0:0:0:0:
307,64,117346,1,0,0:0:0:0:
341,105,117421,2,0,P|332:128|315:151,1,53.9999983520508,4|0,0:3|0:0,0:0:0:0:
171,279,117571,1,8,0:0:0:0:
205,319,117646,1,0,0:0:0:0:
256,334,117721,1,0,0:0:0:0:
307,319,117796,1,0,0:0:0:0:
341,279,117871,2,0,P|332:256|315:233,1,53.9999983520508,4|0,0:3|0:0,0:0:0:0:
104,192,118021,2,4,L|176:192,1,53.9999983520508,4|0,0:3|0:0,0:3:0:0:
380,192,118171,5,6,0:0:0:0:
256,120,118321,1,8,0:0:0:0:
380,48,118471,1,0,0:0:0:0:
380,264,118621,1,10,0:0:0:0:
256,192,118771,1,0,0:0:0:0:
380,120,118921,1,8,0:0:0:0:
274,308,119071,1,2,0:0:0:0:
398,380,119221,1,8,0:0:0:0:
346,184,119371,5,2,0:0:0:0:
274,308,119521,1,8,0:0:0:0:
150,236,119671,1,0,0:0:0:0:
335,262,119821,1,10,0:0:0:0:
196,298,119971,1,0,0:0:0:0:
159,160,120121,1,8,0:0:0:0:
72,348,120271,1,2,0:0:0:0:
72,348,120346,1,0,0:0:0:0:
72,348,120421,1,8,0:0:0:0:
72,348,120496,1,0,0:0:0:0:
72,348,120571,5,6,0:3:0:0:
56,226,120721,1,8,0:0:0:0:
40,104,120871,1,0,0:0:0:0:
178,210,121021,1,10,0:0:0:0:
162,88,121171,1,0,0:0:0:0:
56,226,121321,1,8,0:0:0:0:
208,346,121471,1,2,0:0:0:0:
208,346,121546,1,0,0:0:0:0:
208,346,121621,1,8,0:0:0:0:
208,346,121696,1,0,0:0:0:0:
208,346,121771,5,2,0:0:0:0:
178,210,121921,1,8,0:0:0:0:
413,215,122071,1,0,0:0:0:0:
413,215,122146,1,0,0:0:0:0:
413,215,122221,1,10,0:0:0:0:
383,351,122371,1,0,0:0:0:0:
499,229,122521,1,8,0:0:0:0:
493,186,122596,1,0,0:0:0:0:
468,151,122671,1,2,0:0:0:0:
430,133,122746,1,0,0:0:0:0:
387,135,122821,1,0,0:0:0:0:
351,158,122896,1,0,0:0:0:0:
329,195,122971,6,0,P|288:229|238:246,1,107.999996704102,4|8,0:0|0:0,0:0:0:0:
20,182,123271,1,0,0:0:0:0:
109,384,123421,2,0,B|119:329|119:329|109:278,1,107.999996704102,8|0,0:0|0:0,0:0:0:0:
58,58,123721,1,8,0:0:0:0:
27,265,123871,1,0,0:0:0:0:
139,70,124021,1,8,0:0:0:0:
334,182,124171,5,0,0:0:0:0:
181,224,124321,1,8,0:0:0:0:
292,28,124471,1,0,0:0:0:0:
407,222,124621,2,0,P|368:259|315:261,1,107.999996704102,8|0,0:0|0:0,0:0:0:0:
139,70,124921,2,0,P|191:72|230:108,1,107.999996704102,8|0,0:0|0:0,0:0:0:0:
109,279,125221,1,0,0:0:0:0:
315,368,125371,6,0,B|325:313|325:313|315:262,1,107.999996704102,4|8,0:0|0:0,0:0:0:0:
230,108,125671,1,0,0:0:0:0:
87,356,125821,2,0,P|139:353|178:317,1,107.999996704102,8|0,0:0|0:0,0:0:0:0:
230,108,126121,1,8,0:0:0:0:
109,279,126271,1,0,0:0:0:0:
22,89,126421,1,8,0:0:0:0:
218,228,126571,5,8,0:0:0:0:
131,38,126721,1,8,0:0:0:0:
10,208,126871,1,8,0:0:0:0:
10,208,126946,1,8,0:0:0:0:
10,208,127021,1,4,0:3:0:0:
230,108,127171,1,8,0:0:0:0:
330,327,127321,1,8,0:0:0:0:
470,131,127471,1,8,0:0:0:0:
421,112,127546,1,0,0:0:0:0:
375,137,127621,1,4,0:3:0:0:
366,188,127696,1,4,0:3:0:0:
400,228,127771,5,8,0:0:0:0:
111,228,127921,1,8,0:0:0:0:
154,108,130171,2,0,B|154:32|31:-24|-47:126|47:214|154:165|154:165|323:88|323:228|479:164,1,697.5,4|0,0:0|2:0,0:0:0:0:
477,166,132571,5,8,0:0:0:0:
484,166,136171,6,2,B|518:166|483:117|452:172|452:172|427:211|368:192,1,168.75,6|0,0:3|2:0,0:0:0:0:
296,128,137371,5,12,0:0:0:0:
296,128,137446,1,0,0:0:0:0:
296,128,137521,2,0,L|320:76,1,49.5000015106202
196,144,137671,1,8,0:0:0:0:
196,144,137746,1,0,0:0:0:0:
196,144,137821,2,0,L|167:103,1,49.5000015106202
159,238,137971,1,8,0:0:0:0:
159,238,138046,1,0,0:0:0:0:
159,238,138121,2,0,L|109:242,1,49.5000015106202
222,316,138271,1,8,0:0:0:0:
222,316,138346,1,0,0:0:0:0:
222,316,138421,2,0,L|201:360,1,49.5000015106202
349,193,138571,5,8,0:0:0:0:
349,193,138646,1,0,0:0:0:0:
349,193,138721,2,0,L|369:237,1,49.5000015106202
425,337,138871,1,8,0:0:0:0:
425,337,138946,1,0,0:0:0:0:
425,337,139021,2,0,L|453:296,1,49.5000015106202
512,200,139171,1,8,0:0:0:0:
512,200,139246,1,0,0:0:0:0:
512,200,139321,2,0,L|462:195,1,49.5000015106202
380,112,139471,6,0,L|330:107,1,49.5000015106202,8|0,0:0|0:0,0:0:0:0:
248,24,139621,2,0,L|198:19,1,49.5000015106202
88,64,139771,5,12,0:0:0:0:
72,97,139846,1,0,0:0:0:0:
75,134,139921,1,0,0:0:0:0:
95,165,139996,1,0,0:0:0:0:
126,182,140071,1,8,0:0:0:0:
160,203,140146,1,0,0:0:0:0:
180,237,140221,1,0,0:0:0:0:
183,277,140296,1,0,0:0:0:0:
167,313,140371,1,8,0:0:0:0:
136,338,140446,1,0,0:0:0:0:
97,346,140521,1,0,0:0:0:0:
59,336,140596,1,0,0:0:0:0:
29,309,140671,1,8,0:0:0:0:
63,292,140746,1,0,0:0:0:0:
99,287,140821,1,0,0:0:0:0:
135,294,140896,1,0,0:0:0:0:
168,313,140971,5,8,0:0:0:0:
203,329,141046,1,0,0:0:0:0:
242,332,141121,1,0,0:0:0:0:
280,323,141196,1,0,0:0:0:0:
313,302,141271,1,8,0:0:0:0:
337,272,141346,1,0,0:0:0:0:
350,235,141421,1,0,0:0:0:0:
351,196,141496,1,0,0:0:0:0:
339,159,141571,1,8,0:0:0:0:
315,128,141646,1,0,0:0:0:0:
283,106,141721,1,0,0:0:0:0:
245,96,141796,1,0,0:0:0:0:
207,99,141871,6,0,P|169:118|152:132,1,49.5000015106202,8|0,0:0|0:0,0:0:0:0:
45,151,142021,2,0,P|42:193|46:215,1,49.5000015106202
8,317,142171,5,12,0:0:0:0:
8,317,142246,1,0,0:0:0:0:
8,317,142321,2,0,P|43:340|64:348,1,49.5000015106202
133,252,142471,1,8,0:0:0:0:
133,252,142546,1,0,0:0:0:0:
133,252,142621,2,0,P|168:228|189:220,1,49.5000015106202
258,317,142771,1,8,0:0:0:0:
258,317,142846,1,0,0:0:0:0:
258,317,142921,2,0,P|293:340|314:348,1,49.5000015106202
383,252,143071,1,8,0:0:0:0:
383,252,143146,1,0,0:0:0:0:
383,252,143221,2,0,P|418:228|439:220,1,49.5000015106202
469,82,143371,5,8,0:0:0:0:
469,82,143446,1,0,0:0:0:0:
469,82,143521,2,0,L|444:132,1,49.5000015106202
337,34,143671,1,8,0:0:0:0:
337,34,143746,1,0,0:0:0:0:
337,34,143821,2,0,L|325:88,1,49.5000015106202
175,34,143971,1,8,0:0:0:0:
175,34,144046,1,0,0:0:0:0:
175,34,144121,2,0,L|186:88,1,49.5000015106202
43,82,144271,1,8,0:0:0:0:
43,82,144346,1,0,0:0:0:0:
43,82,144421,2,0,L|68:132,1,49.5000015106202
176,328,144571,5,8,0:0:0:0:
19,281,144721,1,0,0:0:0:0:
19,281,144796,1,0,0:0:0:0:
19,281,144871,2,0,L|87:259,1,49.5000015106202,8|0,0:0|0:0,0:0:0:0:
222,173,145021,2,0,L|290:195,1,49.5000015106202,8|0,0:0|0:0,0:0:0:0:
426,235,145171,1,8,0:0:0:0:
468,236,145246,1,0,0:0:0:0:
500,208,145321,1,4,0:3:0:0:
505,166,145396,1,4,0:3:0:0:
480,132,145471,1,8,0:0:0:0:
437,133,145546,1,8,0:0:0:0:
405,105,145621,1,8,0:0:0:0:
400,63,145696,1,0,0:0:0:0:
425,29,145771,6,0,L|488:20,1,49.5000015106202,4|0,0:3|0:0,0:0:0:0:
224,56,145921,1,4,0:3:0:0:
224,56,145996,1,4,0:3:0:0:
224,56,146071,1,8,0:0:0:0:
416,283,146221,2,8,L|479:292,1,49.5000015106202
215,256,146371,1,4,0:3:0:0:
215,256,146446,1,4,0:3:0:0:
215,256,146521,1,8,0:0:0:0:
412,188,146671,2,0,L|362:180,1,49.5000015106202,8|0,0:0|0:0,0:0:0:0:
141,245,146821,1,4,0:3:0:0:
177,250,146896,1,4,0:3:0:0:
214,255,146971,5,4,0:0:0:0:
99,105,147121,1,8,0:0:0:0:
288,79,147271,1,0,0:0:0:0:
288,79,147346,1,0,0:0:0:0:
288,79,147421,2,0,L|398:64,1,107.999996704102,8|0,0:0|0:0,0:0:0:0:
183,21,147721,1,8,0:0:0:0:
397,146,147871,2,0,P|448:129|476:81,1,107.999996704102,0|8,0:0|0:0,0:0:0:0:
183,21,148171,5,0,0:0:0:0:
209,210,148321,1,8,0:0:0:0:
20,236,148471,1,0,0:0:0:0:
196,116,148621,2,0,L|306:101,1,107.999996704102,8|0,0:0|0:0,0:0:0:0:
475,84,148921,1,8,0:0:0:0:
406,239,149071,2,4,L|397:179,1,53.9999983520508,4|0,0:3|0:3,0:3:0:0:
376,3,149221,2,4,L|382:55,1,53.9999983520508,4|0,0:3|0:3,0:3:0:0:
420,338,149371,5,4,0:0:0:0:
508,188,149521,1,8,0:0:0:0:
298,217,149671,1,0,0:0:0:0:
298,217,149746,1,0,0:0:0:0:
298,217,149821,2,0,L|191:231,1,107.999996704102,8|0,0:0|0:0,0:0:0:0:
225,117,150121,1,8,0:0:0:0:
263,331,150271,1,0,0:0:0:0:
115,246,150421,1,8,0:0:0:0:
372,201,150571,5,0,0:0:0:0:
225,117,150721,1,8,0:0:0:0:
372,32,150871,1,0,0:0:0:0:
372,32,150946,1,0,0:0:0:0:
371,31,151021,2,0,P|421:51|463:86,1,107.999996704102,8|0,0:0|0:0,0:0:0:0:
512,218,151321,1,8,0:0:0:0:
225,116,151471,2,0,P|175:136|133:171,1,107.999996704102,0|8,0:0|0:0,0:0:0:0:
352,358,151771,6,0,P|309:324|259:305,1,107.999996704102,4|8,0:0|0:0,0:0:0:0:
68,354,152071,1,0,0:0:0:0:
317,238,152221,2,0,B|330:185|330:185|317:134,1,107.999996704102,8|0,0:0|0:0,0:0:0:0:
119,44,152521,1,8,0:0:0:0:
68,354,152671,2,0,P|118:335|160:301,1,107.999996704102,0|8,0:0|0:0,0:0:0:0:
409,185,152971,6,0,P|358:166|316:132,1,107.999996704102,0|8,0:0|0:0,0:0:0:0:
444,20,153271,1,0,0:0:0:0:
316,237,153421,2,0,B|303:184|303:184|316:133,1,107.999996704102,8|0,0:0|0:0,0:0:0:0:
444,349,153721,1,8,0:0:0:0:
223,185,153871,1,0,0:0:0:0:
409,185,154021,1,8,0:0:0:0:
314,23,154171,5,4,0:3:0:0:
287,58,154246,1,0,0:0:0:0:
279,101,154321,1,0,0:0:0:0:
291,144,154396,1,0,0:0:0:0:
322,176,154471,1,0,0:0:0:0:
364,190,154546,1,0,0:0:0:0:
408,184,154621,1,4,0:3:0:0:
373,156,154696,1,0,0:0:0:0:
329,147,154771,1,0,0:0:0:0:
286,160,154846,1,0,0:0:0:0:
254,190,154921,1,0,0:0:0:0:
239,232,154996,1,0,0:0:0:0:
246,277,155071,1,4,0:3:0:0:
229,318,155146,1,0,0:0:0:0:
196,347,155221,1,0,0:0:0:0:
152,358,155296,1,0,0:0:0:0:
109,348,155371,5,4,0:3:0:0:
112,295,155446,1,0,0:0:0:0:
148,256,155521,1,0,0:0:0:0:
201,249,155596,1,0,0:0:0:0:
246,277,155671,1,4,0:3:0:0:
291,305,155746,1,0,0:0:0:0:
344,298,155821,1,0,0:0:0:0:
380,259,155896,1,0,0:0:0:0:
385,207,155971,5,4,0:3:0:0:
349,216,156046,1,0,0:3:0:0:
329,246,156121,1,0,0:3:0:0:
332,282,156196,1,0,0:3:0:0:
358,307,156271,1,4,0:3:0:0:
394,310,156346,1,0,0:3:0:0:
424,288,156421,1,0,0:3:0:0:
432,253,156496,1,0,0:3:0:0:
416,221,156571,1,4,0:0:0:0:
100,320,177421,6,0,P|164:316|196:252,1,135,2|0,0:0|0:0,0:0:0:0:
25,184,178171,6,0,B|41:227|41:227|126:255,2,135,2|0|0,0:0|0:0|0:0,0:0:0:0:
0,60,179371,2,0,B|87:97|87:33|175:61,1,180,2|0,0:0|0:0,0:0:0:0:
256,140,180271,1,0,0:0:0:0:
481,67,180571,6,0,P|415:67|363:108,2,135,2|0|0,0:0|0:0|0:0,0:0:0:0:
480,224,181771,2,0,P|413:224|362:183,2,135,2|0|0,0:0|0:0|0:0,0:0:0:0:
355,106,182971,6,0,P|305:131|286:178,1,90,2|0,0:0|0:0,0:0:0:0:
321,275,183496,2,0,B|283:220|232:202|174:217|143:247|129:286|129:286|115:322|74:377|-5:353|-65:261|20:186|76:196|106:223|117:245,1,562.5
435,337,187471,5,0,0:0:0:0:
354,280,187771,6,0,P|335:236|364:144,1,135,2|0,0:0|0:0,0:0:0:0:
479,32,188671,1,0,0:0:0:0:
479,32,188971,2,0,B|392:64|392:4|304:32,1,180,2|0,0:0|0:0,0:0:0:0:
192,104,189871,1,0,0:0:0:0:
304,256,190171,6,0,P|361:236|341:179,2,135,2|0|0,0:0|0:0|0:0,0:0:0:0:
170,179,191371,2,0,P|150:236|208:256,2,135,2|2|2,0:0|0:0|0:0,0:0:0:0:
316,119,192571,6,0,P|255:93|194:118,1,135,8|0,0:0|2:0,0:0:0:0:
170,179,192871,1,4,0:3:0:0:
342,179,193021,1,4,0:3:0:0:
152,253,193171,1,4,0:3:0:0:
359,253,193321,1,4,0:3:0:0:
130,341,193471,1,4,0:3:0:0:
378,341,193621,1,4,0:3:0:0:
256,152,193771,5,8,0:3:0:0:
256,376,193921,1,8,0:3:0:0:
197,100,194071,1,8,0:3:0:0:
130,341,194221,1,8,0:3:0:0:
319,101,194371,1,8,0:3:0:0:
378,341,194521,1,8,0:3:0:0:
96,224,194671,1,8,0:0:0:0:
416,224,194821,1,8,0:0:0:0:
183,75,194971,6,2,P|137:115|197:99,1,168.75,8|0,0:0|2:0,0:0:0:0:
201,11,196171,6,2,P|162:198|133:10,1,540,8|0,0:0|2:0,0:0:0:0:
167,100,197371,5,12,0:0:0:0:
167,100,197446,1,0,0:0:0:0:
167,100,197521,2,0,L|180:147,1,49.5000015106202
310,174,197671,1,8,0:0:0:0:
310,174,197746,1,0,0:0:0:0:
310,174,197821,2,0,L|297:221,1,49.5000015106202
167,248,197971,1,8,0:0:0:0:
167,248,198046,1,0,0:0:0:0:
167,248,198121,2,0,L|180:295,1,49.5000015106202
310,322,198271,1,8,0:0:0:0:
310,322,198346,1,0,0:0:0:0:
310,322,198421,2,0,L|297:369,1,49.5000015106202
423,247,198571,5,8,0:0:0:0:
423,247,198646,1,0,0:0:0:0:
423,247,198721,2,0,P|398:249|375:259,1,49.5000015106202
487,343,198871,1,8,0:0:0:0:
487,343,198946,1,0,0:0:0:0:
487,343,199021,2,0,P|496:320|499:295,1,49.5000015106202
371,350,199171,1,8,0:0:0:0:
371,350,199246,1,0,0:0:0:0:
371,350,199321,2,0,P|385:369|405:384,1,49.5000015106202
487,343,199471,6,0,P|496:320|499:295,1,49.5000015106202,8|0,0:0|0:0,0:0:0:0:
423,247,199621,2,0,P|414:224|411:199,1,49.5000015106202
443,93,199771,5,12,0:0:0:0:
407,72,199846,1,0,0:0:0:0:
366,70,199921,1,0,0:0:0:0:
329,87,199996,1,0,0:0:0:0:
304,119,200071,1,8,0:0:0:0:
295,159,200146,1,0,0:0:0:0:
307,198,200221,1,0,0:0:0:0:
318,237,200296,1,0,0:0:0:0:
309,277,200371,1,8,0:0:0:0:
284,309,200446,1,0,0:0:0:0:
247,326,200521,1,0,0:0:0:0:
206,324,200596,1,0,0:0:0:0:
170,303,200671,1,8,0:0:0:0:
130,293,200746,1,0,0:0:0:0:
90,300,200821,1,0,0:0:0:0:
56,324,200896,1,0,0:0:0:0:
36,359,200971,5,8,0:0:0:0:
75,369,201046,1,0,0:0:0:0:
115,361,201121,1,0,0:0:0:0:
149,338,201196,1,0,0:0:0:0:
170,303,201271,1,8,0:0:0:0:
174,262,201346,1,0,0:0:0:0:
160,223,201421,1,0,0:0:0:0:
132,194,201496,1,0,0:0:0:0:
94,179,201571,1,8,0:0:0:0:
65,151,201646,1,0,0:0:0:0:
55,111,201721,1,0,0:0:0:0:
69,73,201796,1,0,0:0:0:0:
102,48,201871,6,0,P|129:40|159:39,1,49.5000015106202,8|0,0:0|0:0,0:0:0:0:
250,60,202021,2,0,P|270:79|286:104,1,49.5000015106202
303,208,202171,5,12,0:0:0:0:
303,208,202246,1,0,0:0:0:0:
303,208,202321,2,0,P|297:235|283:262,1,49.5000015106202
201,258,202471,1,8,0:0:0:0:
201,258,202546,1,0,0:0:0:0:
201,258,202621,2,0,P|206:285|220:312,1,49.5000015106202
137,163,202771,1,8,0:0:0:0:
137,163,202846,1,0,0:0:0:0:
137,163,202921,2,0,P|131:190|117:217,1,49.5000015106202
35,213,203071,1,8,0:0:0:0:
35,213,203146,1,0,0:0:0:0:
35,213,203221,2,0,P|40:240|54:267,1,49.5000015106202
170,328,203371,5,8,0:0:0:0:
170,328,203446,1,0,0:0:0:0:
170,328,203521,2,0,L|214:305,1,49.5000015106202
346,184,203671,1,8,0:0:0:0:
346,184,203746,1,0,0:0:0:0:
346,184,203821,2,0,L|302:207,1,49.5000015106202
166,184,203971,1,8,0:0:0:0:
166,184,204046,1,0,0:0:0:0:
166,184,204121,2,0,L|209:207,1,49.5000015106202,0|0,0:0|0:0,0:0:0:0:
341,328,204271,1,8,0:0:0:0:
341,328,204346,1,0,0:0:0:0:
341,328,204421,2,0,L|298:305,1,49.5000015106202
201,108,204571,5,8,0:0:0:0:
201,108,204646,1,4,0:3:0:0:
201,108,204721,1,4,0:3:0:0:
169,328,204871,1,8,0:0:0:0:
311,108,205021,1,8,0:0:0:0:
311,108,205096,1,4,0:3:0:0:
311,108,205171,1,4,0:3:0:0:
343,328,205321,1,8,0:0:0:0:
158,185,205471,1,8,0:0:0:0:
206,174,205546,1,0,0:0:0:0:
255,170,205621,1,0,0:0:0:0:
304,174,205696,1,0,0:0:0:0:
353,185,205771,5,8,0:3:0:0:
395,187,205846,1,8,0:3:0:0:
431,164,205921,1,8,0:3:0:0:
448,125,205996,1,8,0:3:0:0:
439,84,206071,1,8,0:3:0:0:
408,55,206146,1,8,0:3:0:0:
366,49,206221,1,8,0:3:0:0:
328,68,206296,1,8,0:3:0:0:
308,107,206371,6,4,L|295:177,1,49.5000015106202,4|0,0:3|0:3,0:3:0:0:
357,297,206521,2,4,L|366:248,1,49.5000015106202,4|0,0:3|0:3,0:3:0:0:
212,83,206671,2,4,L|198:152,1,49.5000015106202,4|0,0:3|0:3,0:3:0:0:
260,272,206821,2,4,L|269:223,1,49.5000015106202,4|0,0:3|0:3,0:3:0:0:
115,58,206971,5,4,0:0:0:0:
308,107,207121,1,8,0:0:0:0:
169,249,207271,1,0,0:0:0:0:
169,249,207346,1,0,0:0:0:0:
169,249,207421,2,0,L|65:223,1,107.999996704102,8|0,0:0|0:0,0:0:0:0:
212,83,207721,1,8,0:0:0:0:
343,249,207871,2,0,L|447:223,1,107.999996704102,0|8,0:0|0:0,0:0:0:0:
300,83,208171,5,4,0:3:0:0:
256,264,208321,1,8,0:0:0:0:
437,308,208471,1,0,0:0:0:0:
278,174,208621,2,0,P|228:176|176:216,1,107.999996704102,8|0,0:0|0:0,0:0:0:0:
104,384,208921,1,8,0:0:0:0:
280,356,209071,2,0,L|230:334,1,53.9999983520508,4|0,0:3|0:0,0:0:0:0:
5,235,209221,2,0,L|54:256,1,53.9999983520508,4|0,0:3|0:0,0:0:0:0:
203,158,209371,5,4,0:0:0:0:
141,294,209521,1,8,0:0:0:0:
67,96,209671,1,0,0:0:0:0:
67,96,209746,1,0,0:0:0:0:
67,96,209821,2,0,P|96:79|172:68,1,107.999996704102,8|0,0:0|0:0,0:0:0:0:
445,96,210121,1,8,0:0:0:0:
288,192,210271,1,0,0:0:0:0:
283,8,210421,1,8,0:0:0:0:
379,165,210571,5,0,0:0:0:0:
174,183,210721,1,8,0:0:0:0:
348,291,210871,1,0,0:0:0:0:
348,291,210946,1,0,0:0:0:0:
348,291,211021,1,8,0:0:0:0:
96,231,211171,1,0,0:0:0:0:
253,135,211321,1,8,0:0:0:0:
198,366,211471,2,0,L|86:341,1,107.999996704102,0|8,0:0|0:0,0:0:0:0:
21,80,211771,6,0,L|133:105,1,107.999996704102,4|8,0:0|0:0,0:0:0:0:
253,135,212071,1,0,0:0:0:0:
92,342,212221,2,0,B|79:289|79:289|92:238,1,107.999996704102,8|0,0:0|0:0,0:0:0:0:
205,55,212521,1,8,0:0:0:0:
318,305,212671,2,0,P|266:290|221:260,1,107.999996704102,0|8,0:0|0:0,0:0:0:0:
21,80,212971,6,0,P|65:109|117:124,1,107.999996704102,0|8,0:0|0:0,0:0:0:0:
297,54,213271,1,0,0:0:0:0:
221,260,213421,2,0,P|265:230|317:215,1,107.999996704102,8|0,0:0|0:0,0:0:0:0:
497,286,213721,1,8,0:0:0:0:
468,95,213871,1,0,0:0:0:0:
398,275,214021,1,8,0:0:0:0:
277,124,214171,5,4,0:3:0:0:
257,84,214246,1,0,0:0:0:0:
273,44,214321,1,0,0:0:0:0:
314,28,214396,1,0,0:0:0:0:
353,47,214471,1,0,0:0:0:0:
365,89,214546,1,0,0:0:0:0:
343,126,214621,1,4,0:3:0:0:
318,164,214696,1,0,0:0:0:0:
303,206,214771,1,0,0:0:0:0:
298,251,214846,1,0,0:0:0:0:
303,295,214921,1,0,0:3:0:0:
318,338,214996,1,0,0:0:0:0:
342,375,215071,1,4,0:3:0:0:
366,337,215146,1,0,0:0:0:0:
382,295,215221,1,0,0:0:0:0:
387,250,215296,1,0,0:0:0:0:
375,207,215371,5,8,0:3:0:0:
340,246,215446,1,4,0:3:0:0:
288,261,215521,1,4,0:3:0:0:
237,246,215596,1,4,0:3:0:0:
201,206,215671,1,8,0:3:0:0:
165,166,215746,1,4,0:3:0:0:
113,151,215821,1,4,0:3:0:0:
62,166,215896,1,4,0:3:0:0:
26,206,215971,6,0,L|14:264,1,53.9999983520508,12|0,0:3|0:0,0:0:0:0:
140,354,216121,2,0,L|150:301,1,53.9999983520508,4|0,0:3|0:0,0:0:0:0:
123,98,216271,2,0,L|111:156,1,53.9999983520508,12|0,0:3|0:0,0:0:0:0:
237,246,216421,2,0,L|247:193,1,53.9999983520508,4|0,0:3|0:0,0:0:0:0:
208,4,216571,5,4,0:0:0:0:
261,119,216721,1,8,0:0:0:0:
89,45,216871,1,0,0:0:0:0:
89,45,216946,1,0,0:0:0:0:
89,45,217021,2,0,L|111:150,1,107.999996704102,8|0,0:0|0:0,0:0:0:0:
143,260,217321,1,8,0:0:0:0:
328,160,217471,2,0,B|275:146|275:146|223:159,1,107.999996704102,0|8,0:0|0:0,0:0:0:0:
408,260,217771,5,0,0:0:0:0:
470,64,217921,1,8,0:0:0:0:
332,164,218071,1,0,0:0:0:0:
332,164,218146,1,0,0:0:0:0:
332,164,218221,1,8,0:0:0:0:
274,2,218371,1,0,0:0:0:0:
212,198,218521,1,8,0:0:0:0:
145,69,218671,1,0,0:0:0:0:
145,69,218746,1,0,0:0:0:0:
145,69,218821,1,8,0:0:0:0:
332,164,218971,6,0,P|385:150|446:112,1,107.999996704102,4|8,0:0|0:0,0:0:0:0:
274,2,219271,1,0,0:0:0:0:
99,228,219421,2,0,P|46:214|-15:176,1,107.999996704102,8|0,0:0|0:0,0:0:0:0:
166,99,219721,1,8,0:0:0:0:
250,304,219871,2,0,P|202:329|150:342,1,107.999996704102,0|8,0:0|0:0,0:0:0:0:
17,179,220171,5,0,0:0:0:0:
166,99,220321,1,8,0:0:0:0:
23,10,220471,1,0,0:0:0:0:
23,10,220546,1,0,0:0:0:0:
23,10,220621,1,8,0:0:0:0:
222,18,220771,1,0,0:0:0:0:
73,98,220921,1,8,0:0:0:0:
216,187,221071,1,0,0:0:0:0:
216,187,221146,1,0,0:0:0:0:
216,187,221221,1,8,0:0:0:0:
381,97,221371,6,0,P|454:78|491:76,1,107.999996704102,4|8,0:0|0:0,0:0:0:0:
252,67,221671,1,0,0:0:0:0:
351,226,221821,1,8,0:0:0:0:
192,325,221971,2,0,P|119:344|82:346,1,107.999996704102,0|8,0:0|0:0,0:0:0:0:
86,105,222271,2,0,P|140:111|192:127,1,107.999996704102,0|8,0:0|0:0,0:0:0:0:
351,226,222571,5,0,0:0:0:0:
164,226,222721,1,8,0:0:0:0:
323,325,222871,1,0,0:0:0:0:
425,105,223021,2,0,P|371:111|320:127,1,107.999996704102,8|0,0:0|0:0,0:0:0:0:
164,226,223321,1,8,0:0:0:0:
452,260,223471,2,0,P|402:237|350:225,1,107.999996704102,0|8,0:0|0:0,0:0:0:0:
88,304,223771,5,8,0:0:0:0:
101,327,223846,1,0,0:0:0:0:
114,351,223921,2,0,L|174:333,1,53.9999983520508,4|0,0:3|0:0,0:0:0:0:
350,225,224071,1,8,0:0:0:0:
337,248,224146,1,0,0:0:0:0:
324,272,224221,2,0,L|264:254,1,53.9999983520508,4|0,0:3|0:0,0:0:0:0:
88,146,224371,1,8,0:0:0:0:
101,169,224446,1,0,0:0:0:0:
114,193,224521,2,0,L|174:175,1,53.9999983520508,4|0,0:3|0:0,0:0:0:0:
350,67,224671,1,8,0:0:0:0:
337,90,224746,1,0,0:0:0:0:
324,114,224821,2,0,L|264:96,1,53.9999983520508,4|0,0:3|0:0,0:0:0:0:
28,44,224971,5,4,0:3:0:0:
0,248,225121,1,4,0:3:0:0:
204,276,225271,2,8,L|116:264,1,53.9999983520508
0,248,225421,1,4,0:3:0:0:
232,72,225571,1,4,0:3:0:0:
204,276,225721,1,4,0:3:0:0:
408,304,225871,2,8,L|320:292,1,53.9999983520508,10|8,0:0|0:0,0:0:0:0:
163,166,226021,2,8,L|216:173,1,53.9999983520508,10|8,0:0|0:0,0:0:0:0:
472,200,226171,5,4,0:0:0:0:
397,69,226321,1,8,0:0:0:0:
356,296,226471,1,0,0:0:0:0:
356,296,226546,1,0,0:0:0:0:
356,296,226621,2,0,L|463:310,1,107.999996704102,8|0,0:0|0:0,0:0:0:0:
376,182,226921,1,8,0:0:0:0:
155,295,227071,2,0,P|107:273|72:233,1,107.999996704102,0|8,0:0|0:0,0:0:0:0:
24,40,227371,5,0,0:0:0:0:
172,120,227521,1,8,0:0:0:0:
320,40,227671,1,0,0:0:0:0:
320,40,227746,1,0,0:0:0:0:
320,40,227821,1,8,0:0:0:0:
171,208,227971,1,0,0:0:0:0:
319,128,228121,1,8,0:0:0:0:
467,208,228271,1,0,0:0:0:0:
467,208,228346,1,0,0:0:0:0:
467,208,228421,1,8,0:0:0:0:
320,40,228571,6,0,P|260:61|231:108,1,107.999996704102,4|8,0:0|0:0,0:0:0:0:
235,263,228871,1,0,0:0:0:0:
426,139,229021,2,0,L|319:128,1,107.999996704102,8|0,0:0|0:0,0:0:0:0:
147,99,229321,1,8,0:0:0:0:
235,347,229471,2,0,P|294:326|319:278,1,107.999996704102,0|8,0:0|0:0,0:0:0:0:
235,95,229771,5,0,0:0:0:0:
235,263,229921,1,8,0:0:0:0:
67,263,230071,1,0,0:0:0:0:
67,263,230146,1,0,0:0:0:0:
67,263,230221,1,8,0:0:0:0:
235,179,230371,1,0,0:0:0:0:
235,347,230521,1,8,0:0:0:0:
403,347,230671,1,0,0:0:0:0:
403,347,230746,1,0,0:0:0:0:
403,347,230821,1,8,0:0:0:0:
465,118,230971,5,4,0:0:0:0:
438,113,231046,1,0,0:0:0:0:
411,108,231121,1,8,0:0:0:0:
385,103,231196,1,0,0:0:0:0:
358,98,231271,1,0,0:0:0:0:
331,102,231346,1,0,0:0:0:0:
304,107,231421,1,8,0:0:0:0:
278,112,231496,1,0,0:0:0:0:
251,117,231571,1,0,0:0:0:0:
224,112,231646,1,0,0:0:0:0:
199,101,231721,1,8,0:0:0:0:
178,85,231796,1,0,0:0:0:0:
161,64,231871,1,0,0:0:0:0:
135,69,231946,1,0,0:0:0:0:
110,80,232021,1,8,0:0:0:0:
89,96,232096,1,0,0:0:0:0:
72,117,232171,5,12,0:3:0:0:
115,146,232246,1,4,0:3:0:0:
132,197,232321,1,4,0:3:0:0:
116,247,232396,1,4,0:3:0:0:
72,277,232471,1,12,0:3:0:0:
77,329,232546,1,4,0:3:0:0:
112,368,232621,1,4,0:3:0:0:
164,379,232696,1,4,0:3:0:0:
212,356,232771,1,12,0:3:0:0:
251,320,232846,1,4,0:3:0:0:
303,308,232921,1,4,0:3:0:0:
355,322,232996,1,4,0:3:0:0:
393,359,233071,1,12,0:3:0:0:
442,379,233146,1,4,0:3:0:0:
488,356,233221,1,4,0:3:0:0:
501,305,233296,1,4,0:3:0:0:
472,262,233371,6,0,P|419:245|352:232,1,116.999994644165,12|0,0:3|2:0,0:0:0:0:
39,262,233671,2,0,P|93:245|160:232,1,116.999994644165,12|0,0:3|2:0,0:0:0:0:
256,12,234571,6,0,L|256:129,1,116.999994644165,8|0,0:0|2:0,0:0:0:0:
452,352,235771,5,8,0:0:0:0:
454,331,235846,1,4,0:3:0:0:
457,311,235921,1,4,0:3:0:0:
459,291,235996,1,4,0:3:0:0:
463,272,236071,2,0,P|411:212|335:224,1,161.999995056153,8|0,0:0|2:0,0:0:0:0:
384,287,236371,1,12,0:3:0:0:
509,54,236521,1,12,0:3:0:0:
128,287,236821,1,12,0:3:0:0:
3,54,236971,1,12,0:3:0:0:
0,133,246228,6,0,B|24:224|112:252|171:190|171:190|228:142|232:44|82:3|23:126|82:207|171:190|171:190|336:116|336:343|520:299|525:154|463:106|405:112|376:134,1,1068.75,4|0,0:0|2:0,0:0:0:0:
411,182,251371,6,0,B|455:156|451:81|401:65|361:72|361:72|316:81|251:90|208:10,1,337.5,4|0,0:0|2:0,0:0:0:0:
298,7,253085,5,8,0:0:0:0:
273,112,253299,1,0,0:0:0:0:
298,217,253513,1,8,0:0:0:0:
273,321,253728,1,0,0:0:0:0:
240,340,253835,1,0,0:0:0:0:
204,347,253942,1,8,0:0:0:0:
167,340,254049,1,0,0:0:0:0:
135,320,254156,1,0,0:0:0:0:
112,291,254263,1,0,0:0:0:0:
101,255,254370,1,8,0:0:0:0:
0,133,254585,5,0,0:0:0:0:
32,151,254692,1,0,0:0:0:0:
69,158,254799,1,8,0:0:0:0:
105,151,254906,1,0,0:0:0:0:
137,131,255013,1,0,0:0:0:0:
160,102,255120,1,0,0:0:0:0:
178,73,255227,1,8,0:0:0:0:
368,212,255442,1,0,0:0:0:0:
325,195,255549,1,0,0:0:0:0:
283,179,255656,1,8,0:0:0:0:
305,147,255763,1,0,0:0:0:0:
338,126,255870,1,0,0:0:0:0:
377,122,255977,1,0,0:0:0:0:
414,134,256085,1,8,0:0:0:0:
406,172,256191,1,0,0:0:0:0:
415,210,256298,1,0,0:0:0:0:
440,240,256405,1,0,0:0:0:0:
474,258,256513,5,8,0:0:0:0:
414,134,256728,2,0,L|356:156,1,45
283,179,256942,1,8,0:0:0:0:
416,38,257156,1,0,0:0:0:0:
380,51,257263,1,0,0:0:0:0:
345,64,257370,1,8,0:0:0:0:
310,77,257477,1,0,0:0:0:0:
286,106,257585,1,0,0:0:0:0:
276,142,257692,1,0,0:0:0:0:
282,178,257799,1,8,0:0:0:0:
455,236,258013,5,0,0:0:0:0:
461,272,258120,1,0,0:0:0:0:
451,308,258227,1,8,0:0:0:0:
427,337,258335,1,0,0:0:0:0:
392,350,258442,1,0,0:0:0:0:
357,363,258549,1,0,0:0:0:0:
321,376,258656,1,8,0:0:0:0:
116,317,258871,1,0,0:0:0:0:
152,304,258978,1,0,0:0:0:0:
187,291,259085,1,8,0:0:0:0:
151,278,259192,1,0,0:0:0:0:
116,265,259299,1,0,0:0:0:0:
81,252,259406,1,0,0:0:0:0:
46,239,259513,1,8,0:0:0:0:
82,226,259621,1,0,0:0:0:0:
117,213,259728,1,0,0:0:0:0:
152,200,259835,1,0,0:0:0:0:
187,187,259942,5,4,0:3:0:0:
159,36,260156,1,4,0:3:0:0:
310,8,260371,1,8,0:0:0:0:
338,159,260585,1,4,0:3:0:0:
357,189,260692,1,4,0:3:0:0:
393,193,260799,1,8,0:0:0:0:
419,167,260906,1,4,0:3:0:0:
416,131,261013,1,4,0:3:0:0:
385,111,261120,1,4,0:3:0:0:
351,122,261227,1,8,0:0:0:0:
388,307,261442,5,4,0:3:0:0:
368,337,261549,1,4,0:3:0:0:
332,341,261656,1,8,0:0:0:0:
306,315,261763,1,4,0:3:0:0:
309,279,261870,1,4,0:3:0:0:
340,259,261977,1,4,0:3:0:0:
374,270,262084,1,8,0:0:0:0:
198,350,262299,1,4,0:3:0:0:
153,343,262406,1,4,0:3:0:0:
108,336,262513,1,8,0:0:0:0:
122,300,262620,1,4,0:3:0:0:
121,261,262727,1,4,0:3:0:0:
103,226,262834,1,4,0:3:0:0:
74,200,262942,1,8,0:0:0:0:
103,174,263049,1,4,0:3:0:0:
120,139,263156,1,4,0:3:0:0:
122,100,263263,1,4,0:3:0:0:
108,63,263371,5,8,0:0:0:0:
291,9,263585,1,4,0:3:0:0:
303,40,263692,1,4,0:3:0:0:
316,71,263799,2,0,L|338:125,1,45,8|0,0:0|0:0,0:0:0:0:
245,126,264013,1,4,0:3:0:0:
257,157,264120,1,4,0:3:0:0:
270,188,264227,2,0,L|287:229,1,45,8|0,0:0|0:0,0:0:0:0:
199,243,264442,1,4,0:3:0:0:
211,274,264549,1,4,0:3:0:0:
224,305,264656,2,0,P|286:328|369:284,1,157.5,8|0,0:0|2:0,0:0:0:0:
448,250,265085,5,8,0:0:0:0:
414,217,265192,1,4,0:3:0:0:
401,172,265299,1,8,0:0:0:0:
413,127,265406,1,4,0:3:0:0:
445,93,265513,2,0,L|487:67,2,35.9999989013672,8|0|0,0:0|0:0|0:0,0:0:0:0:
401,29,265728,2,0,L|356:57,1,53.9999983520508,8|4,0:0|0:3,0:0:0:0:
259,127,265942,5,8,0:0:0:0:
209,149,266049,1,4,0:3:0:0:
156,156,266156,1,8,0:0:0:0:
103,149,266263,1,4,0:3:0:0:
54,127,266371,2,0,L|33:67,1,53.9999983520508,8|0,0:0|0:0,0:0:0:0:
276,76,266585,2,0,L|258:126,1,53.9999983520508,8|0,0:0|0:0,0:0:0:0:
156,341,266799,6,0,L|156:228,1,107.999996704102,4|0,0:0|0:0,0:0:0:0:
156,82,267228,1,8,0:0:0:0:
264,233,267442,2,0,L|151:233,1,107.999996704102,0|4,0:0|0:3,0:0:0:0:
5,233,267871,1,0,0:0:0:0:
80,186,268085,1,8,0:0:0:0:
156,233,268299,1,0,0:0:0:0:
236,12,268513,6,0,B|183:27|183:27|155:73,1,107.999996704102,4|0,0:3|0:0,0:0:0:0:
250,114,268942,1,8,0:0:0:0:
236,293,269156,2,0,B|183:278|183:278|155:232,1,107.999996704102,0|4,0:0|0:3,0:0:0:0:
250,191,269585,1,0,0:0:0:0:
236,293,269799,1,8,0:0:0:0:
338,307,270013,1,0,0:0:0:0:
264,89,270228,6,0,P|194:104|163:138,1,107.999996704102,4|0,0:3|0:0,0:0:0:0:
250,191,270656,1,8,0:0:0:0:
62,191,270871,2,0,P|132:206|163:240,1,107.999996704102,0|4,0:0|0:3,0:0:0:0:
76,293,271299,1,0,0:0:0:0:
219,310,271513,1,8,0:0:0:0:
139,373,271728,1,0,0:0:0:0:
362,327,271942,6,0,L|375:216,1,107.999996704102,4|0,0:3|0:0,0:0:0:0:
388,102,272371,1,8,0:0:0:0:
219,310,272585,2,0,L|232:199,1,107.999996704102,0|4,0:0|0:3,0:0:0:0:
245,85,273014,1,0,0:0:0:0:
245,85,273121,1,0,0:0:0:0:
245,85,273228,1,8,0:0:0:0:
374,219,273442,1,0,0:0:0:0:
218,307,273656,6,0,P|140:288|103:259,1,107.999996704102,4|0,0:0|0:0,0:0:0:0:
50,192,274085,1,8,0:0:0:0:
231,202,274299,2,0,P|309:183|346:154,1,107.999996704102,0|4,0:0|0:3,0:0:0:0:
399,87,274728,1,0,0:0:0:0:
411,234,274942,1,8,0:0:0:0:
478,154,275156,1,0,0:0:0:0:
320,20,275371,6,0,L|211:40,1,107.999996704102,4|0,0:3|0:0,0:0:0:0:
399,87,275799,1,8,0:0:0:0:
193,143,276013,2,0,L|299:123,1,107.999996704102,0|4,0:0|0:3,0:0:0:0:
113,75,276441,1,0,0:0:0:0:
125,223,276656,1,8,0:0:0:0:
2,307,276871,1,0,0:3:0:0:
209,346,277085,6,0,B|263:353|263:353|321:326,1,107.999996704102,4|0,0:3|0:0,0:0:0:0:
413,262,277513,1,8,0:3:0:0:
228,127,277728,2,0,B|221:181|221:181|248:239,1,107.999996704102,0|4,0:0|0:3,0:0:0:0:
311,330,278156,1,0,0:3:0:0:
345,162,278371,1,8,0:3:0:0:
413,262,278585,1,0,0:3:0:0:
243,229,278799,5,4,0:3:0:0:
219,350,279013,1,8,0:3:0:0:
177,332,279120,1,8,0:3:0:0:
145,302,279227,1,8,0:3:0:0:
125,261,279334,1,8,0:3:0:0:
122,217,279441,1,8,0:3:0:0:
134,174,279549,2,0,L|97:158,1,26.9999991760254,8|0,0:3|0:0,0:0:0:0:
161,138,279656,1,4,0:3:0:0:
173,100,279763,1,4,0:3:0:0:
160,63,279870,1,4,0:3:0:0:
126,42,279977,1,4,0:3:0:0:
86,46,280084,1,4,0:3:0:0:
58,74,280191,1,4,0:3:0:0:
52,113,280298,1,4,0:3:0:0:
72,147,280405,1,4,0:3:0:0:
134,174,280513,5,4,0:0:0:0:
174,171,280620,1,0,0:0:0:0:
215,168,280727,1,0,0:0:0:0:
255,165,280834,1,0,0:0:0:0:
295,162,280941,1,8,0:0:0:0:
168,255,281156,1,4,0:3:0:0:
208,251,281263,1,0,0:0:0:0:
248,248,281370,1,4,0:3:0:0:
289,245,281477,1,0,0:0:0:0:
329,242,281585,2,0,L|382:238,1,53.9999983520508,4|0,0:3|0:0,0:0:0:0:
456,258,281799,2,0,L|479:209,1,53.9999983520508,8|0,0:0|0:0,0:0:0:0:
458,81,282013,2,0,L|482:130,1,53.9999983520508,4|0,0:3|0:0,0:0:0:0:
385,101,282228,5,4,0:3:0:0:
345,97,282335,1,0,0:0:0:0:
305,94,282442,1,0,0:0:0:0:
264,91,282549,1,0,0:0:0:0:
223,87,282656,1,8,0:0:0:0:
326,194,282870,1,4,0:3:0:0:
286,190,282977,1,0,0:0:0:0:
246,187,283084,1,4,0:3:0:0:
205,184,283191,1,0,0:0:0:0:
165,181,283299,2,0,L|112:177,1,53.9999983520508,4|0,0:3|0:0,0:0:0:0:
223,87,283513,2,0,L|276:91,1,53.9999983520508,8|0,0:0|0:0,0:0:0:0:
257,279,283728,2,0,L|204:275,1,53.9999983520508,4|0,0:3|0:0,0:0:0:0:
355,135,283942,5,4,0:3:0:0:
384,162,284049,1,0,0:0:0:0:
392,201,284156,1,0,0:0:0:0:
377,238,284263,1,0,0:0:0:0:
343,259,284370,1,8,0:0:0:0:
181,378,284585,1,4,0:3:0:0:
210,350,284692,1,0,0:0:0:0:
218,311,284799,1,4,0:3:0:0:
203,274,284906,1,0,0:0:0:0:
169,253,285013,2,0,L|116:249,1,53.9999983520508,4|0,0:3|0:0,0:0:0:0:
39,358,285228,2,0,L|43:305,1,53.9999983520508,8|0,0:0|0:0,0:0:0:0:
60,176,285442,2,4,L|64:123,1,53.9999983520508,4|4,0:3|0:3,0:3:0:0:
193,19,285656,5,4,0:3:0:0:
189,59,285763,1,0,0:0:0:0:
186,99,285870,1,0,0:0:0:0:
183,140,285977,1,0,0:0:0:0:
180,180,286084,1,8,0:0:0:0:
319,19,286299,1,4,0:3:0:0:
322,59,286406,1,0,0:0:0:0:
325,99,286513,1,4,0:3:0:0:
328,140,286620,1,0,0:0:0:0:
331,180,286728,2,0,L|384:176,1,53.9999983520508,4|0,0:3|0:0,0:0:0:0:
181,180,286942,2,0,L|128:176,1,53.9999983520508,8|0,0:0|0:0,0:0:0:0:
256,40,287156,2,0,L|256:96,1,53.9999983520508,4|0,0:3|0:0,0:0:0:0:
256,266,287371,5,4,0:0:0:0:
239,302,287478,1,0,0:0:0:0:
208,328,287585,1,0,0:0:0:0:
169,338,287692,1,0,0:0:0:0:
130,330,287799,1,8,0:0:0:0:
56,116,288013,1,4,0:3:0:0:
72,152,288120,1,0,0:0:0:0:
103,178,288227,1,4,0:3:0:0:
142,188,288334,1,0,0:0:0:0:
181,180,288442,2,0,L|236:156,1,53.9999983520508,4|0,0:3|0:0,0:0:0:0:
344,112,288656,2,0,L|289:88,1,53.9999983520508,8|0,0:0|0:0,0:0:0:0:
181,44,288871,2,0,L|236:20,1,53.9999983520508,4|0,0:3|0:0,0:0:0:0:
432,96,289085,5,4,0:3:0:0:
430,136,289192,1,0,0:0:0:0:
410,171,289299,1,0,0:0:0:0:
378,194,289406,1,0,0:0:0:0:
338,201,289513,1,8,0:0:0:0:
181,351,289728,1,4,0:3:0:0:
221,344,289835,1,0,0:0:0:0:
253,321,289942,1,4,0:3:0:0:
273,286,290049,1,0,0:0:0:0:
274,246,290156,2,0,L|209:233,1,53.9999983520508,4|0,0:3|0:0,0:0:0:0:
169,123,290371,2,0,L|169:193,1,53.9999983520508,8|0,0:0|0:0,0:0:0:0:
60,248,290585,2,0,L|112:237,1,53.9999983520508,4|0,0:3|0:0,0:0:0:0:
249,139,290799,5,4,0:3:0:0:
209,131,290906,1,0,0:0:0:0:
169,123,291013,1,0,0:0:0:0:
129,115,291120,1,0,0:0:0:0:
90,107,291227,1,8,0:0:0:0:
89,327,291442,1,4,0:3:0:0:
129,319,291549,1,0,0:0:0:0:
169,311,291656,1,4,0:3:0:0:
209,303,291763,1,0,0:0:0:0:
248,295,291871,2,0,L|300:284,1,53.9999983520508,4|0,0:3|0:0,0:0:0:0:
442,217,292085,2,0,L|388:217,1,53.9999983520508,8|0,0:0|0:0,0:0:0:0:
249,139,292299,2,0,L|301:149,1,53.9999983520508,4|0,0:3|0:0,0:0:0:0:
477,101,292513,5,8,0:0:0:0:
429,76,292620,1,4,0:3:0:0:
375,77,292727,1,4,0:3:0:0:
329,104,292834,1,4,0:3:0:0:
301,149,292942,1,8,0:0:0:0:
273,104,293049,1,4,0:3:0:0:
227,77,293156,1,4,0:3:0:0:
173,76,293263,1,4,0:3:0:0:
126,100,293371,2,0,L|104:156,1,53.9999983520508,8|0,0:0|0:0,0:0:0:0:
125,328,293585,2,0,L|102:272,1,53.9999983520508,8|0,0:3|0:0,0:0:0:0:
236,163,293799,2,0,L|183:172,1,53.9999983520508,4|0,0:3|0:0,0:0:0:0:
235,266,294013,2,0,L|182:257,1,53.9999983520508,4|0,0:3|0:0,0:0:0:0:
414,214,294228,6,0,L|306:214,1,107.999996704102,4|0,0:0|0:0,0:0:0:0:
182,172,294656,1,8,0:0:0:0:
417,135,294871,2,0,L|309:135,1,107.999996704102,0|4,0:0|0:3,0:0:0:0:
185,93,295299,1,0,0:0:0:0:
351,11,295513,1,8,0:0:0:0:
309,135,295728,1,0,0:0:0:0:
481,331,295942,6,0,B|446:291|446:291|391:291,1,107.999996704102,4|0,0:3|0:0,0:0:0:0:
408,378,296371,1,8,0:0:0:0:
481,175,296585,2,0,B|446:215|446:215|391:215,1,107.999996704102,0|4,0:0|0:3,0:0:0:0:
408,128,297014,1,0,0:0:0:0:
391,291,297228,1,8,0:0:0:0:
245,111,297442,1,0,0:0:0:0:
163,328,297656,6,0,P|238:303|261:271,1,107.999996704102,4|0,0:3|0:0,0:0:0:0:
171,227,298085,1,8,0:0:0:0:
416,229,298299,2,0,P|341:204|318:172,1,107.999996704102,0|4,0:0|0:3,0:0:0:0:
408,128,298728,1,0,0:0:0:0:
424,330,298942,1,8,0:0:0:0:
416,229,299156,1,0,0:0:0:0:
214,245,299371,6,0,L|106:226,1,107.999996704102,4|0,0:3|0:0,0:0:0:0:
0,204,299799,1,8,0:0:0:0:
112,368,300013,2,0,L|220:349,1,107.999996704102,4|0,0:3|0:0,0:0:0:0:
326,327,300441,1,0,0:0:0:0:
326,327,300549,1,0,0:0:0:0:
326,327,300656,1,8,0:0:0:0:
256,192,300871,1,0,0:0:0:0:
325,56,301085,6,0,P|375:77|409:118,1,107.999996704102,4|0,0:0|0:0,0:0:0:0:
408,276,301513,1,8,0:0:0:0:
161,233,301728,2,0,P|203:200|255:191,1,107.999996704102,0|4,0:0|0:3,0:0:0:0:
248,300,302156,1,0,0:0:0:0:
32,188,302371,2,0,L|48:72,1,107.999996704102,8|0,0:0|0:0,0:0:0:0:
20,268,302799,5,4,0:3:0:0:
161,233,303013,2,0,L|177:117,1,107.999996704102,0|8,0:0|0:0,0:0:0:0:
149,313,303441,1,0,0:0:0:0:
290,278,303656,2,0,L|306:162,1,107.999996704102,4|0,0:3|0:0,0:0:0:0:
488,96,304085,2,0,L|381:81,1,107.999996704102,8|0,0:0|0:0,0:0:0:0:
112,44,304513,6,0,B|152:80|152:80|168:148,1,107.999996704102,4|0,0:3|0:0,0:0:0:0:
88,232,304942,1,8,0:0:0:0:
292,44,305156,2,0,B|252:80|252:80|236:148,1,107.999996704102,0|4,0:0|0:3,0:0:0:0:
316,232,305585,1,0,0:0:0:0:
203,376,305799,2,0,L|203:268,1,107.999996704102,8|0,0:0|0:0,0:0:0:0:
203,28,306228,5,4,0:3:0:0:
380,162,306442,2,0,L|417:163,2,35.9999989013672
341,146,306656,1,8,0:0:0:0:
325,106,306763,1,4,0:3:0:0:
342,66,306870,1,4,0:3:0:0:
384,51,306977,1,4,0:3:0:0:
423,70,307084,1,8,0:0:0:0:
386,302,307299,1,4,0:3:0:0:
205,154,307513,1,8,0:0:0:0:
205,154,307621,1,4,0:3:0:0:
205,154,307728,1,4,0:3:0:0:
58,335,307942,6,0,P|116:363|165:369,1,107.999996704102,4|0,0:0|0:0,0:0:0:0:
256,296,308371,1,8,0:0:0:0:
56,204,308585,2,0,P|114:232|163:238,1,107.999996704102,0|4,0:0|0:3,0:0:0:0:
254,165,309014,1,0,0:0:0:0:
256,296,309228,1,8,0:0:0:0:
369,229,309442,1,0,0:0:0:0:
308,48,309656,6,0,B|308:100|308:100|344:168,1,107.999996704102,4|0,0:3|0:0,0:0:0:0:
432,72,310085,1,8,0:0:0:0:
456,280,310299,2,0,B|456:228|456:228|420:160,1,107.999996704102,0|4,0:0|0:3,0:0:0:0:
332,256,310728,1,0,0:0:0:0:
432,72,310942,1,8,0:0:0:0:
290,114,311156,1,4,0:3:0:0:
429,381,311371,6,0,B|455:331|455:331|455:279,1,107.999996704102,4|0,0:3|0:0,0:0:0:0:
361,93,311799,1,8,0:0:0:0:
205,296,312013,2,0,P|255:311|307:296,1,107.999996704102,0|4,0:0|0:3,0:0:0:0:
151,93,312441,1,0,0:0:0:0:
83,381,312656,1,8,0:0:0:0:
256,192,312871,1,0,0:0:0:0:
429,381,313085,6,0,P|480:340|496:272,1,107.999996704102,4|0,0:3|0:0,0:0:0:0:
432,156,313513,1,8,0:0:0:0:
190,112,313728,2,0,P|241:153|257:221,1,107.999996704102,0|4,0:0|0:3,0:0:0:0:
193,337,314156,1,0,0:0:0:0:
193,337,314263,1,0,0:0:0:0:
193,337,314371,1,8,0:0:0:0:
333,311,314585,1,0,0:0:0:0:
115,216,314799,6,0,L|8:232,1,107.999996704102,4|0,0:0|0:0,0:0:0:0:
193,337,315228,1,8,0:0:0:0:
178,71,315442,2,0,L|70:86,1,107.999996704102,0|4,0:0|0:3,0:0:0:0:
255,191,315871,1,0,0:0:0:0:
441,297,316085,2,0,L|334:313,1,107.999996704102,8|0,0:0|0:0,0:0:0:0:
505,167,316513,5,4,0:3:0:0:
255,191,316728,2,0,L|147:206,1,107.999996704102,0|8,0:0|0:0,0:0:0:0:
369,55,317156,1,0,0:0:0:0:
169,275,317371,2,0,P|112:269|79:222,1,107.999996704102,4|0,0:3|0:0,0:0:0:0:
369,55,317799,2,0,P|392:107|368:159,1,107.999996704102,8|0,0:0|0:0,0:0:0:0:
1,286,318228,6,0,P|34:239|91:234,1,107.999996704102,4|0,0:3|0:0,0:0:0:0:
256,308,318656,1,8,0:0:0:0:
512,196,318871,2,0,P|478:149|421:144,1,107.999996704102,0|4,0:0|0:3,0:0:0:0:
256,219,319299,1,0,0:0:0:0:
0,107,319513,2,8,P|33:60|90:55,1,107.999996704102,0|0,0:0|0:0,0:0:0:0:
256,130,319942,5,8,0:0:0:0:
222,152,320049,1,4,0:3:0:0:
188,174,320156,1,4,0:3:0:0:
154,196,320263,1,4,0:3:0:0:
120,218,320371,1,8,0:3:0:0:
153,240,320478,1,4,0:3:0:0:
187,262,320585,1,4,0:3:0:0:
221,284,320692,1,4,0:3:0:0:
255,306,320799,2,0,L|336:292,1,53.9999983520508,4|0,0:3|0:0,0:0:0:0:
460,224,321013,2,0,L|379:209,1,53.9999983520508,4|0,0:3|0:0,0:0:0:0:
256,142,321228,1,4,0:3:0:0:
460,308,321442,1,4,0:3:0:0:
502,49,321656,5,8,0:0:0:0:
435,110,321806,2,0,L|349:83,1,90,2|2,0:0|0:0,0:0:0:0:
281,147,322106,1,0,0:3:0:0:
18,71,322256,1,10,0:0:0:0:
106,97,322406,1,2,0:0:0:0:
39,160,322556,1,0,0:0:0:0:
215,212,322706,6,0,L|303:238,1,90,10|0,0:0|0:0,0:0:0:0:
281,147,323006,1,0,0:0:0:0:
39,160,323156,2,0,L|127:186,1,90,10|0,0:0|0:0,0:0:0:0:
18,71,323456,1,2,0:0:0:0:
60,249,323606,1,10,0:0:0:0:
194,123,323756,2,2,P|161:70|106:98,1,135,10|0,0:0|2:0,0:0:0:0:
60,249,324056,5,8,0:0:0:0:
125,185,324206,1,2,0:0:0:0:
147,273,324356,1,2,0:0:0:0:
212,209,324506,1,0,0:0:0:0:
321,321,324656,2,0,L|371:333,5,45,10|0|0|0|0|0,0:0|0:0|0:0|0:0|0:0|0:0,0:0:0:0:
429,246,325106,2,0,L|385:256,5,45,10|0|0|0|0|0,0:0|0:0|0:0|0:0|0:0|0:0,0:0:0:0:
321,171,325556,2,0,L|364:181,3,45,10|0|0|0,0:0|0:0|0:0|0:0,0:0:0:0:
429,96,325856,5,10,0:0:0:0:
385,255,326006,1,10,0:0:0:0:
225,212,326156,2,0,B|165:182|165:182|155:115,1,135,10|0,0:0|0:0,0:0:0:0:
64,55,326456,5,6,0:3:0:0:
66,71,326531,1,0,0:3:0:0:
69,88,326606,1,8,0:3:0:0:
72,104,326681,1,0,0:3:0:0:
74,121,326756,1,8,0:3:0:0:
77,138,326831,1,0,0:3:0:0:
80,154,326906,1,8,0:3:0:0:
83,171,326981,1,0,0:3:0:0:
88,190,327056,2,0,L|96:236,3,45,12|0|0|0,0:3|0:0|0:0|0:0,0:0:0:0:
182,236,327356,2,0,L|189:191,3,45,12|0|0|0,0:3|0:0|0:0|0:0,0:0:0:0:
205,103,327656,5,12,0:3:0:0:
298,255,327806,1,8,0:0:0:0:
340,268,327881,1,8,0:0:0:0:
385,264,327956,1,8,0:0:0:0:
424,243,328031,1,8,0:0:0:0:
453,209,328106,1,8,0:0:0:0:
212,59,328256,1,8,0:0:0:0:
205,103,328331,1,8,0:0:0:0:
197,147,328406,1,8,0:0:0:0:
189,192,328481,1,8,0:0:0:0:
181,235,328556,2,4,L|174:280,1,45,4|4,0:3|0:3,0:3:0:0:
92,341,328706,2,4,L|84:296,1,45,4|4,0:3|0:3,0:3:0:0:
65,46,328856,5,4,0:3:0:0:
22,158,329006,1,8,0:0:0:0:
141,140,329156,1,4,0:3:0:0:
141,140,329231,1,4,0:3:0:0:
141,140,329306,1,8,0:0:0:0:
92,341,329456,1,4,0:3:0:0:
49,229,329606,1,8,0:0:0:0:
168,247,329756,1,4,0:3:0:0:
168,247,329831,1,4,0:3:0:0:
168,247,329906,1,8,0:0:0:0:
184,28,330056,5,4,0:3:0:0:
141,140,330206,1,8,0:0:0:0:
260,122,330356,1,4,0:3:0:0:
260,122,330431,1,4,0:3:0:0:
260,122,330506,1,8,0:0:0:0:
211,359,330656,1,4,0:3:0:0:
168,247,330806,1,8,0:0:0:0:
287,265,330956,1,4,0:3:0:0:
287,265,331031,1,4,0:3:0:0:
287,265,331106,1,8,0:0:0:0:
303,10,331256,5,4,0:3:0:0:
260,122,331406,1,8,0:0:0:0:
379,104,331556,1,4,0:3:0:0:
379,104,331631,1,4,0:3:0:0:
379,104,331706,1,8,0:0:0:0:
330,377,331856,1,4,0:3:0:0:
287,265,332006,1,8,0:0:0:0:
406,283,332156,1,4,0:3:0:0:
406,283,332231,1,4,0:3:0:0:
406,283,332306,1,8,0:0:0:0:
165,246,332456,6,2,B|111:178|111:178|140:94,1,175.499991966248,8|0,0:0|2:0,0:0:0:0:
17,0,332756,2,2,B|71:68|71:68|41:151,1,175.499991966248,8|0,0:0|2:0,0:0:0:0:
8,307,333056,2,2,P|78:256|164:245,1,175.499991966248,8|0,0:0|2:0,0:0:0:0:
295,350,333356,2,2,P|215:314|163:245,1,175.499991966248,8|0,0:0|2:0,0:0:0:0:
198,82,333656,5,8,0:0:0:0:
206,125,333731,1,8,0:0:0:0:
235,159,333806,1,8,0:0:0:0:
277,173,333881,1,4,0:3:0:0:
321,164,333956,2,4,L|382:151,1,45,4|4,0:3|0:3,0:3:0:0:
404,39,334106,2,4,L|360:48,1,45,4|4,0:3|0:3,0:3:0:0:
198,82,334256,1,4,0:3:0:0:
175,79,334331,1,0,0:0:0:0:
153,76,334406,1,0,0:0:0:0:
131,73,334481,1,0,0:0:0:0:
110,73,334556,1,8,0:0:0:0:
79,105,334631,1,8,0:0:0:0:
66,148,334706,1,0,0:0:0:0:
75,192,334781,1,0,0:0:0:0:
102,227,334856,5,6,0:0:0:0:
307,253,335006,2,0,L|197:239,1,103.500001974106,10|0,0:0|0:0,0:0:0:0:
373,177,335306,1,10,0:0:0:0:
168,151,335456,2,0,L|277:164,1,103.500001974106,2|8,0:0|0:0,0:0:0:0:
475,190,335756,1,2,0:0:0:0:
385,74,335906,1,8,0:0:0:0:
360,280,336056,5,2,0:0:0:0:
404,287,336131,1,0,0:0:0:0:
445,270,336206,1,8,0:0:0:0:
471,234,336281,1,0,0:0:0:0:
474,190,336356,1,2,0:0:0:0:
385,74,336506,1,8,0:0:0:0:
283,251,336656,2,0,B|242:285|242:285|192:294,1,103.500001974106,2|8,0:0|0:0,0:0:0:0:
33,245,336956,1,0,0:0:0:0:
210,212,337106,1,10,0:0:0:0:
0,68,337256,5,2,0:0:0:0:
177,35,337406,1,8,0:0:0:0:
117,204,337556,1,2,0:0:0:0:
294,171,337706,1,8,0:0:0:0:
150,381,337856,1,2,0:0:0:0:
117,204,338006,1,10,0:0:0:0:
117,204,338081,1,0,0:0:0:0:
117,204,338156,1,0,0:0:0:0:
286,263,338306,1,10,0:0:0:0:
177,35,338456,5,2,0:0:0:0:
117,204,338606,1,8,0:0:0:0:
339,118,338756,1,2,0:0:0:0:
202,234,338906,1,8,0:0:0:0:
469,229,339056,2,0,P|344:272|473:283,1,350.999983932496
339,118,339656,5,6,0:3:0:0:
298,86,339731,1,0,0:0:0:0:
248,75,339806,1,8,0:0:0:0:
198,86,339881,1,0,0:0:0:0:
160,120,339956,1,0,0:0:0:0:
122,130,340031,1,0,0:0:0:0:
88,113,340106,1,8,0:0:0:0:
77,77,340181,1,0,0:0:0:0:
96,44,340256,1,2,0:0:0:0:
137,74,340331,1,0,0:0:0:0:
160,120,340406,1,8,0:0:0:0:
159,171,340481,1,0,0:0:0:0:
135,217,340556,1,0,0:0:0:0:
119,267,340631,1,0,0:0:0:0:
128,318,340706,1,8,0:0:0:0:
158,358,340781,1,0,0:0:0:0:
205,382,340856,6,0,P|241:373|270:356,1,51.7500009870529,2|0,0:0|0:0,0:0:0:0:
388,285,341006,1,8,0:0:0:0:
388,285,341081,1,0,0:0:0:0:
388,285,341156,2,0,P|352:276|323:259,1,51.7500009870529,2|0,0:0|0:0,0:0:0:0:
205,188,341306,1,8,0:0:0:0:
205,188,341381,1,0,0:0:0:0:
205,188,341456,2,0,P|241:179|270:162,1,51.7500009870529,2|0,0:0|0:0,0:0:0:0:
388,91,341606,1,8,0:0:0:0:
388,91,341681,1,0,0:0:0:0:
388,91,341756,2,2,B|379:93|379:93|372:84|372:84|363:90|363:90|357:81|357:81|347:87|347:87|341:78|341:78|332:85|332:85|325:75|325:75|316:82|316:82|309:73|309:73|300:79|300:79|294:70|294:70|284:76|284:76|270:66|270:66|261:72|261:72|254:67,1,182.250000695229,2|0,0:0|2:0,0:0:0:0:
104,44,342056,5,6,0:0:0:0:
107,61,342131,1,0,0:0:0:0:
111,79,342206,1,0,0:0:0:0:
115,96,342281,1,0,0:0:0:0:
120,116,342356,2,0,L|184:128,1,53.9999983520508
352,152,342506,1,6,0:0:0:0:
349,169,342581,1,0,0:0:0:0:
345,187,342656,1,0,0:0:0:0:
341,204,342731,1,0,0:0:0:0:
336,224,342806,2,0,L|272:236,1,53.9999983520508
104,260,342956,1,0,0:0:0:0:
107,277,343031,1,0,0:0:0:0:
111,295,343106,1,0,0:0:0:0:
115,312,343181,1,0,0:0:0:0:
120,332,343256,6,0,L|226:350,1,107.999996704102,6|0,0:0|0:0,0:0:0:0:
475,350,343556,1,10,0:3:0:0:
232,169,343706,1,8,0:3:0:0:
469,169,343856,1,10,0:3:0:0:
226,350,344006,1,8,0:3:0:0:
351,135,344156,1,10,0:3:0:0:
475,350,344306,1,8,0:3:0:0:
221,259,344456,6,2,B|155:266|134:336|134:336|116:389|43:403|-6:341|23:284,1,323.999990112305,6|8,0:0|0:0,0:0:0:0:
64,41,345056,1,2,0:0:0:0:
81,91,345131,1,0,0:0:0:0:
123,124,345206,1,8,0:0:0:0:
176,132,345281,1,0,0:0:0:0:
224,110,345356,1,0,0:0:0:0:
272,88,345431,1,0,0:0:0:0:
325,96,345506,1,8,0:0:0:0:
367,129,345581,1,0,0:0:0:0:
385,180,345656,5,2,0:0:0:0:
356,207,345731,1,0,0:0:0:0:
344,246,345806,1,8,0:0:0:0:
354,284,345881,1,0,0:0:0:0:
382,313,345956,1,2,0:0:0:0:
410,285,346031,1,0,0:0:0:0:
422,246,346106,1,8,0:0:0:0:
412,208,346181,1,0,0:0:0:0:
385,180,346256,5,2,0:0:0:0:
393,155,346331,1,0,0:0:0:0:
402,130,346406,1,8,0:0:0:0:
216,264,346556,2,2,L|198:212,1,53.9999983520508,2|0,0:0|0:0,0:0:0:0:
153,90,346706,2,2,L|170:141,1,53.9999983520508,10|0,0:0|0:0,0:0:0:0:
245,334,346856,5,2,0:0:0:0:
94,212,347006,1,8,0:0:0:0:
275,142,347156,1,0,0:0:0:0:
124,20,347306,1,8,0:0:0:0:
198,212,347456,1,2,0:0:0:0:
390,138,347606,1,8,0:0:0:0:
245,334,347756,1,0,0:0:0:0:
437,260,347906,1,8,0:0:0:0:
171,142,348056,5,2,0:0:0:0:
245,334,348206,1,8,0:0:0:0:
304,201,348356,1,0,0:0:0:0:
112,275,348506,1,8,0:0:0:0:
230,9,348656,2,0,L|269:110,1,107.999996704102,2|8,0:0|0:0,0:0:0:0:
46,312,348956,2,2,P|43:246|91:202,1,135.000005149842,2|8,0:0|0:0,0:0:0:0:
366,350,349256,5,2,0:0:0:0:
325,344,349331,1,0,0:0:0:0:
285,339,349406,1,8,0:0:0:0:
245,334,349481,1,0,0:0:0:0:
205,329,349556,2,0,L|147:320,1,53.9999983520508
289,239,349706,2,0,L|342:230,1,53.9999983520508,8|0,0:0|0:0,0:0:0:0:
205,149,349856,1,2,0:0:0:0:
165,125,349931,1,0,0:0:0:0:
149,81,350006,1,8,0:0:0:0:
164,38,350081,1,0,0:0:0:0:
203,13,350156,2,0,P|229:22|251:39,1,53.9999983520508
330,125,350306,2,0,P|356:116|378:99,1,53.9999983520508,8|0,0:0|0:0,0:0:0:0:
455,14,350456,5,2,0:0:0:0:
463,67,350531,1,0,0:0:0:0:
471,120,350606,1,8,0:0:0:0:
479,174,350681,1,0,0:0:0:0:
488,227,350756,2,0,L|497:285,1,53.9999983520508
377,99,350906,2,0,L|377:27,1,53.9999983520508,8|0,0:0|0:0,0:0:0:0:
266,227,351056,1,2,0:0:0:0:
222,268,351131,1,0,0:0:0:0:
164,283,351206,1,8,0:0:0:0:
106,269,351281,1,0,0:0:0:0:
62,227,351356,1,0,0:0:0:0:
116,204,351431,1,0,0:0:0:0:
153,155,351506,1,8,0:0:0:0:
376,45,351656,5,10,0:3:0:0:
396,80,351731,1,0,0:0:0:0:
416,115,351806,1,0,0:0:0:0:
436,150,351881,1,2,0:0:0:0:
415,185,351956,1,0,0:0:0:0:
395,220,352031,1,0,0:0:0:0:
375,255,352106,1,10,0:3:0:0:
413,257,352181,1,0,0:0:0:0:
451,246,352256,1,0,0:0:0:0:
481,222,352331,1,0,0:0:0:0:
502,189,352406,1,0,0:0:0:0:
509,150,352481,1,0,0:0:0:0:
502,112,352556,1,0,0:0:0:0:
482,79,352631,1,0,0:0:0:0:
452,55,352706,1,0,0:0:0:0:
415,43,352781,1,0,0:0:0:0:
376,45,352856,5,10,0:3:0:0:
346,82,352931,1,0,0:0:0:0:
304,102,353006,1,0,0:0:0:0:
257,103,353081,1,0,0:0:0:0:
214,83,353156,1,0,0:0:0:0:
172,63,353231,1,0,0:0:0:0:
125,63,353306,1,8,0:3:0:0:
83,84,353381,1,0,0:0:0:0:
54,121,353456,1,0,0:0:0:0:
90,150,353531,1,0,0:0:0:0:
111,192,353606,1,0,0:0:0:0:
111,239,353681,1,0,0:0:0:0:
92,280,353756,2,0,L|64:326,1,53.9999983520508
256,184,353906,2,0,L|256:238,1,53.9999983520508
420,281,354056,5,6,0:0:0:0:
257,103,354206,2,0,P|205:120|177:171,1,112.5,10|0,0:0|0:0,0:0:0:0:
256,360,354506,1,10,0:0:0:0:
256,184,354656,1,2,0:0:0:0:
80,361,354806,1,8,0:0:0:0:
256,272,354956,1,2,0:0:0:0:
80,185,355106,1,8,0:0:0:0:
167,9,355256,5,2,0:0:0:0:
256,184,355406,1,8,0:0:0:0:
256,184,355481,1,0,0:0:0:0:
256,184,355556,1,2,0:0:0:0:
431,96,355706,1,8,0:0:0:0:
370,282,355856,1,2,0:0:0:0:
184,221,356006,1,8,0:0:0:0:
442,245,356156,1,2,0:0:0:0:
256,184,356306,1,8,0:0:0:0:
512,60,356456,5,2,0:0:0:0:
487,93,356531,1,0,0:0:0:0:
450,107,356606,1,8,0:0:0:0:
409,100,356681,1,0,0:0:0:0:
379,69,356756,1,2,0:0:0:0:
332,71,356831,1,0,0:0:0:0:
296,102,356906,1,8,0:0:0:0:
281,147,356981,1,0,0:0:0:0:
295,194,357056,1,2,0:0:0:0:
264,238,357131,1,0,0:0:0:0:
215,258,357206,1,8,0:0:0:0:
162,248,357281,1,0,0:0:0:0:
127,209,357356,1,2,0:0:0:0:
65,213,357431,1,0,0:0:0:0:
18,251,357506,1,8,0:0:0:0:
0,308,357581,1,0,0:0:0:0:
24,368,357656,6,0,L|104:380,1,56.25,2|0,0:0|0:0,0:0:0:0:
270,249,357806,2,0,L|190:261,1,56.25,10|0,0:0|0:0,0:0:0:0:
24,130,357956,2,0,L|104:142,1,56.25,2|0,0:0|0:0,0:0:0:0:
270,11,358106,1,8,0:0:0:0:
270,11,358181,1,0,0:0:0:0:
270,11,358256,6,0,L|282:91,1,56.25,2|0,0:0|0:0,0:0:0:0:
344,284,358406,2,0,L|356:204,1,56.25,10|0,0:0|0:0,0:0:0:0:
418,11,358556,2,0,L|430:91,1,56.25,2|0,0:0|0:0,0:0:0:0:
492,284,358706,1,8,0:0:0:0:
492,284,358781,1,0,0:0:0:0:
492,284,358856,6,0,L|412:272,1,56.25,2|0,0:0|0:0,0:0:0:0:
204,227,359006,2,0,L|284:239,1,56.25,8|0,0:0|0:0,0:0:0:0:
472,184,359156,2,0,L|392:172,1,56.25
184,127,359306,2,0,L|264:139,1,56.25,8|0,0:0|0:0,0:0:0:0:
416,24,359456,6,0,L|403:104,1,56.25,2|0,0:0|0:0,0:0:0:0:
359,312,359606,2,0,L|371:232,1,56.25,8|0,0:0|0:0,0:0:0:0:
308,2,359756,2,0,L|295:82,1,56.25
251,290,359906,2,0,L|263:210,1,56.25,8|0,0:0|0:0,0:0:0:0:
190,35,360056,5,2,0:0:0:0:
406,79,360206,1,8,0:0:0:0:
151,212,360356,1,2,0:0:0:0:
367,256,360506,1,8,0:0:0:0:
298,57,360656,1,2,0:0:0:0:
259,234,360806,1,8,0:0:0:0:
167,122,360956,1,2,0:0:0:0:
390,168,361106,1,8,0:0:0:0:
240,336,361256,6,0,L|171:317,1,56.25,2|0,0:0|0:0,0:0:0:0:
49,202,361406,1,8,0:0:0:0:
64,217,361481,1,0,0:0:0:0:
83,236,361556,2,0,L|152:217,1,56.25,2|0,0:0|0:0,0:0:0:0:
334,249,361706,2,0,L|265:230,1,56.25,10|0,0:0|0:0,0:0:0:0:
143,116,361856,1,0,0:0:0:0:
158,131,361931,1,0,0:0:0:0:
176,150,362006,2,0,L|245:131,1,56.25,10|0,0:0|0:0,0:0:0:0:
428,162,362156,2,0,L|359:143,1,56.25,2|0,0:0|0:0,0:0:0:0:
238,33,362306,1,8,0:0:0:0:
253,48,362381,1,0,0:0:0:0:
270,66,362456,5,10,0:0:0:0:
306,33,362531,1,0,0:0:0:0:
353,21,362606,1,4,0:3:0:0:
400,34,362681,1,0,0:0:0:0:
435,68,362756,1,4,0:3:0:0:
419,114,362831,1,0,0:0:0:0:
428,162,362906,1,4,0:3:0:0:
458,200,362981,1,0,0:0:0:0:
504,220,363056,1,4,0:3:0:0:
270,66,363206,1,4,0:3:0:0:
254,346,363356,2,0,L|294:290,1,56.25,8|0,0:0|0:0,0:0:0:0:
419,114,363506,2,0,L|363:108,1,56.25,8|0,0:0|0:0,0:0:0:0:
136,88,363656,6,0,L|161:142,1,58.4999973220826,6|0,0:0|0:0,0:0:0:0:
353,299,363806,1,8,0:0:0:0:
338,258,363881,1,0,0:0:0:0:
304,235,363956,2,0,L|246:227,1,58.4999973220826,2|0,0:0|0:0,0:0:0:0:
12,317,364106,1,8,0:0:0:0:
55,325,364181,1,0,0:0:0:0:
92,306,364256,2,0,L|127:257,1,58.4999973220826,2|0,0:0|0:0,0:0:0:0:
167,14,364406,1,8,0:0:0:0:
138,47,364481,1,0,0:0:0:0:
136,88,364556,2,0,L|159:142,1,58.4999973220826,2|0,0:0|0:0,0:0:0:0:
353,299,364706,1,8,0:0:0:0:
396,307,364781,1,0,0:0:0:0:
432,288,364856,5,2,0:0:0:0:
276,111,365006,1,8,0:0:0:0:
247,144,365081,1,0,0:0:0:0:
246,184,365156,1,2,0:0:0:0:
477,138,365306,1,8,0:0:0:0:
463,96,365381,1,0,0:0:0:0:
429,75,365456,1,2,0:0:0:0:
173,190,365606,1,8,0:0:0:0:
187,232,365681,1,0,0:0:0:0:
221,253,365756,1,2,0:0:0:0:
327,41,365906,1,8,0:0:0:0:
437,168,366056,5,2,0:0:0:0:
200,150,366206,2,0,P|146:129|97:98,1,116.999994644165,10|0,0:0|0:0,0:0:0:0:
327,41,366506,1,8,0:0:0:0:
310,277,366656,1,2,0:0:0:0:
390,97,366806,1,8,0:0:0:0:
247,221,366956,1,2,0:0:0:0:
437,168,367106,1,8,0:0:0:0:
211,34,367256,5,2,0:0:0:0:
162,292,367406,2,0,P|123:335|77:371,1,116.999994644165,10|0,0:0|0:0,0:0:0:0:
57,138,367706,1,8,0:0:0:0:
315,187,367856,1,2,0:0:0:0:
112,54,368006,1,8,0:0:0:0:
260,271,368156,2,0,P|312:293|369:306,1,116.999994644165,2|0,0:0|0:0,0:0:0:0:
472,96,368456,6,0,L|489:211,1,116.999994644165,6|8,0:0|0:0,0:0:0:0:
512,362,368756,1,0,0:0:0:0:
262,211,368906,2,2,B|375:263|375:175|488:211,1,233.999989288331,10|8,0:0|0:0,0:0:0:0:
326,123,369356,1,2,0:0:0:0:
198,297,369506,1,8,0:0:0:0:
111,99,369656,6,0,P|73:76|-1:59,1,116.999994644165,2|8,0:0|0:0,0:0:0:0:
2,324,369956,2,0,P|60:313|111:284,1,116.999994644165,2|8,0:0|0:0,0:0:0:0:
256,99,370256,1,2,0:0:0:0:
72,192,370406,1,8,0:0:0:0:
256,285,370556,2,0,P|306:313|364:324,1,116.999994644165,2|0,0:0|0:0,0:0:0:0:
489,52,370856,6,0,L|429:88,1,58.4999973220826,10|0,0:3|0:0,0:0:0:0:
369,128,371006,1,8,0:3:0:0:
340,120,371081,1,0,0:0:0:0:
312,113,371156,1,0,0:0:0:0:
284,106,371231,1,0,0:0:0:0:
255,98,371306,2,0,L|195:134,1,58.4999973220826,10|0,0:3|0:0,0:0:0:0:
135,174,371456,1,8,0:3:0:0:
106,166,371531,1,0,0:0:0:0:
78,159,371606,1,0,0:0:0:0:
50,152,371681,1,0,0:0:0:0:
20,143,371756,2,0,L|71:113,1,58.4999973220826,10|0,0:3|0:0,0:0:0:0:
255,98,371906,2,0,L|204:128,1,58.4999973220826
33,244,372056,5,10,0:0:0:0:
33,301,372131,1,0,0:0:0:0:
74,341,372206,1,0,0:0:0:0:
131,340,372281,1,0,0:0:0:0:
170,298,372356,1,10,0:0:0:0:
132,263,372431,1,0,0:0:0:0:
131,211,372506,1,0,0:0:0:0:
167,175,372581,1,0,0:0:0:0:
219,175,372656,1,10,0:0:0:0:
219,220,372731,1,0,0:0:0:0:
251,252,372806,1,0,0:0:0:0:
297,251,372881,1,0,0:0:0:0:
328,218,372956,1,10,0:0:0:0:
298,190,373031,1,0,0:0:0:0:
297,150,373106,1,0,0:0:0:0:
325,122,373181,1,0,0:0:0:0:
365,122,373256,5,6,0:0:0:0:
469,305,373406,2,0,L|362:285,1,107.999996704102,10|0,0:0|0:0,0:0:0:0:
258,102,373706,1,8,0:0:0:0:
471,141,373856,1,2,0:0:0:0:
384,15,374006,1,8,0:0:0:0:
302,165,374156,1,2,0:0:0:0:
214,39,374306,1,8,0:0:0:0:
151,272,374456,6,2,B|165:243|193:246|193:246|186:211|213:202|213:202|193:172|213:153|213:153|181:134|191:108|191:108|156:103|152:77|152:77,1,270.000010299683,2|0,0:0|0:0,0:0:0:0:
100,178,374906,1,8,0:0:0:0:
261,328,375056,2,0,P|310:308|341:265,1,107.999996704102,2|8,0:0|0:0,0:0:0:0:
384,15,375356,2,0,P|334:34|303:77,1,107.999996704102,2|8,0:0|0:0,0:0:0:0:
449,336,375656,6,0,L|421:231,1,107.999996704102,6|8,0:0|0:0,0:0:0:0:
388,102,375956,1,0,0:0:0:0:
239,311,376106,2,0,L|267:206,1,107.999996704102,10|0,0:0|0:0,0:0:0:0:
303,77,376406,1,8,0:0:0:0:
69,184,376556,2,0,L|145:107,1,107.999996704102,2|8,0:0|0:0,0:0:0:0:
366,316,376856,6,2,B|349:286|316:293|316:293|283:301|267:271|267:271|250:242|217:249|217:249|184:257|168:227|168:227|151:198|118:205|118:205|88:207|69:183,1,350.999983932496,2|8,0:0|0:0,0:0:0:0:
303,77,377456,2,0,L|399:124,1,107.999996704102,2|8,0:0|0:0,0:0:0:0:
400,0,377756,1,2,0:0:0:0:
303,203,377906,1,8,0:0:0:0:
111,108,378056,6,0,L|207:155,1,107.999996704102,6|8,0:0|0:0,0:0:0:0:
399,250,378356,1,0,0:0:0:0:
265,65,378506,2,0,P|313:157|263:247,1,215.999993408203,10|8,0:0|0:0,0:0:0:0:
7,109,378956,2,0,P|58:95|110:107,1,107.999996704102,2|8,0:0|0:0,0:0:0:0:
473,247,379256,6,2,B|369:283|369:211|261:247,1,215.999993408203,2|0,0:0|0:0,0:0:0:0:
8,360,379706,2,2,P|105:321|128:216,1,215.999993408203,10|8,0:0|0:0,0:0:0:0:
196,20,380156,2,0,P|195:73|220:120,1,107.999996704102,2|0,0:0|0:0,0:0:0:0:
471,248,380456,6,0,P|489:223|493:195,1,53.9999983520508,2|0,0:0|0:0,0:0:0:0:
494,106,380606,2,0,P|488:79|472:57,1,53.9999983520508,8|0,0:0|0:0,0:0:0:0:
341,21,380756,2,0,P|358:46|362:74,1,53.9999983520508,2|0,0:0|0:0,0:0:0:0:
363,163,380906,2,0,P|357:189|341:211,1,53.9999983520508,8|0,0:0|0:0,0:0:0:0:
219,311,381056,2,0,P|236:285|240:257,1,53.9999983520508,2|0,0:0|0:0,0:0:0:0:
241,168,381206,2,0,P|235:141|219:119,1,53.9999983520508,8|0,0:0|0:0,0:0:0:0:
88,83,381356,2,0,P|105:108|109:136,1,53.9999983520508,2|0,0:0|0:0,0:0:0:0:
110,225,381506,2,0,P|104:251|88:273,1,53.9999983520508,8|0,0:0|0:0,0:0:0:0:
15,100,381656,5,6,0:0:0:0:
18,54,381731,1,0,0:0:0:0:
50,20,381806,2,0,P|94:11|131:28,1,62.9999980773926
351,207,381956,1,6,0:0:0:0:
313,225,382031,1,0,0:0:0:0:
273,215,382106,2,0,P|251:195|241:168,1,58.4999973220826
456,26,382256,1,6,0:0:0:0:
454,66,382331,1,0,0:0:0:0:
452,106,382406,2,0,L|447:175,1,53.9999983520508
280,332,382556,1,6,0:0:0:0:
278,298,382631,1,0,0:0:0:0:
276,264,382706,2,0,L|272:205,1,49.5000015106202
373,1,382856,5,6,0:0:0:0:
369,59,382931,1,0,0:0:0:0:
366,117,383006,1,8,0:0:0:0:
363,176,383081,1,0,0:0:0:0:
359,234,383156,1,0,0:0:0:0:
401,272,383231,1,0,0:0:0:0:
456,259,383306,1,8,0:0:0:0:
478,207,383381,1,0,0:0:0:0:
448,159,383456,6,0,L|390:151,1,58.4999973220826,2|0,0:0|0:0,0:0:0:0:
218,256,383606,2,0,L|276:264,1,58.4999973220826,10|0,0:0|0:0,0:0:0:0:
369,59,383756,2,0,L|311:51,1,58.4999973220826,2|0,0:0|0:0,0:0:0:0:
139,156,383906,2,0,L|197:164,1,58.4999973220826,10|0,0:0|0:0,0:0:0:0:
159,20,384056,5,2,0:0:0:0:
94,25,384131,1,0,0:0:0:0:
39,61,384206,1,8,0:0:0:0:
6,117,384281,1,0,0:0:0:0:
3,182,384356,1,0,0:0:0:0:
67,187,384431,1,0,0:0:0:0:
122,223,384506,1,8,0:0:0:0:
155,279,384581,1,0,0:0:0:0:
158,344,384656,6,0,L|100:352,1,58.4999973220826,2|0,0:0|0:0,0:0:0:0:
139,156,384806,2,0,L|197:164,1,58.4999973220826,10|0,0:0|0:0,0:0:0:0:
354,344,384956,2,0,L|412:352,1,58.4999973220826,2|0,0:0|0:0,0:0:0:0:
373,156,385106,2,0,L|315:164,1,58.4999973220826,10|0,0:0|0:0,0:0:0:0:
67,187,385256,5,2,0:0:0:0:
256,84,385406,1,8,0:0:0:0:
256,300,385556,1,0,0:0:0:0:
445,187,385706,1,8,0:0:0:0:
256,8,385856,1,2,0:0:0:0:
256,224,386006,1,8,0:0:0:0:
127,116,386156,1,2,0:0:0:0:
386,116,386306,1,8,0:0:0:0:
255,375,386456,6,0,P|218:299|256:223,2,175.499991966248,2|2|10,0:0|0:0|0:0,0:0:0:0:
426,300,387056,2,2,B|410:307|395:300|395:300|379:292|364:300|364:300|349:307|333:300|333:300|318:292|303:300|303:300|287:307|272:300|272:300|257:292|241:300|241:300|226:307|210:300|210:300|195:292|180:300|180:300|164:307|149:300|149:300|134:292|118:300|118:300|103:307|88:300,1,350.999983932496,2|8,0:0|0:0,0:0:0:0:
12,109,387656,5,6,0:0:0:0:
64,70,387731,1,0,0:0:0:0:
127,71,387806,1,8,0:0:0:0:
172,118,387881,1,0,0:0:0:0:
179,182,387956,1,0,0:0:0:0:
202,234,388031,1,0,0:0:0:0:
255,255,388106,1,8,0:0:0:0:
308,234,388181,1,0,0:0:0:0:
332,182,388256,1,0,0:0:0:0:
339,118,388331,1,0,0:0:0:0:
384,71,388406,1,8,0:0:0:0:
448,70,388481,1,0,0:0:0:0:
499,109,388556,1,2,0:0:0:0:
491,180,388631,1,0,0:0:0:0:
445,236,388706,1,8,0:0:0:0:
376,256,388781,1,0,0:0:0:0:
308,234,388856,6,0,P|273:212|257:197,1,58.4999973220826,10|0,0:0|0:0,0:0:0:0:
22,235,389006,2,0,P|57:212|73:197,1,58.4999973220826,10|0,0:0|0:0,0:0:0:0:
290,81,389156,1,10,0:0:0:0:
237,42,389231,1,8,0:0:0:0:
173,28,389306,1,4,0:3:0:0:
109,42,389381,1,4,0:3:0:0:
56,80,389456,1,10,0:0:0:0:
173,303,389606,1,8,0:0:0:0:
173,28,389756,1,10,0:0:0:0:
173,28,389831,1,4,0:3:0:0:
173,28,389906,1,4,0:3:0:0:
411,165,390056,6,0,P|454:152|492:122,1,90,10|0,0:0|2:0,2:0:0:0:
267,54,390356,2,0,L|302:106,1,62.9999980773926,0|0,2:0|2:0,2:0:0:0:
269,282,390656,2,0,L|305:230,1,62.9999980773926,0|0,2:0|2:0,2:0:0:0:
504,164,390956,2,0,L|410:164,1,94.499997116089,0|0,2:0|2:0,0:0:0:0:
306,231,391256,6,0,L|381:238,1,53.9999983520508,10|0,0:0|2:0,0:0:0:0:
471,294,391456,2,0,L|439:225,1,53.9999983520508,0|0,2:0|2:0,2:0:0:0:
441,120,391656,2,0,L|397:181,1,53.9999983520508,0|0,2:0|2:0,2:0:0:0:
250,320,391856,2,0,L|310:326,1,60,0|0,2:0|2:0,2:0:0:0:
197,214,392056,2,0,L|138:209,1,60,0|0,2:0|2:0,2:0:0:0:
25,97,392256,2,0,L|84:102,1,60,0|0,2:0|2:0,2:0:0:0:
304,223,392456,6,0,L|196:213,1,107.999996704102,6|0,0:0|0:0,0:0:0:0:
61,200,392756,1,0,0:0:0:0:
284,310,392906,2,8,P|378:273|377:171,1,215.999993408203
200,78,393356,1,2,0:0:0:0:
304,222,393506,1,8,0:0:0:0:
448,118,393656,6,0,L|458:10,1,107.999996704102,2|8,0:0|0:0,0:0:0:0:
348,60,393956,1,0,0:0:0:0:
448,204,394106,2,2,B|461:310|461:310|373:372,1,215.999993408203,10|8,0:0|0:0,0:0:0:0:
168,260,394556,1,2,0:0:0:0:
344,260,394706,1,8,0:0:0:0:
138,372,394856,6,0,B|50:310|50:310|64:204,1,215.999993408203,2|0,0:0|0:0,0:0:0:0:
194,45,395306,2,0,L|167:259,1,215.999993408203,8|8,0:0|0:0,0:0:0:0:
96,90,395756,1,2,0:0:0:0:
282,112,395906,1,8,0:0:0:0:
167,259,396056,6,2,B|133:259|132:332|237:367|274:277|265:207|411:256,1,323.999990112305,2|8,0:0|0:0,0:0:0:0:
185,378,396656,2,0,P|129:360|92:314,1,107.999996704102,0|8,0:0|0:0,0:0:0:0:
103,124,396956,1,2,0:0:0:0:
167,259,397106,1,8,0:0:0:0:
173,58,397256,6,0,P|136:19|85:5,1,107.999996704102,2|8,0:0|0:0,0:0:0:0:
0,78,397556,1,0,0:0:0:0:
258,188,397706,2,0,P|309:175|348:138,1,107.999996704102,10|0,0:0|0:0,0:0:0:0:
327,28,398006,1,8,0:0:0:0:
103,196,398156,2,0,P|87:247|100:299,1,107.999996704102,2|8,0:0|0:0,0:0:0:0:
338,358,398456,5,2,0:0:0:0:
345,325,398531,1,0,0:0:0:0:
340,291,398606,1,8,0:0:0:0:
324,262,398681,1,0,0:0:0:0:
299,239,398756,1,0,0:0:0:0:
274,217,398831,1,0,0:0:0:0:
257,188,398906,1,8,0:0:0:0:
253,154,398981,1,0,0:0:0:0:
261,121,399056,1,2,0:0:0:0:
300,128,399131,1,0,0:0:0:0:
335,109,399206,1,8,0:0:0:0:
351,73,399281,1,0,0:0:0:0:
342,35,399356,1,0,0:0:0:0:
310,10,399431,1,0,0:0:0:0:
271,10,399506,1,8,0:0:0:0:
239,35,399581,1,0,0:0:0:0:
230,74,399656,5,2,0:0:0:0:
434,75,399806,1,8,0:0:0:0:
330,250,399956,1,0,0:0:0:0:
128,74,400106,1,10,0:0:0:0:
229,249,400256,1,2,0:0:0:0:
331,74,400406,1,8,0:0:0:0:
127,250,400556,1,2,0:0:0:0:
330,250,400706,1,8,0:0:0:0:
128,162,400856,5,10,0:0:0:0:
76,176,400931,1,0,0:0:0:0:
42,216,401006,1,0,0:0:0:0:
38,269,401081,1,0,0:0:0:0:
66,315,401156,2,8,L|136:342,1,53.9999983520508,8|8,0:3|0:3,0:3:0:0:
203,255,401306,2,8,L|253:274,1,53.9999983520508,8|8,0:3|0:3,0:3:0:0:
370,317,401456,1,10,0:0:0:0:
421,302,401531,1,0,0:0:0:0:
455,262,401606,1,0,0:0:0:0:
459,209,401681,1,0,0:0:0:0:
431,163,401756,2,4,L|361:136,1,53.9999983520508,4|4,0:3|0:3,0:3:0:0:
368,33,401906,2,4,L|418:52,1,53.9999983520508,4|4,0:3|0:3,0:3:0:0:
372,227,402056,5,2,0:0:0:0:
321,248,402131,1,0,0:0:0:0:
266,240,402206,1,8,0:0:0:0:
223,205,402281,1,0,0:0:0:0:
204,153,402356,1,0,0:0:0:0:
215,99,402431,1,0,0:0:0:0:
252,57,402506,1,10,0:0:0:0:
290,99,402581,1,0,0:0:0:0:
301,153,402656,1,0,0:0:0:0:
282,205,402731,1,0,0:0:0:0:
239,240,402806,1,8,0:0:0:0:
184,248,402881,1,0,0:0:0:0:
133,227,402956,1,0,0:0:0:0:
78,224,403031,1,0,0:0:0:0:
29,250,403106,1,8,0:0:0:0:
0,298,403181,1,0,0:0:0:0:
1,354,403256,6,0,L|54:371,1,56.25,2|0,0:0|0:0,0:0:0:0:
256,300,403406,2,0,L|203:283,1,56.25,8|0,0:0|0:0,0:0:0:0:
76,111,403556,2,0,L|129:128,1,56.25,2|0,0:0|0:0,0:0:0:0:
331,57,403706,2,0,L|278:40,1,56.25,8|0,0:0|0:0,0:0:0:0:
2,57,403856,2,0,L|55:40,1,56.25,2|0,0:0|0:0,0:0:0:0:
257,111,404006,2,0,L|204:128,1,56.25,8|0,0:0|0:0,0:0:0:0:
77,300,404156,2,0,L|130:283,1,56.25,2|0,0:0|0:0,0:0:0:0:
332,354,404306,2,0,L|279:371,1,56.25,8|0,0:0|0:0,0:0:0:0:
12,221,404456,5,2,0:0:0:0:
70,198,404531,1,0,0:0:0:0:
133,190,404606,1,8,0:0:0:0:
195,198,404681,1,0,0:0:0:0:
254,222,404756,1,0,0:0:0:0:
315,236,404831,1,0,0:0:0:0:
368,207,404906,1,8,0:0:0:0:
388,149,404981,1,0,0:0:0:0:
364,92,405056,1,2,0:0:0:0:
310,121,405131,1,0,0:0:0:0:
291,180,405206,1,8,0:0:0:0:
315,236,405281,1,0,0:0:0:0:
373,261,405356,1,0,0:0:0:0:
369,325,405431,1,0,0:0:0:0:
324,367,405506,1,8,0:0:0:0:
263,369,405581,1,0,0:0:0:0:
218,329,405656,5,2,0:0:0:0:
173,369,405731,1,0,0:0:0:0:
112,367,405806,1,8,0:0:0:0:
67,325,405881,1,0,0:0:0:0:
63,261,405956,2,0,L|75:205,1,56.25,2|0,0:0|0:0,0:0:0:0:
160,9,406106,2,0,L|171:64,1,56.25,8|0,0:0|0:0,0:0:0:0:
218,329,406256,2,0,L|230:273,1,56.25,2|0,0:0|0:0,0:0:0:0:
315,77,406406,2,0,L|326:132,1,56.25,8|0,0:0|0:0,0:0:0:0:
140,154,406556,2,0,L|196:166,1,56.25,2|0,0:0|0:0,0:0:0:0:
392,251,406706,2,0,L|337:262,1,56.25,8|0,0:0|0:0,0:0:0:0:
67,325,406856,6,0,L|122:314,1,56.25,2|0,0:0|0:0,0:0:0:0:
183,110,407006,1,8,0:0:0:0:
183,110,407081,1,0,0:0:0:0:
183,110,407156,2,0,L|194:165,1,56.25,2|0,0:0|0:0,0:0:0:0:
218,329,407306,2,0,L|273:318,1,56.25,10|0,0:0|0:0,0:0:0:0:
334,114,407456,1,0,0:0:0:0:
334,114,407531,1,0,0:0:0:0:
334,114,407606,2,0,L|345:169,1,56.25,10|0,0:0|0:0,0:0:0:0:
369,333,407756,2,0,L|424:322,1,56.25,2|0,0:0|0:0,0:0:0:0:
485,118,407906,1,8,0:0:0:0:
485,118,407981,1,0,0:0:0:0:
485,118,408056,5,2,0:0:0:0:
487,179,408131,1,0,0:0:0:0:
443,222,408206,1,8,0:0:0:0:
382,217,408281,1,0,0:0:0:0:
345,169,408356,1,0,0:0:0:0:
368,112,408431,1,0,0:0:0:0:
341,57,408506,1,8,0:0:0:0:
282,41,408581,1,0,0:0:0:0:
231,74,408656,1,0,0:0:0:0:
240,129,408731,1,0,0:0:0:0:
249,184,408806,1,8,0:0:0:0:
258,240,408881,1,0,0:0:0:0:
267,295,408956,1,0,0:0:0:0:
217,329,409031,1,0,0:0:0:0:
158,313,409106,1,8,0:0:0:0:
131,258,409181,1,0,0:0:0:0:
154,201,409256,5,6,0:3:0:0:
485,118,409406,1,0,0:0:0:0:
487,179,409481,1,0,0:0:0:0:
443,222,409556,1,6,0:3:0:0:
231,74,409706,1,0,0:0:0:0:
217,329,409856,1,6,0:3:0:0:
96,194,410006,1,0,0:0:0:0:
351,208,410156,1,4,0:3:0:0:
128,94,410306,1,0,0:0:0:0:
319,308,410456,6,0,L|380:285,1,58.4999973220826,10|0,0:0|0:0,0:0:0:0:
485,118,410606,2,0,L|430:138,1,58.4999973220826,4|0,0:3|0:0,0:0:0:0:
194,232,410756,2,0,L|255:209,1,58.4999973220826,12|0,0:3|0:0,0:0:0:0:
360,42,410906,2,0,L|305:62,1,58.4999973220826,4|0,0:3|0:0,0:0:0:0:
145,300,411056,6,0,P|175:314|220:311,1,58.4999973220826,14|0,0:3|0:0,0:0:0:0:
425,224,411206,2,0,P|395:210|350:213,1,58.4999973220826,4|0,0:3|0:0,0:0:0:0:
80,118,411356,2,0,P|110:132|155:129,1,58.4999973220826,12|0,0:3|0:0,0:0:0:0:
360,42,411506,2,0,P|330:28|285:31,1,58.4999973220826,4|0,0:3|0:0,0:0:0:0:
136,218,411656,6,8,P|186:202|219:129,1,116.999994644165,6|0,0:0|0:0,0:0:0:0:
19,18,411956,1,0,0:0:0:0:
19,18,412031,1,0,0:0:0:0:
19,18,412106,2,0,L|44:134,1,116.999994644165,10|0,0:0|0:0,0:0:0:0:
88,307,412406,1,8,0:0:0:0:
242,34,412556,2,0,L|217:150,1,116.999994644165,2|8,0:0|0:0,0:0:0:0:
425,344,412856,6,0,B|363:283|363:283|274:283,2,175.499991966248,2|2|10,0:0|0:0|0:0,0:0:0:0:
242,363,413456,2,0,P|195:317|192:261,1,116.999994644165,2|0,0:0|0:0,0:0:0:0:
331,191,413681,2,0,P|314:254|267:285,1,116.999994644165,2|0,0:0|0:0,0:0:0:0:
137,201,413906,1,10,0:0:0:0:
315,25,414056,5,6,0:3:0:0:
303,89,414131,1,0,0:3:0:0:
294,153,414206,1,4,0:3:0:0:
284,219,414281,1,0,0:3:0:0:
275,283,414356,1,8,0:0:0:0:
326,323,414431,1,8,0:0:0:0:
384,298,414506,1,4,0:3:0:0:
394,235,414581,1,0,0:0:0:0:
344,195,414656,1,4,0:3:0:0:
284,219,414731,1,0,0:0:0:0:
233,179,414806,1,8,0:0:0:0:
242,115,414881,1,4,0:3:0:0:
303,89,414956,2,0,L|374:98,1,58.4999973220826,8|0,0:3|0:0,0:0:0:0:
442,305,415106,2,0,L|383:297,1,58.4999973220826,8|8,0:0|0:0,0:0:0:0:
85,255,415256,5,6,0:3:0:0:
456,192,415406,1,4,0:3:0:0:
216,32,415556,1,10,0:0:0:0:
219,50,415631,1,8,0:0:0:0:
222,68,415706,1,4,0:3:0:0:
71,329,415856,1,6,0:3:0:0:
18,292,415931,1,0,0:0:0:0:
13,228,416006,1,8,0:0:0:0:
58,183,416081,1,8,0:0:0:0:
121,189,416156,1,10,0:3:0:0:
191,201,416231,1,8,0:3:0:0:
249,159,416306,1,8,0:0:0:0:
259,88,416381,1,8,0:0:0:0:
216,32,416456,6,0,L|94:20,1,112.5,4|8,0:0|0:0,0:0:0:0:
333,160,416756,1,0,0:0:0:0:
104,297,416906,2,0,L|216:286,1,112.5,8|0,0:0|0:0,0:0:0:0:
469,160,417206,1,8,0:0:0:0:
249,159,417356,1,0,0:0:0:0:
359,351,417506,1,8,0:0:0:0:
470,75,417656,5,0,0:0:0:0:
361,266,417806,1,8,0:0:0:0:
249,75,417956,1,0,0:0:0:0:
58,187,418106,2,0,L|166:215,1,112.5,8|0,0:0|0:0,0:0:0:0:
357,103,418406,2,0,L|249:75,1,112.5,8|0,0:0|0:0,0:0:0:0:
86,34,418706,1,8,0:0:0:0:
348,176,418856,6,0,P|413:152|430:91,1,112.5,4|8,0:0|0:0,0:0:0:0:
248,74,419156,1,0,0:0:0:0:
299,258,419306,2,0,L|327:366,1,112.5,8|0,0:0|0:0,0:0:0:0:
440,279,419606,1,8,0:0:0:0:
186,345,419756,2,0,P|121:321|104:260,1,112.5,0|8,0:0|0:0,0:0:0:0:
144,45,420056,5,8,0:0:0:0:
153,100,420131,1,0,0:0:0:0:
162,155,420206,1,0,0:0:0:0:
171,211,420281,1,0,0:0:0:0:
180,266,420356,2,0,L|254:254,1,56.25,4|0,0:3|0:0,0:0:0:0:
386,145,420506,2,0,L|330:154,1,56.25,4|0,0:3|0:0,0:0:0:0:
144,45,420656,5,8,0:0:0:0:
199,36,420731,1,0,0:0:0:0:
254,27,420806,1,0,0:0:0:0:
310,18,420881,1,0,0:0:0:0:
365,9,420956,2,0,L|377:83,1,56.25,4|0,0:3|0:0,0:0:0:0:
401,231,421106,2,0,L|413:305,1,56.25,4|0,0:3|0:0,0:0:0:0:
494,102,421256,5,6,0:0:0:0:
272,138,421406,1,8,0:0:0:0:
401,231,421556,1,0,0:0:0:0:
182,102,421706,1,10,0:0:0:0:
404,138,421856,1,0,0:0:0:0:
275,231,422006,1,8,0:0:0:0:
311,9,422156,1,2,0:0:0:0:
404,138,422306,1,8,0:0:0:0:
135,37,422456,5,2,0:0:0:0:
228,166,422606,1,8,0:0:0:0:
69,182,422756,1,0,0:0:0:0:
307,182,422906,1,10,0:0:0:0:
148,166,423056,1,0,0:0:0:0:
214,311,423206,1,8,0:0:0:0:
293,100,423356,1,2,0:0:0:0:
359,245,423506,1,8,0:0:0:0:
438,34,423656,5,6,0:3:0:0:
392,2,423731,1,0,0:0:0:0:
337,6,423806,1,8,0:0:0:0:
298,45,423881,1,0,0:0:0:0:
293,100,423956,2,0,L|325:168,1,56.25,6|0,0:3|0:0,0:0:0:0:
382,295,424106,2,0,L|358:244,1,56.25,10|0,0:0|0:0,0:0:0:0:
221,65,424256,1,4,0:3:0:0:
182,104,424331,1,0,0:0:0:0:
177,159,424406,2,0,L|209:227,1,56.25,10|0,0:0|0:0,0:0:0:0:
266,354,424556,2,0,L|242:303,1,56.25,6|0,0:3|0:0,0:0:0:0:
36,234,424706,2,0,L|86:210,1,56.25,8|0,0:0|0:0,0:0:0:0:
294,101,424856,5,6,0:3:0:0:
91,92,425006,1,4,0:3:0:0:
289,217,425156,1,10,0:0:0:0:
342,209,425231,1,8,0:0:0:0:
387,178,425306,1,4,0:3:0:0:
410,127,425381,1,4,0:3:0:0:
403,71,425456,1,4,0:3:0:0:
357,103,425531,1,0,0:0:0:0:
335,155,425606,1,10,0:0:0:0:
342,209,425681,1,4,0:3:0:0:
377,256,425756,1,4,0:3:0:0:
371,312,425831,1,4,0:3:0:0:
336,357,425906,1,8,0:0:0:0:
286,378,425981,1,8,0:0:0:0:
232,368,426056,6,0,P|174:338|143:298,1,112.5,4|8,0:0|0:0,0:0:0:0:
116,130,426356,1,0,0:0:0:0:
371,312,426506,2,0,P|429:282|460:242,1,112.5,8|0,0:0|0:0,0:0:0:0:
487,74,426806,1,8,0:0:0:0:
287,216,426956,1,0,0:0:0:0:
457,245,427106,1,8,0:0:0:0:
315,44,427256,6,0,L|205:25,1,112.5,0|8,0:0|0:0,0:0:0:0:
49,0,427556,1,0,0:0:0:0:
302,131,427706,2,0,P|366:115|401:65,1,112.5,8|0,0:0|0:0,0:0:0:0:
49,0,428006,2,0,L|30:110,1,112.5,8|0,0:0|0:0,0:0:0:0:
5,266,428306,1,8,0:0:0:0:
283,234,428456,6,0,L|173:215,1,112.5,4|8,0:0|0:0,0:0:0:0:
17,190,428756,1,0,0:0:0:0:
273,326,428906,2,0,P|337:310|372:260,1,112.5,8|0,0:0|0:0,0:0:0:0:
363,100,429206,1,8,0:0:0:0:
134,59,429356,2,0,L|244:78,1,112.5,0|8,0:0|0:0,0:0:0:0:
481,121,429656,5,8,0:0:0:0:
283,234,429806,1,8,0:0:0:0:
284,6,429956,1,8,0:0:0:0:
284,6,430031,1,4,0:3:0:0:
284,6,430106,1,4,0:3:0:0:
56,5,430256,1,8,0:0:0:0:
55,233,430406,1,8,0:0:0:0:
275,84,430556,1,8,0:0:0:0:
225,58,430631,1,0,0:0:0:0:
169,49,430706,1,4,0:3:0:0:
114,58,430781,1,4,0:3:0:0:
64,83,430856,5,8,0:0:0:0:
169,336,431006,1,8,0:0:0:0:
432,76,433256,6,0,B|360:105|320:80|320:80|288:64|256:32|272:-16|320:-32|368:-16|384:32|352:64|320:80|320:80|256:132|256:204|304:248|304:248|336:278|333:323|302:357|268:356|252:352,1,697.5,4|0,0:0|2:0,0:0:0:0:
264,353,435656,5,8,0:0:0:0:
268,357,439256,6,2,B|332:340|268:324|268:324|203:308|268:288|268:288|316:276|268:260|268:260|219:243|268:227|268:227|300:211|268:195|268:195|235:179|268:163|268:163|284:146|268:130|268:130|251:114|268:98|268:98|276:82|268:66|268:66,1,472.499985580445,8|0,0:0|2:0,0:0:0:0:
191,54,440456,5,12,0:0:0:0:
191,54,440531,1,0,0:0:0:0:
191,54,440606,2,0,L|177:101,1,49.5000015106202
89,138,440756,1,8,0:0:0:0:
89,138,440831,1,0,0:0:0:0:
89,138,440906,2,0,L|112:181,1,49.5000015106202
76,269,441056,1,8,0:0:0:0:
76,269,441131,1,0,0:0:0:0:
76,269,441206,2,0,L|123:282,1,49.5000015106202
160,371,441356,1,8,0:0:0:0:
160,371,441431,1,0,0:0:0:0:
160,371,441506,2,0,L|203:347,1,49.5000015106202
352,371,441656,5,8,0:0:0:0:
352,371,441731,1,0,0:0:0:0:
352,371,441806,2,0,L|308:347,1,49.5000015106202
436,269,441956,1,8,0:0:0:0:
436,269,442031,1,0,0:0:0:0:
436,269,442106,2,0,L|389:282,1,49.5000015106202
423,138,442256,1,8,0:0:0:0:
423,138,442331,1,0,0:0:0:0:
423,138,442406,2,0,L|399:181,1,49.5000015106202
335,101,442556,6,0,L|359:58,1,49.5000015106202,8|0,0:0|0:0,0:0:0:0:
487,40,442706,2,0,L|463:83,1,49.5000015106202
400,180,442856,5,12,0:0:0:0:
363,199,442931,1,0,0:0:0:0:
322,203,443006,1,0,0:0:0:0:
283,190,443081,1,0,0:0:0:0:
253,163,443156,1,8,0:0:0:0:
235,126,443231,1,0,0:0:0:0:
233,85,443306,1,0,0:0:0:0:
196,66,443381,1,0,0:0:0:0:
155,63,443456,1,8,0:0:0:0:
116,76,443531,1,0,0:0:0:0:
86,103,443606,1,0,0:0:0:0:
68,140,443681,1,0,0:0:0:0:
66,181,443756,1,8,0:0:0:0:
94,213,443831,1,0,0:0:0:0:
102,255,443906,1,0,0:0:0:0:
89,296,443981,1,0,0:0:0:0:
58,325,444056,5,8,0:0:0:0:
49,282,444131,1,0,0:0:0:0:
63,242,444206,1,0,0:0:0:0:
94,213,444281,1,0,0:0:0:0:
136,203,444356,1,8,0:0:0:0:
178,211,444431,1,0,0:0:0:0:
207,241,444506,1,0,0:0:0:0:
222,281,444581,1,0,0:0:0:0:
211,323,444656,1,8,0:0:0:0:
240,355,444731,1,0,0:0:0:0:
281,367,444806,1,0,0:0:0:0:
323,356,444881,1,0,0:0:0:0:
352,325,444956,6,0,P|372:289|380:264,1,49.5000015106202,8|0,0:0|0:0,0:0:0:0:
453,222,445106,2,0,P|431:187|413:167,1,49.5000015106202
413,83,445256,5,12,0:0:0:0:
413,83,445331,1,0,0:0:0:0:
413,83,445406,2,0,P|371:84|346:89,1,49.5000015106202
300,176,445556,1,8,0:0:0:0:
300,176,445631,1,0,0:0:0:0:
300,176,445706,2,0,P|258:174|233:169,1,49.5000015106202
187,83,445856,1,8,0:0:0:0:
187,83,445931,1,0,0:0:0:0:
187,83,446006,2,0,P|145:84|120:89,1,49.5000015106202
74,176,446156,1,8,0:0:0:0:
74,176,446231,1,0,0:0:0:0:
74,176,446306,2,0,P|32:174|7:169,1,49.5000015106202
13,349,446456,5,8,0:0:0:0:
13,349,446531,1,0,0:0:0:0:
13,349,446606,2,0,P|14:307|19:282,1,49.5000015106202
136,281,446756,1,8,0:0:0:0:
136,281,446831,1,0,0:0:0:0:
136,281,446906,2,0,P|137:239|142:214,1,49.5000015106202
259,349,447056,1,8,0:0:0:0:
259,349,447131,1,0,0:0:0:0:
259,349,447206,2,0,P|260:307|265:282,1,49.5000015106202
382,281,447356,1,8,0:0:0:0:
382,281,447431,1,0,0:0:0:0:
382,281,447506,2,0,P|383:239|388:214,1,49.5000015106202
299,108,447656,5,8,0:3:0:0:
508,146,447806,1,4,0:3:0:0:
229,248,447956,1,8,0:3:0:0:
403,127,448106,1,4,0:3:0:0:
90,70,448256,1,8,0:3:0:0:
299,108,448406,1,4,0:3:0:0:
20,210,448556,1,8,0:3:0:0:
194,89,448706,1,4,0:3:0:0:
243,326,448856,5,4,0:3:0:0:
196,312,448931,1,8,0:0:0:0:
164,274,449006,1,8,0:0:0:0:
158,226,449081,1,8,0:0:0:0:
179,182,449156,1,8,0:0:0:0:
200,137,449231,1,0,0:0:0:0:
194,89,449306,1,4,0:3:0:0:
162,51,449381,1,4,0:3:0:0:
116,38,449456,5,8,0:0:0:0:
77,85,449531,1,8,0:0:0:0:
72,146,449606,1,8,0:0:0:0:
103,199,449681,1,8,0:0:0:0:
158,226,449756,2,0,L|234:217,1,49.5000015106202,8|0,0:0|0:0,0:0:0:0:
335,53,449906,2,0,L|335:116,1,49.5000015106202,4|0,0:3|0:0,0:0:0:0:
512,226,450056,5,4,0:0:0:0:
306,197,450206,1,8,0:0:0:0:
434,33,450356,1,0,0:0:0:0:
434,33,450431,1,0,0:0:0:0:
434,33,450506,2,0,P|453:82|452:143,1,112.5,8|0,0:0|0:0,0:0:0:0:
398,291,450806,1,8,0:0:0:0:
200,226,450956,2,0,P|249:200|305:196,1,112.5,0|8,0:0|0:0,0:0:0:0:
89,28,451256,6,0,L|66:138,1,112.5,0|8,0:0|0:0,0:0:0:0:
30,297,451556,1,0,0:0:0:0:
308,167,451706,2,0,B|252:153|252:153|198:167,1,112.5,8|0,0:0|0:0,0:0:0:0:
256,308,452006,1,8,0:0:0:0:
433,96,452156,2,0,L|421:151,1,56.25,4|0,0:3|0:0,0:0:0:0:
433,288,452306,2,0,L|421:232,1,56.25,4|0,0:3|0:0,0:0:0:0:
368,38,452456,5,4,0:0:0:0:
512,192,452606,1,8,0:0:0:0:
368,346,452756,1,0,0:0:0:0:
368,346,452831,1,0,0:0:0:0:
368,346,452906,2,0,L|256:329,1,112.5,8|0,0:0|0:0,0:0:0:0:
50,296,453206,1,8,0:0:0:0:
274,245,453356,1,0,0:0:0:0:
32,380,453506,1,8,0:0:0:0:
85,191,453656,5,0,0:0:0:0:
256,329,453806,1,8,0:0:0:0:
290,113,453956,1,0,0:0:0:0:
290,113,454031,1,0,0:0:0:0:
290,113,454106,2,0,L|178:96,1,112.5,8|0,0:0|0:0,0:0:0:0:
354,233,454406,1,8,0:0:0:0:
134,181,454556,2,0,P|96:144|84:84,1,112.5,0|8,0:0|0:0,0:0:0:0:
411,11,454856,6,0,L|394:123,1,112.5,4|8,0:0|0:0,0:0:0:0:
363,312,455156,1,0,0:0:0:0:
172,184,455306,2,0,L|284:201,1,112.5,8|0,0:0|0:0,0:0:0:0:
473,232,455606,1,8,0:0:0:0:
159,265,455756,2,0,P|110:241|90:190,1,112.5,0|8,0:0|0:0,0:0:0:0:
394,122,456056,5,0,0:0:0:0:
283,200,456206,1,8,0:0:0:0:
457,344,456356,1,0,0:0:0:0:
457,344,456431,1,0,0:0:0:0:
456,343,456506,2,0,L|473:231,1,112.5,8|0,0:0|0:0,0:0:0:0:
500,76,456806,1,8,0:0:0:0:
299,311,456956,2,0,L|282:199,1,112.5,0|8,0:0|0:0,0:0:0:0:
124,37,457256,5,4,0:3:0:0:
79,45,457331,1,0,0:0:0:0:
52,83,457406,1,0,0:0:0:0:
58,128,457481,1,0,0:0:0:0:
93,157,457556,1,0,0:3:0:0:
139,154,457631,1,0,0:0:0:0:
170,120,457706,1,4,0:3:0:0:
138,86,457781,1,0,0:0:0:0:
93,83,457856,1,0,0:0:0:0:
57,112,457931,1,0,0:0:0:0:
51,157,458006,1,0,0:0:0:0:
78,194,458081,1,0,0:0:0:0:
123,203,458156,2,0,L|202:211,1,56.25,8|0,0:0|0:0,0:0:0:0:
249,283,458306,2,0,L|328:291,1,56.25,8|0,0:0|0:0,0:0:0:0:
375,363,458456,5,8,0:3:0:0:
428,349,458531,1,4,0:3:0:0:
461,305,458606,1,4,0:3:0:0:
458,250,458681,1,4,0:3:0:0:
421,209,458756,1,8,0:3:0:0:
383,168,458831,1,4,0:3:0:0:
380,113,458906,1,4,0:3:0:0:
413,68,458981,1,4,0:3:0:0:
467,55,459056,2,0,P|494:63|517:79,1,56.25,4|0,0:3|0:0,0:0:0:0:
471,232,459206,2,0,P|444:224|420:208,1,56.25,4|0,0:3|0:0,0:0:0:0:
273,56,459356,2,0,P|246:63|222:79,1,56.25,4|0,0:3|0:0,0:0:0:0:
269,232,459506,2,0,P|295:224|319:208,1,56.25,4|0,0:3|0:0,0:0:0:0:
370,4,459656,5,4,0:0:0:0:
494,157,459806,1,8,0:0:0:0:
246,157,459956,1,0,0:0:0:0:
246,157,460031,1,0,0:0:0:0:
246,157,460106,2,0,P|167:174|125:195,1,112.5,8|0,0:0|0:0,0:0:0:0:
26,313,460406,1,8,0:0:0:0:
284,291,460556,2,0,L|173:271,1,112.5,0|8,0:0|0:0,0:0:0:0:
8,236,460856,5,0,0:0:0:0:
122,110,461006,1,8,0:0:0:0:
174,271,461156,1,0,0:0:0:0:
174,271,461231,1,0,0:0:0:0:
174,271,461306,1,8,0:0:0:0:
262,65,461456,1,0,0:0:0:0:
148,191,461606,1,8,0:0:0:0:
96,30,461756,1,0,0:0:0:0:
96,30,461831,1,0,0:0:0:0:
96,30,461906,1,0,0:0:0:0:
230,208,462056,6,0,L|345:222,1,112.5,4|8,0:0|0:0,0:0:0:0:
509,159,462356,1,0,0:0:0:0:
336,303,462506,2,0,P|388:290|423:230,1,112.5,8|0,0:0|0:0,0:0:0:0:
425,71,462806,1,8,0:0:0:0:
230,208,462956,2,0,L|216:323,1,112.5,0|8,0:0|0:0,0:0:0:0:
124,113,463256,5,0,0:0:0:0:
359,72,463406,1,8,0:0:0:0:
151,40,463556,1,0,0:3:0:0:
151,40,463631,1,0,0:3:0:0:
151,40,463706,1,8,0:0:0:0:
325,185,463856,1,0,0:0:0:0:
90,226,464006,1,8,0:0:0:0:
298,258,464156,1,0,0:0:0:0:
298,258,464231,1,0,0:0:0:0:
298,258,464306,1,8,0:0:0:0:
151,40,464456,6,0,L|117:147,1,112.5,4|8,0:0|0:0,0:0:0:0:
62,304,464756,1,0,0:0:0:0:
18,141,464906,1,8,0:0:0:0:
161,310,465056,2,0,P|231:339|280:344,1,112.5,0|8,0:0|0:0,0:0:0:0:
497,246,465356,2,0,P|427:275|378:280,1,112.5,0|8,0:0|0:0,0:0:0:0:
161,182,465656,5,4,0:3:0:0:
372,128,465806,1,8,0:0:0:0:
239,49,465956,1,0,0:0:0:0:
399,234,466106,1,8,0:0:0:0:
266,155,466256,1,0,0:0:0:0:
477,102,466406,1,8,0:0:0:0:
239,264,466556,1,0,0:0:0:0:
239,264,466631,1,0,0:0:0:0:
239,264,466706,1,8,0:0:0:0:
73,87,466856,5,4,0:3:0:0:
114,50,466931,1,0,0:0:0:0:
169,49,467006,1,8,0:0:0:0:
212,84,467081,1,8,0:0:0:0:
222,139,467156,1,8,0:0:0:0:
195,186,467231,1,0,0:0:0:0:
154,223,467306,1,4,0:3:0:0:
139,277,467381,1,0,0:0:0:0:
153,330,467456,1,8,0:0:0:0:
194,368,467531,1,8,0:0:0:0:
248,380,467606,1,8,0:0:0:0:
300,361,467681,1,0,0:0:0:0:
335,319,467756,2,0,P|348:284|353:245,1,56.25,8|8,0:0|0:0,0:0:0:0:
419,143,467906,2,0,P|431:178|436:217,1,56.25,8|8,0:1|0:0,0:0:0:0:
462,342,468056,5,4,0:3:0:0:
352,192,468206,1,0,0:0:0:0:
352,192,468281,1,0,0:0:0:0:
352,192,468356,2,0,L|288:185,1,56.25,4|0,0:3|0:0,0:0:0:0:
239,264,468506,2,0,L|175:257,1,56.25,4|0,0:3|0:0,0:0:0:0:
27,243,468656,2,0,L|91:250,1,56.25,4|0,0:3|0:0,0:0:0:0:
140,171,468806,2,0,L|204:178,1,56.25,4|0,0:3|0:0,0:0:0:0:
295,309,468956,6,0,P|269:329|235:331,1,56.25,10|0,0:0|0:0,0:0:0:0:
87,125,469106,2,8,P|113:105|147:103,1,56.25,10|0,0:0|0:0,0:0:0:0:
352,192,469256,5,4,0:0:0:0:
289,38,469406,1,8,0:0:0:0:
505,129,469556,1,0,0:0:0:0:
505,129,469631,1,0,0:0:0:0:
505,129,469706,2,0,P|514:182|502:247,1,112.5,8|0,0:0|0:0,0:0:0:0:
436,356,470006,1,8,0:0:0:0:
241,192,470156,2,0,P|297:182|352:192,1,112.5,0|8,0:0|0:0,0:0:0:0:
156,356,470456,5,0,0:0:0:0:
55,200,470606,1,8,0:0:0:0:
27,328,470756,1,0,0:0:0:0:
27,328,470831,1,0,0:0:0:0:
27,328,470906,1,8,0:0:0:0:
83,72,471056,1,0,0:0:0:0:
184,228,471206,1,8,0:0:0:0:
55,200,471356,1,0,0:0:0:0:
55,200,471431,1,0,0:0:0:0:
55,200,471506,1,8,0:0:0:0:
211,99,471656,6,0,L|323:124,1,112.5,4|8,0:0|0:0,0:0:0:0:
465,157,471956,1,0,0:0:0:0:
239,292,472106,2,0,B|225:238|225:238|239:182,1,112.5,8|0,0:0|0:0,0:0:0:0:
391,239,472406,1,8,0:0:0:0:
183,379,472556,2,0,L|158:267,1,112.5,0|8,0:0|0:0,0:0:0:0:
113,63,472856,5,0,0:0:0:0:
239,182,473006,1,8,0:0:0:0:
393,104,473156,1,0,0:0:0:0:
393,104,473231,1,0,0:0:0:0:
393,104,473306,1,8,0:0:0:0:
100,164,473456,1,0,0:0:0:0:
254,86,473606,1,8,0:0:0:0:
380,205,473756,1,0,0:0:0:0:
380,205,473831,1,0,0:0:0:0:
380,205,473906,1,8,0:0:0:0:
219,324,474056,5,4,0:0:0:0:
193,333,474131,1,0,0:0:0:0:
165,331,474206,1,8,0:0:0:0:
140,319,474281,1,0,0:0:0:0:
122,297,474356,1,0,0:0:0:0:
116,269,474431,1,0,0:0:0:0:
101,246,474506,1,8,0:0:0:0:
77,231,474581,1,0,0:0:0:0:
50,226,474656,1,0,0:0:0:0:
39,199,474731,1,0,0:0:0:0:
29,173,474806,1,8,0:0:0:0:
19,147,474881,1,0,0:0:0:0:
9,121,474956,1,0,0:0:0:0:
19,94,475031,1,0,0:0:0:0:
29,68,475106,1,8,0:0:0:0:
39,42,475181,1,0,0:0:0:0:
50,16,475256,5,8,0:0:0:0:
72,67,475331,1,0,0:0:0:0:
117,99,475406,1,0,0:0:0:0:
173,103,475481,1,0,0:0:0:0:
218,74,475556,1,8,0:0:0:0:
268,49,475631,1,0,0:0:0:0:
323,54,475706,1,0,0:0:0:0:
369,86,475781,1,0,0:0:0:0:
391,137,475856,1,8,0:0:0:0:
343,165,475931,1,8,0:0:0:0:
322,216,476006,1,8,0:0:0:0:
337,269,476081,1,8,0:0:0:0:
381,303,476156,1,8,0:0:0:0:
436,303,476231,1,8,0:0:0:0:
480,269,476306,1,8,0:0:0:0:
494,216,476381,1,8,0:0:0:0:
473,165,476456,6,0,P|407:213|371:260,1,112.5,12|0,0:3|2:0,0:0:0:0:
38,165,476756,2,0,P|105:213|141:260,1,112.5,12|0,0:3|2:0,0:0:0:0:
256,8,477656,2,0,L|256:120,1,112.5,8|0,0:0|2:0,0:0:0:0:
260,356,478856,5,8,0:0:0:0:
260,356,478931,1,0,0:0:0:0:
260,356,479006,2,0,L|197:343,1,56.25
72,321,479156,1,8,0:0:0:0:
72,321,479231,1,0,0:0:0:0:
72,321,479306,2,0,L|134:333,1,56.25
239,259,479456,1,8,0:0:0:0:
239,259,479531,1,0,0:0:0:0:
239,259,479606,2,0,L|176:246,1,56.25
52,225,479756,1,8,0:0:0:0:
52,225,479831,1,0,0:0:0:0:
52,225,479906,2,0,L|114:237,1,56.25
219,162,480056,1,8,0:0:0:0:
219,162,480131,1,0,0:0:0:0:
219,162,480206,2,0,L|156:149,1,56.25
32,128,480356,1,8,0:0:0:0:
32,128,480431,1,0,0:0:0:0:
32,128,480506,2,0,L|94:140,1,56.25
204,60,480656,6,0,L|259:70,1,56.25,12|0,0:0|0:0,0:0:0:0:
360,172,480806,2,0,L|415:182,1,56.25
438,51,480956,2,0,P|367:91|359:171,1,168.75,12|0,0:0|0:0,0:0:0:0:
384,293,481256,6,0,P|333:276|307:250,1,56.25,12|0,0:3|0:0,0:0:0:0:
128,293,481406,2,0,P|178:276|204:250,1,56.25,12|0,0:3|0:0,0:0:0:0:
256,136,481556,1,12,0:3:0:0:
240,113,481631,1,0,0:0:0:0:
213,109,481706,1,0,0:0:0:0:
191,126,481781,1,0,0:0:0:0:
189,153,481856,1,0,0:0:0:0:
207,173,481931,1,0,0:0:0:0:
235,174,482006,1,0,0:0:0:0:
260,201,482081,1,0,0:0:0:0:
275,235,482156,1,0,0:0:0:0:
276,273,482231,1,0,0:0:0:0:
264,308,482306,1,0,0:0:0:0:
240,336,482381,1,0,0:0:0:0:
207,354,482456,6,2,P|180:352|146:337,1,56.25,6|0,2:1|2:1,1:1:0:0:
304,354,482606,2,2,P|331:352|358:341,1,56.25,2|0,2:1|2:1,2:1:0:0:
180,276,482756,2,2,P|153:268|122:247,1,56.25,2|0,2:1|2:1,2:1:0:0:
332,276,482906,2,2,P|359:268|390:247,1,56.25,2|0,2:1|2:1,2:1:0:0:
160,192,483056,2,2,P|134:179|108:154,1,56.25,2|0,2:1|2:1,2:1:0:0:
352,192,483206,2,2,P|378:179|404:154,1,56.25,2|0,2:1|2:1,2:1:0:0:
144,100,483356,2,2,P|121:83|99:53,1,56.25,2|0,2:1|2:1,2:1:0:0:
368,100,483506,2,2,P|391:83|413:53,1,56.25,2|0,2:1|2:1,2:1:0:0:
256,0,483656,5,12,0:0:0:0:
256,56,483731,1,4,0:3:0:0:
256,112,483806,1,4,0:3:0:0:
256,168,483881,1,4,0:3:0:0:
256,225,483956,1,8,0:0:0:0:
20,92,484256,5,8,0:0:0:0:
73,78,484331,1,4,0:3:0:0:
126,97,484406,1,4,0:3:0:0:
159,142,484481,1,4,0:3:0:0:
162,197,484556,1,8,0:0:0:0:
492,92,484856,5,8,0:0:0:0:
438,78,484931,1,4,0:3:0:0:
385,97,485006,1,4,0:3:0:0:
352,142,485081,1,4,0:3:0:0:
349,197,485156,1,8,0:0:0:0:
452,384,485306,2,0,B|492:336|492:336|492:285,1,112.5,8|0,0:0|0:0,0:0:0:0:
492,92,485606,1,8,0:0:0:0:
349,197,485756,1,0,0:0:0:0:
329,21,485906,1,0,0:0:0:0:
20,92,486056,6,0,P|24:136|64:176,1,81.0000003089905,8|0,0:0|2:0,0:0:0:0:
264,120,486256,2,0,P|223:101|169:116,1,81.0000003089905,8|0,0:0|2:0,0:0:0:0:
117,317,486456,2,0,P|153:291|167:236,1,81.0000003089905,8|0,0:0|2:0,0:3:0:0:
104,24,486656,2,0,L|100:128,1,81.0000003089905,8|0,0:0|2:0,0:0:0:0:
256,320,486856,2,0,L|256:232,1,81.0000003089905,8|0,0:0|2:0,0:0:0:0:
408,24,487056,2,0,L|412:128,1,81.0000003089905,8|0,0:0|2:0,0:0:0:0:
470,358,487256,6,2,P|418:288|473:223,1,182.250000695229,10|0,0:0|2:0,0:0:0:0:
488,291,487556,2,2,B|400:336|400:248|315:290,1,182.250000695229,2|0,2:1|2:0,0:0:0:0:
172,352,487856,5,10,0:0:0:0:
404,192,488006,1,10,0:0:0:0:
172,32,488156,2,2,B|116:12|92:72|116:124|172:104|172:104|272:172|272:48|372:100|372:100|424:132|472:100,1,486.000001853943,10|0,0:0|2:0,0:0:0:0:
