osu file format v14

[General]
AudioFilename: audio.mp3
AudioLeadIn: 0
PreviewTime: 217042
Countdown: 0
SampleSet: Soft
StackLeniency: 0.4
Mode: 0
LetterboxInBreaks: 0
WidescreenStoryboard: 1

[Editor]
Bookmarks: 313,13538,23469,35055,48314,60298,72314,86710,110710,120310,129910,139510,149110,158710,165910,177910,187510,197110,206710,216310,225910,233110,242860,253510,263110,272710,291910,301510,311110,320710,325510,330310,339910,344710,359110,368710,377392,385510,401260
DistanceSpacing: 1.8
BeatDivisor: 4
GridSize: 16
TimelineZoom: 4.199998

[Metadata]
Title:Highway to Oblivion
TitleUnicode:Highway to Oblivion
Artist:DragonForce
ArtistUnicode:DragonForce
Creator:SILENCE PLAYER
Version:Legender
Source:Audica
Tags:woey itswinter -keitaro ghouru WISPG_G mashasg kappapraise dragon force herman li marc hudson sam totman gee anzalone coen janssen frédéric frederic leclercq extreme power metal speed death stream rsi dragging english rock
BeatmapID:2211018
BeatmapSetID:1056699

[Difficulty]
HPDrainRate:4.5
CircleSize:4
OverallDifficulty:9
ApproachRate:9.6
SliderMultiplier:1.9
SliderTickRate:1

[Events]
//Background and Video events
0,0,"bg.jpg",0,0
//Break Periods
2,106117,111758
2,275017,276517
2,277717,278917
2,358717,360608
//Storyboard Layer 0 (Background)
//Storyboard Layer 1 (Fail)
//Storyboard Layer 2 (Pass)
//Storyboard Layer 3 (Foreground)
//Storyboard Layer 4 (Overlay)
//Storyboard Sound Samples

[TimingPoints]
659,413.793103448276,4,2,0,10,1,0
2314,-133.333333333333,4,2,0,20,0,0
5416,-133.333333333333,4,2,0,30,0,0
5831,-133.333333333333,4,2,0,20,0,0
8727,-133.333333333333,4,2,0,50,0,0
8934,-133.333333333333,4,3,20,35,0,0
9140,-133.333333333333,4,2,0,20,0,0
12038,-133.333333333333,4,2,20,40,0,0
12245,-133.333333333333,4,2,20,40,0,0
12451,-133.333333333333,4,2,0,20,0,0
14933,-133.333333333333,4,2,0,30,0,0
15555,-133.333333333333,4,2,20,30,0,0
15968,-133.333333333333,4,2,0,30,0,0
25486,-133.333333333333,4,3,20,30,0,0
30451,-133.333333333333,4,2,0,30,0,0
34176,-133.333333333333,4,2,20,30,0,0
36864,-133.333333333333,4,2,0,30,0,0
37072,-133.333333333333,4,2,20,30,0,0
37485,-133.333333333333,4,2,0,30,0,0
38727,-133.333333333333,4,2,1,60,0,0
39140,-133.333333333333,4,2,0,30,0,0
39554,-133.333333333333,4,2,0,10,0,0
39761,-133.333333333333,4,2,0,30,0,0
42038,-133.333333333333,4,2,0,20,0,0
42244,-133.333333333333,4,2,0,30,0,0
42451,-133.333333333333,4,2,0,30,0,0
42864,-133.333333333333,4,2,0,10,0,0
43071,-133.333333333333,4,2,0,30,0,0
43693,-133.333333333333,4,2,20,30,0,0
48658,-133.333333333333,4,2,20,30,0,0
50314,375,4,3,1,50,1,0
50314,-200,4,3,1,50,0,0
53689,-200,4,3,1,60,0,0
56314,-200,4,3,1,50,0,0
59689,-200,4,2,0,30,0,0
62314,-133.333333333333,4,3,1,50,0,0
63251,-133.333333333333,4,3,7,50,0,0
64189,-133.333333333333,4,3,1,65,0,0
64376,-133.333333333333,4,3,8,50,0,0
64751,-133.333333333333,4,3,9,50,0,0
64939,-133.333333333333,4,3,1,50,0,0
65126,-133.333333333333,4,3,10,50,0,0
65314,-133.333333333333,4,3,1,50,0,0
66251,-133.333333333333,4,3,8,50,0,0
66814,-133.333333333333,4,3,1,50,0,0
67376,-133.333333333333,4,3,7,50,0,0
67564,-133.333333333333,4,3,1,50,0,0
69251,-133.333333333333,4,3,9,50,0,0
69814,-133.333333333333,4,3,1,50,0,0
69907,-133.333333333333,4,3,7,50,0,0
70001,-133.333333333333,4,3,1,50,0,0
70189,-133.333333333333,4,3,8,50,0,0
70282,-133.333333333333,4,3,9,50,0,0
70376,-133.333333333333,4,3,1,50,0,0
70469,-133.333333333333,4,3,7,50,0,0
70564,-133.333333333333,4,3,1,50,0,0
70751,-133.333333333333,4,3,8,50,0,0
70845,-133.333333333333,4,3,9,50,0,0
70939,-133.333333333333,4,3,1,50,0,0
71126,-133.333333333333,4,3,10,50,0,0
71314,-133.333333333333,4,3,1,50,0,0
71563,-133.333333333333,4,3,7,50,0,0
71626,-133.333333333333,4,3,8,50,0,0
71688,-133.333333333333,4,3,1,50,0,0
72126,-133.333333333333,4,3,8,50,0,0
72189,-133.333333333333,4,3,9,50,0,0
72251,-133.333333333333,4,3,1,50,0,0
72814,-133.333333333333,4,3,7,50,0,0
73064,-133.333333333333,4,3,1,50,0,0
73189,-133.333333333333,4,3,8,50,0,0
73376,-133.333333333333,4,3,10,50,0,0
73439,-133.333333333333,4,3,9,50,0,0
73564,-133.333333333333,4,3,8,50,0,0
73814,-133.333333333333,4,3,10,50,0,0
73939,-133.333333333333,4,3,1,50,0,0
74126,-133.333333333333,4,3,1,65,0,0
74220,-133.333333333333,4,3,1,50,0,0
74317,300,4,2,1,63,1,0
74317,-100,4,2,1,63,0,0
76717,-100,4,3,8,45,0,0
77567,-100,4,3,8,50,0,0
77617,-100,4,3,8,50,0,0
77917,-100,4,3,9,63,0,0
78167,-100,4,2,1,63,0,0
78217,-100,4,2,1,63,0,0
78517,-100,4,2,10,70,0,0
78767,-100,4,2,1,63,0,0
78817,-100,4,2,1,63,0,0
79117,-100,4,2,1,63,0,0
80092,-100,4,3,1,75,0,0
80167,-100,4,2,1,63,0,0
81292,-100,4,3,1,75,0,0
81367,-100,4,2,1,63,0,0
86392,-100,4,3,1,75,0,0
86467,-100,4,2,1,63,0,0
86917,-100,4,3,7,63,0,0
87067,-100,4,3,1,63,0,0
87217,-100,4,3,8,63,0,0
87367,-100,4,2,1,63,0,0
87592,-100,4,3,7,63,0,0
87667,-100,4,3,1,63,0,0
87817,-100,4,3,7,63,0,0
87967,-100,4,3,1,63,0,0
88417,-100,4,3,8,63,0,0
88567,-100,4,3,10,63,0,0
88717,-100,4,3,1,63,0,0
90067,-100,4,3,1,75,0,0
90217,-100,4,3,1,63,0,0
98317,-100,4,3,1,63,0,0
101717,-100,4,3,1,65,0,0
101917,-100,4,3,1,63,0,0
102217,-66.6666666666667,4,3,1,63,0,0
103117,-111.111111111111,4,3,1,63,0,0
103716,-111.111111111111,4,3,1,5,0,0
103717,-111.111111111111,4,3,1,5,0,0
112267,-100,4,3,1,63,0,0
112567,-100,4,2,1,70,0,0
112717,-100,4,3,1,63,0,0
123367,-100,4,2,1,63,0,0
123517,-100,4,3,1,63,0,0
126967,-100,4,2,1,63,0,0
127117,-100,4,3,1,63,0,0
129592,-100,4,3,7,63,0,0
129667,-100,4,3,1,63,0,0
129817,-100,4,3,8,63,0,0
129967,-100,4,3,1,63,0,0
130192,-100,4,3,8,63,0,0
130267,-100,4,3,1,63,0,0
130417,-100,4,3,9,63,0,0
130567,-100,4,3,10,63,0,0
130717,-100,4,3,1,63,0,0
131917,-83.3333333333333,4,3,1,63,0,1
133792,-83.3333333333333,4,2,1,63,0,1
133867,-83.3333333333333,4,3,1,63,0,1
133942,-83.3333333333333,4,2,1,63,0,1
134017,-83.3333333333333,4,3,1,63,0,1
134092,-83.3333333333333,4,2,1,63,0,1
134167,-83.3333333333333,4,3,1,63,0,1
134242,-83.3333333333333,4,2,1,63,0,1
134317,-83.3333333333333,4,3,1,63,0,1
135891,-83.3333333333333,4,3,1,63,0,1
135967,-83.3333333333333,4,3,1,63,0,1
136041,-83.3333333333333,4,3,1,63,0,1
136117,-83.3333333333333,4,3,1,63,0,1
136342,-83.3333333333333,4,3,1,75,0,1
136417,-83.3333333333333,4,3,1,63,0,1
136492,-83.3333333333333,4,3,1,75,0,1
136642,-83.3333333333333,4,3,1,63,0,1
140317,-83.3333333333333,4,3,7,63,0,1
140392,-83.3333333333333,4,3,1,63,0,1
140917,-83.3333333333333,4,3,8,63,0,1
141067,-83.3333333333333,4,3,1,63,0,1
141217,-83.3333333333333,4,3,9,63,0,1
141367,-83.3333333333333,4,3,10,63,0,1
141517,-83.3333333333333,4,3,1,63,0,1
146317,-83.3333333333333,4,3,1,63,0,1
149392,-83.3333333333333,4,3,8,63,0,1
149467,-83.3333333333333,4,3,1,63,0,1
149692,-83.3333333333333,4,3,7,63,0,1
149767,-83.3333333333333,4,3,1,63,0,1
149917,-83.3333333333333,4,3,1,63,0,1
150066,-83.3333333333333,4,3,7,63,0,1
150217,-83.3333333333333,4,3,1,63,0,1
150517,-83.3333333333333,4,3,10,63,0,0
150592,-83.3333333333333,4,3,8,63,0,0
150742,-83.3333333333333,4,3,7,63,0,0
150817,-83.3333333333333,4,3,8,63,0,0
150967,-83.3333333333333,4,3,10,63,0,0
151117,-83.3333333333333,4,3,1,63,0,1
160717,-90.9090909090909,4,3,1,63,0,1
161842,-90.9090909090909,4,3,1,75,0,1
161917,-90.9090909090909,4,3,1,63,0,1
162067,-90.9090909090909,4,3,1,75,0,1
162217,-90.9090909090909,4,3,1,63,0,1
164467,-90.9090909090909,4,3,1,75,0,1
164617,-90.9090909090909,4,3,1,63,0,1
165592,-90.9090909090909,4,2,1,63,0,1
165667,-90.9090909090909,4,3,1,63,0,1
165817,-90.9090909090909,4,3,7,63,0,1
165967,-90.9090909090909,4,3,1,63,0,1
166117,-90.9090909090909,4,3,8,63,0,1
166267,-90.9090909090909,4,3,1,63,0,1
166492,-90.9090909090909,4,3,7,63,0,1
166567,-90.9090909090909,4,3,10,63,0,1
166717,-90.9090909090909,4,3,1,63,0,1
167917,-100,4,3,1,63,0,0
168067,-100,4,2,1,63,0,0
168142,-100,4,3,1,63,0,0
170542,-100,4,3,1,5,0,0
170617,-100,4,3,1,63,0,0
170767,-100,4,3,1,75,0,0
170917,-100,4,3,1,63,0,0
171592,-100,4,3,7,63,0,0
171667,-100,4,3,1,63,0,0
171817,-100,4,3,8,63,0,0
171967,-100,4,3,1,63,0,0
172192,-100,4,3,7,63,0,0
172267,-100,4,3,1,63,0,0
172417,-100,4,3,9,63,0,0
172567,-100,4,3,10,63,0,0
172717,-100,4,3,1,63,0,0
172867,-100,4,2,1,63,0,0
173167,-100,4,3,1,63,0,0
173542,-100,4,2,1,63,0,0
173617,-100,4,3,1,63,0,0
176392,-100,4,2,1,63,0,0
176467,-100,4,3,1,63,0,0
176692,-100,4,3,7,63,0,0
176767,-100,4,3,1,63,0,0
176917,-100,4,3,8,63,0,0
177067,-100,4,3,1,63,0,0
177292,-100,4,3,7,63,0,0
177367,-100,4,3,10,63,0,0
177517,-100,4,3,1,63,0,0
177817,-100,4,3,7,63,0,0
177967,-100,4,3,1,63,0,0
178117,-100,4,3,8,63,0,0
178267,-100,4,3,1,63,0,0
178492,-100,4,3,7,63,0,0
178567,-100,4,3,10,63,0,0
178717,-100,4,3,1,63,0,0
179917,-111.111111111111,4,3,1,63,0,0
181717,-111.111111111111,4,2,1,63,0,0
181867,-111.111111111111,4,3,1,63,0,0
184117,-111.111111111111,4,2,1,63,0,0
184267,-111.111111111111,4,3,1,63,0,0
188917,-111.111111111111,4,2,1,63,0,0
189067,-111.111111111111,4,3,1,63,0,0
196867,-111.111111111111,4,3,7,63,0,0
196942,-111.111111111111,4,3,1,63,0,0
197767,-111.111111111111,4,3,10,63,0,0
197917,-111.111111111111,4,3,1,63,0,0
199117,-83.3333333333333,4,3,1,63,0,1
203766,-83.3333333333333,4,3,1,75,0,1
203917,-83.3333333333333,4,3,1,63,0,1
213517,-100,4,3,1,63,0,1
215917,-83.3333333333333,4,3,1,63,0,1
217117,-100,4,3,1,20,0,0
217192,-100,4,3,1,20,0,0
217267,-100,4,3,1,20,0,0
217342,-100,4,3,1,25,0,0
217417,-100,4,3,1,30,0,0
217492,-100,4,3,1,35,0,0
217567,-100,4,3,1,40,0,0
217642,-100,4,3,1,45,0,0
217717,-100,4,3,8,50,0,0
217792,-100,4,3,8,55,0,0
217867,-100,4,3,1,60,0,0
217942,-100,4,3,1,65,0,0
218017,-100,4,3,9,70,0,0
218092,-100,4,3,9,75,0,0
218167,-100,4,3,10,80,0,0
218242,-100,4,3,10,85,0,0
218317,-83.3333333333333,4,3,1,70,0,1
225591,-83.3333333333333,4,3,1,70,0,1
225667,-83.3333333333333,4,3,1,70,0,1
227317,-83.3333333333333,4,3,7,63,0,1
227467,-83.3333333333333,4,3,1,63,0,1
227617,-83.3333333333333,4,3,8,63,0,1
227767,-83.3333333333333,4,3,10,63,0,1
227917,-90.9090909090909,4,3,1,63,0,1
229267,-90.9090909090909,4,3,1,75,0,1
229417,-90.9090909090909,4,3,1,63,0,1
233617,-90.9090909090909,4,3,9,63,0,1
233767,-90.9090909090909,4,3,10,63,0,1
233917,-90.9090909090909,4,3,1,63,0,1
235117,-100,4,3,1,63,0,0
237742,-100,4,3,1,5,0,0
237817,-100,4,3,1,63,0,0
237967,-100,4,3,1,75,0,0
238117,-100,4,3,1,63,0,0
238792,-100,4,3,7,63,0,0
238867,-100,4,3,1,63,0,0
239317,-100,4,3,7,63,0,0
239467,-100,4,3,1,63,0,0
239617,-100,4,3,8,63,0,0
239767,-100,4,3,10,63,0,0
239917,-100,4,3,1,63,0,0
244117,-100,4,3,7,63,0,0
244267,-100,4,3,1,63,0,0
244417,-100,4,3,8,63,0,0
244492,-100,4,3,9,63,0,0
244567,-100,4,3,10,63,0,0
244717,-100,4,3,1,63,0,0
248692,-100,4,3,1,75,0,0
248767,-100,4,3,1,63,0,0
249292,-100,4,3,1,75,0,0
249367,-100,4,3,1,63,0,0
251992,-100,4,3,1,65,0,0
252067,-100,4,3,1,63,0,0
252142,-100,4,3,1,65,0,0
252217,-100,4,3,1,63,0,0
252442,-100,4,3,1,65,0,0
252517,-100,4,3,1,63,0,0
255517,-83.3333333333333,4,3,1,63,0,0
259717,-83.3333333333333,4,3,7,63,0,0
259792,-83.3333333333333,4,3,1,63,0,0
260317,-100,4,3,1,63,0,0
264817,-100,4,3,9,63,0,0
264967,-100,4,3,10,63,0,0
265117,-100,4,3,1,63,0,0
266167,-100,4,3,1,75,0,0
266317,-100,4,3,1,63,0,0
268792,-100,4,3,1,5,0,0
268867,-100,4,3,1,63,0,0
268942,-100,4,3,1,5,0,0
269017,-100,4,3,1,63,0,0
269092,-100,4,3,1,63,0,0
269129,-100,4,3,1,5,0,0
269167,-100,4,3,1,63,0,0
269242,-100,4,3,1,5,0,0
269317,-100,4,3,1,63,0,0
269654,-100,4,3,1,5,0,0
269767,-100,4,3,1,75,0,0
269917,-100,4,3,1,63,0,0
272617,-100,4,3,7,63,0,0
272767,-100,4,3,1,63,0,0
272917,-100,4,3,8,63,0,0
273067,-100,4,3,1,63,0,0
273817,-100,4,3,7,63,0,0
273967,-100,4,3,8,63,0,0
274117,-100,4,3,9,63,0,0
274267,-100,4,3,1,63,0,0
274567,-100,4,3,10,63,0,0
274717,-100,4,3,1,63,0,0
279517,-133.333333333333,4,3,1,63,0,0
282067,-133.333333333333,4,3,1,70,0,0
282217,-133.333333333333,4,3,1,63,0,0
282367,-133.333333333333,4,3,1,70,0,0
282517,-133.333333333333,4,3,1,63,0,0
282667,-133.333333333333,4,3,1,70,0,0
282817,-133.333333333333,4,3,1,63,0,0
282967,-133.333333333333,4,3,1,70,0,0
283117,-133.333333333333,4,3,1,63,0,0
283267,-133.333333333333,4,3,1,70,0,0
283417,-133.333333333333,4,3,1,63,0,0
283567,-133.333333333333,4,3,1,70,0,0
283717,-133.333333333333,4,3,1,63,0,0
283867,-133.333333333333,4,3,1,70,0,0
284017,-133.333333333333,4,3,1,63,0,0
284167,-133.333333333333,4,3,1,70,0,0
284317,-111.111111111111,4,3,1,63,0,0
285666,-111.111111111111,4,3,1,63,0,0
285817,-111.111111111111,4,3,1,63,0,0
293617,-111.111111111111,4,3,8,63,0,0
293767,-111.111111111111,4,3,10,63,0,0
293917,-100,4,3,1,63,0,0
294892,-100,4,3,1,63,0,0
294967,-100,4,3,1,63,0,0
295342,-100,4,3,1,63,0,0
295417,-100,4,3,1,63,0,0
297292,-100,4,3,1,63,0,0
297367,-100,4,3,1,63,0,0
301117,-100,4,3,7,63,0,0
301267,-100,4,3,1,63,0,0
301342,-100,4,3,7,63,0,0
301417,-100,4,3,1,63,0,0
301567,-100,4,3,8,63,0,0
301717,-100,4,3,1,63,0,0
301792,-100,4,3,7,63,0,0
301867,-100,4,3,1,63,0,0
302017,-100,4,3,8,63,0,0
302167,-100,4,3,1,63,0,0
302242,-100,4,3,7,63,0,0
302317,-100,4,3,1,63,0,0
302467,-100,4,3,9,63,0,0
302617,-100,4,3,1,63,0,0
302992,-100,4,3,7,63,0,0
303067,-100,4,3,1,63,0,0
303217,-100,4,3,9,63,0,0
303367,-100,4,3,10,63,0,0
303517,-83.3333333333333,4,3,1,63,0,0
304266,-83.3333333333333,4,3,1,63,0,0
304417,-83.3333333333333,4,3,1,63,0,0
308241,-83.3333333333333,4,3,1,5,0,0
308317,-83.3333333333333,4,3,1,63,0,0
312292,-83.3333333333333,4,3,1,63,0,0
312367,-83.3333333333333,4,3,1,63,0,0
314842,-83.3333333333333,4,3,1,63,0,0
314917,-83.3333333333333,4,3,1,63,0,0
317391,-83.3333333333333,4,3,1,75,0,0
317841,-83.3333333333333,4,3,1,63,0,0
317917,-83.3333333333333,4,3,1,63,0,0
320692,-83.3333333333333,4,3,7,63,0,0
320767,-83.3333333333333,4,3,1,63,0,0
320917,-83.3333333333333,4,3,7,63,0,0
321067,-83.3333333333333,4,3,1,63,0,0
321442,-83.3333333333333,4,3,7,63,0,0
321517,-83.3333333333333,4,3,1,63,0,0
321742,-83.3333333333333,4,3,8,63,0,0
321967,-83.3333333333333,4,3,1,63,0,0
322416,-83.3333333333333,4,3,8,63,0,0
322717,-100,4,3,1,63,0,0
326317,-100,4,3,8,63,0,0
326467,-100,4,3,1,63,0,0
326767,-100,4,3,8,63,0,0
326917,-100,4,3,1,63,0,0
327217,-100,4,3,9,63,0,0
327367,-100,4,3,10,63,0,0
327517,-100,4,3,1,63,0,0
329917,-100,4,3,1,70,0,0
330217,-100,4,3,1,60,0,0
330367,-100,4,3,1,55,0,0
330517,-100,4,3,1,50,0,0
330667,-100,4,3,1,45,0,0
330817,-100,4,3,1,40,0,0
330967,-100,4,3,1,35,0,0
331117,-100,4,3,1,60,0,0
332317,-100,4,3,1,63,0,0
341542,-100,4,3,1,75,0,0
341617,-100,4,3,1,63,0,0
341842,-100,4,3,1,75,0,0
341917,-100,4,3,1,63,0,0
349192,-100,4,3,7,63,0,0
349267,-100,4,3,1,63,0,0
349492,-100,4,3,7,63,0,0
349567,-100,4,3,1,63,0,0
349717,-100,4,3,8,63,0,0
349867,-100,4,3,1,63,0,0
349942,-100,4,3,8,63,0,0
350017,-100,4,3,1,63,0,0
350242,-100,4,3,7,63,0,0
350317,-100,4,3,1,63,0,0
351217,-100,4,3,9,63,0,0
351367,-100,4,3,10,63,0,0
351517,-238.095238095238,4,3,1,63,0,0
356316,-238.095238095238,4,3,1,5,0,0
356317,-238.095238095238,4,3,1,5,0,0
361117,-238.095238095238,4,3,1,63,0,0
365766,-238.095238095238,4,3,1,60,0,0
365917,-238.095238095238,4,3,1,63,0,0
366816,-238.095238095238,4,3,1,60,0,0
367117,-100,4,3,7,63,0,0
367267,-100,4,3,1,63,0,0
367567,-100,4,3,8,63,0,0
367717,-100,4,3,1,63,0,0
368317,-100,4,3,8,63,0,0
368467,-100,4,3,1,63,0,0
368767,-100,4,3,8,63,0,0
368917,-100,4,3,1,63,0,0
369217,-100,4,3,9,63,0,0
369367,-100,4,3,10,63,0,0
369517,-100,4,3,1,63,0,0
370717,-83.3333333333333,4,3,1,70,0,1
377992,-83.3333333333333,4,3,7,70,0,1
378067,-83.3333333333333,4,3,9,70,0,1
378217,-83.3333333333333,4,3,1,70,0,1
378442,-83.3333333333333,4,3,7,70,0,1
378517,-83.3333333333333,4,3,8,70,0,1
378592,-83.3333333333333,4,3,9,70,0,1
378667,-83.3333333333333,4,3,1,70,0,1
378892,-83.3333333333333,4,3,7,70,0,1
378967,-83.3333333333333,4,3,1,70,0,1
380017,-83.3333333333333,4,3,8,70,0,1
380167,-83.3333333333333,4,3,10,70,0,1
380317,-100,4,3,1,70,0,1
381667,-100,4,3,1,75,0,1
381817,-100,4,3,1,70,0,1
384067,-100,4,3,1,75,0,1
384217,-100,4,3,1,70,0,1
385417,-100,4,3,7,70,0,1
385567,-100,4,3,1,70,0,1
385717,-100,4,3,8,70,0,1
386017,-100,4,3,1,70,0,1
387517,-100,4,3,1,70,0,0
390142,-100,4,3,1,5,0,0
390217,-100,4,3,1,70,0,0
390367,-100,4,3,1,75,0,0
390517,-100,4,3,1,70,0,0
391417,-100,4,3,7,70,0,0
391567,-100,4,3,1,70,0,0
391717,-100,4,3,8,70,0,0
391867,-100,4,3,1,70,0,0
392167,-100,4,3,10,70,0,0
392317,-100,4,3,1,70,0,0
394717,-100,4,3,10,70,0,0
394792,-100,4,3,1,70,0,0
395092,-100,4,3,7,70,0,0
395167,-100,4,3,1,70,0,0
395392,-100,4,3,8,70,0,0
395467,-100,4,3,1,70,0,0
395617,-100,4,3,10,70,0,0
395692,-100,4,3,1,70,0,0
395992,-100,4,3,1,63,0,0
396067,-100,4,3,1,70,0,0
396217,-100,4,3,8,70,0,0
396367,-100,4,3,1,70,0,0
396517,-100,4,3,7,70,0,0
396667,-100,4,3,1,70,0,0
396817,-100,4,3,8,70,0,0
396854,-100,4,3,1,5,0,0
396892,-100,4,3,8,70,0,0
396929,-100,4,3,1,5,0,0
396967,-100,4,3,1,70,0,0
397004,-100,4,3,1,5,0,0
397042,-100,4,3,1,70,0,0
397117,-100,4,3,7,70,0,0
397267,-100,4,3,1,70,0,0
397492,-100,4,3,8,70,0,0
397567,-100,4,3,1,70,0,0
397792,-100,4,3,7,70,0,0
397867,-100,4,3,1,70,0,0
398017,-100,4,3,8,70,0,0
398092,-100,4,3,9,70,0,0
398167,-100,4,3,10,70,0,0
398317,-100,4,3,1,70,0,0
399967,-100,4,3,1,75,0,0
400117,-100,4,3,1,70,0,0
400417,-100,4,3,8,70,0,0
400717,-100,4,3,9,70,0,0
401917,-100,4,3,1,70,0,0
402967,-100,4,3,1,5,0,0

[Colours]
Combo1 : 184,14,150
Combo2 : 234,77,0
Combo3 : 185,17,21
Combo4 : 128,0,64

[HitObjects]
63,258,2314,6,0,P|117:263|175:208,1,71.2500027179719,6|0,2:0|2:0,2:0:0:0:
201,320,2727,2,0,P|222:270|188:198,1,71.2500027179719,2|0,2:0|2:0,2:0:0:0:
302,207,3141,2,0,P|261:171|182:181,1,71.2500027179719,2|0,2:0|2:0,2:0:0:0:
225,76,3555,2,0,P|178:103|163:182,1,71.2500027179719,2|0,2:0|2:0,2:0:0:0:
201,320,3969,6,0,P|222:270|188:198,1,71.2500027179719,2|0,2:0|2:0,2:0:0:0:
302,207,4383,2,0,P|261:171|182:181,1,71.2500027179719,2|0,2:0|2:0,2:0:0:0:
226,76,4796,2,0,P|179:103|164:182,1,71.2500027179719,2|0,2:0|2:0,2:0:0:0:
77,109,5210,2,0,P|88:161|159:200,1,71.2500027179719,2|2,2:0|2:0,0:0:0:0:
322,354,5624,5,10,2:0:0:0:
388,296,5831,1,0,2:0:0:0:
353,215,6038,1,2,2:0:0:0:
265,223,6245,1,0,2:0:0:0:
388,296,6451,5,2,2:0:0:0:
353,215,6658,1,0,2:0:0:0:
265,223,6865,1,2,2:0:0:0:
245,309,7072,1,0,2:0:0:0:
362,202,7279,5,2,2:0:0:0:
258,211,7486,1,0,2:0:0:0:
235,313,7693,1,2,2:0:0:0:
324,367,7900,1,0,2:0:0:0:
258,211,8107,5,2,2:0:0:0:
235,313,8314,1,0,2:0:0:0:
324,367,8520,1,2,2:0:0:0:
403,297,8727,1,0,3:0:0:0:
403,297,8831,1,0,3:0:0:0:
403,297,8934,6,0,L|388:212,1,71.2500027179719,14|0,3:0|2:0,2:0:0:0:
496,112,9348,2,0,L|483:182,1,71.2500027179719,2|0,2:0|2:0,2:0:0:0:
316,308,9762,6,0,L|300:222,1,71.2500027179719,2|0,2:0|2:0,2:0:0:0:
412,80,10176,2,0,L|399:150,1,71.2500027179719,2|0,2:0|2:0,2:0:0:0:
224,320,10589,6,0,L|208:234,1,71.2500027179719,2|0,2:0|2:0,2:0:0:0:
328,52,11003,2,0,L|315:122,1,71.2500027179719,2|0,2:0|2:0,2:0:0:0:
128,332,11417,6,0,L|112:246,1,71.2500027179719,2|0,2:0|2:0,2:0:0:0:
240,32,11831,1,2,2:0:0:0:
399,150,12038,1,2,3:0:0:0:
108,86,12245,6,0,L|124:172,1,71.2500027179719,14|0,3:0|2:0,2:0:0:0:
16,272,12658,2,0,L|28:201,1,71.2500027179719,2|0,2:0|2:0,2:0:0:0:
196,76,13072,6,0,L|211:161,1,71.2500027179719,2|0,2:0|2:0,2:0:0:0:
100,304,13486,2,0,L|112:233,1,71.2500027179719,2|0,2:0|2:0,2:0:0:0:
288,64,13900,6,0,L|303:149,1,71.2500027179719,2|0,2:0|2:0,2:0:0:0:
184,332,14314,2,0,L|196:261,1,71.2500027179719,2|0,2:0|2:0,2:0:0:0:
376,56,14727,6,0,L|391:141,1,71.2500027179719,2|2,2:0|2:0,0:0:0:0:
412,212,15141,1,2,2:0:0:0:
432,296,15348,1,2,2:0:0:0:
300,134,15555,6,0,B|240:140|240:140|208:158|208:158|148:162,1,142.500005435944,6|2,3:0|2:0,2:0:0:0:
80,192,16176,1,2,2:0:0:0:
161,229,16383,2,0,P|169:181|153:145,1,71.2500027179719,0|0,2:0|2:0,0:0:0:0:
21,156,16796,2,0,P|58:186|97:191,1,71.2500027179719,2|2,2:0|2:0,0:0:0:0:
152,68,17210,6,0,P|106:85|83:116,1,71.2500027179719,2|0,2:0|2:0,2:0:0:0:
161,229,17624,2,0,P|206:211|229:180,1,71.2500027179719,2|0,2:0|2:0,2:0:0:0:
284,4,18038,2,0,P|238:21|215:52,1,71.2500027179719,2|0,2:0|2:0,2:0:0:0:
293,165,18452,2,0,P|338:147|361:116,1,71.2500027179719,2|0,2:0|2:0,2:0:0:0:
404,0,18865,5,2,2:0:0:0:
400,8,19279,1,2,2:0:0:0:
504,100,19693,1,2,2:0:0:0:
508,108,20107,1,2,2:0:0:0:
452,164,20314,1,0,2:0:0:0:
392,216,20520,5,2,2:0:0:0:
388,224,20934,1,2,2:0:0:0:
492,316,21348,1,2,2:0:0:0:
412,348,21555,1,2,2:0:0:0:
340,296,21762,1,2,2:0:0:0:
272,340,21969,6,0,B|184:364|208:304|128:324,1,142.500005435944,2|0,2:0|2:0,2:0:0:0:
40,356,22589,1,2,2:0:0:0:
128,328,22796,2,0,P|140:272|92:196,1,142.500005435944,2|0,2:0|2:0,2:0:0:0:
20,192,23417,1,2,2:0:0:0:
64,124,23624,1,2,2:0:0:0:
36,48,23831,6,0,P|84:44|124:68,1,71.2500027179719,2|0,2:0|2:0,2:0:0:0:
148,124,24245,2,0,P|181:134|216:128,1,71.2500027179719,2|0,2:0|2:0,2:0:0:0:
276,72,24658,2,0,L|256:244,1,142.500005435944,2|2,2:0|2:0,2:0:0:0:
248,304,25279,1,0,2:0:0:0:
412,240,25486,6,0,P|444:184|384:112,1,142.500005435944,10|0,3:0|3:0,2:0:0:0:
372,308,26107,2,0,B|436:340|436:284|524:324,1,142.500005435944,2|0,3:0|3:0,3:0:0:0:
348,180,26727,1,2,3:0:0:0:
352,176,27141,5,0,3:0:0:0:
240,368,27348,2,0,B|232:304|232:304|240:288|240:288|232:220,1,142.500005435944,2|0,3:0|3:0,2:0:0:0:
184,164,27969,2,0,P|140:168|116:192,1,71.2500027179719,0|2,2:0|2:0,0:0:0:0:
64,260,28382,1,2,2:0:0:0:
72,176,28589,1,2,2:0:0:0:
84,56,28796,6,0,L|236:68,1,142.500005435944,0|0,3:0|2:0,0:0:0:0:
296,32,29417,2,0,P|260:96|292:168,1,142.500005435944,2|0,2:0|2:0,2:0:0:0:
352,204,30038,1,0,2:0:0:0:
408,144,30245,1,0,2:0:0:0:
280,152,30451,6,0,B|260:196|260:196|272:316,1,142.500005435944,2|2,2:0|2:0,2:0:0:0:
324,360,31072,1,0,2:0:0:0:
324,360,31279,2,0,P|248:312|184:344,1,142.500005435944,2|2,2:0|2:0,2:0:0:0:
52,384,32107,6,0,B|80:356|80:356|68:248,1,142.500005435944,2|2,2:0|2:0,2:0:0:0:
16,192,32727,1,0,2:0:0:0:
16,192,32934,2,0,P|72:224|152:192,1,142.500005435944,2|2,2:0|2:0,2:0:0:0:
212,28,33762,5,2,2:0:0:0:
208,40,33969,1,0,2:0:0:0:
268,96,34176,1,2,2:0:0:0:
272,108,34382,1,0,2:0:0:0:
228,184,34589,2,0,P|292:200|356:136,1,142.500005435944,2|2,2:0|2:0,0:0:0:0:
412,76,35210,1,0,3:0:0:0:
412,76,35314,1,0,3:0:0:0:
412,76,35417,6,0,P|388:152|408:232,1,142.500005435944,2|0,3:0|2:0,2:0:0:0:
464,296,36038,2,0,B|408:304|408:304|376:328|376:328|312:336,1,142.500005435944,2|0,2:0|2:0,2:0:0:0:
256,372,36658,2,0,P|248:328|260:296,1,71.2500027179719,0|0,2:0|2:0,0:0:0:0:
340,152,37072,6,0,P|292:196|196:164,1,142.500005435944,2|2,3:0|2:0,2:0:0:0:
168,132,37693,1,0,2:0:0:0:
168,132,37900,2,0,B|80:128|116:184|40:180,1,142.500005435944,2|2,2:0|2:0,0:0:0:0:
20,168,38520,1,2,2:0:0:0:
104,112,38727,6,0,L|92:256,1,142.500005435944,2|0,0:0|2:0,0:0:0:0:
40,320,39348,2,0,P|92:292|176:332,1,142.500005435944,2|0,2:0|0:0,2:0:0:0:
216,384,39969,2,0,L|300:372,1,71.2500027179719,0|0,2:0|2:0,0:0:0:0:
392,360,40382,6,0,B|356:328|356:328|368:228,1,142.500005435944,2|2,2:0|2:0,2:0:0:0:
416,164,41003,1,0,2:0:0:0:
416,164,41210,2,0,P|380:208|288:184,1,142.500005435944,0|2,2:0|2:0,0:0:0:0:
304,120,41831,1,2,2:0:0:0:
248,64,42038,6,0,B|180:76|192:128|104:128,1,142.500005435944,0|0,0:0|2:0,0:0:0:0:
28,104,42658,2,0,P|88:144|72:232,1,142.500005435944,0|0,0:0|2:0,0:0:0:0:
24,296,43279,1,0,2:0:0:0:
112,288,43486,1,0,2:0:0:0:
176,352,43693,6,0,L|256:344,1,71.2500027179719,14|0,3:0|3:0,0:0:0:0:
259,346,44003,1,0,3:0:0:0:
272,345,44107,1,0,3:0:0:0:
300,272,44314,1,10,3:0:0:0:
300,272,44417,1,0,3:0:0:0:
300,272,44520,2,0,L|292:228,2,35.625001358986,0|0|0,3:0|3:0|3:0,0:0:0:0:
368,320,44934,1,2,2:0:0:0:
448,304,45141,1,0,2:0:0:0:
488,224,45348,6,0,P|496:176|480:144,1,71.2500027179719,2|0,2:0|2:0,3:3:0:0:
480,144,45658,1,0,2:0:0:0:
480,144,45762,1,0,2:0:0:0:
400,116,45969,1,10,3:0:0:0:
400,116,46072,1,0,3:0:0:0:
400,116,46176,2,0,L|400:164,2,35.625001358986,0|0|2,3:0|3:0|3:0,3:3:0:0:
348,52,46589,1,0,3:0:0:0:
280,88,46796,1,0,3:0:0:0:
216,40,47003,5,14,3:0:0:0:
191,34,47107,1,0,3:0:0:0:
166,34,47210,1,0,3:0:0:0:
143,41,47314,1,0,3:0:0:0:
121,54,47417,1,0,3:0:0:0:
24,36,47624,1,10,3:0:0:0:
37,57,47727,1,0,3:0:0:0:
44,81,47831,1,0,3:0:0:0:
44,105,47934,1,0,3:0:0:0:
38,130,48038,1,2,3:0:0:0:
0,216,48245,1,2,3:0:0:0:
92,204,48451,1,2,2:0:0:0:
156,272,48658,6,0,L|312:256,1,142.500005435944,10|0,3:0|3:0,0:0:0:0:
380,208,49279,2,0,P|344:260|368:352,1,142.500005435944,10|0,3:0|3:0,0:0:0:0:
436,368,49900,1,2,3:0:0:0:
512,316,50107,1,2,3:0:0:0:
472,140,50314,6,0,B|424:112|376:116|376:116|312:116|288:60|292:16|336:-8|384:-8|416:20|424:72|380:116|348:136|320:148|320:148|268:164|228:128|228:128|280:224|236:292,1,712.5,6|6,3:0|3:0,2:0:0:0:
112,348,53314,2,4,L|4:340,1,95,6|0,3:0|0:0,2:0:0:0:
17,340,56314,6,0,B|81:340|121:328|121:328|208:280|184:192|121:156|61:184|32:248|13:324|145:348|201:336|265:300|265:300|321:276|365:276|405:304|408:304,1,712.5,6|6,3:0|3:0,2:0:0:0:
512,300,59314,2,0,P|464:272|452:216,1,95,6|2,3:0|2:0,2:0:0:0:
512,28,62314,6,0,L|360:44,1,142.500005435944,6|8,3:0|2:0,2:0:0:0:
364,44,63251,1,0,3:0:0:0:
360,44,63814,2,0,P|340:92|376:172,1,142.500005435944,0|0,3:0|0:0,0:0:0:0:
428,224,64376,2,0,B|376:200|376:200|284:216,1,142.500005435944,0|0,3:0|3:0,0:0:0:0:
216,232,64939,2,0,L|228:308,1,71.2500027179719,0|0,3:0|3:0,0:0:0:0:
248,152,65314,6,0,P|172:156|132:224,1,142.500005435944,6|8,3:0|2:0,2:0:0:0:
136,216,66251,1,0,3:0:0:0:
136,228,66814,1,8,2:0:0:0:
167,244,66907,1,8,2:0:0:0:
202,250,67001,1,8,2:0:0:0:
237,244,67095,1,8,2:0:0:0:
268,226,67189,2,0,L|264:288,1,35.625001358986,0|0,3:0|3:0,0:0:0:0:
360,361,67376,2,0,L|352:297,1,35.625001358986,0|0,3:0|3:0,0:0:0:0:
436,236,67564,5,8,2:0:0:0:
458,209,67657,1,8,2:0:0:0:
467,174,67751,1,0,3:0:0:0:
461,140,67845,1,0,3:0:0:0:
441,111,67939,1,8,2:0:0:0:
404,116,68032,1,8,2:0:0:0:
364,124,68126,1,8,2:0:0:0:
316,136,68220,1,8,2:0:0:0:
264,148,68314,6,0,P|244:104|280:20,1,142.500005435944,6|8,3:0|2:0,2:0:0:0:
288,20,69251,1,0,3:0:0:0:
304,32,69814,1,8,2:0:0:0:
328,30,69907,1,0,3:0:0:0:
353,28,70001,1,0,3:0:0:0:
378,27,70095,1,0,3:0:0:0:
403,25,70189,2,0,L|400:88,1,35.625001358986,0|0,3:0|3:0,0:0:0:0:
456,132,70376,2,0,L|460:180,1,35.625001358986,8|0,2:0|3:0,0:0:0:0:
512,248,70564,5,0,3:0:0:0:
478,260,70657,1,0,3:0:0:0:
443,260,70751,1,0,3:0:0:0:
410,247,70845,1,0,3:0:0:0:
384,223,70939,2,0,P|328:220|296:244,1,71.2500027179719,8|0,2:0|3:0,0:0:0:0:
260,312,71314,5,8,2:0:0:0:
176,268,71501,2,0,L|144:272,3,23.7500009059906,8|0|0|0,2:0|3:0|3:0|3:0,0:0:0:0:
240,192,71876,5,8,2:0:0:0:
156,148,72064,2,0,L|124:152,3,23.7500009059906,8|0|0|0,2:0|3:0|3:0|3:0,0:0:0:0:
192,72,72439,1,8,2:0:0:0:
206,70,72501,1,8,2:0:0:0:
220,69,72564,1,8,2:0:0:0:
234,68,72626,1,8,2:0:0:0:
248,67,72689,1,0,3:0:0:0:
263,66,72751,1,0,3:0:0:0:
276,64,72814,6,0,L|272:100,5,23.7500009059906,0|0|0|0|0|0,3:0|3:0|3:0|3:0|0:0|0:0,0:0:0:0:
344,24,73189,2,0,L|341:0,5,23.7500009059906
408,72,73564,1,0,0:0:0:0:
417,82,73626,1,0,0:0:0:0:
424,94,73689,1,0,0:0:0:0:
429,108,73751,1,0,0:0:0:0:
432,122,73814,1,0,0:0:0:0:
431,136,73876,1,0,0:0:0:0:
428,152,73939,2,0,P|416:200|424:224,1,71.2500027179719
476,288,74220,5,0,0:0:0:0:
476,288,74317,1,0,3:0:0:0:
432,364,74467,1,0,3:0:0:0:
344,344,74617,1,0,3:0:0:0:
344,256,74767,1,0,3:0:0:0:
260,384,74917,1,0,3:0:0:0:
260,384,76717,5,0,3:0:0:0:
344,256,76867,1,0,3:0:0:0:
200,324,77017,1,0,3:0:0:0:
340,344,77167,1,0,3:0:0:0:
212,172,77317,1,0,3:0:0:0:
212,172,77567,6,0,L|156:184,6,31.6666666666667,0|0|0|0|0|0|0,2:0|2:0|2:0|2:0|2:0|2:0|2:0,2:0:0:0:
224,168,77917,1,0,3:0:0:0:
24,52,78067,1,0,3:0:0:0:
24,52,78167,6,0,L|32:84,6,31.6666666666667,0|0|0|0|0|0|0,2:0|2:0|2:0|2:0|2:0|2:0|2:0,2:0:0:0:
12,20,78517,1,0,3:0:0:0:
208,64,78767,2,0,L|200:112,6,31.6666666666667,0|0|0|0|0|0|0,2:0|2:0|2:0|2:0|2:0|2:0|2:0,2:0:0:0:
212,36,79117,5,6,3:0:0:0:
296,88,79267,2,0,L|400:76,1,95,10|2,3:2|3:2,0:0:0:0:
492,200,79567,1,10,3:2:0:0:
352,180,79717,1,2,3:2:0:0:
504,108,79867,1,10,3:2:0:0:
476,288,80017,1,2,3:2:0:0:
471,311,80092,1,0,0:0:0:0:
467,334,80167,1,10,3:2:0:0:
352,180,80317,5,6,3:0:0:0:
364,272,80467,2,0,L|376:380,1,95,10|2,3:2|3:2,0:0:0:0:
248,188,80767,1,10,3:2:0:0:
364,272,80917,1,2,3:2:0:0:
340,76,81067,1,10,3:2:0:0:
252,284,81217,1,2,3:2:0:0:
228,287,81292,1,0,0:0:0:0:
204,290,81367,1,10,3:2:0:0:
0,204,81517,5,6,3:0:0:0:
12,158,81592,1,0,3:0:0:0:
49,130,81667,1,10,3:2:0:0:
95,128,81742,1,0,3:0:0:0:
134,154,81817,1,2,3:2:0:0:
150,198,81892,1,0,3:0:0:0:
136,243,81967,1,10,3:2:0:0:
100,272,82042,1,0,3:0:0:0:
52,276,82117,1,2,3:2:0:0:
22,311,82192,1,0,3:0:0:0:
28,357,82267,1,10,3:2:0:0:
65,384,82342,1,0,3:0:0:0:
110,376,82417,2,0,L|184:384,1,47.5,2|0,3:2|3:0,3:0:0:0:
301,249,82567,2,0,L|245:261,1,47.5,10|0,3:2|3:0,3:0:0:0:
72,200,82717,5,2,3:2:0:0:
45,161,82792,1,0,3:0:0:0:
42,114,82867,1,10,3:2:0:0:
64,73,82942,1,0,3:0:0:0:
105,50,83017,1,2,3:2:0:0:
151,51,83092,1,0,3:0:0:0:
191,77,83167,1,10,3:2:0:0:
210,120,83242,1,0,3:0:0:0:
204,166,83317,6,0,L|216:236,1,47.5,2|0,3:2|3:0,0:0:0:0:
328,252,83467,2,0,L|258:263,1,47.5,10|0,3:2|3:0,0:0:0:0:
240,372,83617,2,0,L|228:302,1,47.5,2|0,3:2|3:0,0:0:0:0:
116,288,83767,2,0,L|185:276,1,47.5,10|0,3:2|3:0,0:0:0:0:
416,240,83917,5,14,3:0:0:0:
433,211,83992,1,0,3:0:0:0:
440,179,84067,1,0,3:0:0:0:
434,146,84142,1,0,3:0:0:0:
418,118,84217,1,10,3:0:0:0:
403,89,84292,1,0,3:0:0:0:
403,56,84367,1,0,3:0:0:0:
420,27,84442,1,0,3:0:0:0:
448,10,84517,6,0,L|520:16,1,47.5,10|0,3:0|3:0,3:0:0:0:
344,173,84667,2,0,L|253:164,1,47.5,2|0,3:0|3:0,3:0:0:0:
440,20,84817,2,0,L|511:25,1,47.5,10|0,3:0|3:0,3:0:0:0:
335,182,84967,2,0,L|243:172,1,47.5,2|0,3:0|3:0,3:0:0:0:
252,16,85117,5,10,3:0:0:0:
176,84,85267,1,0,3:0:0:0:
176,84,85342,1,0,3:0:0:0:
176,84,85417,2,0,P|164:148|180:176,1,95,10|2,3:0|3:0,3:0:0:0:
272,248,85717,1,10,3:0:0:0:
305,244,85792,1,0,3:0:0:0:
338,241,85867,1,2,3:0:0:0:
371,238,85942,1,0,3:0:0:0:
404,235,86017,2,0,L|392:336,1,95,10|0,3:0|3:0,3:0:0:0:
236,380,86317,6,0,L|244:320,1,47.5,6|0,3:0|0:0,0:0:0:0:
264,168,86467,1,8,2:0:0:0:
264,168,86542,1,8,2:0:0:0:
264,168,86617,2,0,L|184:176,1,47.5,0|8,0:0|2:0,0:0:0:0:
44,204,86767,2,0,L|116:192,1,47.5,8|8,2:0|2:0,0:0:0:0:
282,86,86917,5,0,3:0:0:0:
310,87,86992,1,0,3:0:0:0:
338,89,87067,1,0,3:0:0:0:
367,90,87142,1,0,3:0:0:0:
386,111,87217,1,0,3:0:0:0:
415,110,87292,1,0,3:0:0:0:
443,108,87367,1,0,3:0:0:0:
471,107,87442,1,0,3:0:0:0:
499,107,87517,6,0,L|494:56,3,47.5,8|0|0|0,0:0|3:0|3:0|3:0,0:0:0:0:
437,185,87817,2,0,L|432:236,3,47.5,0|0|0|0,3:0|3:0|3:0|3:0,0:0:0:0:
494,344,88117,5,8,2:0:0:0:
471,319,88192,1,8,2:0:0:0:
441,304,88267,1,0,3:0:0:0:
409,299,88342,1,0,3:0:0:0:
375,303,88417,1,0,3:0:0:0:
330,318,88492,1,0,3:0:0:0:
284,311,88567,1,0,3:0:0:0:
246,283,88642,1,0,3:0:0:0:
221,237,88717,6,0,L|236:376,1,95,6|10,3:0|3:2,3:0:0:0:
70,249,89017,1,2,3:2:0:0:
70,249,89092,1,0,3:0:0:0:
70,249,89167,1,10,3:2:0:0:
162,145,89317,2,0,B|204:121|204:121|288:137,1,95,2|10,3:2|3:2,3:0:0:0:
363,214,89617,1,2,3:2:0:0:
363,214,89692,1,0,3:0:0:0:
363,214,89767,1,10,3:2:0:0:
459,69,89917,6,0,B|417:45|417:45|333:61,1,95,6|8,3:0|0:0,3:0:0:0:
258,138,90217,1,2,3:2:0:0:
258,138,90292,1,0,3:0:0:0:
258,138,90367,1,10,3:2:0:0:
168,21,90517,1,2,3:2:0:0:
67,105,90667,2,0,L|79:177,1,47.5,10|0,0:2|3:0,3:0:0:0:
146,188,90817,2,0,L|132:255,1,47.5,2|0,3:2|3:0,3:0:0:0:
74,286,90967,2,0,L|88:361,1,47.5,10|0,3:2|3:0,3:0:0:0:
205,270,91117,6,0,P|257:264|315:299,1,95,6|10,3:0|3:2,3:0:0:0:
430,367,91417,1,2,3:2:0:0:
426,333,91492,1,0,3:0:0:0:
423,300,91567,1,10,3:2:0:0:
419,267,91642,1,0,3:0:0:0:
416,234,91717,2,0,L|520:244,1,95,2|10,3:2|3:2,0:0:0:0:
422,96,92017,1,2,3:2:0:0:
422,96,92092,1,0,3:0:0:0:
422,96,92167,1,10,3:2:0:0:
338,177,92317,5,2,3:2:0:0:
291,184,92392,1,0,3:0:0:0:
248,167,92467,1,10,3:2:0:0:
219,129,92542,1,0,3:0:0:0:
182,100,92617,1,2,3:2:0:0:
136,93,92692,1,0,3:0:0:0:
92,108,92767,1,10,3:2:0:0:
60,143,92842,1,0,3:0:0:0:
49,189,92917,1,2,3:2:0:0:
62,234,92992,1,0,3:0:0:0:
94,268,93067,1,10,3:2:0:0:
139,282,93142,1,0,3:0:0:0:
185,273,93217,1,2,3:2:0:0:
231,261,93292,1,0,3:0:0:0:
276,275,93367,2,0,P|303:301|321:341,1,47.5,10|0,3:2|3:0,0:0:0:0:
440,362,93517,5,6,3:0:0:0:
399,330,93592,1,0,3:0:0:0:
375,283,93667,1,10,3:2:0:0:
375,232,93742,1,0,3:0:0:0:
397,184,93817,1,10,3:2:0:0:
437,151,93892,1,0,3:0:0:0:
455,103,93967,1,10,3:2:0:0:
445,52,94042,1,0,3:0:0:0:
410,14,94117,1,10,3:2:0:0:
360,0,94192,1,0,3:0:0:0:
310,14,94267,1,10,3:2:0:0:
275,52,94342,1,0,3:0:0:0:
265,102,94417,1,10,3:2:0:0:
282,151,94492,1,0,3:0:0:0:
313,192,94567,1,10,3:2:0:0:
373,201,94642,1,0,3:0:0:0:
422,184,94717,5,10,3:2:0:0:
378,155,94792,1,0,3:0:0:0:
327,144,94867,1,10,3:2:0:0:
276,152,94942,1,0,3:0:0:0:
231,179,95017,1,10,3:2:0:0:
199,219,95092,1,0,3:0:0:0:
156,248,95167,1,10,3:2:0:0:
105,254,95242,1,0,3:0:0:0:
57,234,95317,1,10,3:2:0:0:
32,189,95392,1,0,3:0:0:0:
32,137,95467,1,10,3:2:0:0:
58,92,95542,1,0,3:0:0:0:
102,66,95617,1,10,3:2:0:0:
154,64,95692,1,0,3:0:0:0:
200,88,95767,1,10,3:2:0:0:
228,131,95842,1,0,3:0:0:0:
231,179,95917,5,6,3:0:0:0:
227,212,95992,1,0,3:0:0:0:
224,245,96067,1,0,3:0:0:0:
220,278,96142,1,0,3:0:0:0:
217,311,96217,2,0,L|281:301,1,47.5,10|0,3:0|3:0,0:0:0:0:
408,362,96367,5,0,3:0:0:0:
422,332,96442,1,0,3:0:0:0:
425,299,96517,1,2,3:0:0:0:
417,267,96592,1,0,3:0:0:0:
398,239,96667,2,0,P|394:201|405:164,1,47.5,0|0,3:0|3:0,0:0:0:0:
482,57,96817,1,10,3:0:0:0:
454,75,96892,1,0,3:0:0:0:
422,83,96967,1,0,3:0:0:0:
389,81,97042,1,0,3:0:0:0:
359,68,97117,5,2,3:0:0:0:
315,50,97192,1,0,3:0:0:0:
269,57,97267,1,0,3:0:0:0:
233,87,97342,1,0,3:0:0:0:
218,131,97417,1,10,3:0:0:0:
228,177,97492,1,0,3:0:0:0:
260,211,97567,1,0,3:0:0:0:
305,224,97642,1,0,3:0:0:0:
350,211,97717,1,2,3:0:0:0:
395,223,97792,1,0,3:0:0:0:
427,257,97867,1,0,3:0:0:0:
437,303,97942,1,0,3:0:0:0:
422,347,98017,1,10,3:0:0:0:
386,377,98092,1,0,3:0:0:0:
340,384,98167,1,0,3:0:0:0:
296,366,98242,1,0,3:0:0:0:
237,300,98317,6,0,L|245:214,2,63.3333333333333,8|8|8,2:0|2:0|2:0,0:0:0:0:
151,321,98617,2,0,L|156:384,2,63.3333333333333,8|8|8,2:0|2:0|2:0,0:0:0:0:
63,281,98917,5,6,3:0:0:0:
66,266,99017,1,0,3:0:0:0:
69,251,99117,1,0,3:0:0:0:
140,189,99217,5,6,3:0:0:0:
137,174,99317,1,0,3:0:0:0:
134,159,99417,1,0,3:0:0:0:
73,84,99517,6,0,P|36:80|0:93,2,63.3333333333333,8|8|8,2:0|2:0|2:0,0:0:0:0:
161,25,99817,2,0,P|192:29|222:22,2,63.3333333333333,8|8|8,2:0|2:0|2:0,0:0:0:0:
208,128,100117,5,6,3:0:0:0:
223,125,100217,1,0,3:0:0:0:
238,122,100317,1,0,3:0:0:0:
312,52,100417,5,6,3:0:0:0:
327,55,100517,1,0,3:0:0:0:
342,58,100617,1,0,3:0:0:0:
438,83,100717,6,0,L|433:1,2,63.3333333333333,8|8|8,2:0|2:0|2:0,0:0:0:0:
493,161,101017,1,8,2:0:0:0:
458,179,101117,1,8,2:0:0:0:
420,177,101217,1,8,2:0:0:0:
336,150,101317,5,8,2:0:0:0:
340,164,101417,1,8,2:0:0:0:
344,176,101517,1,8,2:0:0:0:
384,256,101617,5,8,2:0:0:0:
380,270,101717,1,0,0:0:0:0:
376,282,101817,1,0,0:0:0:0:
330,384,101917,1,2,2:1:0:0:
330,384,102217,6,0,P|282:310|125:335,1,190.000007247925,6|0,3:0|3:0,3:0:0:0:
102,365,102517,2,0,B|104:229|104:229|153:183,1,190.000007247925,6|0,3:0|3:0,3:0:0:0:
247,182,102817,2,0,P|153:159|139:51,1,190.000007247925,6|0,3:0|3:0,3:0:0:0:
210,24,103117,6,0,B|420:2|283:174|521:107,1,341.999989562989,14|0,2:3|0:0,0:0:0:0:
509,311,112267,5,0,3:0:0:0:
441,251,112417,2,0,L|327:261,1,95,8|0,2:0|0:2,2:0:0:0:
251,211,112717,6,0,P|247:296|272:329,1,95,6|0,3:0|3:0,3:0:0:0:
336,148,113017,2,0,P|340:63|315:30,1,95,10|0,3:0|3:0,3:0:0:0:
142,114,113317,2,0,L|278:104,1,95,2|0,3:0|3:0,0:2:0:0:
68,41,113617,1,10,3:0:0:0:
68,41,113767,2,0,P|37:105|55:168,1,95,0|2,3:0|3:0,0:0:0:0:
185,254,114067,6,0,P|108:207|73:219,1,95,0|10,3:0|3:0,0:0:0:0:
4,345,114367,6,0,B|67:319|67:319|217:342,1,190,0|0,3:0|3:0,0:2:0:0:
301,207,114817,1,10,3:0:0:0:
269,384,114967,1,0,3:0:0:0:
247,133,115117,2,0,P|304:112|362:143,1,95,2|0,3:0|3:0,3:0:0:0:
485,190,115417,2,0,P|428:211|370:180,1,95,10|0,3:0|3:0,3:0:0:0:
455,7,115717,2,0,L|468:115,1,95,2|0,3:0|3:0,3:0:0:0:
498,315,116017,1,10,3:0:0:0:
498,315,116167,6,0,P|427:334|387:320,1,95,0|2,3:0|3:0,3:0:0:0:
229,283,116467,2,0,P|300:264|340:278,1,95,0|10,3:0|3:0,3:0:0:0:
177,370,116767,2,0,L|194:158,1,190,0|0,3:0|3:0,3:0:0:0:
87,76,117217,1,10,3:0:0:0:
293,141,117367,1,0,3:0:0:0:
19,14,117517,6,0,B|29:90|29:90|17:111|17:111|35:215,1,190,2|10,0:0|3:0,0:0:0:0:
79,371,117967,1,0,3:0:0:0:
127,297,118117,2,0,P|69:282|18:310,1,95,2|0,3:0|3:0,3:0:0:0:
204,156,118417,1,10,3:0:0:0:
260,227,118567,2,0,P|361:223|415:117,1,190,0|0,3:0|3:0,3:0:0:0:
296,36,119017,1,10,3:0:0:0:
296,36,119167,2,0,P|304:86|311:163,1,95,0|2,3:0|3:0,3:0:0:0:
500,234,119467,2,0,P|505:186|512:139,1,95,0|10,3:0|3:0,3:0:0:0:
399,38,119767,1,0,3:0:0:0:
399,38,119917,6,0,B|407:120|407:120|396:145|396:145|416:267,1,190,2|10,3:0|3:0,0:2:0:0:
317,375,120367,1,0,3:0:0:0:
502,335,120517,2,0,P|447:304|384:327,1,95,2|0,3:0|3:0,3:0:0:0:
279,355,120817,1,10,3:0:0:0:
249,172,120967,2,0,P|280:251|272:376,1,190,0|0,3:0|3:0,3:0:0:0:
147,195,121417,2,0,P|147:138|180:98,1,95,10|0,3:0|3:0,0:2:0:0:
331,107,121717,1,2,3:0:0:0:
249,172,121867,1,0,3:0:0:0:
415,44,122017,1,2,3:0:0:0:
167,107,122167,1,8,2:0:0:0:
167,107,122242,1,8,2:0:0:0:
167,107,122317,6,0,P|252:69|344:130,1,190,6|10,3:0|0:0,3:0:0:0:
409,254,122767,1,0,3:0:0:0:
483,213,122917,2,0,L|472:93,1,95,2|0,3:0|3:0,3:0:0:0:
341,16,123217,2,0,L|332:110,1,95,10|0,3:0|0:0,3:0:0:0:
310,288,123517,2,0,B|234:297|187:256|187:256|233:245|273:253,1,190,2|10,3:0|3:0,3:0:0:0:
409,254,123967,2,0,P|414:322|386:362,1,95,0|2,3:0|3:0,3:0:0:0:
325,200,124267,2,0,P|320:132|348:92,1,95,0|10,3:0|3:0,0:2:0:0:
448,36,124567,1,0,3:0:0:0:
331,109,124717,6,0,B|267:87|267:87|115:103,1,190,6|10,3:0|3:0,3:0:0:0:
67,48,125167,1,0,3:0:0:0:
151,189,125317,2,0,P|160:131|130:85,1,95,2|0,3:0|3:0,3:0:0:0:
8,119,125617,2,0,P|-2:164|13:208,1,95,10|0,3:0|3:0,3:0:0:0:
111,303,125917,2,0,B|208:327|183:243|303:247,1,190,2|10,3:0|3:0,3:0:0:0:
371,327,126367,2,0,B|328:292|328:292|350:123,1,190,0|0,3:0|3:0,3:0:0:0:
455,63,126817,2,0,L|471:164,1,95,10|0,3:0|0:0,3:0:0:0:
331,33,127117,6,0,B|248:43|248:43|213:61|213:61|115:54,1,190,6|10,3:0|3:0,3:0:0:0:
25,40,127567,1,0,3:0:0:0:
133,150,127717,2,0,L|150:23,1,95,2|0,3:0|3:0,0:2:0:0:
42,238,128017,2,0,L|25:111,1,95,10|0,3:0|3:0,0:0:0:0:
230,226,128317,5,2,3:0:0:0:
42,236,128467,1,0,3:0:0:0:
166,348,128617,1,10,3:0:0:0:
133,150,128767,1,0,3:0:0:0:
286,299,128917,1,2,3:0:0:0:
214,69,129067,1,0,3:0:0:0:
141,247,129217,1,10,3:0:0:0:
294,131,129367,1,0,3:0:0:0:
294,131,129442,1,0,3:0:0:0:
294,131,129517,5,8,2:0:0:0:
322,113,129592,1,0,3:0:0:0:
354,106,129667,1,0,3:0:0:0:
387,110,129742,1,0,3:0:0:0:
417,125,129817,2,0,L|474:119,3,47.5,0|0|0|0,3:0|3:0|3:0|3:0,1:1:0:0:
352,213,130117,2,0,L|295:206,3,47.5,8|0|0|0,2:0|3:0|3:0|3:0,1:1:0:0:
431,258,130417,1,0,3:0:0:0:
434,281,130492,1,0,3:0:0:0:
437,305,130567,1,0,3:0:0:0:
440,328,130642,1,0,3:0:0:0:
443,352,130717,5,14,3:0:0:0:
442,354,131917,5,6,3:0:0:0:
399,316,131992,1,0,3:0:0:0:
346,298,132067,1,10,3:0:0:0:
289,304,132142,1,0,3:0:0:0:
240,332,132217,1,0,3:0:0:0:
192,362,132292,1,0,3:0:0:0:
136,359,132367,1,10,3:0:0:0:
91,325,132442,1,0,3:0:0:0:
73,272,132517,1,0,3:0:0:0:
88,218,132592,1,0,3:0:0:0:
130,182,132667,1,10,3:0:0:0:
186,175,132742,1,0,3:0:0:0:
241,190,132817,1,0,3:0:0:0:
294,171,132892,1,0,3:0:0:0:
326,125,132967,1,10,3:0:0:0:
325,69,133042,1,0,3:0:0:0:
292,23,133117,6,0,P|289:57|298:86,3,56.9999982604981,0|0|10|0,3:0|3:0|3:0|3:0,0:0:0:0:
398,137,133417,2,0,L|485:130,1,56.9999982604981,0|0,3:0|3:0,0:0:0:0:
297,194,133567,2,0,L|240:189,1,56.9999982604981,10|0,3:0|3:0,0:0:0:0:
398,241,133717,5,2,3:0:0:0:
426,240,133792,1,0,0:0:0:0:
454,239,133867,1,10,3:0:0:0:
483,238,133942,1,0,0:0:0:0:
511,238,134017,5,2,3:0:0:0:
468,290,134092,1,0,0:0:0:0:
405,314,134167,1,10,3:0:0:0:
339,302,134242,1,0,0:0:0:0:
288,258,134317,5,0,3:0:0:0:
238,231,134392,1,0,3:0:0:0:
182,234,134467,1,10,3:0:0:0:
136,266,134542,1,0,3:0:0:0:
125,322,134617,1,0,3:0:0:0:
168,359,134692,1,0,3:0:0:0:
223,346,134767,1,10,3:0:0:0:
251,296,134842,1,0,3:0:0:0:
242,239,134917,1,0,3:0:0:0:
220,186,134992,1,0,3:0:0:0:
200,133,135067,1,10,3:0:0:0:
214,78,135142,1,0,3:0:0:0:
255,40,135217,1,0,3:0:0:0:
310,30,135292,1,0,3:0:0:0:
361,53,135367,1,10,3:0:0:0:
378,107,135442,1,0,3:0:0:0:
363,162,135517,6,0,L|458:144,3,56.9999982604981,0|0|10|0,3:0|3:0|3:0|3:0,0:0:0:0:
492,269,135817,2,0,L|410:258,1,56.9999982604981,2|0,0:0|0:0,0:0:0:0:
345,246,135967,2,0,L|263:235,1,56.9999982604981,2|0,0:0|0:0,0:0:0:0:
157,235,136117,1,2,3:0:0:0:
158,249,136192,1,0,3:0:0:0:
160,263,136267,1,10,3:0:0:0:
162,277,136342,1,0,0:0:0:0:
162,292,136417,5,2,3:0:0:0:
104,257,136492,1,0,0:0:0:0:
85,193,136567,1,8,0:0:0:0:
114,133,136642,1,0,3:0:0:0:
176,108,136717,5,6,3:0:0:0:
230,127,136792,1,0,3:0:0:0:
257,180,136867,1,10,3:0:0:0:
303,211,136942,1,0,3:0:0:0:
359,218,137017,1,0,3:0:0:0:
412,197,137092,1,0,3:0:0:0:
449,154,137167,1,10,3:0:0:0:
462,99,137242,1,0,3:0:0:0:
436,48,137317,2,0,L|361:62,3,56.9999982604981,0|0|10|0,3:0|3:0|3:0|3:0,0:0:0:0:
251,116,137617,2,0,L|307:120,1,56.9999982604981,0|0,3:0|3:0,0:0:0:0:
468,192,137767,2,0,L|411:196,1,56.9999982604981,10|0,3:0|3:0,0:0:0:0:
221,19,137917,5,0,3:0:0:0:
175,52,137992,1,0,3:0:0:0:
156,105,138067,1,10,3:0:0:0:
167,160,138142,1,0,3:0:0:0:
207,200,138217,1,2,3:0:0:0:
252,233,138292,1,0,3:0:0:0:
271,286,138367,1,10,3:0:0:0:
260,341,138442,1,0,3:0:0:0:
219,380,138517,6,0,L|69:370,1,113.999996520996,2|10,3:0|3:0,3:0:0:0:
0,344,138742,2,0,L|162:337,1,113.999996520996,0|0,3:0|3:0,3:0:0:0:
236,335,138967,2,0,L|224:264,1,56.9999982604981,10|0,3:0|3:0,3:0:0:0:
243,108,139117,5,6,3:0:0:0:
293,83,139192,1,0,3:0:0:0:
348,93,139267,1,10,3:0:0:0:
386,135,139342,1,0,3:0:0:0:
392,190,139417,1,0,3:0:0:0:
363,239,139492,1,0,3:0:0:0:
317,271,139567,1,10,3:0:0:0:
258,259,139642,1,0,3:0:0:0:
213,223,139717,1,0,3:0:0:0:
158,208,139792,1,0,3:0:0:0:
107,229,139867,1,10,3:0:0:0:
78,277,139942,1,0,3:0:0:0:
84,333,140017,2,0,P|104:305|105:254,3,56.9999982604981,0|0|10|0,3:0|3:0|3:0|3:0,0:0:0:0:
9,116,140317,5,0,3:0:0:0:
59,71,140392,1,8,2:0:0:0:
125,56,140467,1,8,2:0:0:0:
191,75,140542,1,8,2:0:0:0:
239,122,140617,1,8,3:0:0:0:
291,144,140692,1,8,2:0:0:0:
348,144,140767,1,8,2:0:0:0:
399,121,140842,1,8,2:0:0:0:
438,80,140917,5,0,3:0:0:0:
436,120,140992,1,0,3:0:0:0:
434,160,141067,1,0,3:0:0:0:
432,200,141142,1,0,3:0:0:0:
454,227,141217,1,0,3:0:0:0:
456,255,141292,1,0,3:0:0:0:
459,283,141367,1,0,3:0:0:0:
462,312,141442,1,0,3:0:0:0:
467,336,141517,5,6,3:0:0:0:
404,361,141592,1,0,3:0:0:0:
338,349,141667,1,10,3:0:0:0:
289,302,141742,1,0,3:0:0:0:
273,237,141817,1,0,3:0:0:0:
291,170,141892,1,0,3:0:0:0:
320,109,141967,1,10,3:0:0:0:
306,44,142042,1,0,3:0:0:0:
253,2,142117,1,2,3:0:0:0:
186,3,142192,1,0,3:0:0:0:
134,45,142267,1,10,3:0:0:0:
126,113,142342,1,2,3:0:0:0:
163,169,142417,1,0,3:0:0:0:
227,191,142492,1,0,3:0:0:0:
291,170,142567,1,10,3:0:0:0:
320,109,142642,1,0,3:0:0:0:
306,44,142717,6,0,L|374:46,3,56.9999982604981,6|0|10|0,3:0|3:0|3:0|3:0,0:0:0:0:
466,129,143017,2,0,L|398:130,3,56.9999982604981,0|0|10|0,3:0|3:0|3:0|3:0,0:0:0:0:
493,256,143317,5,0,3:0:0:0:
466,226,143392,1,0,3:0:0:0:
430,210,143467,1,10,3:0:0:0:
390,208,143542,1,0,3:0:0:0:
353,221,143617,1,2,3:0:0:0:
315,234,143692,1,0,3:0:0:0:
276,232,143767,1,10,3:0:0:0:
240,215,143842,1,0,3:0:0:0:
208,190,143917,6,0,B|230:248|230:248|212:352,1,113.999996520996,2|10,3:0|3:0,3:0:0:0:
157,348,144142,2,0,L|29:344,1,113.999996520996,2|2,3:0|3:0,3:0:0:0:
26,265,144367,2,0,L|115:271,1,56.9999982604981,10|0,3:0|3:0,0:0:0:0:
206,190,144517,6,0,P|222:116|178:66,1,113.999996520996,2|10,3:0|3:0,3:0:0:0:
75,27,144742,2,0,P|115:78|193:72,1,113.999996520996,2|0,3:0|3:0,3:0:0:0:
260,19,144967,2,0,L|328:24,1,56.9999982604981,10|0,3:0|3:0,3:0:0:0:
424,0,145117,5,2,3:0:0:0:
462,40,145192,1,0,3:0:0:0:
475,95,145267,1,10,3:0:0:0:
458,149,145342,1,0,3:0:0:0:
416,187,145417,1,0,3:0:0:0:
378,229,145492,1,0,3:0:0:0:
367,284,145567,1,10,3:0:0:0:
385,337,145642,1,0,3:0:0:0:
427,374,145717,6,0,L|511:365,1,56.9999982604981,2|0,3:0|3:0,3:0:0:0:
310,188,145867,2,0,L|210:178,1,56.9999982604981,10|0,3:0|3:0,0:0:0:0:
425,362,146017,2,0,L|508:352,1,56.9999982604981,2|0,3:0|3:0,0:0:0:0:
308,175,146167,2,0,L|207:164,1,56.9999982604981,10|0,3:0|2:0,2:0:0:0:
61,239,146317,5,14,3:2:0:0:
30,167,146392,1,0,3:0:0:0:
59,95,146467,1,10,3:2:0:0:
130,64,146542,1,0,3:0:0:0:
202,93,146617,1,10,3:2:0:0:
234,163,146692,1,0,3:0:0:0:
244,240,146767,1,10,3:2:0:0:
299,296,146842,1,0,3:0:0:0:
377,305,146917,1,10,3:2:0:0:
445,266,146992,1,0,3:0:0:0:
474,193,147067,1,10,3:2:0:0:
453,118,147142,1,0,3:0:0:0:
388,71,147217,1,10,3:2:0:0:
308,81,147292,1,0,3:0:0:0:
257,142,147367,1,10,3:2:0:0:
217,211,147442,1,0,3:0:0:0:
141,236,147517,5,10,3:2:0:0:
67,208,147592,1,0,3:0:0:0:
31,139,147667,1,10,3:2:0:0:
49,63,147742,1,0,3:0:0:0:
113,18,147817,1,10,3:2:0:0:
191,27,147892,1,0,3:0:0:0:
249,82,147967,1,10,3:2:0:0:
244,161,148042,1,0,3:0:0:0:
203,229,148117,1,10,3:2:0:0:
176,290,148192,1,0,3:0:0:0:
198,353,148267,1,10,3:2:0:0:
261,380,148342,1,0,3:0:0:0:
324,358,148417,1,10,3:2:0:0:
347,296,148492,1,0,3:0:0:0:
326,230,148567,1,10,3:2:0:0:
262,204,148642,1,0,3:0:0:0:
203,229,148717,6,0,L|129:221,1,56.9999982604981,14|0,3:0|3:0,0:0:0:0:
188,59,148867,1,8,0:2:0:0:
227,62,148942,1,8,0:2:0:0:
267,65,149017,1,8,3:2:0:0:
307,68,149092,1,8,0:2:0:0:
347,71,149167,1,8,2:0:0:0:
386,76,149242,1,8,2:0:0:0:
425,82,149317,5,8,3:2:0:0:
444,102,149392,1,0,3:0:0:0:
457,127,149467,1,0,3:0:0:0:
463,155,149542,1,0,3:0:0:0:
461,184,149617,1,8,2:0:0:0:
443,225,149692,1,0,3:0:0:0:
436,270,149767,1,0,3:0:0:0:
446,314,149842,1,0,3:0:0:0:
470,352,149917,6,0,L|409:347,3,56.9999982604981,8|8|0|0,2:0|2:0|3:0|3:0,0:0:0:0:
349,282,150217,2,0,L|288:287,3,56.9999982604981,8|8|8|8,2:0|2:0|3:0|3:0,0:0:0:0:
212,354,150517,1,0,3:0:0:0:
197,329,150592,1,0,3:0:0:0:
191,301,150667,1,0,3:0:0:0:
192,273,150742,1,0,3:0:0:0:
202,245,150817,1,0,3:0:0:0:
209,217,150892,1,0,3:0:0:0:
208,203,150967,1,0,3:0:0:0:
203,190,151042,1,0,3:0:0:0:
187,168,151117,5,6,3:0:0:0:
140,199,151192,1,0,3:0:0:0:
84,197,151267,1,0,3:0:0:0:
40,163,151342,1,0,3:0:0:0:
23,109,151417,1,10,3:0:0:0:
42,56,151492,1,0,3:0:0:0:
88,24,151567,1,0,3:0:0:0:
144,25,151642,1,0,3:0:0:0:
189,58,151717,2,0,P|217:30|224:3,3,56.9999982604981,10|0|0|0,3:0|3:0|3:0|3:0,0:0:0:0:
264,135,152017,2,0,P|236:163|229:190,3,56.9999982604981,10|0|0|0,3:0|3:0|3:0|3:0,0:0:0:0:
362,56,152317,5,10,3:0:0:0:
399,97,152392,1,0,3:0:0:0:
406,153,152467,1,0,3:0:0:0:
376,202,152542,1,0,3:0:0:0:
350,251,152617,1,10,3:0:0:0:
364,305,152692,1,0,3:0:0:0:
410,336,152767,1,0,3:0:0:0:
463,315,152842,1,0,3:0:0:0:
480,260,152917,2,0,P|445:230|404:226,3,56.9999982604981,10|0|0|0,3:0|3:0|3:0|3:0,0:0:0:0:
353,193,153217,2,0,P|322:208|294:252,3,56.9999982604981,10|0|2|0,3:0|3:0|3:0|3:0,0:0:0:0:
277,315,153517,5,14,3:0:0:0:
225,338,153592,1,0,3:0:0:0:
171,326,153667,1,0,3:0:0:0:
133,284,153742,1,0,3:0:0:0:
128,228,153817,1,10,3:0:0:0:
148,176,153892,1,0,3:0:0:0:
128,125,153967,1,0,3:0:0:0:
77,101,154042,1,0,3:0:0:0:
24,118,154117,6,0,P|79:127|126:112,3,56.9999982604981,10|0|0|0,3:0|3:0|3:0|3:0,0:0:0:0:
190,20,154417,2,0,P|135:11|88:26,3,56.9999982604981,10|0|0|0,3:0|3:0|3:0|3:0,0:0:0:0:
274,100,154717,5,10,3:0:0:0:
274,100,154792,1,0,3:0:0:0:
274,100,154867,2,0,L|281:174,1,56.9999982604981,0|0,3:0|3:0,0:0:0:0:
472,28,155017,5,10,3:0:0:0:
472,28,155092,1,0,3:0:0:0:
472,28,155167,2,0,L|465:102,1,56.9999982604981,0|0,3:0|3:0,0:0:0:0:
455,296,155317,5,10,3:0:0:0:
455,296,155392,1,0,3:0:0:0:
455,296,155467,2,0,L|529:303,1,56.9999982604981,0|0,3:0|3:0,3:0:0:0:
407,137,155617,5,10,3:0:0:0:
407,137,155692,1,0,3:0:0:0:
407,137,155767,2,0,L|333:130,1,56.9999982604981,0|0,3:0|3:0,3:0:0:0:
330,285,155917,5,14,3:0:0:0:
275,299,155992,1,0,3:0:0:0:
223,280,156067,1,0,3:0:0:0:
191,234,156142,1,0,3:0:0:0:
191,178,156217,1,10,3:0:0:0:
217,127,156292,1,0,3:0:0:0:
206,72,156367,1,0,3:0:0:0:
162,37,156442,1,0,3:0:0:0:
106,39,156517,1,10,3:0:0:0:
81,70,156592,1,0,3:0:0:0:
73,109,156667,1,0,3:0:0:0:
81,147,156742,1,0,3:0:0:0:
106,178,156817,1,10,3:0:0:0:
120,203,156892,1,0,3:0:0:0:
126,231,156967,1,0,3:0:0:0:
123,259,157042,1,0,3:0:0:0:
112,285,157117,6,0,P|85:290|50:284,3,56.9999982604981,10|0|0|0,3:0|3:0|3:0|3:0,3:0:0:0:
194,356,157417,2,0,P|221:351|256:357,3,56.9999982604981,10|0|0|0,3:0|3:0|3:0|3:0,0:0:0:0:
108,275,157717,2,0,P|81:280|46:274,3,56.9999982604981,10|0|0|0,3:0|3:0|3:0|3:0,0:0:0:0:
190,346,158017,2,0,P|217:341|252:347,3,56.9999982604981,10|0|0|0,3:0|3:0|3:0|3:0,3:0:0:0:
102,260,158317,6,0,L|87:131,1,113.999996520996,14|0,3:0|3:0,0:0:0:0:
88,128,158542,1,0,3:0:0:0:
88,128,158617,1,0,3:0:0:0:
240,64,158767,2,0,P|159:74|122:40,1,113.999996520996,10|0,3:0|3:0,0:0:0:0:
120,35,158992,1,0,3:0:0:0:
120,35,159067,1,0,3:0:0:0:
333,18,159217,1,10,3:0:0:0:
330,46,159292,1,0,3:0:0:0:
328,74,159367,1,0,3:0:0:0:
326,103,159442,1,0,3:0:0:0:
324,131,159517,6,0,P|402:142|473:14,1,227.999993041992,10|0,3:0|3:0,0:0:0:0:
253,60,159967,2,0,B|228:115|228:115|256:301,1,227.999993041992,10|0,3:0|3:0,0:0:0:0:
441,318,160417,1,8,2:0:0:0:
407,272,160492,1,8,2:0:0:0:
357,247,160567,1,8,2:0:0:0:
300,250,160642,1,8,2:0:0:0:
252,280,160717,6,0,P|189:310|120:300,1,104.500003189087,6|10,3:0|2:2,0:0:0:0:
32,193,161017,1,2,3:2:0:0:
32,193,161092,1,0,3:0:0:0:
32,193,161167,1,10,2:2:0:0:
51,384,161317,2,0,L|78:257,1,104.500003189087,2|10,3:2|2:2,3:0:0:0:
120,88,161617,1,2,3:2:0:0:
98,73,161692,1,0,3:0:0:0:
73,66,161767,1,10,2:2:0:0:
47,67,161842,1,0,0:0:0:0:
21,74,161917,6,0,P|74:97|152:59,1,104.500003189087,6|8,3:0|0:0,3:0:0:0:
238,22,162217,1,2,3:2:0:0:
238,22,162292,1,0,3:0:0:0:
238,22,162367,1,10,2:2:0:0:
330,116,162517,2,0,L|318:241,1,104.500003189087,2|10,3:2|2:2,3:0:0:0:
311,350,162817,1,2,3:2:0:0:
311,350,162892,1,0,3:0:0:0:
311,350,162967,1,10,2:2:0:0:
453,244,163117,5,6,3:2:0:0:
464,347,163267,2,0,L|450:225,1,104.500003189087,10|2,2:2|3:2,0:0:0:0:
422,50,163567,1,10,2:2:0:0:
383,169,163717,2,0,P|324:190|277:163,1,104.500003189087,2|10,3:2|3:2,3:0:0:0:
223,48,164017,1,2,3:2:0:0:
223,48,164092,1,0,3:0:0:0:
223,48,164167,1,10,2:2:0:0:
78,157,164317,5,6,3:0:0:0:
171,146,164467,1,8,0:0:0:0:
0,80,164617,1,2,3:2:0:0:
0,80,164692,1,0,3:0:0:0:
0,80,164767,1,10,2:0:0:0:
144,242,164917,5,2,3:2:0:0:
0,213,165067,1,10,2:0:0:0:
126,15,165217,1,8,2:2:0:0:
126,15,165292,1,8,2:0:0:0:
126,15,165367,1,0,3:0:0:0:
195,120,165517,5,10,3:0:0:0:
226,137,165592,1,0,0:0:0:0:
262,141,165667,1,0,3:0:0:0:
297,130,165742,1,0,3:0:0:0:
325,107,165817,2,0,P|338:98|392:100,3,52.2500015945435,0|0|0|0,3:0|3:0|3:0|3:0,0:0:0:0:
463,137,166117,5,0,3:0:0:0:
459,162,166192,1,0,3:0:0:0:
456,188,166267,1,0,3:0:0:0:
453,214,166342,1,0,3:0:0:0:
417,214,166417,1,8,2:0:0:0:
420,250,166492,1,0,3:0:0:0:
423,286,166567,1,0,3:0:0:0:
426,323,166642,1,0,3:0:0:0:
456,350,166717,5,14,3:0:0:0:
456,350,167917,5,6,3:0:0:0:
283,280,168067,1,0,0:0:0:0:
283,280,168142,1,0,3:0:0:0:
283,280,168217,1,2,3:2:0:0:
366,216,168367,1,10,3:2:0:0:
248,380,168517,1,2,3:2:0:0:
195,121,168667,1,10,3:2:0:0:
283,280,168817,1,2,3:2:0:0:
275,53,168967,1,10,3:2:0:0:
366,216,169117,5,2,3:2:0:0:
195,121,169267,2,0,P|108:133|73:253,1,190,10|10,3:2|3:2,3:0:0:0:
248,380,169717,1,2,3:2:0:0:
283,280,169867,1,10,3:2:0:0:
274,233,169942,1,0,3:0:0:0:
266,186,170017,1,2,3:2:0:0:
344,105,170167,1,10,3:2:0:0:
219,33,170317,6,0,B|112:37|112:37|74:64,1,142.5,2|0,3:0|3:0,3:0:0:0:
53,62,170617,2,0,P|81:116|73:173,1,95,2|8,3:0|0:0,3:0:0:0:
86,320,170917,1,2,3:2:0:0:
3,283,171067,1,10,3:2:0:0:
174,360,171217,1,2,3:2:0:0:
257,323,171367,1,10,3:2:0:0:
194,146,171517,6,0,L|187:220,1,47.5,8|0,2:0|3:0,0:0:0:0:
285,96,171667,1,0,3:0:0:0:
285,96,171742,1,0,3:0:0:0:
285,96,171817,2,0,L|269:16,1,47.5,0|0,3:0|3:0,0:0:0:0:
168,145,171967,6,0,L|161:219,1,47.5,0|0,3:0|3:0,0:0:0:0:
408,111,172117,1,8,2:0:0:0:
381,91,172192,1,0,3:0:0:0:
349,82,172267,1,0,3:0:0:0:
316,84,172342,1,0,3:0:0:0:
285,96,172417,1,0,3:0:0:0:
277,118,172492,1,0,3:0:0:0:
273,141,172567,1,0,3:0:0:0:
275,165,172642,1,0,3:0:0:0:
282,188,172717,5,6,3:0:0:0:
374,243,172867,2,0,B|477:226|477:226|512:194|509:134,1,190,0|10,0:0|3:2,0:0:0:0:
415,11,173317,1,2,3:2:0:0:
349,82,173467,1,10,3:2:0:0:
301,85,173542,1,0,0:0:0:0:
254,88,173617,1,2,3:2:0:0:
190,159,173767,1,10,3:2:0:0:
53,65,173917,5,2,3:2:0:0:
129,15,174067,2,0,L|111:217,1,190,10|10,3:2|3:2,3:0:0:0:
33,376,174517,1,2,3:2:0:0:
3,263,174667,1,10,3:2:0:0:
3,263,174742,1,0,3:0:0:0:
3,263,174817,2,0,P|70:264|103:282,1,95,2|10,3:2|3:2,0:0:0:0:
220,362,175117,5,8,2:0:0:0:
253,329,175192,1,8,2:0:0:0:
271,285,175267,1,8,2:0:0:0:
270,238,175342,1,8,2:0:0:0:
249,195,175417,1,8,2:0:0:0:
231,151,175492,1,8,2:0:0:0:
235,104,175567,1,8,2:0:0:0:
261,64,175642,1,8,2:0:0:0:
301,41,175717,6,0,L|380:48,1,47.5,8|8,3:0|2:0,0:0:0:0:
512,155,175867,2,0,L|433:161,1,47.5,8|8,2:0|2:0,0:0:0:0:
299,33,176017,6,0,L|377:39,1,47.5,8|8,2:0|2:0,3:0:0:0:
509,146,176167,2,0,L|430:152,1,47.5,0|0,3:0|3:0,3:0:0:0:
249,195,176317,5,14,0:0:0:0:
235,151,176392,1,0,0:0:0:0:
264,116,176467,1,0,3:0:0:0:
309,122,176542,1,0,3:0:0:0:
329,163,176617,1,10,2:3:0:0:
321,209,176692,1,0,3:0:0:0:
297,250,176767,1,0,3:0:0:0:
253,269,176842,1,0,3:0:0:0:
206,258,176917,5,0,3:0:0:0:
177,241,176992,1,0,3:0:0:0:
145,233,177067,1,0,3:0:0:0:
112,237,177142,1,0,3:0:0:0:
85,218,177217,1,8,2:0:0:0:
63,226,177292,1,0,3:0:0:0:
39,228,177367,1,0,3:0:0:0:
16,221,177442,1,0,3:0:0:0:
4,197,177517,6,0,P|31:205|52:236,3,47.5,14|0|0|0,3:0|3:0|3:0|3:0,0:0:0:0:
92,275,177817,2,0,P|119:267|140:236,3,47.5,0|0|0|0,3:0|3:0|3:0|3:0,0:0:0:0:
189,99,178117,2,0,P|216:107|237:138,3,47.5,0|0|0|0,3:0|3:0|3:0|3:0,2:0:0:0:
280,335,178417,2,0,P|307:327|328:296,3,47.5,8|0|0|0,2:0|3:0|3:0|3:0,2:0:0:0:
423,72,178717,5,8,2:0:0:0:
425,59,179317,5,10,3:0:0:0:
408,362,179467,1,8,0:0:0:0:
426,364,179917,6,0,P|444:294|350:222,1,170.999994781494,6|10,3:0|3:0,3:0:0:0:
229,188,180367,1,0,3:0:0:0:
297,283,180517,2,0,L|308:184,1,85.4999973907472,0|0,3:0|3:0,0:0:0:0:
327,25,180817,1,10,3:0:0:0:
262,82,180967,2,0,P|190:106|101:29,1,170.999994781494,0|0,3:0|3:0,3:0:0:0:
12,182,181417,2,0,P|74:179|127:208,1,85.4999973907472,10|0,3:0|3:0,0:0:0:0:
218,341,181717,1,0,0:0:0:0:
229,188,181867,1,0,3:0:0:0:
20,333,182017,2,0,L|130:337,1,85.4999973907472,10|2,3:0|3:0,0:2:0:0:
369,346,182317,6,0,P|286:309|204:358,1,170.999994781494,0|10,3:0|3:0,0:0:0:0:
149,154,182767,1,0,3:0:0:0:
176,256,182917,2,0,L|66:248,1,85.4999973907472,0|0,3:0|3:0,0:2:0:0:
0,246,183217,1,10,3:0:0:0:
66,93,183367,2,0,P|98:140|89:251,1,170.999994781494,0|0,3:0|3:0,3:0:0:0:
198,93,183817,2,0,P|184:34|194:-7,1,85.4999973907472,10|0,3:0|3:0,0:2:0:0:
344,182,184117,1,0,0:0:0:0:
257,175,184267,1,0,3:0:0:0:
409,132,184417,2,0,P|427:196|407:237,1,85.4999973907472,10|0,3:0|3:0,0:2:0:0:
499,333,184717,6,0,B|453:301|453:301|308:310,1,170.999994781494,2|10,3:0|3:0,3:0:0:0:
186,231,185167,1,0,3:0:0:0:
257,175,185317,2,0,P|276:231|267:280,1,85.4999973907472,0|0,3:0|3:0,0:0:0:0:
170,376,185617,1,10,3:0:0:0:
98,330,185767,2,0,L|284:344,1,170.999994781494,0|0,3:0|3:0,3:0:0:0:
82,234,186217,2,0,L|-13:243,1,85.4999973907472,10|0,3:0|3:0,0:2:0:0:
164,131,186517,1,0,3:0:0:0:
164,131,186667,1,0,3:0:0:0:
76,4,186817,2,0,P|67:54|88:107,1,85.4999973907472,10|2,3:0|3:0,0:2:0:0:
304,181,187117,6,0,P|234:119|154:137,1,170.999994781494,2|10,3:0|3:0,0:2:0:0:
164,339,187567,1,0,3:0:0:0:
234,289,187717,2,0,L|212:193,1,85.4999973907472,2|0,3:0|3:0,3:0:0:0:
296,27,188017,1,10,3:0:0:0:
382,60,188167,2,0,L|372:176,1,85.4999973907472,0|2,3:0|3:0,3:0:0:0:
475,223,188467,2,0,L|457:123,1,85.4999973907472,0|10,3:0|3:0,3:0:0:0:
352,315,188767,1,0,3:0:0:0:
502,219,188917,1,0,0:0:0:0:
276,174,189067,1,0,3:0:0:0:
512,220,189217,1,10,3:0:0:0:
393,54,189367,1,2,3:0:0:0:
333,219,189517,6,0,L|309:50,1,170.999994781494,6|10,3:0|3:0,3:0:0:0:
220,16,189967,1,0,3:0:0:0:
202,111,190117,2,0,P|179:160|143:192,1,85.4999973907472,2|0,3:0|3:0,3:0:0:0:
43,105,190417,2,0,P|66:56|102:24,1,85.4999973907472,10|0,3:0|3:0,3:0:0:0:
314,204,190717,2,0,P|239:167|157:182,1,170.999994781494,2|10,3:0|3:0,3:0:0:0:
43,300,191167,2,0,L|60:413,1,85.4999973907472,0|2,3:0|3:0,3:0:0:0:
171,266,191467,2,0,L|152:156,1,85.4999973907472,0|10,3:0|3:0,3:0:0:0:
134,12,191767,1,0,3:0:0:0:
91,84,191917,6,0,P|167:106|262:41,1,170.999994781494,2|10,3:0|3:0,3:0:0:0:
412,44,192367,1,0,3:0:0:0:
337,0,192517,2,0,B|324:40|324:40|338:117,1,85.4999973907472,2|0,3:0|3:0,3:0:0:0:
472,108,192817,2,0,B|485:148|485:148|471:225,1,85.4999973907472,10|0,3:0|3:0,3:0:0:0:
325,171,193117,2,0,P|411:149|489:213,1,170.999994781494,2|10,3:0|3:0,3:0:0:0:
325,324,193567,2,0,P|258:264|164:278,1,170.999994781494,0|0,3:0|3:0,0:0:0:0:
30,380,194017,1,10,3:0:0:0:
44,373,194317,6,0,P|90:284|54:187,1,170.999994781494,2|10,3:0|3:0,3:0:0:0:
15,122,194767,1,0,3:0:0:0:
155,178,194917,2,0,P|237:177|263:156,1,85.4999973907472,2|0,3:0|3:0,0:2:0:0:
237,15,195217,2,0,P|155:16|129:37,1,85.4999973907472,10|0,3:0|3:0,3:0:0:0:
334,91,195517,2,0,L|339:-11,1,85.4999973907472,2|0,3:0|3:0,0:0:0:0:
472,163,195817,2,0,L|476:248,1,85.4999973907472,10|0,3:0|3:0,3:0:0:0:
307,314,196117,1,2,3:0:0:0:
496,345,196267,1,0,3:0:0:0:
354,175,196417,1,10,3:0:0:0:
399,384,196567,1,0,3:0:0:0:
414,86,196717,5,2,3:0:0:0:
354,175,196867,1,0,3:0:0:0:
311,180,196942,1,8,2:0:0:0:
269,185,197017,1,8,3:0:0:0:
228,175,197092,1,8,2:0:0:0:
200,143,197167,1,8,2:0:0:0:
195,101,197242,1,8,2:0:0:0:
215,64,197317,6,0,L|288:76,1,42.7499986953736,8|8,3:0|2:0,1:1:0:0:
381,257,197467,1,8,2:0:0:0:
381,257,197542,1,8,2:0:0:0:
381,257,197617,2,0,L|304:267,1,42.7499986953736,8|8,3:0|2:0,0:0:0:0:
125,60,197767,1,0,3:0:0:0:
125,60,197842,1,0,3:0:0:0:
125,60,197917,5,0,3:0:0:0:
125,60,199117,5,6,3:0:0:0:
178,75,199192,1,0,3:0:0:0:
214,119,199267,1,10,3:0:0:0:
219,175,199342,1,0,3:0:0:0:
192,224,199417,1,0,3:0:0:0:
142,249,199492,1,0,3:0:0:0:
86,242,199567,1,10,3:0:0:0:
44,205,199642,1,0,3:0:0:0:
32,147,199717,1,0,3:0:0:0:
67,102,199792,1,0,3:0:0:0:
122,87,199867,1,10,3:0:0:0:
171,115,199942,1,0,3:0:0:0:
196,166,200017,1,0,3:0:0:0:
236,206,200092,1,0,3:0:0:0:
290,222,200167,1,10,3:0:0:0:
344,205,200242,1,0,3:0:0:0:
390,171,200317,6,0,P|396:125|389:86,3,56.9999982604981,0|0|10|0,3:0|3:0|3:0|3:0,0:0:0:0:
509,243,200617,2,0,P|506:296|520:332,1,56.9999982604981,2|0,3:0|3:0,3:0:0:0:
356,147,200767,2,0,P|362:101|355:62,1,56.9999982604981,10|0,3:0|3:0,3:0:0:0:
489,241,200917,2,0,P|486:294|500:330,3,56.9999982604981,0|0|10|0,3:0|3:0|3:0|3:0,0:0:0:0:
383,368,201217,1,0,3:0:0:0:
359,305,201292,1,0,3:0:0:0:
300,271,201367,1,10,3:0:0:0:
234,282,201442,1,0,3:0:0:0:
190,332,201517,5,0,3:0:0:0:
246,329,201592,1,0,3:0:0:0:
289,293,201667,1,10,3:0:0:0:
303,239,201742,1,0,3:0:0:0:
282,187,201817,1,0,3:0:0:0:
234,157,201892,1,0,3:0:0:0:
186,129,201967,1,10,3:0:0:0:
167,77,202042,1,0,3:0:0:0:
186,24,202117,1,0,3:0:0:0:
234,0,202192,1,0,3:0:0:0:
289,6,202267,1,10,3:0:0:0:
322,52,202342,1,0,3:0:0:0:
352,99,202417,2,0,P|398:101|442:77,3,56.9999982604981,0|0|10|0,3:0|3:0|3:0|3:0,0:0:0:0:
486,41,202717,5,0,3:0:0:0:
421,187,202867,1,10,3:0:0:0:
495,136,203017,1,2,3:0:0:0:
289,6,203167,1,10,3:0:0:0:
509,142,203317,1,2,3:0:0:0:
271,198,203467,1,10,3:0:0:0:
409,0,203617,2,0,L|407:132,1,113.999996520996,2|8,3:0|0:0,3:0:0:0:
375,353,203917,5,6,3:0:0:0:
346,304,203992,1,0,3:0:0:0:
297,275,204067,1,10,3:0:0:0:
241,273,204142,1,0,3:0:0:0:
191,298,204217,1,0,3:0:0:0:
139,322,204292,1,0,3:0:0:0:
83,315,204367,1,10,3:0:0:0:
39,281,204442,1,0,3:0:0:0:
18,229,204517,1,0,3:0:0:0:
27,173,204592,1,0,3:0:0:0:
63,129,204667,1,10,3:0:0:0:
118,116,204742,1,0,3:0:0:0:
170,139,204817,2,0,P|182:113|184:57,3,56.9999982604981,0|0|10|0,3:0|3:0|3:0|3:0,0:0:0:0:
309,11,205117,5,0,3:0:0:0:
275,56,205192,1,0,3:0:0:0:
272,112,205267,1,10,3:0:0:0:
300,160,205342,1,0,3:0:0:0:
351,185,205417,1,2,3:0:0:0:
384,230,205492,1,0,3:0:0:0:
387,286,205567,1,10,3:0:0:0:
359,334,205642,1,0,3:0:0:0:
308,359,205717,6,0,L|151:345,1,113.999996520996,0|10,3:0|3:0,3:0:0:0:
52,329,205942,2,0,L|214:318,1,113.999996520996,0|0,3:0|3:0,3:0:0:0:
292,261,206167,2,0,L|186:251,1,56.9999982604981,10|0,3:0|3:0,3:0:0:0:
26,244,206317,5,6,3:0:0:0:
199,138,206467,1,0,3:0:0:0:
199,138,206542,1,0,3:0:0:0:
199,138,206617,1,10,3:0:0:0:
0,21,206767,1,14,3:0:0:0:
108,190,206917,1,0,3:0:0:0:
108,190,206992,1,0,3:0:0:0:
108,190,207067,1,10,3:0:0:0:
254,50,207217,1,14,3:0:0:0:
289,32,207292,1,0,3:0:0:0:
329,28,207367,1,0,3:0:0:0:
367,39,207442,1,0,3:0:0:0:
399,62,207517,6,0,B|476:76|503:58|517:9|517:9|493:45|505:113,1,227.999993041992,14|0,3:0|3:0,0:0:0:0:
462,251,207967,2,0,P|388:241|476:217,1,227.999993041992,10|0,3:0|3:0,0:0:0:0:
434,343,208417,2,0,P|366:332|332:295,1,113.999996520996,10|0,3:0|3:0,0:0:0:0:
267,145,208717,5,6,3:0:0:0:
221,112,208792,1,0,3:0:0:0:
165,111,208867,1,10,3:2:0:0:
118,142,208942,1,0,3:0:0:0:
96,194,209017,1,0,3:0:0:0:
108,249,209092,1,0,3:0:0:0:
148,288,209167,1,10,3:2:0:0:
204,297,209242,1,0,3:0:0:0:
255,273,209317,6,0,P|266:240|261:206,2,56.9999982604981,0|0|10,3:0|3:2|0:2,0:0:0:0:
368,156,209542,2,0,P|362:205|375:235,2,56.9999982604981,0|0|0,3:0|3:0|3:0,3:0:0:0:
264,281,209767,2,0,P|274:247|269:213,1,56.9999982604981,10|0,3:2|3:0,3:0:0:0:
202,65,209917,5,0,3:0:0:0:
251,92,209992,1,0,3:0:0:0:
307,89,210067,1,10,3:2:0:0:
352,56,210142,1,0,3:0:0:0:
404,33,210217,1,0,3:0:0:0:
460,42,210292,1,0,3:0:0:0:
502,79,210367,1,10,3:2:0:0:
512,133,210442,1,0,3:0:0:0:
503,187,210517,2,0,P|500:233|517:264,3,56.9999982604981,0|0|10|0,3:0|3:0|3:2|3:0,0:0:0:0:
504,339,210817,6,0,L|419:321,1,56.9999982604981,2|0,3:2|3:0,3:0:0:0:
375,276,210967,2,0,L|319:287,1,56.9999982604981,10|0,3:2|3:0,3:0:0:0:
170,327,211117,6,0,L|195:175,1,113.999996520996,2|10,3:2|3:2,3:0:0:0:
80,116,211342,2,0,L|102:241,1,113.999996520996,0|0,3:0|3:0,0:0:0:0:
261,130,211567,2,0,L|192:124,1,56.9999982604981,10|0,3:2|3:0,3:0:0:0:
337,190,211717,6,0,P|357:128|333:71,1,113.999996520996,2|10,3:2|3:2,3:0:0:0:
248,42,211942,2,0,P|290:83|365:69,1,113.999996520996,0|0,3:0|3:0,3:0:0:0:
451,18,212167,2,0,P|432:54|434:108,1,56.9999982604981,10|0,3:2|3:0,3:0:0:0:
485,232,212317,5,6,3:0:0:0:
445,191,212392,1,0,3:0:0:0:
391,176,212467,1,10,3:2:0:0:
336,189,212542,1,0,3:0:0:0:
292,224,212617,1,0,3:0:0:0:
236,232,212692,1,0,3:0:0:0:
184,212,212767,1,10,3:2:0:0:
149,168,212842,1,0,3:0:0:0:
140,112,212917,6,0,P|162:152|166:194,3,56.9999982604981,6|0|10|0,3:0|3:0|3:2|3:0,3:0:0:0:
81,316,213217,1,8,2:0:0:0:
65,309,213292,1,8,2:0:0:0:
56,301,213367,2,0,P|112:300|152:313,1,56.9999982604981,0|0,3:0|3:0,0:0:0:0:
373,384,213517,5,6,3:0:0:0:
442,348,213592,1,0,3:0:0:0:
474,276,213667,1,10,3:2:0:0:
454,200,213742,1,0,3:0:0:0:
391,154,213817,1,10,3:2:0:0:
333,102,213892,1,0,3:0:0:0:
338,24,213967,1,10,3:2:0:0:
414,1,214042,1,0,3:0:0:0:
479,46,214117,1,10,3:2:0:0:
464,125,214192,1,0,3:0:0:0:
391,154,214267,1,10,3:2:0:0:
320,117,214342,1,0,3:0:0:0:
245,89,214417,1,10,3:2:0:0:
165,93,214492,1,0,3:0:0:0:
98,136,214567,1,10,3:2:0:0:
79,213,214642,1,0,3:0:0:0:
105,282,214717,5,10,3:2:0:0:
168,319,214792,1,0,3:0:0:0:
241,308,214867,1,10,3:2:0:0:
300,264,214942,1,0,3:0:0:0:
356,237,215017,1,10,3:2:0:0:
418,238,215092,1,0,3:0:0:0:
474,264,215167,1,10,3:2:0:0:
508,316,215242,1,0,3:0:0:0:
509,378,215317,5,10,3:2:0:0:
466,341,215392,1,0,3:0:0:0:
449,288,215467,1,10,3:2:0:0:
463,233,215542,1,0,3:0:0:0:
504,195,215617,1,10,3:2:0:0:
512,123,215692,1,0,3:0:0:0:
470,65,215767,1,10,3:2:0:0:
398,52,215842,1,0,3:0:0:0:
333,87,215917,6,0,P|280:106|253:98,1,56.9999982604981,8|8,3:0|3:0,0:0:0:0:
149,32,216067,1,8,2:0:0:0:
149,32,216142,1,8,2:0:0:0:
152,36,216217,2,0,L|144:108,1,56.9999982604981,8|8,2:0|2:0,0:0:0:0:
26,199,216367,2,0,L|38:104,1,56.9999982604981,8|8,3:0|2:0,0:0:0:0:
171,27,216517,6,0,L|163:99,1,56.9999982604981,8|8,2:0|2:0,0:0:0:0:
154,355,216667,1,8,2:0:0:0:
101,371,216742,1,8,2:0:0:0:
58,337,216817,1,8,3:0:0:0:
62,282,216892,1,8,2:0:0:0:
109,255,216967,1,8,2:0:0:0:
165,264,217042,1,8,2:0:0:0:
222,278,217117,6,0,L|213:201,3,47.5,8|8|8|8,3:0|2:0|2:0|2:0,3:0:0:0:
328,384,217417,2,0,L|337:307,3,47.5,8|0|0|0,2:0|0:0|3:0|3:0,3:0:0:0:
231,278,217717,2,0,L|222:201,3,47.5,0|0|0|0,3:0|3:0|3:0|3:0,3:0:0:0:
337,384,218017,2,0,L|346:307,3,47.5,0|0|0|0,3:0|3:0|3:0|3:0,3:0:0:0:
433,290,218317,5,6,3:0:0:0:
475,252,218392,1,0,3:0:0:0:
491,198,218467,1,0,3:0:0:0:
476,144,218542,1,0,3:0:0:0:
434,106,218617,1,10,3:0:0:0:
379,96,218692,1,0,3:0:0:0:
326,117,218767,1,0,3:0:0:0:
300,167,218842,1,0,3:0:0:0:
299,223,218917,2,0,P|270:234|212:232,3,56.9999982604981,10|0|0|0,3:0|3:0|3:0|3:0,0:0:0:0:
148,171,219217,2,0,P|119:174|93:184,3,56.9999982604981,10|0|0|0,3:0|3:0|3:0|3:0,0:0:0:0:
173,49,219517,5,10,3:0:0:0:
229,46,219592,1,0,3:0:0:0:
283,63,219667,1,0,3:0:0:0:
323,102,219742,1,0,3:0:0:0:
377,120,219817,1,10,3:0:0:0:
434,120,219892,1,0,3:0:0:0:
475,85,219967,1,0,3:0:0:0:
467,31,220042,1,0,3:0:0:0:
417,9,220117,2,0,P|411:36|421:71,3,56.9999982604981,10|0|0|0,3:0|3:0|3:0|3:0,0:0:0:0:
456,187,220417,2,0,L|521:177,1,56.9999982604981,10|0,3:0|3:0,3:0:0:0:
414,283,220567,2,0,L|349:273,1,56.9999982604981,2|0,3:0|3:0,3:0:0:0:
265,174,220717,5,14,3:0:0:0:
208,180,220792,1,0,3:0:0:0:
151,187,220867,1,0,3:0:0:0:
96,192,220942,1,0,3:0:0:0:
56,232,221017,1,10,3:0:0:0:
51,287,221092,1,0,3:0:0:0:
82,334,221167,1,0,3:0:0:0:
135,350,221242,1,0,3:0:0:0:
187,328,221317,6,0,P|201:294|181:252,3,56.9999982604981,10|0|0|0,3:0|3:0|3:0|3:0,0:0:0:0:
151,187,221617,2,0,P|148:158|161:133,3,56.9999982604981,10|0|0|0,3:0|3:0|3:0|3:0,0:0:0:0:
249,77,221917,5,14,3:0:0:0:
265,79,221992,1,0,3:0:0:0:
285,81,222067,2,0,L|373:91,1,56.9999982604981,0|0,3:0|3:0,0:0:0:0:
512,206,222217,5,10,3:0:0:0:
496,208,222292,1,0,3:0:0:0:
476,210,222367,2,0,L|388:220,1,56.9999982604981,0|0,3:0|3:0,0:0:0:0:
249,340,222517,5,10,3:0:0:0:
251,324,222592,1,0,3:0:0:0:
253,304,222667,2,0,L|263:216,1,56.9999982604981,2|0,3:0|3:0,3:0:0:0:
472,8,222817,5,10,3:0:0:0:
470,24,222892,1,0,3:0:0:0:
468,44,222967,2,0,L|458:132,1,56.9999982604981,0|0,3:0|3:0,3:0:0:0:
347,191,223117,5,10,3:0:0:0:
344,246,223192,1,0,3:0:0:0:
376,292,223267,1,0,3:0:0:0:
429,309,223342,1,0,3:0:0:0:
482,290,223417,1,10,3:0:0:0:
512,243,223492,1,0,3:0:0:0:
507,187,223567,1,0,3:0:0:0:
469,146,223642,1,0,3:0:0:0:
414,136,223717,2,0,L|427:204,3,56.9999982604981,10|0|0|0,3:0|3:0|3:0|3:0,0:0:0:0:
296,88,224017,2,0,L|306:32,3,56.9999982604981,10|0|0|0,3:0|3:0|3:0|3:0,0:0:0:0:
217,188,224317,5,10,3:0:0:0:
172,221,224392,1,0,3:0:0:0:
116,219,224467,1,0,3:0:0:0:
76,180,224542,1,0,3:0:0:0:
69,125,224617,2,0,P|86:158|92:193,3,56.9999982604981,10|0|0|0,3:0|3:0|3:0|3:0,0:0:0:0:
38,269,224917,2,0,P|21:302|15:337,3,56.9999982604981,10|0|0|0,3:0|3:0|3:0|3:0,0:0:0:0:
115,377,225217,1,10,3:0:0:0:
150,333,225292,1,0,3:0:0:0:
202,311,225367,1,0,3:0:0:0:
259,317,225442,1,0,3:0:0:0:
305,349,225517,6,0,L|381:334,1,56.9999982604981,14|0,3:0|0:0,0:0:0:0:
478,365,225667,1,8,2:0:0:0:
498,331,225742,1,8,2:0:0:0:
506,292,225817,1,8,2:0:0:0:
499,253,225892,1,8,2:0:0:0:
479,218,225967,2,0,L|488:146,1,56.9999982604981,8|8,2:0|2:0,0:0:0:0:
446,56,226117,5,0,3:0:0:0:
419,84,226192,1,8,2:0:0:0:
382,99,226267,1,8,2:0:0:0:
342,96,226342,1,8,2:0:0:0:
308,76,226417,1,0,3:0:0:0:
255,58,226492,1,8,2:0:0:0:
200,71,226567,1,8,2:0:0:0:
163,113,226642,1,8,2:0:0:0:
154,168,226717,6,0,P|182:167|222:127,3,56.9999982604981,0|8|8|8,3:0|2:0|2:0|2:0,0:0:0:0:
97,246,227017,2,0,P|69:247|29:287,3,56.9999982604981,0|8|8|8,3:0|2:0|2:0|2:0,0:0:0:0:
170,316,227317,1,0,3:0:0:0:
209,318,227392,1,0,3:0:0:0:
249,321,227467,1,0,3:0:0:0:
289,323,227542,1,0,3:0:0:0:
310,304,227617,1,0,3:0:0:0:
338,302,227692,1,0,3:0:0:0:
366,300,227767,1,0,3:0:0:0:
395,298,227842,1,0,3:0:0:0:
421,311,227917,6,0,P|434:251|410:196,1,104.500003189087,6|10,3:0|3:2,3:0:0:0:
338,136,228217,1,2,3:2:0:0:
338,136,228292,1,0,3:0:0:0:
338,136,228367,1,10,3:2:0:0:
507,58,228517,2,0,B|449:43|449:43|391:65,1,104.500003189087,2|10,3:2|3:2,3:0:0:0:
338,136,228817,1,2,3:2:0:0:
338,136,228892,1,0,3:0:0:0:
338,136,228967,1,10,3:2:0:0:
215,14,229117,5,2,3:2:0:0:
407,58,229267,1,8,0:0:0:0:
222,127,229417,1,2,3:2:0:0:
222,127,229492,1,0,3:0:0:0:
222,127,229567,1,10,3:2:0:0:
437,54,229717,5,2,3:2:0:0:
194,4,229867,1,10,3:2:0:0:
245,258,230017,1,2,3:2:0:0:
245,258,230092,1,0,3:0:0:0:
245,258,230167,1,10,3:2:0:0:
40,97,230317,5,6,3:0:0:0:
222,127,230467,2,0,P|146:125|86:241,1,209.000006378174,10|10,3:2|3:2,0:0:0:0:
175,326,230917,2,0,L|185:202,1,104.500003189087,2|10,3:2|3:2,3:0:0:0:
336,61,231217,2,0,L|344:165,1,104.500003189087,2|10,3:2|3:2,3:0:0:0:
358,378,231517,5,6,3:0:0:0:
488,272,231667,1,10,3:2:0:0:
278,204,231817,1,2,3:2:0:0:
278,204,231892,1,2,3:2:0:0:
278,204,231967,1,10,3:2:0:0:
512,271,232117,5,2,3:2:0:0:
252,311,232267,1,10,3:2:0:0:
454,141,232417,1,2,3:2:0:0:
454,141,232492,1,0,3:0:0:0:
454,141,232567,1,10,3:2:0:0:
237,318,232717,5,2,3:2:0:0:
189,337,232792,1,0,3:0:0:0:
138,328,232867,1,10,3:2:0:0:
100,293,232942,1,0,3:0:0:0:
86,243,233017,2,0,L|98:177,1,52.2500015945435,2|0,3:2|3:0,0:0:0:0:
46,66,233167,5,10,3:2:0:0:
94,46,233242,1,0,3:0:0:0:
145,53,233317,1,2,3:2:0:0:
187,83,233392,1,0,3:0:0:0:
209,130,233467,2,0,P|250:141|300:129,1,52.2500015945435,10|0,3:2|3:0,0:0:0:0:
378,35,233617,5,0,3:0:0:0:
374,97,233692,1,0,3:0:0:0:
370,160,233767,1,0,3:0:0:0:
366,222,233842,1,0,3:0:0:0:
362,285,233917,1,10,3:0:0:0:
364,286,235117,5,6,3:0:0:0:
433,341,235267,2,0,B|387:318|387:318|241:330,1,190,10|10,2:2|2:0,3:0:0:0:
88,341,235717,1,2,3:2:0:0:
248,329,235867,1,10,2:2:0:0:
165,183,236017,1,2,3:2:0:0:
176,384,236167,1,10,2:0:0:0:
232,108,236317,5,2,3:2:0:0:
165,183,236467,2,0,P|95:203|24:101,1,190,10|10,2:0|2:0,3:0:0:0:
187,26,236917,1,2,3:2:0:0:
232,108,237067,1,10,2:0:0:0:
279,103,237142,1,0,3:0:0:0:
326,98,237217,1,2,3:2:0:0:
396,168,237367,1,10,2:0:0:0:
491,0,237517,6,0,B|469:42|469:42|485:163,1,142.5,6|0,3:0|3:0,3:0:0:0:
509,152,237817,2,0,L|505:259,1,95,2|8,3:0|0:0,3:0:0:0:
396,285,238117,5,2,3:2:0:0:
501,366,238267,1,10,2:0:0:0:
288,205,238417,5,2,0:2:0:0:
218,384,238567,1,10,2:0:0:0:
396,285,238717,5,8,0:0:0:0:
423,246,238792,1,0,3:0:0:0:
432,200,238867,1,8,2:0:0:0:
421,154,238942,1,8,2:0:0:0:
392,117,239017,1,8,0:2:0:0:
366,79,239092,1,8,2:0:0:0:
369,32,239167,1,8,2:0:0:0:
399,0,239242,1,8,2:0:0:0:
448,0,239317,5,0,3:0:0:0:
427,25,239392,1,0,3:0:0:0:
398,41,239467,1,0,3:0:0:0:
365,46,239542,1,0,3:0:0:0:
338,63,239617,1,0,3:0:0:0:
316,54,239692,1,0,3:0:0:0:
292,51,239767,1,0,3:0:0:0:
269,55,239842,1,0,3:0:0:0:
247,65,239917,5,6,3:0:0:0:
195,133,240067,2,0,L|212:268,1,95,10|2,2:2|3:2,3:0:0:0:
222,360,240367,1,10,2:0:0:0:
318,285,240517,1,2,3:2:0:0:
104,185,240667,1,10,2:0:0:0:
328,287,240817,1,2,3:2:0:0:
43,367,240967,1,10,2:0:0:0:
195,133,241117,5,2,0:2:0:0:
267,214,241267,2,0,P|192:239|96:169,1,190,10|10,2:0|2:0,3:0:0:0:
230,35,241717,1,2,3:2:0:0:
302,89,241867,1,10,2:0:0:0:
349,83,241942,1,0,3:0:0:0:
396,77,242017,1,2,3:2:0:0:
466,11,242167,1,10,2:0:0:0:
504,128,242317,5,8,3:0:0:0:
498,175,242392,1,8,2:0:0:0:
493,222,242467,1,8,2:0:0:0:
488,269,242542,1,8,2:0:0:0:
483,316,242617,2,0,P|451:321|406:319,1,47.5,8|8,2:0|2:0,0:0:0:0:
345,262,242767,5,8,3:0:0:0:
298,256,242842,1,8,2:0:0:0:
255,274,242917,1,8,2:0:0:0:
227,312,242992,1,8,2:0:0:0:
221,358,243067,2,0,P|237:324|226:274,1,47.5,8|8,3:0|2:0,0:0:0:0:
208,178,243217,5,8,2:0:0:0:
167,154,243292,1,8,2:0:0:0:
120,154,243367,1,8,3:0:0:0:
81,179,243442,1,8,2:0:0:0:
60,222,243517,6,0,P|101:204|119:178,3,47.5,8|8|8|8,3:0|2:0|2:0|2:0,0:0:0:0:
167,154,243817,2,0,P|179:111|170:80,3,47.5,8|8|8|8,3:0|2:0|2:0|2:0,0:0:0:0:
118,21,244117,1,0,3:0:0:0:
151,23,244192,1,0,3:0:0:0:
184,26,244267,1,0,3:0:0:0:
217,29,244342,1,0,3:0:0:0:
245,47,244417,1,0,3:0:0:0:
268,45,244492,1,0,3:0:0:0:
292,44,244567,1,0,3:0:0:0:
316,43,244642,1,0,3:0:0:0:
337,32,244717,5,0,3:0:0:0:
413,76,244867,2,0,B|421:159|421:159|409:245|314:226,1,190,14|10,3:0|3:0,3:0:0:0:
217,134,245317,1,0,3:0:0:0:
276,250,245467,1,10,3:0:0:0:
276,250,245542,1,0,3:0:0:0:
276,250,245617,2,0,P|222:223|156:234,1,95,0|10,3:0|3:0,0:0:0:0:
20,359,245917,6,0,P|106:337|121:250,1,142.5,0|0,3:0|3:0,0:0:0:0:
126,278,246217,2,0,P|76:267|34:276,1,95,0|10,3:0|3:0,0:0:0:0:
0,84,246517,1,0,3:0:0:0:
62,149,246667,1,10,3:0:0:0:
62,149,246742,1,0,3:0:0:0:
62,149,246817,2,0,P|87:84|64:32,1,95,0|10,3:0|3:0,0:0:0:0:
247,0,247117,5,0,3:0:0:0:
182,69,247267,1,10,3:0:0:0:
220,95,247342,1,0,3:0:0:0:
267,98,247417,1,0,3:0:0:0:
310,78,247492,1,0,3:0:0:0:
336,39,247567,1,10,3:0:0:0:
378,16,247642,1,0,3:0:0:0:
424,25,247717,2,0,P|440:56|437:135,1,95,0|10,3:0|3:0,3:0:0:0:
428,142,247942,1,0,3:0:0:0:
428,142,248017,2,0,P|415:200|432:251,1,95,0|10,3:0|3:0,0:0:0:0:
308,342,248317,5,6,3:0:0:0:
487,324,248467,1,10,3:0:0:0:
276,231,248617,1,0,3:0:0:0:
276,231,248692,1,0,0:0:0:0:
276,231,248767,1,10,3:0:0:0:
502,323,248917,5,6,3:0:0:0:
419,109,249067,1,10,3:0:0:0:
392,354,249217,1,0,3:0:0:0:
392,354,249292,1,0,0:0:0:0:
392,354,249367,1,10,3:0:0:0:
258,63,249517,5,0,3:0:0:0:
317,130,249667,2,0,P|247:158|191:16,1,190,14|10,3:0|3:0,3:0:0:0:
15,11,250117,1,0,3:0:0:0:
61,96,250267,1,10,3:0:0:0:
61,96,250342,1,0,3:0:0:0:
61,96,250417,2,0,P|76:158|69:201,1,95,0|10,3:0|3:0,0:0:0:0:
48,349,250717,6,0,B|12:324|12:324|170:338,1,190,0|0,3:0|3:0,0:0:0:0:
305,354,251167,1,10,3:0:0:0:
243,166,251317,2,0,P|222:244|240:272,1,95,0|10,3:0|3:0,3:0:0:0:
242,277,251542,1,0,3:0:0:0:
242,277,251617,2,0,P|294:254|349:270,1,95,0|10,3:0|3:0,0:0:0:0:
467,353,251917,5,0,3:0:0:0:
470,329,251992,1,0,0:0:0:0:
472,305,252067,1,10,3:0:0:0:
475,282,252142,1,0,0:0:0:0:
467,259,252217,1,0,3:0:0:0:
464,235,252292,1,0,3:0:0:0:
461,211,252367,1,10,3:0:0:0:
458,188,252442,1,0,0:0:0:0:
468,161,252517,6,0,P|410:191|352:172,1,95,0|10,3:0|3:0,3:0:0:0:
300,108,252817,1,0,3:0:0:0:
300,108,252892,1,0,3:0:0:0:
300,108,252967,1,10,3:0:0:0:
212,184,253117,5,8,3:0:0:0:
177,215,253192,1,8,2:0:0:0:
131,224,253267,1,8,2:0:0:0:
86,209,253342,1,8,2:0:0:0:
56,173,253417,1,8,3:0:0:0:
48,127,253492,1,0,2:0:0:0:
65,83,253567,1,0,2:0:0:0:
102,54,253642,1,0,2:0:0:0:
149,49,253717,2,0,L|167:100,3,47.5,0|0|0|0,3:0|3:0|3:0|3:0,0:0:0:0:
254,126,254017,2,0,L|238:170,3,47.5,0|0|0|0,3:0|3:0|3:0|3:0,0:0:0:0:
151,300,254317,6,0,P|216:275|276:299,1,95,6|0,3:0|3:0,0:0:0:0:
264,291,254542,1,0,3:0:0:0:
264,291,254617,2,0,P|317:294|370:260,1,95,0|0,3:0|3:0,0:0:0:0:
434,190,254917,2,0,L|424:126,3,47.5,6|0|0|0,3:0|3:0|3:0|3:0,0:0:0:0:
455,218,255217,1,0,3:0:0:0:
454,241,255292,1,0,3:0:0:0:
452,265,255367,1,0,3:0:0:0:
451,289,255442,1,0,3:0:0:0:
446,310,255517,5,6,3:0:0:0:
386,347,255592,1,0,3:0:0:0:
317,340,255667,1,10,3:2:0:0:
265,293,255742,1,0,3:0:0:0:
253,224,255817,1,2,3:2:0:0:
288,161,255892,1,0,3:0:0:0:
296,91,255967,1,10,3:2:0:0:
257,34,256042,1,0,3:0:0:0:
190,16,256117,1,2,3:2:0:0:
127,47,256192,1,0,3:0:0:0:
100,112,256267,1,10,3:2:0:0:
122,178,256342,1,0,3:0:0:0:
182,215,256417,1,2,3:2:0:0:
251,199,256492,1,0,3:0:0:0:
314,166,256567,1,10,3:2:0:0:
385,171,256642,1,0,3:0:0:0:
445,208,256717,6,0,P|454:253|454:278,1,56.9999982604981,2|0,3:2|3:0,0:0:0:0:
297,88,256867,2,0,P|288:43|288:18,1,56.9999982604981,10|0,3:2|3:0,0:0:0:0:
363,250,257017,6,0,P|372:295|372:320,1,56.9999982604981,2|0,3:2|3:0,0:0:0:0:
209,75,257167,2,0,P|200:30|200:5,1,56.9999982604981,10|0,3:2|3:0,0:0:0:0:
265,231,257317,5,2,3:2:0:0:
209,268,257392,1,0,3:0:0:0:
142,262,257467,1,10,3:2:0:0:
94,216,257542,1,0,3:0:0:0:
85,149,257617,1,2,3:2:0:0:
120,92,257692,1,0,3:0:0:0:
183,69,257767,1,10,3:2:0:0:
247,94,257842,1,0,3:0:0:0:
287,148,257917,5,6,3:0:0:0:
301,93,257992,1,0,3:0:0:0:
344,56,258067,1,10,3:2:0:0:
400,49,258142,1,0,3:0:0:0:
450,74,258217,1,2,3:2:0:0:
481,122,258292,1,0,3:0:0:0:
481,178,258367,1,10,3:2:0:0:
451,227,258442,1,0,3:0:0:0:
437,282,258517,5,2,3:2:0:0:
398,240,258592,1,0,3:0:0:0:
346,218,258667,1,10,3:2:0:0:
290,221,258742,1,0,3:0:0:0:
240,247,258817,1,2,3:2:0:0:
189,272,258892,1,0,3:0:0:0:
133,270,258967,1,10,3:2:0:0:
85,240,259042,1,0,3:0:0:0:
58,191,259117,6,0,L|68:120,1,56.9999982604981,2|0,3:2|3:0,0:0:0:0:
344,328,259267,2,0,L|351:384,1,56.9999982604981,10|0,3:2|3:0,0:0:0:0:
150,161,259417,6,0,L|159:89,1,56.9999982604981,2|0,3:2|3:0,0:0:0:0:
437,282,259567,2,0,L|444:338,1,56.9999982604981,10|0,3:2|3:0,0:0:0:0:
158,105,259717,5,0,3:2:0:0:
194,89,259792,1,8,2:0:0:0:
234,87,259867,1,8,2:0:0:0:
272,99,259942,1,8,2:0:0:0:
308,82,260017,1,8,3:0:0:0:
339,94,260092,1,8,2:0:0:0:
373,96,260167,1,8,2:0:0:0:
406,87,260242,1,8,2:0:0:0:
441,110,260317,6,0,P|481:98|512:100,3,47.5,6|0|0|0,3:0|3:0|3:0|3:0,0:0:0:0:
369,188,260617,2,0,P|329:176|298:178,3,47.5,10|0|0|0,3:0|3:0|3:0|3:0,0:0:0:0:
454,252,260917,2,0,P|494:240|525:242,3,47.5,2|0|0|0,3:0|3:0|3:0|3:0,0:0:0:0:
382,330,261217,2,0,P|342:318|311:320,3,47.5,10|0|0|0,3:0|3:0|3:0|3:0,0:0:0:0:
237,373,261517,5,2,3:0:0:0:
202,340,261592,1,0,3:0:0:0:
186,296,261667,1,0,3:0:0:0:
190,249,261742,1,0,3:0:0:0:
215,208,261817,1,10,3:0:0:0:
237,167,261892,1,0,3:0:0:0:
237,120,261967,1,0,3:0:0:0:
212,80,262042,1,0,3:0:0:0:
165,53,262117,2,0,B|136:71|126:117|126:117|190:140|236:120,1,190,2|10,3:0|3:0,3:0:0:0:
352,18,262567,1,0,3:0:0:0:
432,129,262717,6,0,L|505:120,1,47.5,6|0,3:0|3:0,3:0:0:0:
310,293,262867,2,0,L|237:284,1,47.5,0|0,3:0|3:0,0:0:0:0:
298,138,263017,6,0,L|287:74,1,47.5,10|0,3:0|3:0,0:0:0:0:
465,309,263167,2,0,L|456:355,1,47.5,0|0,3:0|3:0,0:0:0:0:
440,116,263317,6,0,L|523:105,1,47.5,2|0,3:0|3:0,0:0:0:0:
300,304,263467,2,0,L|216:293,1,47.5,0|0,3:0|3:0,0:0:0:0:
286,126,263617,6,0,L|273:52,1,47.5,10|0,3:0|3:0,0:0:0:0:
478,322,263767,2,0,L|468:376,1,47.5,0|0,3:0|3:0,0:0:0:0:
448,94,263917,6,0,L|521:85,1,47.5,2|8,3:0|2:0,0:0:0:0:
306,326,264067,2,0,L|223:329,1,47.5,8|8,2:0|2:0,0:0:0:0:
286,126,264217,6,0,L|359:117,1,47.5,0|8,3:0|2:0,0:0:0:0:
189,373,264367,2,0,L|106:376,1,47.5,8|8,2:0|2:0,0:0:0:0:
204,82,264517,6,0,L|197:11,1,47.5,8|8,3:0|2:0,3:0:0:0:
306,326,264667,2,0,L|316:403,1,47.5,8|8,2:0|2:0,3:0:0:0:
292,55,264817,6,0,L|285:-16,1,47.5,0|0,3:0|3:0,3:0:0:0:
405,276,264967,2,0,L|415:353,1,47.5,0|0,3:0|3:0,3:0:0:0:
72,267,265117,5,6,3:0:0:0:
42,230,265192,1,0,3:0:0:0:
35,184,265267,1,10,2:2:0:0:
53,140,265342,1,0,3:0:0:0:
80,111,265417,1,2,3:2:0:0:
344,75,265567,1,10,2:2:0:0:
273,15,265717,1,2,3:2:0:0:
258,44,265792,1,0,3:0:0:0:
254,77,265867,1,10,2:0:0:0:
261,109,265942,1,0,3:0:0:0:
279,137,266017,2,0,P|304:191|304:246,1,95,2|8,3:0|0:0,3:0:0:0:
250,357,266317,5,2,3:2:0:0:
216,355,266392,1,0,3:0:0:0:
183,354,266467,1,10,2:0:0:0:
150,353,266542,1,0,3:0:0:0:
117,352,266617,2,0,P|96:291|122:242,1,95,2|10,3:2|2:0,3:0:0:0:
182,156,266917,1,2,3:2:0:0:
0,194,267067,1,10,2:0:0:0:
68,9,267217,1,2,3:2:0:0:
104,264,267367,1,10,2:0:0:0:
262,52,267517,5,6,3:0:0:0:
307,40,267592,1,0,3:0:0:0:
352,54,267667,1,10,2:0:0:0:
383,89,267742,1,0,3:0:0:0:
392,135,267817,2,0,P|418:136|458:118,3,47.5,2|0|10|0,3:2|3:0|2:0|3:0,0:0:0:0:
500,246,268117,5,2,3:2:0:0:
461,218,268192,1,0,3:0:0:0:
414,212,268267,1,10,2:0:0:0:
370,228,268342,1,0,3:0:0:0:
339,263,268417,1,2,3:2:0:0:
300,289,268492,1,0,3:0:0:0:
253,293,268567,1,10,2:2:0:0:
210,273,268642,1,0,3:0:0:0:
184,234,268717,6,0,L|191:173,1,47.5,2|0,3:2|3:0,3:0:0:0:
199,102,268867,2,0,L|206:41,1,47.5,10|0,2:0|3:0,3:0:0:0:
8,206,269017,2,0,L|16:253,1,47.5,2|0,3:2|3:0,3:0:0:0:
26,335,269167,2,0,L|34:382,1,47.5,10|0,3:2|3:0,3:0:0:0:
292,82,269317,1,2,3:2:0:0:
81,102,269467,1,10,2:0:0:0:
109,330,269617,2,0,P|165:360|217:357,1,95,2|8,3:0|0:0,3:0:0:0:
417,372,269917,5,6,3:0:0:0:
395,346,269992,1,0,3:0:0:0:
382,316,270067,1,10,0:0:0:0:
378,283,270142,1,0,3:0:0:0:
383,250,270217,1,0,3:0:0:0:
404,208,270292,1,0,3:0:0:0:
425,166,270367,1,10,0:0:0:0:
426,119,270442,1,0,3:0:0:0:
406,76,270517,6,0,L|289:90,1,95,0|10,3:0|0:0,0:0:0:0:
261,163,270742,2,0,L|309:168,1,47.5,0|0,3:0|3:0,0:0:0:0:
230,30,270892,1,0,3:0:0:0:
230,30,270967,2,0,P|216:79|227:117,1,47.5,10|0,0:0|3:0,0:0:0:0:
197,211,271117,5,0,3:0:0:0:
158,184,271192,1,0,3:0:0:0:
111,177,271267,1,10,3:0:0:0:
66,191,271342,1,0,3:0:0:0:
32,224,271417,2,0,L|46:300,1,47.5,0|0,3:0|3:0,3:0:0:0:
284,240,271567,2,0,L|293:167,1,47.5,10|0,3:0|3:0,0:0:0:0:
44,225,271717,2,0,L|57:300,1,47.5,0|0,3:0|3:0,0:0:0:0:
273,239,271867,2,0,L|283:167,1,47.5,10|0,3:0|3:0,3:0:0:0:
118,377,272017,5,0,3:0:0:0:
149,342,272092,1,0,3:0:0:0:
192,323,272167,1,10,3:0:0:0:
240,323,272242,1,0,3:0:0:0:
283,342,272317,2,0,P|313:348|344:343,3,47.5,8|8|0|0,2:0|2:0|3:0|3:0,0:0:0:0:
447,273,272617,2,0,P|417:278|386:273,3,47.5,0|0|0|0,3:0|3:0|3:0|3:0,0:0:0:0:
322,203,272917,5,0,3:0:0:0:
323,179,272992,1,0,3:0:0:0:
325,155,273067,1,0,3:0:0:0:
327,131,273142,1,0,3:0:0:0:
328,104,273217,1,8,2:0:0:0:
371,86,273292,1,8,2:0:0:0:
416,96,273367,2,0,P|463:111|503:100,1,47.5,0|0,3:0|3:0,0:0:0:0:
315,10,273517,5,8,2:0:0:0:
270,23,273592,1,8,2:0:0:0:
238,58,273667,1,0,3:0:0:0:
229,104,273742,1,0,3:0:0:0:
244,148,273817,1,0,3:0:0:0:
253,194,273892,1,0,3:0:0:0:
230,234,273967,1,0,3:0:0:0:
186,249,274042,1,0,3:0:0:0:
143,231,274117,5,0,3:0:0:0:
20,14,274267,1,0,3:0:0:0:
325,205,274417,1,14,3:0:0:0:
13,339,274567,1,0,3:0:0:0:
163,17,274717,5,10,3:0:0:0:
51,52,277117,5,8,2:0:0:0:
272,141,277267,1,8,2:0:0:0:
0,301,277417,1,8,2:0:0:0:
219,180,279517,6,0,L|228:329,1,142.500005435944,6|0,3:0|3:0,3:0:0:0:
303,150,280117,2,0,L|312:299,1,142.500005435944,0|0,3:0|3:0,0:0:0:0:
386,113,280717,2,0,L|395:262,1,142.500005435944,0|0,3:0|3:0,3:0:0:0:
470,83,281317,2,0,L|479:232,1,142.500005435944,0|0,3:0|3:0,0:0:0:0:
371,28,281917,6,0,P|305:33|281:52,1,71.2500027179719,0|0,3:0|0:0,3:0:0:0:
241,112,282217,2,0,P|207:122|172:118,1,71.2500027179719,0|0,3:0|0:0,0:0:0:0:
373,36,282517,6,0,P|307:41|283:60,1,71.2500027179719,0|0,3:0|0:0,0:0:0:0:
243,120,282817,2,0,P|209:130|174:126,1,71.2500027179719,0|0,3:0|0:0,0:0:0:0:
62,42,283117,6,0,L|71:134,1,71.2500027179719,0|0,3:0|0:0,3:0:0:0:
162,218,283417,2,0,L|153:310,1,71.2500027179719,0|0,3:0|0:0,0:0:0:0:
55,46,283717,6,0,L|64:138,1,71.2500027179719,0|0,3:0|0:0,0:0:0:0:
155,222,284017,2,0,L|146:314,1,71.2500027179719,0|0,3:0|0:0,0:0:0:0:
22,361,284317,6,0,P|65:292|163:303,1,170.999994781494,6|2,3:0|3:0,3:0:0:0:
253,377,284767,1,0,3:0:0:0:
349,154,284917,1,10,3:0:0:0:
274,212,285067,2,0,P|321:242|386:234,1,85.4999973907472,0|2,3:0|3:0,0:0:0:0:
386,40,285367,6,0,P|292:46|252:130,1,170.999994781494,0|0,3:0|0:0,0:0:0:0:
274,212,285817,1,2,3:0:0:0:
61,97,285967,1,0,3:0:0:0:
138,20,286117,2,0,L|149:137,1,85.4999973907472,10|0,3:0|3:0,0:0:0:0:
164,344,286417,1,2,3:0:0:0:
25,228,286567,1,8,3:0:0:0:
261,334,286717,6,0,P|333:333|382:226,1,170.999994781494,2|2,3:0|3:0,3:0:0:0:
271,82,287167,1,0,3:0:0:0:
362,123,287317,2,0,L|446:112,1,85.4999973907472,10|0,3:0|3:0,0:0:0:0:
202,16,287617,1,2,3:0:0:0:
271,82,287767,2,0,L|288:256,1,170.999994781494,0|8,3:0|3:0,0:0:0:0:
133,109,288217,1,2,3:0:0:0:
362,123,288367,1,0,3:0:0:0:
198,264,288517,2,0,P|151:290|98:284,1,85.4999973907472,10|0,3:0|3:0,0:0:0:0:
61,44,288817,1,2,3:0:0:0:
32,286,288967,1,0,3:0:0:0:
78,29,289117,6,0,B|182:23|139:103|265:75,1,170.999994781494,2|2,3:0|3:0,3:0:0:0:
393,41,289567,1,0,3:0:0:0:
310,15,289717,2,0,L|320:141,1,85.4999973907472,10|0,3:0|3:0,0:0:0:0:
379,316,290017,1,2,3:0:0:0:
460,267,290167,2,0,L|264:287,1,170.999994781494,0|0,3:0|3:0,0:0:0:0:
140,219,290617,1,2,3:0:0:0:
219,384,290767,1,0,3:0:0:0:
188,121,290917,2,0,P|113:119|83:147,1,85.4999973907472,10|0,3:0|3:0,0:0:0:0:
27,309,291217,1,2,3:0:0:0:
244,205,291367,1,0,3:0:0:0:
11,331,291517,6,0,B|101:321|101:321|192:365,1,170.999994781494,6|2,3:0|3:0,3:0:0:0:
350,272,291967,1,0,3:0:0:0:
261,223,292117,2,0,P|253:288|276:332,1,85.4999973907472,10|0,3:0|3:0,0:0:0:0:
464,382,292417,1,2,3:0:0:0:
426,301,292567,1,8,2:0:0:0:
433,258,292642,1,8,2:0:0:0:
440,216,292717,5,8,2:0:0:0:
300,33,292867,1,8,2:0:0:0:
383,16,293017,5,8,2:0:0:0:
261,223,293167,1,8,2:0:0:0:
340,200,293317,5,8,2:0:0:0:
218,0,293467,1,8,2:0:0:0:
385,106,293617,1,0,3:0:0:0:
355,110,293692,1,0,3:0:0:0:
325,114,293767,1,0,3:0:0:0:
296,119,293842,1,0,3:0:0:0:
260,124,293917,6,0,P|244:176|278:249,1,95,6|0,3:0|3:0,0:0:0:0:
272,248,294142,1,0,3:0:0:0:
272,248,294217,2,0,L|384:237,1,95,10|0,3:0|3:0,0:0:0:0:
225,365,294517,1,10,3:0:0:0:
392,352,294667,1,0,3:0:0:0:
194,367,294817,1,10,3:0:0:0:
172,341,294892,1,0,0:0:0:0:
160,310,294967,1,0,3:0:0:0:
159,277,295042,1,0,3:0:0:0:
167,245,295117,6,0,P|173:189|137:139,1,95,10|0,3:0|3:0,0:0:0:0:
128,141,295342,1,0,0:0:0:0:
128,141,295417,2,0,L|254:157,1,95,10|0,3:0|3:0,3:0:0:0:
357,27,295717,1,10,3:0:0:0:
392,223,295867,1,0,3:0:0:0:
272,51,296017,1,10,3:0:0:0:
251,282,296167,1,0,3:0:0:0:
464,121,296317,5,10,3:0:0:0:
328,178,296467,1,0,3:0:0:0:
328,178,296542,1,0,3:0:0:0:
328,178,296617,2,0,P|316:236|358:298,1,95,10|0,3:0|3:0,0:0:0:0:
483,371,296917,2,0,P|445:330|379:338,1,95,10|0,3:0|3:0,3:0:0:0:
317,362,297217,1,10,3:0:0:0:
285,371,297292,1,0,0:0:0:0:
252,368,297367,1,0,3:0:0:0:
222,353,297442,1,0,3:0:0:0:
201,329,297517,6,0,P|133:355|91:345,1,95,10|0,3:0|3:0,0:0:0:0:
38,146,297817,1,10,3:0:0:0:
139,264,297967,1,0,3:0:0:0:
228,91,298117,1,10,3:0:0:0:
13,152,298267,1,0,3:0:0:0:
255,90,298417,1,10,3:0:0:0:
0,38,298567,1,0,3:0:0:0:
147,288,298717,6,0,L|255:275,1,95,14|0,3:0|3:0,0:0:0:0:
275,272,298942,1,0,3:0:0:0:
275,272,299017,2,0,L|264:371,1,95,10|0,3:0|3:0,0:0:0:0:
400,155,299317,1,10,3:0:0:0:
465,229,299467,2,0,P|402:252|352:234,1,95,0|10,3:0|3:0,0:0:0:0:
289,38,299767,1,0,3:0:0:0:
400,155,299917,6,0,L|270:145,1,95,10|0,3:0|3:0,0:0:0:0:
106,132,300217,1,10,3:0:0:0:
289,38,300367,1,0,3:0:0:0:
49,29,300517,1,10,3:0:0:0:
320,37,300667,1,0,3:0:0:0:
85,132,300817,1,10,3:0:0:0:
305,147,300967,1,0,3:0:0:0:
133,12,301117,5,0,3:0:0:0:
189,268,301267,1,8,2:0:0:0:
189,268,301342,1,0,3:0:0:0:
189,268,301417,1,0,3:0:0:0:
250,209,301567,5,0,3:0:0:0:
25,273,301717,1,8,2:0:0:0:
25,273,301792,1,0,3:0:0:0:
25,273,301867,1,0,3:0:0:0:
96,341,302017,1,0,3:0:0:0:
96,341,302092,1,0,3:0:0:0:
96,341,302167,1,8,2:0:0:0:
106,324,302242,1,0,3:0:0:0:
108,295,302317,6,0,P|108:241|74:198,1,95,0|0,3:0|3:0,0:0:0:0:
62,191,302542,1,0,3:0:0:0:
62,191,302617,2,0,P|47:142|60:92,1,95,8|0,2:0|3:0,3:0:0:0:
21,8,302917,1,8,2:0:0:0:
42,33,302992,1,0,3:0:0:0:
70,51,303067,1,0,3:0:0:0:
102,59,303142,1,0,3:0:0:0:
135,57,303217,1,0,3:0:0:0:
194,0,303367,1,0,3:0:0:0:
315,63,303517,5,6,3:0:0:0:
362,92,303592,1,0,3:0:0:0:
385,143,303667,1,10,3:2:0:0:
375,199,303742,1,0,3:0:0:0:
336,239,303817,1,2,3:2:0:0:
281,249,303892,1,0,3:0:0:0:
229,227,303967,1,10,3:2:0:0:
199,180,304042,1,0,3:0:0:0:
201,124,304117,6,0,P|258:127|300:180,1,113.999996520996,2|10,0:2|0:2,0:0:0:0:
310,348,304417,1,2,3:2:0:0:
310,348,304492,1,0,3:0:0:0:
310,348,304567,1,10,3:2:0:0:
449,250,304717,6,0,L|302:235,1,113.999996520996,2|10,3:2|3:2,0:0:0:0:
140,228,305017,1,2,3:2:0:0:
146,255,305092,1,0,3:0:0:0:
153,283,305167,1,10,3:2:0:0:
195,132,305317,1,2,3:2:0:0:
158,116,305392,1,0,3:0:0:0:
119,115,305467,1,10,3:2:0:0:
82,130,305542,1,0,3:0:0:0:
54,159,305617,2,0,B|70:100|70:100|48:42,1,113.999996520996,2|10,3:2|3:2,0:0:0:0:
195,16,305917,5,2,3:2:0:0:
210,46,305992,1,0,3:0:0:0:
234,70,306067,1,10,3:2:0:0:
265,85,306142,1,0,3:0:0:0:
298,90,306217,1,2,3:2:0:0:
332,84,306292,1,0,3:0:0:0:
362,68,306367,1,10,3:2:0:0:
395,62,306442,1,0,3:0:0:0:
429,67,306517,5,2,3:2:0:0:
459,82,306592,1,0,3:0:0:0:
483,107,306667,1,10,3:2:0:0:
497,138,306742,1,0,3:0:0:0:
496,172,306817,1,2,3:2:0:0:
485,204,306892,1,0,3:0:0:0:
462,229,306967,1,10,3:2:0:0:
431,241,307042,1,0,3:0:0:0:
397,239,307117,6,0,B|382:323,1,56.9999982604981,2|0,3:2|3:0,3:0:0:0:
308,146,307267,2,0,B|293:62,1,56.9999982604981,10|0,3:2|3:0,3:0:0:0:
371,236,307417,5,2,3:2:0:0:
365,264,307492,1,0,3:0:0:0:
360,292,307567,1,10,0:2:0:0:
184,345,307717,5,2,3:2:0:0:
308,146,307867,1,10,0:2:0:0:
389,374,308017,2,0,B|348:327|348:327|201:342,1,170.999994781494,2|0,3:2|3:0,3:0:0:0:
184,345,308317,5,6,3:0:0:0:
308,146,308467,1,10,0:2:0:0:
227,182,308617,1,2,3:2:0:0:
419,95,308767,5,10,0:2:0:0:
197,12,308917,1,2,3:2:0:0:
211,96,309067,1,10,0:2:0:0:
437,5,309217,1,2,3:2:0:0:
465,9,309292,1,0,3:0:0:0:
493,13,309367,1,10,0:2:0:0:
296,236,309517,5,2,3:2:0:0:
227,182,309667,1,10,3:2:0:0:
419,95,309817,5,2,3:2:0:0:
335,384,309967,1,10,3:2:0:0:
340,138,310117,5,2,3:2:0:0:
415,185,310267,1,10,3:2:0:0:
227,182,310417,5,2,3:2:0:0:
419,95,310567,1,10,3:2:0:0:
137,12,310717,5,6,3:0:0:0:
105,58,310792,1,0,3:0:0:0:
101,114,310867,1,10,3:2:0:0:
127,164,310942,1,0,3:0:0:0:
171,200,311017,2,0,B|228:177|242:202|242:202|265:185|265:185|305:211|361:186,1,170.999994781494,2|0,3:2|3:0,3:0:0:0:
358,177,311317,2,0,P|358:223|375:264,1,56.9999982604981,2|0,3:2|3:0,0:0:0:0:
470,355,311467,1,10,3:2:0:0:
478,347,311542,1,0,3:0:0:0:
486,338,311617,2,0,P|442:329|360:352,1,113.999996520996,2|10,3:2|3:2,3:0:0:0:
171,200,311917,5,2,3:2:0:0:
198,278,312067,1,10,3:2:0:0:
253,97,312217,1,2,3:2:0:0:
253,97,312292,1,0,0:0:0:0:
253,97,312367,1,10,3:2:0:0:
15,186,312517,5,2,3:2:0:0:
83,10,312667,1,10,3:2:0:0:
198,278,312817,5,2,3:2:0:0:
127,102,312967,1,10,3:2:0:0:
41,305,313117,6,0,B|37:332|55:376|55:376|130:352|137:276|108:228,1,227.999993041992,6|2,3:0|3:2,3:0:0:0:
15,186,313567,1,10,3:2:0:0:
253,97,313717,1,2,3:2:0:0:
83,10,313867,1,10,3:2:0:0:
243,192,314017,1,2,3:2:0:0:
437,14,314167,1,10,3:2:0:0:
159,139,314317,6,0,P|144:212|268:298,1,227.999993041992,6|2,3:0|3:2,3:0:0:0:
475,203,314767,1,10,3:2:0:0:
475,203,314842,1,0,0:0:0:0:
475,203,314917,1,2,3:2:0:0:
253,97,315067,1,10,3:2:0:0:
334,27,315217,2,0,L|344:176,1,113.999996520996,2|10,3:2|3:2,3:0:0:0:
358,368,315517,5,6,3:0:0:0:
395,326,315592,1,0,3:0:0:0:
391,271,315667,1,10,3:2:0:0:
348,236,315742,1,0,3:0:0:0:
293,242,315817,1,2,3:2:0:0:
258,287,315892,1,0,3:0:0:0:
214,322,315967,1,10,3:2:0:0:
158,326,316042,1,0,3:0:0:0:
110,297,316117,6,0,L|125:238,1,56.9999982604981,2|0,3:2|3:0,0:0:0:0:
14,56,316267,2,0,L|28:115,1,56.9999982604981,10|0,3:2|3:0,0:0:0:0:
251,115,316417,2,0,L|191:101,1,56.9999982604981,2|0,3:2|3:0,0:0:0:0:
0,204,316567,2,0,L|59:190,1,56.9999982604981,10|0,3:2|3:0,0:0:0:0:
235,31,316717,6,0,P|173:21|128:58,1,113.999996520996,6|10,3:0|3:2,3:0:0:0:
188,160,317017,1,2,3:2:0:0:
192,131,317092,1,0,3:0:0:0:
196,103,317167,1,10,3:2:0:0:
325,2,317317,2,0,L|334:81,1,56.9999982604981,2|0,3:2|0:0,3:0:0:0:
417,111,317467,2,0,L|408:190,1,56.9999982604981,8|0,0:0|0:0,0:0:0:0:
318,360,317617,2,0,P|319:303|429:340,1,170.999994781494,2|0,0:0|0:0,0:0:0:0:
419,316,317917,5,6,3:0:0:0:
385,307,317992,1,0,3:0:0:0:
357,289,318067,1,10,3:2:0:0:
335,262,318142,1,0,3:0:0:0:
324,230,318217,1,2,3:2:0:0:
323,196,318292,1,0,3:0:0:0:
337,159,318367,1,10,3:2:0:0:
347,114,318442,1,0,3:0:0:0:
329,65,318517,1,2,3:2:0:0:
274,46,318592,1,0,3:0:0:0:
219,56,318667,1,10,3:2:0:0:
184,100,318742,1,0,3:0:0:0:
186,156,318817,1,2,3:2:0:0:
215,204,318892,1,0,3:0:0:0:
218,260,318967,1,10,3:2:0:0:
182,304,319042,1,0,3:0:0:0:
125,308,319117,6,0,L|45:300,3,56.9999982604981,2|0|10|0,3:2|3:0|3:2|3:0,0:0:0:0:
6,205,319417,1,2,3:2:0:0:
0,166,319492,1,0,3:0:0:0:
0,127,319567,1,10,3:2:0:0:
22,94,319642,1,0,3:0:0:0:
60,74,319717,2,0,L|188:90,1,113.999996520996,2|10,3:2|3:2,3:0:0:0:
458,0,320017,2,0,L|330:15,1,113.999996520996,2|10,3:2|3:2,3:0:0:0:
60,74,320317,5,8,2:0:0:0:
7,132,320392,1,8,2:0:0:0:
1,210,320467,1,0,3:0:0:0:
40,277,320542,1,0,3:0:0:0:
112,307,320617,1,8,2:0:0:0:
189,286,320692,1,0,3:0:0:0:
237,225,320767,1,0,3:0:0:0:
260,150,320842,1,0,3:0:0:0:
324,105,320917,1,0,3:0:0:0:
402,109,320992,1,0,3:0:0:0:
461,160,321067,1,8,2:0:0:0:
476,237,321142,1,8,2:0:0:0:
441,307,321217,1,0,3:0:0:0:
365,330,321292,1,0,3:0:0:0:
297,287,321367,1,8,2:0:0:0:
287,208,321442,1,0,3:0:0:0:
338,149,321517,6,0,L|507:167,1,113.999996520996,0|8,0:0|2:0,0:0:0:0:
512,49,321742,2,0,L|373:55,1,113.999996520996
182,73,321967,2,0,L|192:143,1,56.9999982604981
254,329,322117,2,0,B|140:297|140:297|20:344,1,227.999993041992,8|0,2:0|3:0,0:0:0:0:
37,336,322717,6,0,P|77:259|18:186,1,190,14|10,3:0|3:2,3:0:0:0:
72,49,323167,1,10,3:2:0:0:
129,114,323317,2,0,L|237:108,1,95,10|10,3:2|3:2,3:0:0:0:
366,29,323617,1,10,3:2:0:0:
304,207,323767,1,10,3:2:0:0:
388,13,323917,6,0,P|466:16|492:125,1,190,10|10,3:2|3:2,3:0:0:0:
329,138,324367,1,10,3:2:0:0:
410,98,324517,2,0,L|399:222,1,95,10|10,3:2|3:2,3:0:0:0:
495,369,324817,2,0,L|477:260,1,95,10|10,3:2|3:2,3:0:0:0:
401,192,325117,5,14,3:0:0:0:
368,185,325192,1,0,3:0:0:0:
335,191,325267,1,10,3:2:0:0:
307,207,325342,1,0,3:0:0:0:
286,233,325417,1,10,3:2:0:0:
275,264,325492,1,0,3:0:0:0:
258,303,325567,1,10,3:2:0:0:
211,327,325642,1,0,3:0:0:0:
159,316,325717,1,10,3:2:0:0:
126,274,325792,1,0,3:0:0:0:
136,222,325867,1,10,3:2:0:0:
173,186,325942,1,0,3:0:0:0:
225,188,326017,2,0,P|240:142|209:74,1,95,10|10,3:2|3:2,0:0:0:0:
128,36,326317,6,0,L|26:44,1,95,0|8,3:0|2:0,3:0:0:0:
16,46,326542,1,8,2:0:0:0:
16,46,326617,2,0,P|6:105|36:146,1,95,8|0,3:0|3:0,0:0:0:0:
13,235,326917,1,8,3:0:0:0:
38,213,326992,1,8,3:0:0:0:
69,201,327067,1,8,3:0:0:0:
102,198,327142,1,8,3:0:0:0:
134,206,327217,2,0,L|128:255,3,47.5,0|0|0|0,3:0|3:0|3:0|3:0,0:0:0:0:
197,163,327517,5,14,3:2:0:0:
313,384,327667,1,10,3:2:0:0:
407,75,327817,5,10,3:2:0:0:
377,193,327967,1,10,3:2:0:0:
318,53,328117,1,10,3:2:0:0:
294,167,328267,1,10,3:2:0:0:
407,75,328417,2,0,L|532:98,1,95,10|10,3:2|3:2,3:0:0:0:
469,306,328717,5,14,3:2:0:0:
407,75,328867,1,10,3:2:0:0:
311,251,329017,5,10,3:2:0:0:
456,217,329167,1,10,3:2:0:0:
232,227,329317,1,10,3:2:0:0:
377,193,329467,1,10,3:2:0:0:
237,321,329617,2,0,L|229:193,1,95,10|10,3:2|3:2,3:0:0:0:
218,39,329917,6,0,B|128:36|149:121|36:105,1,190,14|10,2:0|3:2,3:0:0:0:
69,25,330367,1,10,3:2:0:0:
204,125,330517,2,0,L|197:233,1,95,10|10,3:2|3:2,3:0:0:0:
77,361,330817,2,0,L|57:233,1,95,10|10,3:2|3:2,3:0:0:0:
204,125,331117,5,14,3:0:0:0:
228,111,331192,1,0,3:0:0:0:
256,105,331267,1,0,3:0:0:0:
284,107,331342,1,0,3:0:0:0:
311,117,331417,1,10,3:0:0:0:
333,135,331492,1,0,3:0:0:0:
349,158,331567,1,0,3:0:0:0:
366,181,331642,1,0,3:0:0:0:
392,191,331717,1,10,3:0:0:0:
429,188,331792,1,0,3:0:0:0:
461,167,331867,1,0,3:0:0:0:
479,134,331942,1,0,3:0:0:0:
470,87,332017,1,10,3:0:0:0:
422,55,332092,1,0,3:0:0:0:
367,71,332167,1,0,3:0:0:0:
346,124,332242,1,0,3:0:0:0:
371,174,332317,6,0,P|397:242|381:288,1,95,6|10,3:0|2:0,3:0:0:0:
205,337,332617,1,2,3:2:0:0:
256,105,332767,1,10,2:0:0:0:
318,238,332917,1,2,3:2:0:0:
159,200,333067,1,10,2:0:0:0:
246,10,333217,2,0,L|257:121,1,95,2|10,3:2|2:0,3:0:0:0:
266,326,333517,6,0,B|220:305|220:305|133:339|133:339|71:321,1,190,6|2,3:0|3:2,3:0:0:0:
3,304,333967,1,10,2:0:0:0:
126,218,334117,2,0,P|140:127|116:91,1,95,2|10,3:2|2:0,0:0:0:0:
117,102,334342,1,0,3:0:0:0:
117,102,334417,1,2,3:2:0:0:
144,119,334492,1,0,3:0:0:0:
177,127,334567,1,10,2:0:0:0:
210,124,334642,1,0,3:0:0:0:
240,111,334717,5,2,3:2:0:0:
310,58,334867,2,0,B|404:68|404:68|445:97|439:162,1,190,10|10,2:0|2:0,3:0:0:0:
342,246,335317,1,2,3:2:0:0:
357,150,335467,1,10,2:0:0:0:
405,291,335617,2,0,P|346:324|297:306,1,95,2|10,3:2|2:0,3:0:0:0:
241,225,335917,6,0,B|119:212|174:294|58:288,1,190,2|2,3:2|3:2,3:0:0:0:
165,116,336367,1,10,2:0:0:0:
76,372,336517,1,2,3:2:0:0:
67,78,336667,1,10,2:0:0:0:
217,310,336817,1,2,3:2:0:0:
10,160,336967,1,10,2:0:0:0:
291,27,337117,5,6,3:0:0:0:
319,64,337192,1,0,3:0:0:0:
329,110,337267,1,10,2:0:0:0:
319,156,337342,1,0,3:0:0:0:
290,193,337417,1,2,3:2:0:0:
269,235,337492,1,0,3:0:0:0:
268,282,337567,1,10,2:0:0:0:
287,325,337642,1,0,3:0:0:0:
323,356,337717,6,0,L|399:346,1,47.5,2|0,3:2|3:0,0:0:0:0:
476,206,337867,2,0,L|396:199,1,47.5,10|0,2:0|3:0,0:0:0:0:
161,188,338017,1,2,3:2:0:0:
141,214,338092,1,0,3:0:0:0:
132,246,338167,1,10,2:0:0:0:
135,279,338242,1,0,3:0:0:0:
149,309,338317,5,2,3:2:0:0:
189,283,338392,1,0,3:0:0:0:
213,243,338467,1,10,2:0:0:0:
216,196,338542,1,0,3:0:0:0:
197,153,338617,1,2,3:2:0:0:
161,123,338692,1,0,3:0:0:0:
127,91,338767,1,10,2:0:0:0:
123,45,338842,1,0,3:0:0:0:
150,7,338917,6,0,L|230:14,1,47.5,2|0,3:2|3:0,0:0:0:0:
340,128,339067,2,0,L|263:133,1,47.5,10|0,2:0|3:0,0:0:0:0:
456,20,339217,1,2,3:2:0:0:
456,20,339292,1,0,3:0:0:0:
456,20,339367,2,0,L|465:81,1,47.5,10|0,2:0|3:0,3:0:0:0:
488,282,339517,5,6,3:0:0:0:
444,317,339592,1,0,3:0:0:0:
388,325,339667,1,10,2:2:0:0:
338,301,339742,1,0,3:0:0:0:
312,251,339817,1,2,3:2:0:0:
274,209,339892,1,0,3:0:0:0:
220,192,339967,1,10,2:0:0:0:
165,205,340042,1,0,3:0:0:0:
125,244,340117,5,2,3:2:0:0:
190,279,340192,1,0,3:0:0:0:
261,259,340267,1,10,2:0:0:0:
299,195,340342,1,0,3:0:0:0:
281,123,340417,1,2,3:2:0:0:
218,84,340492,1,0,3:0:0:0:
146,99,340567,1,10,2:0:0:0:
111,167,340642,1,0,3:0:0:0:
125,244,340717,6,0,L|137:316,1,47.5,2|0,3:2|3:0,0:0:0:0:
20,191,340867,2,0,L|27:126,1,47.5,10|0,2:0|3:0,0:0:0:0:
105,1,341017,1,2,3:2:0:0:
212,183,341167,1,10,2:0:0:0:
434,29,341317,2,0,P|385:17|347:106,1,142.5,2|0,3:2|0:0,3:0:0:0:
345,116,341617,2,0,B|434:117|397:193|498:170,1,142.5,2|0,3:2|0:0,3:0:0:0:
500,170,341917,5,6,3:0:0:0:
512,298,342067,2,0,P|459:265|334:293,1,190,10|10,2:2|2:0,3:0:0:0:
211,356,342517,1,2,3:2:0:0:
317,194,342667,1,10,2:2:0:0:
226,149,342817,2,0,L|242:276,1,95,2|10,3:2|2:0,3:0:0:0:
98,35,343117,6,0,B|179:42|179:42|208:69|208:69|317:73,1,190,6|2,0:0|3:2,3:0:0:0:
439,25,343567,1,10,2:0:0:0:
277,71,343717,1,2,3:2:0:0:
499,124,343867,1,10,2:0:0:0:
339,17,344017,1,2,0:2:0:0:
512,127,344167,1,10,2:0:0:0:
431,10,344317,5,6,3:0:0:0:
425,57,344392,1,0,3:0:0:0:
420,104,344467,1,10,2:0:0:0:
414,151,344542,1,0,3:0:0:0:
409,194,344617,2,0,P|444:213|483:203,3,47.5,2|0|10|0,3:2|3:0|2:0|3:0,0:0:0:0:
497,326,344917,5,2,3:2:0:0:
459,297,344992,1,0,3:0:0:0:
413,286,345067,1,10,2:0:0:0:
367,295,345142,1,0,3:0:0:0:
329,322,345217,2,0,L|339:381,3,47.5,2|0|10|0,3:2|3:0|2:0|3:0,0:0:0:0:
251,291,345517,5,6,3:0:0:0:
338,64,345667,1,10,2:0:0:0:
233,91,345817,1,2,3:2:0:0:
454,171,345967,5,10,2:0:0:0:
210,100,346117,1,2,3:2:0:0:
228,197,346267,1,10,2:0:0:0:
368,54,346417,5,2,0:2:0:0:
87,138,346567,1,10,2:0:0:0:
147,35,346717,1,6,3:0:0:0:
186,59,346792,1,0,3:0:0:0:
210,100,346867,1,10,2:0:0:0:
213,147,346942,1,0,3:0:0:0:
194,189,347017,6,0,L|139:208,1,47.5,2|0,3:2|3:0,0:0:0:0:
27,284,347167,2,0,L|99:307,1,47.5,10|0,2:0|3:0,0:0:0:0:
197,201,347317,2,0,L|142:220,1,47.5,2|0,3:2|3:0,0:0:0:0:
30,296,347467,2,0,L|102:319,1,47.5,10|0,2:0|3:0,0:0:0:0:
248,352,347617,1,2,3:2:0:0:
246,328,347692,1,0,3:0:0:0:
241,302,347767,2,0,L|298:312,1,47.5,10|0,2:0|3:0,0:0:0:0:
370,118,347917,6,0,L|361:180,3,47.5,2|0|10|0,3:2|3:0|2:0|3:0,0:0:0:0:
435,73,348217,2,0,L|426:11,3,47.5,2|0|10|0,3:2|3:0|2:0|3:0,0:0:0:0:
492,127,348517,1,2,3:2:0:0:
463,147,348592,1,0,3:0:0:0:
428,152,348667,1,10,2:0:0:0:
394,142,348742,1,0,3:0:0:0:
369,117,348817,1,2,3:2:0:0:
332,88,348892,1,0,3:0:0:0:
286,81,348967,1,10,2:0:0:0:
242,99,349042,1,0,3:0:0:0:
213,135,349117,6,0,P|250:137|282:128,3,47.5,8|0|0|0,2:0|3:0|3:0|3:0,0:0:0:0:
336,235,349417,2,0,P|299:233|267:242,3,47.5,8|0|0|0,2:0|3:0|3:0|3:0,3:0:0:0:
204,270,349717,1,0,3:0:0:0:
204,270,349792,1,0,3:0:0:0:
204,270,349867,2,0,P|206:305|217:337,1,47.5,8|0,2:0|3:0,0:0:0:0:
311,370,350017,1,0,3:0:0:0:
311,370,350092,1,0,3:0:0:0:
311,370,350167,2,0,P|322:333|318:301,1,47.5,8|0,2:0|3:0,3:0:0:0:
488,239,350317,6,0,P|417:266|332:196,1,190,0|8,3:0|2:0,0:0:0:0:
422,169,350767,1,0,3:0:0:0:
311,370,350917,2,0,P|265:324|131:372,1,190,8|0,2:0|3:0,0:0:0:0:
37,366,351367,1,0,3:0:0:0:
37,366,351442,1,0,3:0:0:0:
37,366,351517,6,0,B|35:302|79:248|138:235|138:235|-11:234|-81:-17|222:-118|318:113|210:208|210:208|290:153|343:229|409:223|409:223|512:208|506:84|371:73|362:214,1,1276.79996103516,14|0,2:3|0:0,0:0:0:0:
70,73,361117,5,2,3:1:0:0:
108,377,361267,1,0,3:1:0:0:
125,360,362317,5,2,3:1:0:0:
163,56,362467,1,0,3:0:0:0:
181,54,363517,5,2,3:1:0:0:
219,358,363667,1,0,3:0:0:0:
236,341,364717,6,0,P|269:277|118:209,1,279.299991476441,6|0,3:0|0:0,3:0:0:0:
7,338,365917,6,0,B|111:330|111:330|128:351|128:351|247:339,1,239.399992694092,6|0,3:0|0:0,3:0:0:0:
334,331,367117,5,0,3:0:0:0:
334,331,367192,1,0,3:0:0:0:
334,331,367267,2,0,L|342:272,1,47.5,8|8,2:0|2:0,0:0:0:0:
266,151,367417,5,0,3:0:0:0:
266,151,367492,1,0,3:0:0:0:
266,151,367567,2,0,L|276:220,1,47.5,0|0,3:0|3:0,0:0:0:0:
445,313,367717,6,0,L|429:197,1,95,8|0,2:0|3:0,0:0:0:0:
428,193,367942,1,0,3:0:0:0:
428,193,368017,2,0,P|480:165|532:186,1,95,8|0,2:0|3:0,3:0:0:0:
404,40,368317,5,0,3:0:0:0:
388,54,368392,1,0,3:0:0:0:
373,63,368467,2,0,P|334:66|305:57,3,47.5,8|8|0|0,2:0|2:0|3:0|3:0,0:0:0:0:
221,169,368767,5,0,3:0:0:0:
237,155,368842,1,0,3:0:0:0:
252,146,368917,2,0,P|291:143|320:152,3,47.5,8|8|0|0,2:0|2:0|3:0|3:0,0:0:0:0:
366,202,369217,5,0,3:0:0:0:
362,235,369292,1,0,3:0:0:0:
359,268,369367,1,0,3:0:0:0:
356,301,369442,1,0,3:0:0:0:
353,334,369517,5,8,0:0:0:0:
353,336,370717,5,14,3:0:0:0:
402,309,370792,1,0,3:0:0:0:
430,260,370867,1,0,3:0:0:0:
428,204,370942,1,0,3:0:0:0:
397,157,371017,1,10,3:0:0:0:
346,133,371092,1,0,3:0:0:0:
290,140,371167,1,0,3:0:0:0:
246,176,371242,1,0,3:0:0:0:
228,229,371317,2,0,P|269:221|292:206,3,56.9999982604981,10|0|0|0,3:0|3:0|3:0|3:0,0:0:0:0:
161,311,371617,2,0,P|125:300|68:309,3,56.9999982604981,10|0|0|0,3:0|3:0|3:0|3:0,0:0:0:0:
21,360,371917,5,10,3:0:0:0:
54,314,371992,1,0,3:0:0:0:
68,259,372067,1,0,3:0:0:0:
60,203,372142,1,0,3:0:0:0:
30,155,372217,1,10,3:0:0:0:
12,102,372292,1,0,3:0:0:0:
35,52,372367,1,0,3:0:0:0:
87,31,372442,1,0,3:0:0:0:
139,52,372517,2,0,L|130:133,3,56.9999982604981,10|0|0|0,3:0|3:0|3:0|3:0,0:0:0:0:
230,78,372817,2,0,L|224:9,1,56.9999982604981,10|0,3:0|3:0,3:0:0:0:
322,97,372967,2,0,L|317:153,1,56.9999982604981,2|0,3:0|3:0,3:0:0:0:
391,30,373117,5,14,3:0:0:0:
445,17,373192,1,0,3:0:0:0:
490,49,373267,1,0,3:0:0:0:
498,104,373342,1,0,3:0:0:0:
463,147,373417,1,10,3:0:0:0:
422,185,373492,1,0,3:0:0:0:
421,240,373567,1,0,3:0:0:0:
459,280,373642,1,0,3:0:0:0:
512,260,373717,2,0,P|480:255|448:270,3,56.9999982604981,10|0|0|0,3:0|3:0|3:0|3:0,0:0:0:0:
385,339,374017,2,0,P|334:351|303:340,3,56.9999982604981,10|0|0|0,3:0|3:0|3:0|3:0,0:0:0:0:
231,369,374317,5,14,3:0:0:0:
233,358,374392,1,0,3:0:0:0:
235,349,374467,2,0,L|242:288,1,56.9999982604981,0|0,3:0|3:0,0:0:0:0:
108,320,374617,5,10,3:0:0:0:
106,309,374692,1,0,3:0:0:0:
104,300,374767,2,0,L|97:239,1,56.9999982604981,0|0,3:0|3:0,0:0:0:0:
343,332,374917,5,10,3:0:0:0:
345,321,374992,1,0,3:0:0:0:
347,312,375067,2,0,L|354:251,1,56.9999982604981,2|0,3:0|3:0,3:0:0:0:
10,281,375217,5,10,3:0:0:0:
8,270,375292,1,0,3:0:0:0:
6,261,375367,2,0,L|-1:200,1,56.9999982604981,0|0,3:0|3:0,3:0:0:0:
54,20,375517,5,10,3:0:0:0:
109,9,375592,1,0,3:0:0:0:
161,29,375667,1,0,3:0:0:0:
196,73,375742,1,0,3:0:0:0:
201,129,375817,1,10,3:0:0:0:
200,185,375892,1,0,3:0:0:0:
232,231,375967,1,0,3:0:0:0:
285,250,376042,1,0,3:0:0:0:
339,234,376117,2,0,L|329:170,3,56.9999982604981,10|0|0|0,3:0|3:0|3:0|3:0,0:0:0:0:
471,59,376417,2,0,L|461:139,3,56.9999982604981,10|0|0|0,3:0|3:0|3:0|3:0,0:0:0:0:
411,249,376717,5,10,3:0:0:0:
402,246,376792,1,0,3:0:0:0:
395,246,376867,2,0,L|322:231,1,56.9999982604981,0|0,3:0|3:0,3:0:0:0:
349,81,377017,5,10,3:0:0:0:
340,84,377092,1,0,3:0:0:0:
333,84,377167,2,0,L|260:99,1,56.9999982604981,0|0,3:0|3:0,3:0:0:0:
351,333,377317,5,10,3:0:0:0:
342,330,377392,1,0,3:0:0:0:
335,330,377467,2,0,L|262:315,1,56.9999982604981,0|0,3:0|3:0,3:0:0:0:
255,183,377617,5,10,3:0:0:0:
246,186,377692,1,0,3:0:0:0:
239,186,377767,2,0,L|166:201,1,56.9999982604981,0|0,3:0|3:0,3:0:0:0:
110,295,377917,5,8,2:0:0:0:
71,254,377992,1,0,0:0:0:0:
56,199,378067,1,0,0:0:0:0:
69,144,378142,1,0,0:0:0:0:
107,103,378217,2,0,L|180:112,1,56.9999982604981
233,34,378367,5,8,2:0:0:0:
264,57,378442,1,0,0:0:0:0:
302,68,378517,1,0,0:0:0:0:
342,65,378592,1,0,0:0:0:0:
378,48,378667,2,0,P|362:108|370:152,1,56.9999982604981
426,165,378817,5,8,2:0:0:0:
471,198,378892,1,0,0:0:0:0:
489,251,378967,1,0,0:0:0:0:
475,305,379042,1,0,0:0:0:0:
433,342,379117,2,0,B|252:332|252:332|321:297,1,227.999993041992,8|8,2:0|2:0,0:0:0:0:
426,165,379567,2,0,P|351:204|267:101,1,227.999993041992,8|0,3:0|0:0,0:0:0:0:
121,13,380017,1,0,0:0:0:0:
149,40,380092,1,0,0:0:0:0:
164,76,380167,1,0,0:0:0:0:
162,116,380242,1,0,0:0:0:0:
144,151,380317,6,0,P|78:159|29:136,1,95,6|10,0:0|0:2,0:0:0:0:
232,34,380617,1,2,0:2:0:0:
232,34,380692,1,0,0:0:0:0:
232,34,380767,1,10,0:2:0:0:
289,215,380917,5,2,0:2:0:0:
370,18,381067,1,10,0:2:0:0:
242,138,381217,1,2,0:2:0:0:
242,138,381292,1,0,0:0:0:0:
242,138,381367,1,10,0:2:0:0:
465,106,381517,5,2,0:0:0:0:
221,139,381667,1,8,0:0:0:0:
405,238,381817,1,2,0:2:0:0:
405,238,381892,1,0,0:0:0:0:
405,238,381967,1,10,0:2:0:0:
297,9,382117,2,0,L|310:115,1,95,2|10,0:2|0:2,0:0:0:0:
405,238,382417,2,0,L|392:344,1,95,2|10,0:2|0:2,0:0:0:0:
220,192,382717,5,6,0:0:0:0:
137,230,382867,2,0,P|210:284|294:249,1,190,10|10,0:2|0:2,0:0:0:0:
29,187,383317,2,0,L|38:296,1,95,2|10,0:2|0:2,0:0:0:0:
220,192,383617,2,0,L|227:97,1,95,2|10,0:2|0:2,0:0:0:0:
76,8,383917,1,6,0:0:0:0:
137,230,384067,1,8,0:0:0:0:
237,107,384217,1,2,0:2:0:0:
237,107,384292,1,0,0:0:0:0:
237,107,384367,1,10,0:2:0:0:
31,96,384517,6,0,P|18:157|39:202,1,95,2|10,0:2|0:2,0:0:0:0:
244,195,384817,2,0,P|257:134|236:89,1,95,8|0,2:0|0:0,0:0:0:0:
116,7,385117,6,0,L|123:74,1,47.5,14|0,0:2|0:0,0:0:0:0:
125,153,385267,1,0,0:0:0:0:
125,153,385342,1,0,0:0:0:0:
125,153,385417,2,0,L|201:147,1,47.5
219,24,385567,2,0,L|266:27,1,47.5
357,39,385717,5,0,0:0:0:0:
379,63,385792,1,0,0:0:0:0:
390,94,385867,1,0,0:0:0:0:
389,127,385942,1,0,0:0:0:0:
375,157,386017,1,8,2:0:0:0:
352,198,386092,1,8,2:0:0:0:
351,245,386167,1,8,2:0:0:0:
373,287,386242,1,8,2:0:0:0:
412,313,386317,5,14,0:0:0:0:
412,313,387517,5,6,0:0:0:0:
483,276,387667,2,0,L|276:300,1,190,10|10,0:2|0:2,0:0:0:0:
115,320,388117,1,2,0:2:0:0:
294,297,388267,1,10,0:2:0:0:
188,384,388417,1,2,0:2:0:0:
230,165,388567,1,10,0:2:0:0:
54,249,388717,5,2,0:2:0:0:
115,320,388867,2,0,L|100:97,1,190,10|10,0:2|0:2,0:0:0:0:
242,23,389317,2,0,P|197:60|135:58,1,95,2|10,0:2|0:2,0:0:0:0:
132,55,389542,1,0,0:0:0:0:
132,55,389617,1,2,0:2:0:0:
230,165,389767,1,10,0:2:0:0:
366,44,389917,2,0,P|338:92|366:188,1,142.5,6|0,0:0|0:0,0:0:0:0:
353,197,390217,2,0,P|401:193|460:153,1,95,2|8,0:0|0:0,0:0:0:0:
458,344,390517,5,2,0:2:0:0:
508,109,390667,1,10,0:2:0:0:
258,302,390817,5,2,0:2:0:0:
494,351,390967,1,10,0:2:0:0:
299,198,391117,5,8,2:0:0:0:
252,188,391192,1,8,2:0:0:0:
207,201,391267,1,0,0:0:0:0:
173,234,391342,1,0,0:0:0:0:
159,279,391417,1,0,0:0:0:0:
124,310,391492,1,0,0:0:0:0:
78,319,391567,1,0,0:0:0:0:
34,303,391642,1,0,0:0:0:0:
4,267,391717,6,0,L|16:216,3,47.5
86,168,392017,1,8,2:0:0:0:
81,144,392092,1,8,2:0:0:0:
76,121,392167,1,0,0:0:0:0:
71,98,392242,1,0,0:0:0:0:
66,74,392317,5,6,0:0:0:0:
147,14,392467,2,0,P|208:26|217:154,1,190,10|10,0:2|0:2,0:0:0:0:
128,261,392917,2,0,P|182:237|246:256,1,95,2|10,0:2|0:2,0:0:0:0:
343,359,393217,1,2,0:2:0:0:
188,322,393367,1,10,0:2:0:0:
388,280,393517,5,2,0:2:0:0:
343,359,393667,2,0,L|333:130,1,190,10|10,0:2|0:2,0:0:0:0:
428,28,394117,2,0,P|354:70|314:64,1,95,2|10,0:2|0:2,0:0:0:0:
309,60,394342,1,0,0:0:0:0:
309,60,394417,2,0,P|239:49|196:66,1,95,2|10,0:2|0:2,0:0:0:0:
84,24,394717,5,0,0:0:0:0:
87,47,394792,1,8,2:0:0:0:
91,70,394867,1,8,2:0:0:0:
94,94,394942,1,8,2:0:0:0:
97,117,395017,2,0,P|69:132|36:128,1,47.5,8|0,2:0|0:0,0:0:0:0:
161,186,395167,1,0,0:0:0:0:
161,186,395242,1,0,0:0:0:0:
161,186,395317,6,0,P|200:176|239:180,1,47.5,8|0,2:0|0:0,0:0:0:0:
94,286,395467,1,0,0:0:0:0:
76,292,395542,1,0,0:0:0:0:
59,294,395617,1,0,0:0:0:0:
84,272,395692,1,8,2:0:0:0:
115,261,395767,1,8,2:0:0:0:
148,260,395842,1,8,2:0:0:0:
180,270,395917,6,0,L|170:339,3,47.5,8|0|8|8,0:2|0:0|2:0|2:0,0:0:0:0:
282,231,396217,2,0,L|275:183,3,47.5
338,302,396517,1,0,0:0:0:0:
358,313,396592,1,0,0:0:0:0:
381,319,396667,1,0,0:0:0:0:
405,318,396742,1,0,0:0:0:0:
429,312,396817,2,0,L|437:369,3,47.5
477,241,397117,5,0,0:0:0:0:
479,211,397192,1,0,0:0:0:0:
481,182,397267,1,0,0:0:0:0:
484,154,397342,1,0,0:0:0:0:
488,124,397417,2,0,L|396:137,3,47.5,8|0|0|0,2:0|0:0|0:0|0:0,0:0:0:0:
335,296,397717,5,8,2:0:0:0:
311,267,397792,1,0,0:0:0:0:
297,237,397867,1,0,0:0:0:0:
294,203,397942,1,0,0:0:0:0:
301,173,398017,1,0,0:0:0:0:
315,126,398092,1,0,0:0:0:0:
310,79,398167,1,0,0:0:0:0:
284,40,398242,1,0,0:0:0:0:
243,15,398317,5,10,0:0:0:0:
0,160,398917,1,10,2:3:0:0:
47,0,399067,1,10,2:3:0:0:
55,0,399517,1,10,2:3:0:0:
147,197,399667,1,10,2:3:0:0:
30,82,399817,6,0,L|131:97,1,95,10|0,2:3|0:0,0:0:0:0:
297,122,400117,1,2,2:3:0:0:
60,218,400417,1,0,0:0:0:0:
288,221,400717,5,0,3:0:0:0:
348,206,400817,5,0,3:0:0:0:
387,158,400917,5,0,3:0:0:0:
389,96,401017,5,0,3:0:0:0:
137,53,401317,5,0,0:0:0:0:
193,318,401542,1,0,0:0:0:0:
248,91,401767,1,0,0:0:0:0:
11,146,401917,5,14,0:0:0:0:
277,196,402067,2,0,B|321:201|389:168|389:168|307:194|251:258|297:362|367:389|440:390|488:322|481:200|384:264,1,570,14|0,0:0|0:0,0:0:0:0:
