osu file format v14

[General]
AudioFilename: audio.mp3
AudioLeadIn: 0
PreviewTime: 217042
Countdown: 0
SampleSet: Drum
StackLeniency: 0.7
Mode: 0
LetterboxInBreaks: 0
WidescreenStoryboard: 1

[Editor]
Bookmarks: 2314,50314,79117,103117,131917,151117,179917,199117,218317,244717,255517,274717,322717,351517,370717
DistanceSpacing: 1.8
BeatDivisor: 4
GridSize: 8
TimelineZoom: 2.5

[Metadata]
Title:Highway to Oblivion
TitleUnicode:Highway to Oblivion
Artist:DragonForce
ArtistUnicode:DragonForce
Creator:SILENCE PLAYER
Version:Legend
Source:Audica
Tags:woey itswinter -keitaro ghouru WISPG_G mashasg kappapraise dragon force herman li marc hudson sam totman gee anzalone coen janssen frédéric frederic leclercq extreme power metal speed death stream rsi dragging english rock
BeatmapID:2223303
BeatmapSetID:1056699

[Difficulty]
HPDrainRate:4.5
CircleSize:4
OverallDifficulty:9
ApproachRate:9.6
SliderMultiplier:2
SliderTickRate:1

[Events]
//Background and Video events
0,0,"neondf2.jpg",0,0
//Break Periods
2,103317,111758
2,274917,276608
2,277617,279008
2,356667,360608
//Storyboard Layer 0 (Background)
//Storyboard Layer 1 (Fail)
//Storyboard Layer 2 (Pass)
//Storyboard Layer 3 (Foreground)
//Storyboard Layer 4 (Overlay)
//Storyboard Sound Samples

[TimingPoints]
659,413.793103448276,4,2,0,10,1,0
2314,-125,4,2,0,20,0,0
5416,-125,4,2,0,30,0,0
5830,-125,4,2,0,20,0,0
8727,-125,4,2,0,50,0,0
8934,-125,4,3,20,35,0,0
9141,-125,4,2,0,20,0,0
12038,-125,4,2,20,40,0,0
12245,-125,4,2,20,40,0,0
12451,-125,4,2,0,20,0,0
14934,-125,4,2,0,30,0,0
15555,-125,4,2,20,30,0,0
15968,-125,4,2,0,30,0,0
17934,-125,4,2,0,50,0,0
18038,-200,4,2,0,30,0,0
22176,-125,4,2,0,20,0,0
22589,-125,4,2,0,30,0,0
23003,-125,4,2,1,50,0,0
23416,-125,4,2,0,30,0,0
24555,-125,4,2,0,50,0,0
24658,-200,4,2,0,30,0,0
25486,-200,4,3,20,30,0,0
25692,-200,4,2,20,50,0,0
25900,-200,4,3,20,30,0,0
26313,-200,4,2,20,50,0,0
26520,-200,4,3,20,30,0,0
26933,-200,4,2,20,50,0,0
27141,-200,4,3,20,30,0,0
27554,-200,4,2,20,50,0,0
27762,-200,4,3,20,30,0,0
28796,-125,4,3,20,30,0,0
29624,-125,4,2,1,50,0,0
30037,-125,4,3,20,30,0,0
30451,-125,4,2,0,30,0,0
31175,-125,4,2,0,50,0,0
31279,-200,4,2,0,30,0,0
34176,-200,4,2,20,30,0,0
35417,-125,4,2,20,30,0,0
36865,-125,4,2,0,30,0,0
37072,-166.666666666666,4,2,20,30,0,0
37486,-166.666666666666,4,2,0,30,0,0
38727,-166.666666666666,4,2,0,20,0,0
38933,-166.666666666666,4,2,0,30,0,0
39555,-166.666666666666,4,2,0,20,0,0
39761,-166.666666666666,4,2,0,30,0,0
40382,-142.857142857143,4,2,0,30,0,0
42038,-142.857142857143,4,2,0,20,0,0
42244,-142.857142857143,4,2,0,30,0,0
42865,-142.857142857143,4,2,0,20,0,0
43071,-142.857142857143,4,2,0,30,0,0
43693,-125,4,2,20,30,0,0
47003,-111.111111111111,4,2,20,30,0,0
48658,-111.111111111111,4,2,20,30,0,0
50314,375,4,3,1,50,1,0
50314,-41.6666666666667,4,3,1,50,0,0
50595,-41.6666666666667,4,2,1,60,0,0
50782,-62.5,4,2,1,60,0,0
51251,-71.4285714285714,4,2,1,60,0,0
51814,-83.3333333333333,4,2,1,60,0,0
52376,-100,4,2,1,60,0,0
52939,-100,4,3,1,50,0,0
53314,-55.5555555555556,4,3,1,50,0,0
53595,-55.5555555555556,4,2,1,60,0,0
53782,-71.4285714285714,4,2,1,60,0,0
54251,-83.3333333333333,4,2,1,60,0,0
54814,-100,4,2,1,60,0,0
55376,-125,4,2,1,60,0,0
55939,-166.666666666667,4,3,1,50,0,0
56126,-166.666666666667,4,2,1,30,0,0
56314,-62.5,4,3,1,50,0,0
56595,-62.5,4,2,1,60,0,0
56689,-62.5,4,2,0,30,0,0
56782,-71.4285714285714,4,2,1,60,0,0
57063,-71.4285714285714,4,2,1,30,0,0
57251,-83.3333333333333,4,2,0,30,0,0
57814,-100,4,2,0,30,0,0
58376,-125,4,2,0,30,0,0
59126,-125,4,3,1,50,0,0
59314,-55.5555555555556,4,3,1,50,0,0
59595,-55.5555555555556,4,2,1,60,0,0
59689,-55.5555555555556,4,2,0,30,0,0
59782,-62.5,4,2,1,60,0,0
60063,-62.5,4,2,1,30,0,0
60251,-71.4285714285714,4,2,0,30,0,0
60814,-83.3333333333333,4,2,0,30,0,0
61376,-100,4,2,0,30,0,0
61939,-125,4,2,0,30,0,0
62126,-125,4,2,1,30,0,0
62314,-125,4,3,1,50,0,0
63251,-125,4,3,7,50,0,0
63860,-125,4,3,7,50,0,0
64376,-125,4,3,8,50,0,0
64751,-125,4,3,9,50,0,0
64939,-125,4,3,1,50,0,0
65126,-125,4,3,10,50,0,0
65314,-125,4,3,1,50,0,0
66251,-125,4,3,8,50,0,0
66814,-125,4,3,1,50,0,0
67376,-125,4,3,7,50,0,0
67564,-125,4,3,1,50,0,0
69251,-125,4,3,9,50,0,0
69814,-125,4,3,1,50,0,0
69907,-125,4,3,7,50,0,0
70001,-125,4,3,1,50,0,0
70189,-125,4,3,8,50,0,0
70282,-125,4,3,9,50,0,0
70376,-125,4,3,1,50,0,0
70470,-125,4,3,7,50,0,0
70564,-125,4,3,1,50,0,0
70751,-125,4,3,8,50,0,0
70844,-125,4,3,9,50,0,0
70939,-125,4,3,1,50,0,0
71032,-125,4,3,7,50,0,0
71126,-125,4,3,10,50,0,0
71314,-125,4,3,1,50,0,0
71407,-125,4,2,1,30,0,0
71501,-125,4,3,1,50,0,0
71563,-125,4,3,7,50,0,0
71626,-125,4,3,8,50,0,0
71688,-125,4,3,1,50,0,0
71969,-125,4,2,1,30,0,0
72064,-125,4,3,1,50,0,0
72126,-125,4,3,8,50,0,0
72189,-125,4,3,9,50,0,0
72251,-125,4,3,1,50,0,0
72814,-125,4,3,7,50,0,0
73064,-125,4,3,1,50,0,0
73189,-125,4,3,8,50,0,0
73376,-125,4,3,10,50,0,0
73439,-125,4,3,9,50,0,0
73564,-125,4,3,8,50,0,0
73814,-125,4,3,10,50,0,0
73939,-125,4,3,1,50,0,0
74032,-125,4,3,1,65,0,0
74317,300,4,2,1,63,1,0
74317,-100,4,2,1,63,0,0
76717,-100,4,3,8,45,0,0
77567,-100,4,3,8,50,0,0
77617,-100,4,3,8,50,0,0
77767,-100,4,3,8,50,0,0
77917,-100,4,3,9,63,0,0
78167,-100,4,2,1,63,0,0
78217,-100,4,2,1,63,0,0
78367,-100,4,2,1,63,0,0
78517,-100,4,2,10,70,0,0
78667,-100,4,3,1,60,0,0
78767,-100,4,2,1,63,0,0
78817,-100,4,2,1,63,0,0
78967,-100,4,2,1,63,0,0
79117,-100,4,2,1,63,0,0
79492,-100,4,3,1,75,0,0
79567,-100,4,2,1,63,0,0
80692,-100,4,3,1,75,0,0
80767,-100,4,2,1,63,0,0
82717,-83.3333333333333,4,2,1,63,0,0
83317,-71.4285714285714,4,2,1,63,0,0
83917,-66.6666666666667,4,2,1,63,0,0
86317,-90.9090909090909,4,2,1,63,0,0
86392,-90.9090909090909,4,3,1,75,0,0
86467,-90.9090909090909,4,2,1,63,0,0
86917,-90.9090909090909,4,3,7,63,0,0
87067,-90.9090909090909,4,3,1,63,0,0
87217,-90.9090909090909,4,3,8,63,0,0
87367,-90.9090909090909,4,2,1,63,0,0
87592,-90.9090909090909,4,3,7,63,0,0
87667,-90.9090909090909,4,3,1,63,0,0
87817,-90.9090909090909,4,3,7,63,0,0
87967,-90.9090909090909,4,3,1,63,0,0
88117,-76.9230769230769,4,3,1,63,0,0
88417,-76.9230769230769,4,3,8,63,0,0
88567,-76.9230769230769,4,3,10,63,0,0
88717,-76.9230769230769,4,3,1,63,0,0
93517,-90.9090909090909,4,3,1,63,0,0
98317,-90.9090909090909,4,3,1,63,0,0
102217,-90.9090909090909,4,3,1,63,0,0
103117,-90.9090909090909,4,3,1,63,0,0
112267,-90.9090909090909,4,3,1,63,0,0
112642,-90.9090909090909,4,3,1,70,0,0
112717,-125,4,3,1,63,0,0
117442,-125,4,2,1,70,0,0
117517,-125,4,3,1,63,0,0
117667,-125,4,2,1,70,0,0
117817,-125,4,3,1,63,0,0
120067,-125,4,2,1,70,0,0
120217,-125,4,3,1,63,0,0
122317,-111.111111111111,4,3,1,63,0,0
122466,-111.111111111111,4,2,1,70,0,0
122617,-111.111111111111,4,3,1,63,0,0
123366,-111.111111111111,4,2,1,63,0,0
123517,-111.111111111111,4,3,1,63,0,0
124866,-111.111111111111,4,2,1,70,0,0
125017,-111.111111111111,4,3,1,63,0,0
126966,-111.111111111111,4,2,1,63,0,0
127117,-111.111111111111,4,3,1,63,0,0
129592,-111.111111111111,4,3,7,63,0,0
129667,-111.111111111111,4,3,1,63,0,0
129817,-111.111111111111,4,3,8,63,0,0
129967,-111.111111111111,4,3,1,63,0,0
130191,-111.111111111111,4,3,8,63,0,0
130267,-111.111111111111,4,3,1,63,0,0
130417,-111.111111111111,4,3,9,63,0,0
130567,-111.111111111111,4,3,10,63,0,0
130717,-111.111111111111,4,3,1,63,0,0
130791,-111.111111111111,4,2,1,70,0,0
131917,-111.111111111111,4,3,1,63,0,0
136566,-111.111111111111,4,3,1,75,0,0
136717,-111.111111111111,4,3,1,63,0,0
140317,-111.111111111111,4,3,7,63,0,0
140392,-111.111111111111,4,3,1,63,0,0
140917,-111.111111111111,4,3,8,63,0,0
141066,-111.111111111111,4,3,1,63,0,0
141217,-111.111111111111,4,3,9,63,0,0
141366,-111.111111111111,4,3,10,63,0,0
141517,-111.111111111111,4,3,1,63,0,0
146317,-100,4,3,1,63,0,0
149392,-100,4,3,8,63,0,0
149467,-100,4,3,1,63,0,0
149692,-100,4,3,7,63,0,0
149767,-100,4,3,1,63,0,0
149917,-133.333333333333,4,3,1,63,0,0
150067,-133.333333333333,4,3,7,63,0,0
150217,-133.333333333333,4,3,1,63,0,0
150517,-200,4,3,10,63,0,0
150592,-200,4,3,8,63,0,0
150742,-200,4,3,7,63,0,0
150817,-125,4,3,8,63,0,0
150967,-125,4,3,10,63,0,0
151117,-90.9090909090909,4,3,1,63,0,1
165517,-83.3333333333333,4,3,1,63,0,1
165817,-83.3333333333333,4,3,7,63,0,1
165967,-83.3333333333333,4,3,1,63,0,1
166117,-83.3333333333333,4,3,8,63,0,1
166267,-83.3333333333333,4,3,1,63,0,1
166492,-83.3333333333333,4,3,7,63,0,1
166567,-83.3333333333333,4,3,10,63,0,1
166717,-83.3333333333333,4,3,1,63,0,1
167917,-100,4,3,1,63,0,0
168067,-100,4,2,1,63,0,0
168217,-100,4,3,1,63,0,0
169417,-100,4,3,1,75,0,0
169567,-100,4,3,1,63,0,0
170467,-100,4,3,1,75,0,0
170617,-100,4,3,1,63,0,0
170767,-100,4,3,1,75,0,0
170917,-100,4,3,1,63,0,0
171592,-100,4,3,7,63,0,0
171667,-100,4,3,1,63,0,0
171817,-100,4,3,8,63,0,0
171967,-100,4,3,1,63,0,0
172192,-100,4,3,7,63,0,0
172267,-100,4,3,1,63,0,0
172417,-100,4,3,9,63,0,0
172567,-100,4,3,10,63,0,0
172717,-100,4,3,1,63,0,0
172867,-100,4,2,1,63,0,0
173017,-100,4,3,1,63,0,0
174217,-100,4,3,1,75,0,0
174367,-100,4,3,1,63,0,0
175117,-90.9090909090909,4,3,1,63,0,0
176392,-90.9090909090909,4,2,1,63,0,0
176467,-90.9090909090909,4,3,1,63,0,0
176692,-90.9090909090909,4,3,7,63,0,0
176767,-90.9090909090909,4,3,1,63,0,0
176917,-90.9090909090909,4,3,8,63,0,0
176954,-90.9090909090909,4,3,1,5,0,0
176992,-90.9090909090909,4,3,8,63,0,0
177029,-90.9090909090909,4,3,1,5,0,0
177067,-90.9090909090909,4,3,1,63,0,0
177104,-90.9090909090909,4,3,1,5,0,0
177142,-90.9090909090909,4,3,1,63,0,0
177254,-90.9090909090909,4,3,1,5,0,0
177292,-90.9090909090909,4,3,7,63,0,0
177329,-90.9090909090909,4,3,1,5,0,0
177367,-90.9090909090909,4,3,10,63,0,0
177404,-90.9090909090909,4,3,1,5,0,0
177442,-90.9090909090909,4,3,10,63,0,0
177517,-90.9090909090909,4,3,1,63,0,0
177817,-90.9090909090909,4,3,7,63,0,0
177967,-90.9090909090909,4,3,1,63,0,0
178117,-90.9090909090909,4,3,8,63,0,0
178267,-90.9090909090909,4,3,1,63,0,0
178492,-90.9090909090909,4,3,7,63,0,0
178567,-90.9090909090909,4,3,10,63,0,0
178717,-90.9090909090909,4,3,1,63,0,0
179917,-111.111111111111,4,3,1,63,0,0
180066,-111.111111111111,4,2,1,70,0,0
180217,-111.111111111111,4,3,1,63,0,0
181716,-111.111111111111,4,2,1,63,0,0
181867,-111.111111111111,4,3,1,63,0,0
182466,-111.111111111111,4,2,1,63,0,0
182617,-111.111111111111,4,3,1,63,0,0
184116,-111.111111111111,4,2,1,63,0,0
184267,-111.111111111111,4,3,1,63,0,0
184866,-111.111111111111,4,2,1,70,0,0
185017,-111.111111111111,4,3,1,63,0,0
187266,-111.111111111111,4,2,1,63,0,0
187417,-111.111111111111,4,3,1,63,0,0
188916,-111.111111111111,4,2,1,63,0,0
189067,-111.111111111111,4,3,1,63,0,0
189666,-111.111111111111,4,2,1,70,0,0
189817,-111.111111111111,4,3,1,63,0,0
192066,-111.111111111111,4,2,1,70,0,0
192217,-111.111111111111,4,3,1,63,0,0
194466,-111.111111111111,4,2,1,70,0,0
194617,-111.111111111111,4,3,1,63,0,0
196717,-100,4,3,1,63,0,0
196792,-100,4,2,1,63,0,0
196867,-100,4,3,7,63,0,0
196942,-100,4,3,1,63,0,0
197767,-100,4,3,10,63,0,0
197917,-100,4,3,1,63,0,0
199117,-111.111111111111,4,3,1,63,0,0
203691,-111.111111111111,4,3,1,75,0,0
203841,-111.111111111111,4,3,1,63,0,0
213517,-99.9999999999999,4,3,1,63,0,0
215917,-99.9999999999999,4,3,1,63,0,0
217117,-99.9999999999999,4,3,1,20,0,0
217192,-99.9999999999999,4,3,1,20,0,0
217267,-99.9999999999999,4,3,1,20,0,0
217342,-99.9999999999999,4,3,1,25,0,0
217417,-99.9999999999999,4,3,1,30,0,0
217492,-99.9999999999999,4,3,1,35,0,0
217567,-99.9999999999999,4,3,1,40,0,0
217642,-99.9999999999999,4,3,1,45,0,0
217717,-99.9999999999999,4,3,8,50,0,0
217792,-99.9999999999999,4,3,8,55,0,0
217867,-99.9999999999999,4,3,1,60,0,0
217942,-99.9999999999999,4,3,1,65,0,0
218017,-99.9999999999999,4,3,9,70,0,0
218092,-99.9999999999999,4,3,9,75,0,0
218167,-99.9999999999999,4,3,10,80,0,0
218242,-99.9999999999999,4,3,10,85,0,0
218317,-90.9090909090909,4,3,1,70,0,1
225592,-90.9090909090909,4,3,1,70,0,1
225667,-90.9090909090909,4,3,1,70,0,1
227317,-90.9090909090909,4,3,7,63,0,1
227467,-90.9090909090909,4,3,1,63,0,1
227617,-90.9090909090909,4,3,8,63,0,1
227767,-90.9090909090909,4,3,10,63,0,1
227917,-90.9090909090909,4,3,1,63,0,1
230392,-90.9090909090909,4,3,1,70,0,1
230467,-90.9090909090909,4,3,1,63,0,1
230542,-90.9090909090909,4,3,1,75,0,1
230617,-90.9090909090909,4,3,1,63,0,1
230842,-90.9090909090909,4,3,1,70,0,1
230917,-90.9090909090909,4,3,1,63,0,1
230992,-90.9090909090909,4,3,1,75,0,1
231067,-90.9090909090909,4,3,1,63,0,1
231142,-90.9090909090909,4,3,1,75,0,1
231217,-90.9090909090909,4,3,1,63,0,1
231292,-90.9090909090909,4,3,1,70,0,1
231367,-90.9090909090909,4,3,1,63,0,1
231442,-90.9090909090909,4,3,1,75,0,1
231517,-90.9090909090909,4,3,1,63,0,1
233617,-90.9090909090909,4,3,9,63,0,1
233767,-90.9090909090909,4,3,10,63,0,1
233917,-90.9090909090909,4,3,1,63,0,0
235117,-100,4,3,1,63,0,0
236617,-100,4,3,1,65,0,0
236767,-100,4,3,1,63,0,0
237667,-100,4,3,1,75,0,0
237817,-100,4,3,1,63,0,0
237967,-100,4,3,1,75,0,0
238117,-100,4,3,1,63,0,0
238792,-100,4,3,7,63,0,0
238867,-100,4,3,1,63,0,0
239317,-100,4,3,7,63,0,0
239467,-100,4,3,1,63,0,0
239617,-100,4,3,8,63,0,0
239767,-100,4,3,10,63,0,0
239917,-100,4,3,1,63,0,0
241417,-100,4,3,1,65,0,0
241567,-100,4,3,1,63,0,0
244117,-100,4,3,7,63,0,0
244267,-100,4,3,1,63,0,0
244417,-100,4,3,8,63,0,0
244492,-100,4,3,9,63,0,0
244567,-100,4,3,10,63,0,0
244717,-100,4,3,1,63,0,0
245017,-100,4,3,1,65,0,0
245167,-100,4,3,1,63,0,0
249817,-100,4,3,1,65,0,0
249967,-100,4,3,1,63,0,0
251992,-100,4,3,1,65,0,0
252067,-100,4,3,1,63,0,0
252142,-100,4,3,1,65,0,0
252217,-100,4,3,1,63,0,0
252442,-100,4,3,1,65,0,0
252517,-100,4,3,1,63,0,0
254317,-83.3333333333333,4,3,1,63,0,0
255517,-76.9230769230769,4,3,1,63,0,0
259717,-76.9230769230769,4,3,7,63,0,0
259792,-76.9230769230769,4,3,1,63,0,0
260317,-90.9090909090909,4,3,1,63,0,0
264817,-90.9090909090909,4,3,9,63,0,0
264967,-90.9090909090909,4,3,10,63,0,0
265117,-90.9090909090909,4,3,1,63,0,0
268942,-90.9090909090909,4,3,1,5,0,0
269017,-90.9090909090909,4,3,1,63,0,0
269242,-90.9090909090909,4,3,1,5,0,0
269317,-90.9090909090909,4,3,1,63,0,0
269542,-90.9090909090909,4,3,1,5,0,0
269617,-90.9090909090909,4,3,1,63,0,0
269654,-90.9090909090909,4,3,1,5,0,0
269917,-90.9090909090909,4,3,1,63,0,0
272617,-90.9090909090909,4,3,7,63,0,0
272767,-90.9090909090909,4,3,1,63,0,0
272917,-90.9090909090909,4,3,8,63,0,0
273067,-90.9090909090909,4,3,1,63,0,0
273817,-90.9090909090909,4,3,7,63,0,0
273967,-90.9090909090909,4,3,8,63,0,0
274117,-90.9090909090909,4,3,9,63,0,0
274267,-90.9090909090909,4,3,1,63,0,0
274567,-90.9090909090909,4,3,10,63,0,0
274717,-90.9090909090909,4,3,1,63,0,0
279517,-250,4,3,1,63,0,0
284317,-142.857142857143,4,3,1,63,0,0
285666,-142.857142857143,4,3,1,63,0,0
285817,-142.857142857143,4,3,1,63,0,0
293617,-142.857142857143,4,3,8,63,0,0
293767,-142.857142857143,4,3,10,63,0,0
293917,-100,4,3,1,63,0,0
293992,-100,4,3,1,63,0,0
294067,-100,4,3,1,63,0,0
294292,-100,4,3,1,63,0,0
294367,-100,4,3,1,63,0,0
294442,-100,4,3,1,63,0,0
294517,-100,4,3,1,63,0,0
294742,-100,4,3,1,63,0,0
294817,-100,4,3,1,63,0,0
294892,-100,4,3,1,63,0,0
294967,-100,4,3,1,63,0,0
295192,-100,4,3,1,63,0,0
295267,-100,4,3,1,63,0,0
295342,-100,4,3,1,63,0,0
295417,-100,4,3,1,63,0,0
295642,-100,4,3,1,63,0,0
295717,-100,4,3,1,63,0,0
295792,-100,4,3,1,63,0,0
295867,-100,4,3,1,63,0,0
295942,-100,4,3,1,63,0,0
296017,-100,4,3,1,63,0,0
296092,-100,4,3,1,63,0,0
296167,-100,4,3,1,63,0,0
296242,-100,4,3,1,63,0,0
296317,-100,4,3,1,63,0,0
296392,-100,4,3,1,63,0,0
296467,-100,4,3,1,63,0,0
296692,-100,4,3,1,63,0,0
296767,-100,4,3,1,63,0,0
296842,-100,4,3,1,63,0,0
296917,-100,4,3,1,63,0,0
297142,-100,4,3,1,63,0,0
297217,-100,4,3,1,63,0,0
297292,-100,4,3,1,63,0,0
297367,-100,4,3,1,63,0,0
297592,-100,4,3,1,63,0,0
297667,-100,4,3,1,63,0,0
297742,-100,4,3,1,63,0,0
297817,-100,4,3,1,63,0,0
297892,-100,4,3,1,63,0,0
297967,-100,4,3,1,63,0,0
298042,-100,4,3,1,63,0,0
298117,-100,4,3,1,63,0,0
298192,-100,4,3,1,63,0,0
298267,-100,4,3,1,63,0,0
298342,-100,4,3,1,63,0,0
298417,-100,4,3,1,63,0,0
298492,-100,4,3,1,63,0,0
298567,-100,4,3,1,63,0,0
298642,-100,4,3,1,63,0,0
298717,-100,4,3,1,63,0,0
298792,-100,4,3,1,63,0,0
298867,-100,4,3,1,63,0,0
299092,-100,4,3,1,63,0,0
299167,-100,4,3,1,63,0,0
299242,-100,4,3,1,63,0,0
299317,-100,4,3,1,63,0,0
299542,-100,4,3,1,63,0,0
299617,-100,4,3,1,63,0,0
299692,-100,4,3,1,63,0,0
299767,-100,4,3,1,63,0,0
299992,-100,4,3,1,63,0,0
300067,-100,4,3,1,63,0,0
300142,-100,4,3,1,63,0,0
300217,-100,4,3,1,63,0,0
300442,-100,4,3,1,63,0,0
300517,-100,4,3,1,63,0,0
300592,-100,4,3,1,63,0,0
300667,-100,4,3,1,63,0,0
300742,-100,4,3,1,63,0,0
300817,-100,4,3,1,63,0,0
300892,-100,4,3,1,63,0,0
300967,-100,4,3,1,63,0,0
301042,-100,4,3,1,63,0,0
301117,-100,4,3,7,63,0,0
301192,-100,4,3,8,63,0,0
301267,-100,4,3,1,63,0,0
301342,-100,4,3,7,63,0,0
301417,-100,4,3,1,63,0,0
301567,-100,4,3,8,63,0,0
301717,-100,4,3,1,63,0,0
301792,-100,4,3,7,63,0,0
301867,-100,4,3,1,63,0,0
302017,-100,4,3,8,63,0,0
302167,-100,4,3,1,63,0,0
302242,-100,4,3,7,63,0,0
302317,-100,4,3,1,63,0,0
302467,-100,4,3,9,63,0,0
302617,-100,4,3,1,63,0,0
302692,-100,4,3,7,63,0,0
302767,-100,4,3,1,63,0,0
302992,-100,4,3,7,63,0,0
303067,-100,4,3,1,63,0,0
303217,-100,4,3,9,63,0,0
303367,-100,4,3,10,63,0,0
303517,-100,4,3,1,63,0,0
304192,-100,4,3,1,63,0,0
304417,-100,4,3,1,63,0,0
308017,-71.4285714285714,4,3,1,63,0,0
308241,-71.4285714285714,4,3,1,5,0,0
308317,-71.4285714285714,4,3,1,63,0,0
311992,-71.4285714285714,4,3,1,63,0,0
312067,-71.4285714285714,4,3,1,63,0,0
312142,-71.4285714285714,4,3,1,63,0,0
312217,-71.4285714285714,4,3,1,63,0,0
312292,-71.4285714285714,4,3,1,63,0,0
312367,-71.4285714285714,4,3,1,63,0,0
312442,-71.4285714285714,4,3,1,63,0,0
312517,-111.111111111111,4,3,1,63,0,0
312591,-111.111111111111,4,3,1,63,0,0
312666,-111.111111111111,4,3,1,63,0,0
312741,-111.111111111111,4,3,1,63,0,0
312817,-111.111111111111,4,3,1,63,0,0
312891,-111.111111111111,4,3,1,63,0,0
312966,-111.111111111111,4,3,1,63,0,0
313041,-111.111111111111,4,3,1,63,0,0
313117,-100,4,3,1,63,0,0
313267,-100,4,3,1,75,0,0
313492,-100,4,3,1,63,0,0
314467,-100,4,3,1,75,0,0
314617,-100,4,3,1,63,0,0
317392,-100,4,3,1,75,0,0
317767,-100,4,3,1,63,0,0
317842,-100,4,3,1,63,0,0
317917,-100,4,3,1,63,0,0
320692,-100,4,3,7,63,0,0
320767,-100,4,3,1,63,0,0
320917,-100,4,3,7,63,0,0
321067,-100,4,3,1,63,0,0
321442,-100,4,3,7,63,0,0
321517,-66.6666666666667,4,3,1,63,0,0
321742,-66.6666666666667,4,3,8,63,0,0
321967,-66.6666666666667,4,3,1,63,0,0
322117,-125,4,3,1,63,0,0
322192,-125,4,3,9,63,0,0
322267,-125,4,3,1,63,0,0
322417,-125,4,3,8,63,0,0
322567,-125,4,3,10,63,0,0
322717,-55.5555555555556,4,3,1,63,0,1
324817,-83.3333333333333,4,3,1,63,0,1
325041,-83.3333333333333,4,3,1,63,0,1
325117,-83.3333333333333,4,3,1,63,0,0
326317,-66.6666666666667,4,3,8,63,0,0
326467,-66.6666666666667,4,3,1,63,0,0
326842,-66.6666666666667,4,3,8,63,0,0
326917,-66.6666666666667,4,3,1,63,0,0
327217,-66.6666666666667,4,3,9,63,0,0
327367,-66.6666666666667,4,3,10,63,0,0
327517,-55.5555555555556,4,3,1,63,0,1
328491,-55.5555555555556,4,3,1,75,0,1
328567,-55.5555555555556,4,3,1,63,0,1
328641,-55.5555555555556,4,3,1,63,0,1
328717,-55.5555555555556,4,3,1,63,0,1
329691,-55.5555555555556,4,3,1,63,0,1
329767,-55.5555555555556,4,3,1,63,0,1
329841,-55.5555555555556,4,3,1,63,0,1
329917,-62.5,4,3,1,70,0,0
330067,-62.5,4,3,1,65,0,0
330217,-62.5,4,3,1,60,0,0
330367,-62.5,4,3,1,55,0,0
330517,-62.5,4,3,1,50,0,0
330667,-62.5,4,3,1,45,0,0
330817,-62.5,4,3,1,40,0,0
330967,-62.5,4,3,1,35,0,0
331117,-62.5,4,3,1,60,0,0
331717,-83.3333333333333,4,3,1,60,0,0
332317,-100,4,3,1,63,0,0
333667,-100,4,3,1,63,0,0
333817,-100,4,3,1,63,0,0
334042,-100,4,3,1,63,0,0
334117,-100,4,3,1,63,0,0
336067,-100,4,3,1,63,0,0
336217,-100,4,3,1,63,0,0
341542,-100,4,3,1,75,0,0
341617,-100,4,3,1,63,0,0
341842,-100,4,3,1,75,0,0
341917,-100,4,3,1,63,0,0
349192,-100,4,3,7,63,0,0
349267,-100,4,3,1,63,0,0
349492,-100,4,3,7,63,0,0
349567,-100,4,3,1,63,0,0
349717,-100,4,3,8,63,0,0
349867,-100,4,3,1,63,0,0
349942,-100,4,3,8,63,0,0
350017,-100,4,3,1,63,0,0
350242,-100,4,3,7,63,0,0
350317,-100,4,3,1,63,0,0
350692,-100,4,3,8,63,0,0
350767,-100,4,3,1,63,0,0
350992,-100,4,3,7,63,0,0
351067,-100,4,3,8,63,0,0
351217,-100,4,3,9,63,0,0
351367,-100,4,3,10,63,0,0
351517,-100,4,3,1,63,0,0
351592,-100,4,3,1,63,0,0
353917,-100,4,3,1,60,0,0
361117,-100,4,3,1,63,0,0
361417,-100,4,3,1,60,0,0
362317,-100,4,3,1,63,0,0
364717,-181.818181818182,4,3,1,63,0,0
365842,-181.818181818182,4,3,1,50,0,0
365917,-166.666666666667,4,3,1,63,0,0
367041,-166.666666666667,4,3,1,63,0,0
367117,-90.9090909090909,4,3,7,63,0,0
367267,-90.9090909090909,4,3,1,63,0,0
367567,-90.9090909090909,4,3,8,63,0,0
367717,-90.9090909090909,4,3,1,63,0,0
368317,-90.9090909090909,4,3,8,63,0,0
368467,-90.9090909090909,4,3,1,63,0,0
368767,-90.9090909090909,4,3,8,63,0,0
368917,-90.9090909090909,4,3,1,63,0,0
369217,-90.9090909090909,4,3,9,63,0,0
369367,-90.9090909090909,4,3,10,63,0,0
369517,-90.9090909090909,4,3,1,63,0,0
369817,-90.9090909090909,4,3,1,63,0,0
370117,-90.9090909090909,4,3,1,63,0,0
370717,-90.9090909090909,4,3,1,70,0,1
377992,-90.9090909090909,4,3,7,70,0,1
378067,-90.9090909090909,4,3,9,70,0,1
378217,-90.9090909090909,4,3,1,70,0,1
378442,-90.9090909090909,4,3,7,70,0,1
378517,-90.9090909090909,4,3,8,70,0,1
378592,-90.9090909090909,4,3,9,70,0,1
378667,-90.9090909090909,4,3,1,70,0,1
378892,-90.9090909090909,4,3,7,70,0,1
378967,-90.9090909090909,4,3,1,70,0,1
379192,-90.9090909090909,4,3,7,70,0,1
379267,-90.9090909090909,4,3,1,70,0,1
379342,-90.9090909090909,4,3,7,70,0,1
379417,-90.9090909090909,4,3,1,70,0,1
379642,-90.9090909090909,4,3,7,70,0,1
379717,-90.9090909090909,4,3,1,70,0,1
379792,-90.9090909090909,4,3,7,70,0,1
379867,-90.9090909090909,4,3,1,70,0,1
380017,-90.9090909090909,4,3,8,70,0,1
380167,-90.9090909090909,4,3,10,70,0,1
380317,-90.9090909090909,4,3,1,70,0,1
385117,-83.3333333333333,4,3,1,70,0,1
385417,-83.3333333333333,4,3,7,70,0,1
385567,-83.3333333333333,4,3,1,70,0,1
385717,-83.3333333333333,4,3,8,70,0,1
386017,-83.3333333333333,4,3,1,70,0,1
386317,-83.3333333333333,4,3,1,70,0,0
387517,-100,4,3,1,70,0,0
389017,-100,4,3,1,75,0,0
389167,-100,4,3,1,70,0,0
390067,-100,4,3,1,75,0,0
390217,-100,4,3,1,70,0,0
390367,-100,4,3,1,75,0,0
390517,-100,4,3,1,70,0,0
391417,-100,4,3,7,70,0,0
391567,-100,4,3,1,70,0,0
391717,-100,4,3,8,70,0,0
391867,-100,4,3,1,70,0,0
392167,-100,4,3,10,70,0,0
392317,-100,4,3,1,70,0,0
393817,-100,4,3,1,75,0,0
393967,-100,4,3,1,70,0,0
394717,-100,4,3,10,70,0,0
394792,-100,4,3,1,70,0,0
395092,-100,4,3,7,70,0,0
395167,-100,4,3,1,70,0,0
395317,-142.857142857143,4,3,1,70,0,0
395391,-142.857142857143,4,3,8,70,0,0
395466,-142.857142857143,4,3,1,70,0,0
395617,-90.9090909090909,4,3,10,70,0,0
395692,-90.9090909090909,4,3,1,70,0,0
395992,-90.9090909090909,4,3,1,63,0,0
396067,-90.9090909090909,4,3,1,70,0,0
396217,-125,4,3,8,70,0,0
396367,-125,4,3,1,70,0,0
396517,-111.111111111111,4,3,7,70,0,0
396554,-111.111111111111,4,3,1,5,0,0
396591,-111.111111111111,4,3,7,70,0,0
396629,-111.111111111111,4,3,1,5,0,0
396666,-111.111111111111,4,3,1,70,0,0
396704,-111.111111111111,4,3,1,5,0,0
396741,-111.111111111111,4,3,1,70,0,0
396817,-100,4,3,8,70,0,0
396854,-100,4,3,1,5,0,0
396892,-100,4,3,8,70,0,0
396929,-100,4,3,1,5,0,0
396967,-100,4,3,1,70,0,0
397004,-100,4,3,1,5,0,0
397042,-100,4,3,1,70,0,0
397117,-83.3333333333333,4,3,7,70,0,0
397266,-83.3333333333333,4,3,1,70,0,0
397417,-71.4285714285714,4,3,1,70,0,0
397491,-71.4285714285714,4,3,8,70,0,0
397566,-71.4285714285714,4,3,1,70,0,0
397717,-62.5,4,3,1,70,0,0
397792,-62.5,4,3,7,70,0,0
397867,-62.5,4,3,1,70,0,0
398017,-55.5555555555556,4,3,8,70,0,0
398091,-55.5555555555556,4,3,9,70,0,0
398166,-55.5555555555556,4,3,10,70,0,0
398317,-55.5555555555556,4,3,1,70,0,0
400117,-166.666666666667,4,3,1,70,0,0
400416,-166.666666666667,4,3,8,70,0,0
400717,-71.4285714285714,4,3,9,70,0,0
401466,-71.4285714285714,4,3,1,75,0,0
401542,-71.4285714285714,4,3,9,70,0,0
401691,-71.4285714285714,4,3,1,75,0,0
401767,-71.4285714285714,4,3,9,70,0,0
401841,-71.4285714285714,4,3,1,75,0,0
401917,-71.4285714285714,4,3,1,70,0,0
402067,-84.0336134453781,4,3,1,70,0,0
403116,-84.0336134453781,4,3,1,55,0,0

[Colours]
Combo1 : 9,254,255
Combo2 : 255,17,255
Combo3 : 248,154,242
Combo4 : 61,147,196

[HitObjects]
411,194,2314,38,0,L|397:272,3,80,6|0|2|0,2:0|2:0|2:0|2:0,2:0:0:0:
313,320,3141,2,0,L|299:241,3,80,2|0|2|0,2:0|2:0|2:0|2:0,2:0:0:0:
216,194,3969,2,0,L|202:272,3,80,2|0|2|0,2:0|2:0|2:0|2:0,2:0:0:0:
119,319,4796,2,0,L|105:240,3,80,2|0|2|2,2:0|2:0|2:0|2:0,2:0:0:0:
66,82,5624,6,0,L|144:95,1,80,10|0,2:0|2:0,2:0:0:0:
222,108,6038,2,0,L|300:121,1,80,2|0,2:0|2:0,2:0:0:0:
467,170,6452,38,0,L|388:183,1,80,2|0,2:0|2:0,2:0:0:0:
310,196,6865,2,0,L|231:209,1,80,2|0,2:0|2:0,2:0:0:0:
66,258,7279,6,0,L|144:271,1,80,2|0,2:0|2:0,2:0:0:0:
223,284,7693,2,0,L|301:297,1,80,2|0,2:0|2:0,2:0:0:0:
467,346,8107,38,0,L|388:359,1,80,2|0,2:0|2:0,2:0:0:0:
231,384,8520,1,2,2:0:0:0:
297,268,8727,1,0,3:0:0:0:
298,277,8831,1,0,3:0:0:0:
300,287,8934,5,14,3:0:0:0:
301,297,9141,1,0,2:0:0:0:
212,250,9348,37,2,2:0:0:0:
211,260,9555,1,0,2:0:0:0:
310,213,9762,5,2,2:0:0:0:
311,223,9969,1,0,2:0:0:0:
192,176,10176,37,2,2:0:0:0:
191,186,10382,1,0,2:0:0:0:
330,139,10589,5,2,2:0:0:0:
331,149,10796,1,0,2:0:0:0:
172,102,11003,37,2,2:0:0:0:
171,112,11210,1,0,2:0:0:0:
350,65,11417,5,2,2:0:0:0:
351,75,11624,1,0,2:0:0:0:
152,28,11831,37,2,2:0:0:0:
151,38,12038,1,2,3:0:0:0:
438,91,12245,5,14,3:0:0:0:
351,75,12451,1,0,2:0:0:0:
267,104,12658,1,2,2:0:0:0:
209,171,12865,1,0,2:0:0:0:
192,258,13072,1,2,2:0:0:0:
250,191,13279,1,0,2:0:0:0:
334,162,13486,1,2,2:0:0:0:
421,179,13693,1,0,2:0:0:0:
489,237,13900,37,2,2:0:0:0:
431,304,14107,1,0,2:0:0:0:
347,333,14314,1,2,2:0:0:0:
260,316,14520,1,0,2:0:0:0:
192,258,14727,1,2,2:0:0:0:
163,174,14934,5,2,2:0:0:0:
260,316,15141,1,2,2:0:0:0:
333,96,15348,1,2,2:0:0:0:
111,116,15555,38,0,P|84:188|131:248,1,160,6|2,3:0|2:0,2:0:0:0:
131,248,16176,1,2,2:0:0:0:
316,174,16382,2,0,B|272:154|272:154|161:174,1,160,0|2,2:0|2:0,0:0:0:0:
161,174,17003,1,2,2:0:0:0:
333,96,17210,2,0,P|389:205|271:240,1,280,2|0,2:0|0:0,2:0:0:0:
177,266,18038,6,0,B|190:254|190:254|271:240,1,100,2|2,2:0|2:0,2:0:0:0:
271,240,18658,1,0,2:0:0:0:
244,322,18865,38,0,L|194:313,1,50,2|0,2:0|2:0,2:0:0:0:
122,300,19279,2,0,L|72:291,1,50,2|0,2:0|2:0,2:0:0:0:
136,150,19693,6,0,L|153:197,1,50,2|0,2:0|2:0,2:0:0:0:
177,266,20107,2,0,L|194:313,1,50,2|0,2:0|2:0,2:0:0:0:
40,329,20520,38,0,L|72:290,1,50,2|0,2:0|2:0,2:0:0:0:
119,235,20934,2,0,L|151:196,1,50,2|0,2:0|2:0,2:0:0:0:
230,102,21348,6,0,L|198:141,1,50,2|2,2:0|2:0,0:0:0:0:
111,114,21762,1,2,2:0:0:0:
237,221,21969,1,2,2:0:0:0:
168,56,22176,38,0,P|99:34|35:89,1,160,0|2,0:0|2:0,0:0:0:0:
36,85,22796,1,2,2:0:0:0:
198,140,23003,2,0,L|356:112,1,160,2|2,0:0|2:0,0:0:0:0:
355,112,23624,1,2,2:0:0:0:
274,276,23831,2,0,B|220:311|156:284|134:244|134:244|211:279|262:244,1,280,2|0,2:0|0:0,2:0:0:0:
368,270,24658,6,0,P|319:260|273:276,1,100,2|2,2:0|2:0,2:0:0:0:
273,276,25279,1,0,2:0:0:0:
181,138,25486,38,0,L|172:187,1,50,10|0,3:0|0:0,2:0:0:0:
199,39,25900,1,0,3:0:0:0:
259,202,26107,2,0,L|250:251,1,50,2|0,3:0|0:0,3:0:0:0:
328,315,26520,1,0,3:0:0:0:
268,152,26727,2,0,L|259:201,1,50,2|0,3:0|0:0,2:0:0:0:
286,53,27141,1,0,3:0:0:0:
336,265,27348,2,0,L|328:315,1,50,2|0,3:0|0:0,2:0:0:0:
430,230,27762,2,0,L|422:280,1,50,0|0,3:0|2:0,0:0:0:0:
446,130,28176,1,2,2:0:0:0:
353,165,28382,1,2,2:0:0:0:
369,65,28589,1,2,2:0:0:0:
180,188,28796,5,0,3:0:0:0:
180,188,28900,1,0,3:0:0:0:
180,188,29003,2,0,L|258:201,1,80,0|0,3:0|2:0,0:0:0:0:
353,165,29417,1,2,2:0:0:0:
151,112,29624,2,0,L|100:173|100:173|127:249,1,160,2|0,0:0|2:0,0:0:0:0:
258,201,30245,1,0,2:0:0:0:
216,59,30451,2,0,P|92:50|101:174,1,280,2|0,2:0|0:0,2:0:0:0:
122,268,31279,38,0,B|125:246|125:246|100:173,1,100,2|2,2:0|2:0,2:0:0:0:
100,172,31900,1,0,2:0:0:0:
278,260,32107,6,0,L|269:211,1,50,2|0,2:0|2:0,2:0:0:0:
192,314,32520,2,0,L|201:265,1,50,2|0,2:0|2:0,2:0:0:0:
355,245,32934,2,0,L|346:195,1,50,2|0,2:0|2:0,2:0:0:0:
269,334,33348,2,0,L|277:284,1,50,2|0,2:0|2:0,2:0:0:0:
432,230,33762,2,0,L|423:180,1,50,2|0,2:0|2:0,2:0:0:0:
345,353,34176,2,0,L|353:303,1,50,2|0,2:0|2:0,2:0:0:0:
508,214,34590,38,0,L|499:164,1,50,2|2,2:0|2:0,0:0:0:0:
421,372,35003,1,2,2:0:0:0:
355,146,35210,5,0,3:0:0:0:
350,171,35314,1,0,3:0:0:0:
346,195,35417,2,0,L|318:37,1,160,2|0,3:0|2:0,2:0:0:0:
318,37,36038,1,2,2:0:0:0:
253,130,36245,2,0,L|410:102,1,160,0|0,2:0|2:0,0:0:0:0:
410,101,36865,1,0,2:0:0:0:
41,52,37072,38,0,L|51:111,1,59.9999981689454,2|0,3:0|2:0,2:0:0:0:
65,193,37486,2,0,L|110:154,1,59.9999981689454,2|0,2:0|2:0,2:0:0:0:
176,102,37900,2,0,L|119:81,1,59.9999981689454,2|2,2:0|2:0,0:0:0:0:
253,130,38314,1,2,2:0:0:0:
161,20,38520,1,2,2:0:0:0:
190,183,38727,6,0,L|200:242,1,59.9999981689454
271,283,39141,2,0,L|260:342,1,59.9999981689454,0|2,2:0|2:0,0:0:0:0:
330,158,39555,2,0,L|319:217,1,59.9999981689454
389,257,39969,2,0,L|400:317,1,59.9999981689454,0|0,2:0|2:0,0:0:0:0:
459,81,40383,38,0,L|393:104,1,69.9999978637696,2|0,2:0|2:0,2:0:0:0:
260,31,40796,2,0,L|313:75,1,69.9999978637696,2|0,2:0|2:0,2:0:0:0:
317,226,41210,2,0,L|329:157,1,69.9999978637696,0|2,2:0|2:0,0:0:0:0:
378,22,41624,1,2,2:0:0:0:
407,186,41831,1,2,2:0:0:0:
250,129,42038,6,0,P|217:140|191:163,1,69.9999978637696,0|0,0:0|2:0,0:0:0:0:
114,130,42452,2,0,P|108:164|115:198,1,69.9999978637696,0|0,2:0|0:0,0:0:0:0:
47,247,42865,2,0,P|73:269|106:280,1,69.9999978637696,0|0,0:0|2:0,0:0:0:0:
114,364,43279,2,0,P|146:352|172:329,1,69.9999978637696,0|0,2:0|2:0,0:0:0:0:
363,321,43693,37,14,3:0:0:0:
343,316,43796,1,0,3:0:0:0:
323,312,43900,1,0,3:0:0:0:
304,307,44003,1,0,3:0:0:0:
285,304,44107,1,0,3:0:0:0:
358,159,44314,1,10,3:0:0:0:
365,178,44417,1,0,3:0:0:0:
372,197,44520,1,0,3:0:0:0:
378,215,44624,1,0,3:0:0:0:
383,234,44727,1,0,3:0:0:0:
219,243,44934,5,2,2:0:0:0:
358,159,45141,1,0,2:0:0:0:
216,81,45348,1,2,2:0:0:0:
308,235,45555,2,0,L|287:200,2,40,0|0|0,2:0|2:0|2:0,0:0:0:0:
307,86,45969,37,10,3:0:0:0:
307,86,46072,1,0,3:0:0:0:
307,86,46176,2,0,L|287:120,1,40,0|0,3:0|3:0,0:0:0:0:
177,161,46382,2,0,L|216:160,1,40,2|0,3:0|3:0,0:0:0:0:
358,159,46589,1,0,3:0:0:0:
264,6,46796,1,0,3:0:0:0:
131,161,47003,6,0,L|176:160,1,44.999998626709,14|0,3:0|3:0,0:0:0:0:
327,45,47210,2,0,L|305:84,1,44.999998626709,0|0,3:0|3:0,0:0:0:0:
308,234,47417,1,0,3:0:0:0:
183,46,47624,2,0,L|206:85,1,44.999998626709,10|0,3:0|3:0,0:0:0:0:
381,158,47831,2,0,L|336:158,1,44.999998626709,0|0,3:0|3:0,0:0:0:0:
208,236,48038,37,2,3:0:0:0:
408,233,48245,1,2,3:0:0:0:
108,236,48451,1,2,2:0:0:0:
256,159,48658,1,10,3:0:0:0:
256,304,48865,1,0,3:0:0:0:
256,326,48969,1,0,3:0:0:0:
256,349,49072,5,0,3:0:0:0:
94,142,49279,2,0,L|132:164,1,44.999998626709,10|0,3:0|3:0,0:0:0:0:
418,142,49486,2,0,L|379:164,1,44.999998626709,0|0,3:0|3:0,0:0:0:0:
256,326,49693,1,0,3:0:0:0:
88,56,49900,37,2,3:0:0:0:
424,56,50107,1,2,3:0:0:0:
182,369,50314,22,0,P|192:268|322:380,1,359.999989013672,6|0,3:0|0:0,2:0:0:0:
256,326,50689,1,2,0:0:0:0:
256,326,50782,2,0,P|232:211|293:111,1,239.999992675781,2|0,0:0|0:0,0:0:0:0:
455,67,51251,2,0,B|313:24|336:157|192:114,1,279.999991455078,2|0,0:0|0:0,0:0:0:0:
36,63,51814,6,0,B|74:56|103:22|103:22|46:90|77:172,1,240,2|0,0:0|0:0,0:0:0:0:
183,243,52376,1,2,0:0:0:0:
183,243,52470,2,0,P|190:316|157:383,1,150,2|2,0:0|0:0,0:0:0:0:
71,295,52939,1,0,2:0:0:0:
270,223,53126,37,6,3:0:0:0:
36,63,53314,2,4,B|120:95|120:95|297:62,1,269.999991760254,6|0,3:0|0:0,2:0:0:0:
383,45,53689,1,2,0:0:0:0:
383,45,53782,2,0,B|441:-4|441:-4|413:158,1,209.999993591309,2|0,0:0|0:0,0:0:0:0:
512,238,54251,2,0,P|397:214|296:275,1,239.999992675781,2|0,0:0|0:0,0:0:0:0:
184,242,54814,6,0,P|97:287|0:274,1,200,2|0,0:0|0:0,0:0:0:0:
3,168,55376,2,0,B|68:121|68:121|145:143,1,160,2|0,0:0|0:0,0:0:0:0:
184,242,55939,2,0,L|170:320,1,59.9999981689454,0|0,2:0|0:0,0:0:0:0:
292,111,56314,38,0,B|407:143|407:143|504:73,1,240,6|0,3:0|0:0,2:0:0:0:
427,27,56689,1,2,2:0:0:0:
427,27,56782,2,0,P|426:120|537:158,1,209.999993591309,2|0,0:0|2:0,0:0:0:0:
397,260,57251,2,0,B|275:223|294:337|172:300,1,239.999992675781,2|0,2:0|2:0,2:0:0:0:
91,384,57814,6,0,P|142:301|121:206,1,200,2|0,2:0|2:0,2:0:0:0:
95,60,58376,2,0,P|82:137|121:206,1,160,0|0,2:0|2:0,2:0:0:0:
201,116,58939,1,0,2:0:0:0:
397,260,59126,37,6,3:0:0:0:
511,26,59314,2,0,B|499:89|499:89|408:194|408:194|395:265,1,269.999991760254,6|0,3:0|0:0,2:0:0:0:
455,324,59689,1,2,2:0:0:0:
455,324,59782,2,0,B|413:307|397:260|397:260|358:339|276:343,1,240,2|0,0:0|2:0,0:0:0:0:
150,384,60251,2,0,P|201:259|198:108,1,279.999991455078,2|0,2:0|2:0,2:0:0:0:
17,64,60814,6,0,B|139:101|120:-13|242:24,1,239.999992675781,2|0,2:0|2:0,2:0:0:0:
323,110,61376,2,0,P|283:45|367:86,1,200,2|2,2:0|2:0,2:0:0:0:
410,129,61939,2,0,L|396:207,1,80,2|0,2:0|0:0,0:0:0:0:
306,323,62314,37,6,3:0:0:0:
503,227,62689,1,8,2:0:0:0:
503,227,62735,1,8,2:0:0:0:
286,188,63251,1,0,3:0:0:0:
286,188,63298,1,0,3:0:0:0:
442,349,63814,1,0,3:0:0:0:
442,349,63860,1,0,0:0:0:0:
410,129,64376,1,0,3:0:0:0:
410,129,64423,1,0,3:0:0:0:
306,323,64751,5,0,3:0:0:0:
179,272,64939,1,0,3:0:0:0:
72,356,65126,1,0,3:0:0:0:
286,188,65314,37,6,3:0:0:0:
34,87,65689,1,8,2:0:0:0:
34,87,65735,1,8,2:0:0:0:
179,272,66251,1,0,3:0:0:0:
179,272,66298,1,0,3:0:0:0:
311,18,66814,5,8,2:0:0:0:
276,52,66907,1,8,2:0:0:0:
259,97,67001,1,8,2:0:0:0:
262,146,67095,1,8,2:0:0:0:
286,188,67189,38,0,L|356:200,1,40,0|0,3:0|3:0,0:0:0:0:
179,272,67376,2,0,L|218:265,1,40,0|0,3:0|3:0,0:0:0:0:
120,131,67564,1,8,2:0:0:0:
120,131,67657,1,8,2:0:0:0:
120,131,67751,2,0,L|159:137,1,40,0|0,3:0|3:0,0:0:0:0:
24,320,67939,5,8,2:0:0:0:
71,311,68032,1,8,2:0:0:0:
118,303,68126,1,8,2:0:0:0:
165,294,68220,1,8,2:0:0:0:
213,286,68314,37,6,3:0:0:0:
311,18,68689,1,8,2:0:0:0:
311,18,68735,1,8,2:0:0:0:
395,207,69251,1,0,3:0:0:0:
395,207,69298,1,0,3:0:0:0:
336,105,69814,5,8,2:0:0:0:
365,92,69907,1,0,3:0:0:0:
397,89,70001,1,0,3:0:0:0:
428,94,70095,1,0,3:0:0:0:
457,107,70189,2,0,P|476:122|494:145,1,40,0|0,3:0|3:0,0:0:0:0:
335,309,70376,37,8,2:0:0:0:
309,289,70470,1,0,3:0:0:0:
290,263,70564,1,0,3:0:0:0:
279,234,70657,1,0,3:0:0:0:
276,202,70751,2,0,P|279:177|290:150,1,40,0|0,3:0|3:0,0:0:0:0:
512,207,70939,5,8,2:0:0:0:
507,238,71032,1,0,3:0:0:0:
495,267,71126,1,0,3:0:0:0:
474,292,71220,1,0,3:0:0:0:
449,311,71314,38,0,P|426:321|397:325,1,40,8|0,2:0|0:0,0:0:0:0:
231,357,71501,2,0,L|262:362,3,26.6666666666667,8|0|0|0,2:0|3:0|3:0|3:0,0:0:0:0:
191,169,71876,6,0,L|238:177,1,40,8|0,2:0|0:0,0:0:0:0:
345,266,72064,2,0,L|313:271,3,26.6666666666667,8|0|0|0,2:0|3:0|3:0|3:0,0:0:0:0:
385,78,72439,37,8,2:0:0:0:
377,79,72501,1,8,2:0:0:0:
369,80,72564,1,8,2:0:0:0:
361,82,72626,1,8,2:0:0:0:
353,84,72689,6,0,L|321:89,1,26.6666666666667,0|0,3:0|3:0,3:0:0:0:
244,25,72814,2,0,L|275:30,3,26.6666666666667,0|0|0|0,3:0|3:0|3:0|3:0,0:0:0:0:
169,119,73064,1,0,0:0:0:0:
169,119,73126,1,0,0:0:0:0:
169,119,73189,2,0,L|195:114,3,26.6666666666667
86,0,73439,1,0,0:0:0:0:
86,0,73501,1,0,0:0:0:0:
86,0,73564,2,0,L|112:4,3,26.6666666666667
0,144,73814,1,0,0:0:0:0:
0,144,73876,1,0,0:0:0:0:
0,144,73939,2,0,L|48:136,4,26.6666666666667
228,332,74317,37,0,3:0:0:0:
127,193,74467,1,0,3:0:0:0:
127,364,74617,1,0,3:0:0:0:
228,225,74767,1,0,3:0:0:0:
66,279,74917,1,0,3:0:0:0:
228,225,76717,5,0,3:0:0:0:
361,41,76867,1,0,3:0:0:0:
361,268,77017,1,0,3:0:0:0:
228,84,77167,1,0,3:0:0:0:
443,155,77317,1,0,3:0:0:0:
280,338,77567,38,0,L|274:305,6,33.3333333333333,0|0|0|0|0|0|0,2:0|2:0|2:0|2:0|2:0|2:0|2:0,2:0:0:0:
228,225,77917,1,0,3:0:0:0:
175,384,78067,1,0,3:0:0:0:
321,226,78167,6,0,L|327:193,6,33.3333333333333,0|0|0|0|0|0|0,2:0|2:0|2:0|2:0|2:0|2:0|2:0,2:0:0:0:
366,307,78517,1,0,3:0:0:0:
91,149,78617,38,0,L|85:116,9,33.3333333333333,0|0|0|0|0|0|0|0|0|0,0:0|0:0|0:0|2:0|2:0|2:0|2:0|2:0|2:0|2:0,0:0:0:0:
109,51,79117,22,0,L|92:149,1,100,6|10,3:0|3:2,3:0:0:0:
82,297,79417,1,2,3:2:0:0:
77,272,79492,1,0,0:0:0:0:
73,247,79567,1,10,3:2:0:0:
234,224,79717,1,2,3:2:0:0:
190,135,79867,1,10,3:2:0:0:
162,293,80017,2,0,P|203:319|261:321,1,100,2|10,3:2|3:2,3:0:0:0:
427,262,80317,5,6,3:0:0:0:
289,141,80467,1,10,3:2:0:0:
324,242,80617,1,2,3:2:0:0:
324,242,80692,1,0,0:0:0:0:
324,242,80767,1,10,3:2:0:0:
498,184,80917,1,2,3:2:0:0:
427,262,81067,1,10,3:2:0:0:
361,72,81217,2,0,P|320:46|262:44,1,100,2|10,3:2|3:2,3:0:0:0:
191,178,81517,38,0,L|141:186,1,50,6|0,3:0|3:0,0:0:0:0:
125,100,81667,2,0,L|27:83,1,100,10|2,3:2|3:2,0:0:0:0:
86,273,81967,1,10,3:2:0:0:
251,254,82117,1,2,3:2:0:0:
267,235,82192,1,0,3:0:0:0:
278,213,82267,1,10,3:2:0:0:
284,189,82342,1,0,3:0:0:0:
284,164,82417,2,0,P|279:139|269:116,1,50,2|0,3:2|3:0,3:0:0:0:
202,58,82567,2,0,P|178:49|153:46,1,50,10|0,3:2|3:0,3:0:0:0:
24,263,82717,6,0,P|51:272|82:273,1,59.9999981689454,2|0,3:2|3:0,0:0:0:0:
132,352,82867,2,0,P|154:332|168:306,1,59.9999981689454,10|0,3:2|3:0,0:0:0:0:
262,303,83017,2,0,P|256:273|241:247,1,59.9999981689454,2|0,3:2|3:0,0:0:0:0:
284,164,83167,2,0,P|255:153|225:153,1,59.9999981689454,10|0,3:2|3:0,0:0:0:0:
0,164,83317,38,0,L|68:176,1,69.9999978637696,2|0,3:2|3:0,0:0:0:0:
133,70,83467,2,0,L|201:57,1,69.9999978637696,10|0,3:2|3:0,0:0:0:0:
284,164,83617,2,0,L|352:176,1,69.9999978637696,2|0,3:2|3:0,0:0:0:0:
444,70,83767,2,0,L|512:57,1,69.9999978637696,10|0,3:2|3:0,0:0:0:0:
432,280,83917,5,14,3:0:0:0:
432,280,83992,1,0,3:0:0:0:
432,280,84067,2,0,L|446:358,1,75.0000028610231,0|0,3:0|3:0,0:0:0:0:
284,164,84217,37,10,3:0:0:0:
284,164,84292,1,0,3:0:0:0:
284,164,84367,2,0,L|269:242,1,75.0000028610231,0|0,3:0|3:0,0:0:0:0:
444,70,84517,6,0,L|429:148,1,75.0000028610231,10|0,3:0|3:0,3:0:0:0:
284,311,84667,2,0,L|269:233,1,75.0000028610231,2|0,3:0|3:0,3:0:0:0:
368,27,84817,38,0,L|353:105,1,75.0000028610231,10|0,3:0|3:0,3:0:0:0:
208,354,84967,2,0,L|193:276,1,75.0000028610231,2|0,3:0|3:0,3:0:0:0:
159,134,85117,2,0,L|144:56,3,75.0000028610231,10|0|0|0,3:0|3:0|3:0|3:0,3:0:0:0:
270,90,85417,6,0,L|284:163,1,75.0000028610231,10|0,3:0|3:0,3:0:0:0:
430,144,85567,2,0,L|416:217,1,75.0000028610231,2|0,3:0|3:0,3:0:0:0:
208,206,85717,38,0,L|194:279,1,75.0000028610231,10|0,3:0|3:0,3:0:0:0:
354,280,85867,2,0,L|368:353,1,75.0000028610231,2|0,3:0|3:0,3:0:0:0:
180,352,86017,2,0,L|106:359,3,75.0000028610231,10|0|0|0,3:0|3:0|3:0|3:0,3:0:0:0:
62,291,86317,1,6,3:0:0:0:
62,291,86392,1,0,0:0:0:0:
62,291,86467,1,8,2:0:0:0:
62,291,86542,5,8,2:0:0:0:
94,288,86617,1,0,0:0:0:0:
127,285,86692,1,8,2:0:0:0:
160,282,86767,1,8,2:0:0:0:
193,279,86842,1,8,2:0:0:0:
226,276,86917,37,0,3:0:0:0:
231,256,86992,1,0,3:0:0:0:
247,244,87067,1,0,3:0:0:0:
268,243,87142,1,0,3:0:0:0:
284,255,87217,1,0,3:0:0:0:
291,274,87292,1,0,3:0:0:0:
285,293,87367,1,0,3:0:0:0:
268,305,87442,1,0,3:0:0:0:
248,306,87517,6,0,P|271:319|298:325,1,55.0000016784668,8|0,0:0|3:0,0:0:0:0:
338,320,87667,2,0,P|361:306|380:286,1,55.0000016784668,0|0,3:0|3:0,0:0:0:0:
395,249,87817,2,0,P|395:221|386:195,1,55.0000016784668,0|0,3:0|3:0,0:0:0:0:
362,164,87967,2,0,P|338:150|311:144,1,55.0000016784668,0|0,3:0|3:0,0:0:0:0:
90,265,88117,38,0,P|69:239|59:209,1,64.9999970245363,8|8,2:0|2:0,0:0:0:0:
62,138,88267,2,0,P|73:107|94:83,1,64.9999970245363,0|0,3:0|3:0,0:0:0:0:
158,50,88417,2,0,P|189:45|221:51,1,64.9999970245363,0|0,3:0|3:0,0:0:0:0:
281,88,88567,2,0,P|301:113|311:143,1,64.9999970245363,0|0,3:0|3:0,0:0:0:0:
172,332,88717,6,0,P|167:207|63:138,1,259.999988098145,6|2,3:0|3:2,3:0:0:0:
62,137,89092,1,0,3:0:0:0:
63,138,89167,1,10,3:2:0:0:
78,282,89317,2,0,P|190:226|300:285,1,259.999988098145,2|2,3:2|3:2,3:0:0:0:
300,285,89692,1,0,3:0:0:0:
301,285,89767,1,10,3:2:0:0:
481,118,89917,2,0,B|496:30|417:5|376:14|336:31|236:102|381:246|440:176|445:237|446:293|452:334|417:390,1,519.99997619629,6|2,3:0|3:2,3:0:0:0:
301,285,90667,38,0,L|290:221,1,64.9999970245363,10|0,0:2|3:0,3:0:0:0:
169,113,90817,2,0,L|157:176,1,64.9999970245363,2|0,3:2|3:0,3:0:0:0:
182,367,90967,2,0,L|193:303,1,64.9999970245363,10|0,3:2|3:0,3:0:0:0:
287,31,91117,6,0,B|266:92|266:92|300:285,1,259.999988098145,6|2,3:0|3:2,3:0:0:0:
299,284,91492,1,0,3:0:0:0:
300,285,91567,1,10,3:2:0:0:
182,367,91717,2,0,B|204:307|204:307|170:114,1,259.999988098145,2|2,3:2|3:2,0:0:0:0:
169,113,92092,1,0,3:0:0:0:
169,113,92167,1,10,3:2:0:0:
43,171,92317,37,2,3:2:0:0:
57,195,92392,1,0,3:0:0:0:
76,216,92467,1,10,3:2:0:0:
99,233,92542,1,0,3:0:0:0:
124,245,92617,1,2,3:2:0:0:
152,251,92692,1,0,3:0:0:0:
180,251,92767,1,10,3:2:0:0:
208,246,92842,1,0,3:0:0:0:
234,234,92917,1,2,3:2:0:0:
260,222,92992,1,0,3:0:0:0:
287,217,93067,1,10,3:2:0:0:
316,217,93142,1,0,3:0:0:0:
344,223,93217,1,2,3:2:0:0:
369,235,93292,1,0,3:0:0:0:
392,252,93367,1,10,3:2:0:0:
411,273,93442,1,0,3:0:0:0:
425,298,93517,6,0,P|442:254|435:216,1,55.0000016784668,6|0,3:0|3:0,3:0:0:0:
484,189,93667,2,0,P|464:145|433:123,1,55.0000016784668,10|0,3:2|3:0,3:0:0:0:
448,70,93817,2,0,P|404:52|366:59,1,55.0000016784668,10|0,3:2|3:0,3:0:0:0:
338,12,93967,2,0,P|294:31|272:62,1,55.0000016784668,10|0,3:2|3:0,3:0:0:0:
158,159,94117,38,0,P|177:202|209:224,1,55.0000016784668,10|0,3:2|3:0,3:0:0:0:
198,274,94267,2,0,P|242:290|280:284,1,55.0000016784668,10|0,3:2|3:0,3:0:0:0:
307,334,94417,2,0,P|350:315|373:283,1,55.0000016784668,10|0,3:2|3:0,3:0:0:0:
425,298,94567,2,0,P|442:254|435:216,1,55.0000016784668,10|0,3:2|3:0,3:0:0:0:
430,37,94717,6,0,P|416:81|387:107,1,55.0000016784668,10|0,3:2|3:0,3:0:0:0:
404,156,94867,2,0,P|362:177|323:175,1,55.0000016784668,10|0,3:2|3:0,3:0:0:0:
302,228,95017,2,0,P|257:214|230:185,1,55.0000016784668,10|0,3:2|3:0,3:0:0:0:
182,207,95167,2,0,P|159:165|162:126,1,55.0000016784668,10|0,3:2|3:0,3:0:0:0:
92,39,95317,37,10,3:2:0:0:
99,65,95392,1,0,3:0:0:0:
98,93,95467,1,10,3:2:0:0:
90,119,95542,1,0,3:0:0:0:
75,142,95617,2,0,P|69:87|92:38,1,110.000003356934,10|10,3:2|3:2,3:0:0:0:
256,86,95917,5,6,3:0:0:0:
256,90,95992,1,0,3:0:0:0:
256,94,96067,1,0,3:0:0:0:
256,98,96142,1,0,3:0:0:0:
256,102,96217,1,10,3:0:0:0:
256,106,96292,1,0,3:0:0:0:
256,111,96367,1,0,3:0:0:0:
256,115,96442,1,0,3:0:0:0:
256,119,96517,1,2,3:0:0:0:
256,123,96592,1,0,3:0:0:0:
256,127,96667,1,0,3:0:0:0:
256,132,96742,1,0,3:0:0:0:
256,136,96817,1,10,3:0:0:0:
256,140,96892,1,0,3:0:0:0:
256,144,96967,1,0,3:0:0:0:
256,148,97042,1,0,3:0:0:0:
256,153,97117,1,2,3:0:0:0:
256,157,97192,1,0,3:0:0:0:
256,161,97267,1,0,3:0:0:0:
256,165,97342,1,0,3:0:0:0:
256,169,97417,1,10,3:0:0:0:
256,174,97492,1,0,3:0:0:0:
256,178,97567,1,0,3:0:0:0:
256,182,97642,1,0,3:0:0:0:
256,186,97717,1,2,3:0:0:0:
256,190,97792,1,0,3:0:0:0:
256,195,97867,1,0,3:0:0:0:
256,199,97942,1,0,3:0:0:0:
256,203,98017,1,10,3:0:0:0:
256,207,98092,1,0,3:0:0:0:
256,211,98167,1,0,3:0:0:0:
256,216,98242,1,0,3:0:0:0:
256,221,98317,37,8,2:0:0:0:
180,210,98417,2,0,L|107:196,1,73.3333355712891,8|8,2:0|2:0,0:0:0:0:
134,275,98617,1,8,2:0:0:0:
209,286,98717,2,0,L|281:298,1,73.3333355712891,8|8,2:0|2:0,0:0:0:0:
302,379,98917,2,0,P|356:332|354:260,1,146.666671142578,6|0,3:0|3:0,3:0:0:0:
408,143,99217,2,0,P|354:190|355:261,1,146.666671142578,6|0,3:0|3:0,3:0:0:0:
429,224,99517,5,8,2:0:0:0:
408,143,99617,2,0,L|390:71,1,73.3333355712891,8|8,2:0|2:0,0:0:0:0:
313,38,99817,1,8,2:0:0:0:
253,96,99917,2,0,L|199:147,1,73.3333355712891,8|8,2:0|2:0,0:0:0:0:
63,155,100117,2,0,B|100:129|100:129|199:146,1,146.666671142578,6|0,3:0|3:0,3:0:0:0:
258,208,100417,2,0,B|220:233|220:233|121:216,1,146.666671142578,6|0,3:0|3:0,3:0:0:0:
87,84,100717,37,8,2:0:0:0:
63,155,100817,2,0,L|38:223,1,73.3333355712891,8|8,2:0|2:0,0:0:0:0:
145,145,101017,1,8,2:0:0:0:
121,216,101117,2,0,L|96:284,1,73.3333355712891,8|8,2:0|2:0,0:0:0:0:
203,206,101317,1,8,2:0:0:0:
179,277,101417,2,0,L|154:345,1,73.3333355712891,8|8,2:0|2:0,0:0:0:0:
261,267,101617,1,8,2:0:0:0:
220,38,101917,1,2,2:1:0:0:
439,117,102217,5,6,3:0:0:0:
261,267,102517,1,6,3:0:0:0:
480,346,102817,1,6,3:0:0:0:
220,38,103117,1,14,2:3:0:0:
220,38,112267,5,0,3:0:0:0:
80,125,112417,2,0,B|123:95|123:95|233:115,1,165.000005035401,8|0,2:0|0:0,2:0:0:0:
234,116,112717,6,0,L|219:37,1,80,6|0,3:0|3:0,3:0:0:0:
207,198,113017,2,0,P|247:199|284:185,1,80,10|0,3:0|3:0,3:0:0:0:
319,107,113317,1,2,3:0:0:0:
319,107,113467,1,0,3:0:0:0:
355,255,113617,2,0,L|374:152,1,80,10|0,3:0|3:0,3:0:0:0:
404,98,113917,38,0,P|440:83|480:84,1,80,2|0,3:0|3:0,3:0:0:0:
304,28,114217,2,0,L|318:106,1,80,10|0,3:0|3:0,3:0:0:0:
284,185,114517,1,2,3:0:0:0:
284,185,114667,1,0,3:0:0:0:
318,106,114817,1,10,3:0:0:0:
355,255,114967,1,0,3:0:0:0:
198,193,115117,6,0,L|212:114,1,80,2|0,3:0|3:0,3:0:0:0:
161,271,115417,2,0,P|124:285|84:283,1,80,10|0,3:0|3:0,3:0:0:0:
25,224,115717,1,2,3:0:0:0:
25,224,115867,1,0,3:0:0:0:
121,124,116017,2,0,L|105:210,1,80,10|0,3:0|3:0,0:0:0:0:
175,350,116317,38,0,L|162:272,1,80,2|0,3:0|3:0,0:0:0:0:
196,190,116617,2,0,P|235:191|272:176,1,80,10|0,3:0|3:0,0:0:0:0:
319,88,116917,1,2,3:0:0:0:
319,88,117067,1,0,3:0:0:0:
360,223,117217,1,10,3:0:0:0:
407,135,117367,1,0,3:0:0:0:
407,135,117442,1,0,0:0:0:0:
407,135,117517,6,0,P|443:120|483:121,1,80,2|0,0:0|0:0,0:0:0:0:
332,9,117817,2,0,L|313:111,1,80,10|0,3:0|3:0,0:0:0:0:
272,176,118117,1,2,3:0:0:0:
272,176,118267,1,0,3:0:0:0:
212,9,118417,2,0,L|230:111,1,80,10|0,3:0|3:0,0:0:0:0:
137,135,118717,38,0,P|100:120|60:121,1,80,2|0,3:0|3:0,0:0:0:0:
5,236,119017,2,0,P|44:237|81:222,1,80,10|0,3:0|3:0,0:0:0:0:
168,278,119317,1,2,3:0:0:0:
168,278,119467,1,0,3:0:0:0:
224,191,119617,1,10,3:0:0:0:
255,334,119767,1,0,3:0:0:0:
389,233,119917,6,0,L|302:248,1,80,2|0,3:0|0:0,0:0:0:0:
145,177,120217,2,0,L|231:192,1,80,10|0,3:0|3:0,0:0:0:0:
315,143,120517,1,2,3:0:0:0:
315,143,120667,1,0,3:0:0:0:
310,246,120817,1,10,3:0:0:0:
414,134,120967,1,0,3:0:0:0:
301,66,121117,38,0,P|299:105|314:142,1,80,2|0,3:0|3:0,0:0:0:0:
296,322,121417,2,0,P|311:285|309:245,1,80,10|0,3:0|3:0,0:0:0:0:
223,190,121717,1,2,3:0:0:0:
223,190,121867,1,0,3:0:0:0:
168,278,122017,1,2,3:0:0:0:
60,121,122167,1,8,2:0:0:0:
63,112,122242,1,8,2:0:0:0:
66,103,122317,6,0,L|47:0,1,89.9999972534181,6|0,3:0|0:0,3:0:0:0:
7,180,122617,2,0,P|48:198|93:195,1,89.9999972534181,10|0,0:0|3:0,0:0:0:0:
159,125,122917,1,2,3:0:0:0:
187,218,123067,1,0,3:0:0:0:
338,162,123217,2,0,P|297:144|253:148,1,89.9999972534181,10|0,3:0|0:0,3:0:0:0:
174,36,123517,38,0,L|155:138,1,89.9999972534181,2|0,3:0|3:0,3:0:0:0:
108,283,123817,2,0,L|92:194,1,89.9999972534181,10|0,3:0|3:0,0:0:0:0:
64,101,124117,1,2,3:0:0:0:
158,124,124267,1,0,3:0:0:0:
108,283,124417,2,0,L|92:194,1,89.9999972534181,10|0,3:0|3:0,0:0:0:0:
366,136,124717,6,0,L|381:47,1,89.9999972534181,6|0,3:0|0:0,3:0:0:0:
423,212,125017,2,0,P|382:230|337:226,1,89.9999972534181,10|0,3:0|3:0,3:0:0:0:
272,157,125317,1,2,3:0:0:0:
244,250,125467,1,0,3:0:0:0:
92,194,125617,2,0,P|132:175|177:179,1,89.9999972534181,10|0,3:0|3:0,3:0:0:0:
164,360,125917,38,0,L|148:271,1,89.9999972534181,2|0,3:0|3:0,3:0:0:0:
107,105,126217,2,0,L|91:193,1,89.9999972534181,10|0,3:0|3:0,0:0:0:0:
51,281,126517,1,2,3:0:0:0:
148,271,126667,1,0,3:0:0:0:
107,105,126817,2,0,L|91:193,1,89.9999972534181,10|0,3:0|0:0,3:0:0:0:
366,384,127117,6,0,L|332:193,1,179.999994506836,6|10,3:0|3:0,3:0:0:0:
318,117,127567,1,0,3:0:0:0:
388,59,127717,1,2,3:0:0:0:
334,206,127867,1,0,3:0:0:0:
233,85,128017,2,0,L|248:-5,1,89.9999972534181,10|0,3:0|3:0,0:0:0:0:
122,193,128317,38,0,L|106:104,1,89.9999972534181,2|0,3:0|3:0,3:0:0:0:
228,338,128617,2,0,L|243:249,1,89.9999972534181,10|0,3:0|3:0,3:0:0:0:
318,117,128917,1,2,3:0:0:0:
350,295,129067,1,0,3:0:0:0:
402,147,129217,1,10,3:0:0:0:
418,235,129367,1,0,3:0:0:0:
418,235,129442,1,0,3:0:0:0:
418,235,129517,5,8,2:0:0:0:
381,208,129592,1,0,3:0:0:0:
337,203,129667,1,0,3:0:0:0:
296,219,129742,1,0,3:0:0:0:
267,253,129817,1,0,3:0:0:0:
238,287,129892,1,0,3:0:0:0:
197,303,129967,1,0,3:0:0:0:
152,297,130042,1,0,3:0:0:0:
116,271,130117,2,0,P|105:243|104:207,1,44.999998626709,8|0,2:0|3:0,0:0:0:0:
211,79,130267,37,0,3:0:0:0:
207,101,130342,1,0,3:0:0:0:
203,123,130417,1,0,3:0:0:0:
199,145,130492,1,0,3:0:0:0:
195,167,130567,1,0,3:0:0:0:
191,189,130642,1,0,3:0:0:0:
187,211,130717,2,0,L|179:166,1,44.999998626709,14|0,3:0|0:0,3:0:0:0:
20,47,131917,21,6,3:0:0:0:
45,83,131992,1,0,3:0:0:0:
84,104,132067,1,10,3:0:0:0:
129,105,132142,1,0,3:0:0:0:
170,85,132217,1,0,3:0:0:0:
209,65,132292,1,0,3:0:0:0:
254,65,132367,1,10,3:0:0:0:
293,86,132442,1,0,3:0:0:0:
319,123,132517,6,0,L|326:167,1,44.999998626709,0|0,3:0|3:0,0:0:0:0:
213,216,132667,2,0,L|220:171,1,44.999998626709,10|0,3:0|3:0,0:0:0:0:
332,134,132817,38,0,L|339:178,1,44.999998626709,0|0,3:0|3:0,3:0:0:0:
200,227,132967,2,0,L|207:182,1,44.999998626709,10|0,3:0|3:0,3:0:0:0:
396,246,133117,6,0,L|307:261,1,89.9999972534181,0|10,3:0|3:0,0:0:0:0:
209,65,133417,1,0,3:0:0:0:
111,240,133567,1,10,3:0:0:0:
339,178,133717,2,0,L|427:162,1,89.9999972534181,2|10,3:0|3:0,3:0:0:0:
364,329,134017,38,0,L|275:344,1,89.9999972534181,2|10,3:0|3:0,3:0:0:0:
125,152,134317,5,0,3:0:0:0:
81,156,134392,1,0,3:0:0:0:
44,180,134467,1,10,3:0:0:0:
23,220,134542,1,0,3:0:0:0:
24,264,134617,1,0,3:0:0:0:
47,303,134692,1,0,3:0:0:0:
85,326,134767,1,10,3:0:0:0:
129,327,134842,1,0,3:0:0:0:
169,306,134917,1,0,3:0:0:0:
209,288,134992,1,0,3:0:0:0:
254,285,135067,1,10,3:0:0:0:
297,297,135142,1,0,3:0:0:0:
333,322,135217,1,0,3:0:0:0:
368,350,135292,1,0,3:0:0:0:
412,357,135367,1,10,3:0:0:0:
454,345,135442,1,0,3:0:0:0:
485,312,135517,38,0,L|470:224,1,89.9999972534181,0|10,3:0|3:0,0:0:0:0:
286,108,135817,1,2,0:0:0:0:
453,134,135967,1,2,0:0:0:0:
254,285,136117,2,0,L|270:197,1,89.9999972534181,2|10,3:0|3:0,3:0:0:0:
111,60,136417,2,0,L|126:148,1,89.9999972534181,2|8,3:0|0:0,3:0:0:0:
402,92,136717,5,6,3:0:0:0:
361,60,136792,1,0,3:0:0:0:
313,37,136867,1,10,3:0:0:0:
262,25,136942,1,0,3:0:0:0:
210,25,137017,1,0,3:0:0:0:
159,37,137092,1,0,3:0:0:0:
111,60,137167,1,10,3:0:0:0:
141,102,137242,1,0,3:0:0:0:
158,151,137317,1,0,3:0:0:0:
162,204,137392,1,0,3:0:0:0:
151,255,137467,1,10,3:0:0:0:
127,301,137542,1,0,3:0:0:0:
91,339,137617,1,0,3:0:0:0:
35,195,137767,1,10,3:0:0:0:
259,315,137917,38,0,L|347:299,1,89.9999972534181,0|10,3:0|3:0,0:0:0:0:
465,198,138217,1,2,3:0:0:0:
289,230,138367,1,10,3:0:0:0:
408,365,138517,6,0,P|432:327|435:283,1,89.9999972534181,2|10,3:0|3:0,3:0:0:0:
377,214,138742,2,0,P|353:176|349:131,1,89.9999972534181,0|0,3:0|3:0,3:0:0:0:
408,62,138967,1,10,3:0:0:0:
161,32,139117,37,6,3:0:0:0:
169,76,139192,1,0,3:0:0:0:
177,120,139267,1,10,3:0:0:0:
334,205,139417,5,0,3:0:0:0:
341,168,139492,1,0,3:0:0:0:
348,131,139567,1,10,3:0:0:0:
192,208,139717,37,0,3:0:0:0:
197,239,139792,1,0,3:0:0:0:
203,270,139867,1,10,3:0:0:0:
308,345,140017,5,0,3:0:0:0:
313,319,140092,1,0,3:0:0:0:
318,293,140167,1,10,3:0:0:0:
103,164,140317,37,0,3:0:0:0:
84,176,140392,1,8,2:0:0:0:
68,192,140467,1,8,2:0:0:0:
57,211,140542,1,8,2:0:0:0:
50,232,140617,1,8,3:0:0:0:
48,254,140692,1,8,2:0:0:0:
52,277,140767,1,8,2:0:0:0:
60,297,140842,1,8,2:0:0:0:
74,316,140917,2,0,P|97:331|124:338,3,44.999998626709,0|0|0|0,3:0|3:0|3:0|3:0,0:0:0:0:
203,270,141217,2,0,P|226:255|253:248,3,44.999998626709,0|0|0|0,3:0|3:0|3:0|3:0,0:0:0:0:
416,336,141517,6,0,P|371:336|332:316,1,89.9999972534181,6|10,3:0|3:0,0:0:0:0:
184,180,141817,1,0,3:0:0:0:
303,79,141967,1,10,3:0:0:0:
273,164,142117,2,0,L|243:248,2,89.9999972534181,2|10|0,3:0|3:0|3:0,3:0:0:0:
287,36,142492,1,0,3:0:0:0:
287,36,142567,2,0,L|302:78,1,44.999998626709,10|0,3:0|3:0,3:0:0:0:
347,247,142717,37,6,3:0:0:0:
338,291,142792,1,0,3:0:0:0:
311,327,142867,1,10,3:0:0:0:
272,349,142942,1,0,3:0:0:0:
228,352,143017,1,0,3:0:0:0:
186,337,143092,1,0,3:0:0:0:
154,305,143167,1,10,3:0:0:0:
139,263,143242,1,0,3:0:0:0:
141,219,143317,2,0,L|156:130,1,89.9999972534181,0|10,3:0|3:0,0:0:0:0:
375,76,143617,1,2,3:0:0:0:
246,236,143767,1,10,3:0:0:0:
154,37,143917,6,0,L|243:53,1,89.9999972534181,2|10,3:0|3:0,3:0:0:0:
245,145,144142,2,0,L|157:130,1,89.9999972534181,2|2,3:0|3:0,3:0:0:0:
69,114,144367,1,10,3:0:0:0:
161,314,144517,38,0,L|249:329,1,89.9999972534181,2|10,3:0|3:0,3:0:0:0:
247,237,144742,2,0,L|158:221,1,89.9999972534181,2|0,3:0|3:0,3:0:0:0:
69,205,144967,1,10,3:0:0:0:
337,344,145117,5,2,3:0:0:0:
375,321,145192,1,0,3:0:0:0:
398,283,145267,1,10,3:0:0:0:
400,239,145342,1,0,3:0:0:0:
382,198,145417,1,0,3:0:0:0:
362,157,145492,1,0,3:0:0:0:
365,113,145567,1,10,3:0:0:0:
388,75,145642,1,0,3:0:0:0:
426,52,145717,1,2,3:0:0:0:
254,48,145867,2,0,B|299:73|299:73|425:51,1,179.999994506836,10|10,3:0|3:0,0:0:0:0:
195,136,146317,38,0,P|174:148|159:168,1,50,14|0,3:2|3:0,3:0:0:0:
75,164,146467,2,0,P|75:188|84:211,1,50,10|0,3:2|3:0,0:0:0:0:
40,283,146617,2,0,P|61:294|86:298,1,50,10|0,3:2|3:0,3:0:0:0:
127,373,146767,2,0,P|146:359|162:339,1,50,10|0,3:2|3:0,0:0:0:0:
159,169,146917,6,0,P|174:150|195:136,1,50,10|0,3:2|3:0,3:0:0:0:
199,56,147067,2,0,P|224:59|246:71,1,50,10|0,3:2|3:0,3:0:0:0:
322,36,147217,2,0,P|331:59|332:84,1,50,10|0,3:2|3:0,3:0:0:0:
403,130,147367,2,0,P|388:148|366:162,1,50,10|0,3:2|3:0,3:0:0:0:
237,262,147517,38,0,P|228:239|226:214,1,50,10|0,3:2|3:0,0:0:0:0:
159,170,147667,2,0,P|174:149|195:136,1,50,10|0,3:2|3:0,3:0:0:0:
322,37,147817,6,0,P|331:60|332:85,1,50,10|0,3:2|3:0,3:0:0:0:
403,131,147967,2,0,P|388:149|366:163,1,50,10|0,3:2|3:0,3:0:0:0:
194,136,148117,38,0,L|243:144,1,50,10|0,3:2|3:0,3:0:0:0:
364,164,148267,2,0,L|316:155,1,50,10|0,3:2|3:0,3:0:0:0:
115,280,148417,6,0,L|164:272,1,50,10|0,3:2|3:0,3:0:0:0:
286,252,148568,2,0,L|237:261,1,50,10|0,3:2|3:0,3:0:0:0:
60,109,148717,37,14,3:0:0:0:
72,62,148792,1,0,3:0:0:0:
108,28,148867,1,8,0:2:0:0:
156,18,148942,1,8,0:2:0:0:
202,35,149017,1,8,3:2:0:0:
232,74,149092,1,8,0:2:0:0:
237,123,149167,1,8,2:0:0:0:
215,167,149242,1,8,2:0:0:0:
173,193,149317,1,8,3:2:0:0:
130,219,149392,1,0,3:0:0:0:
109,264,149467,1,0,3:0:0:0:
113,313,149542,1,0,3:0:0:0:
143,352,149617,1,8,2:0:0:0:
190,369,149692,1,0,3:0:0:0:
238,359,149767,1,0,3:0:0:0:
274,325,149842,1,0,3:0:0:0:
286,277,149917,6,0,L|279:241,3,37.5000014305115,8|8|0|0,2:0|2:0|3:0|3:0,0:0:0:0:
172,193,150217,2,0,L|166:230,3,37.5000014305115,8|8|8|8,2:0|2:0|3:0|3:0,0:0:0:0:
368,201,150517,37,0,3:0:0:0:
344,194,150592,1,0,3:0:0:0:
319,198,150667,1,0,3:0:0:0:
298,211,150742,1,0,3:0:0:0:
278,240,150817,5,0,3:0:0:0:
317,244,150892,1,0,3:0:0:0:
355,236,150967,1,0,3:0:0:0:
392,220,151042,1,0,3:0:0:0:
445,276,151117,6,0,B|347:320|347:320|233:306,1,220.000006713867,6|10,3:0|3:0,0:0:0:0:
54,208,151567,2,0,L|44:153,1,55.0000016784668,0|0,3:0|3:0,3:0:0:0:
125,95,151717,1,10,3:0:0:0:
128,73,151792,1,0,3:0:0:0:
132,51,151867,1,0,3:0:0:0:
136,30,151942,1,0,3:0:0:0:
140,8,152017,5,10,3:0:0:0:
146,45,152092,1,0,3:0:0:0:
153,83,152167,1,0,3:0:0:0:
160,121,152242,1,0,3:0:0:0:
166,159,152317,37,10,3:0:0:0:
204,197,152392,1,0,3:0:0:0:
255,217,152467,1,0,3:0:0:0:
309,216,152542,1,0,3:0:0:0:
359,194,152617,1,10,3:0:0:0:
396,153,152692,1,0,3:0:0:0:
414,102,152767,1,0,3:0:0:0:
411,47,152842,1,0,3:0:0:0:
386,0,152917,2,0,L|267:20,1,110.000003356934,10|0,3:0|3:0,0:0:0:0:
166,159,153217,2,0,L|57:139,1,110.000003356934,10|2,3:0|3:0,0:0:0:0:
373,299,153517,6,0,L|428:291,1,55.0000016784668,14|0,3:0|3:0,3:0:0:0:
289,382,153667,1,0,3:0:0:0:
263,340,153742,1,0,3:0:0:0:
225,308,153817,1,10,3:0:0:0:
179,291,153892,1,0,3:0:0:0:
130,291,153967,1,0,3:0:0:0:
82,307,154042,1,0,3:0:0:0:
44,337,154117,2,0,L|53:390,3,55.0000016784668,10|0|0|0,3:0|3:0|3:0|3:0,0:0:0:0:
188,236,154417,2,0,L|179:289,3,55.0000016784668,10|0|0|0,3:0|3:0|3:0|3:0,0:0:0:0:
57,139,154717,37,10,3:0:0:0:
105,113,154792,1,0,3:0:0:0:
159,110,154867,1,0,3:0:0:0:
209,132,154942,1,0,3:0:0:0:
243,173,155017,1,10,3:0:0:0:
278,214,155092,1,0,3:0:0:0:
328,236,155167,1,0,3:0:0:0:
382,234,155242,1,0,3:0:0:0:
430,208,155317,5,10,3:0:0:0:
350,118,155467,1,0,3:0:0:0:
263,340,155617,2,0,L|371:320,1,110.000003356934,10|0,3:0|3:0,0:0:0:0:
457,63,155917,37,14,3:0:0:0:
421,21,155992,1,0,3:0:0:0:
371,0,156067,1,0,3:0:0:0:
317,2,156142,1,0,3:0:0:0:
269,29,156217,1,10,3:0:0:0:
239,74,156292,1,0,3:0:0:0:
232,128,156367,2,0,L|243:191,1,55.0000016784668,0|0,3:0|3:0,3:0:0:0:
130,62,156517,2,0,L|139:7,3,55.0000016784668,10|0|0|0,3:0|3:0|3:0|3:0,0:0:0:0:
37,182,156817,2,0,L|28:128,3,55.0000016784668,10|0|0|0,3:0|3:0|3:0|3:0,3:0:0:0:
44,337,157117,5,10,3:0:0:0:
44,337,157192,1,0,3:0:0:0:
44,337,157267,2,0,L|99:346,1,55.0000016784668,0|0,3:0|3:0,0:0:0:0:
188,236,157417,1,10,3:0:0:0:
188,236,157492,1,0,3:0:0:0:
188,236,157567,2,0,L|132:245,1,55.0000016784668,0|0,3:0|3:0,3:0:0:0:
274,310,157717,1,10,3:0:0:0:
274,310,157792,1,0,3:0:0:0:
274,310,157867,2,0,L|329:319,1,55.0000016784668,0|0,3:0|3:0,0:0:0:0:
378,199,158017,1,10,3:0:0:0:
378,199,158092,1,0,3:0:0:0:
378,199,158167,2,0,L|322:208,1,55.0000016784668,0|0,3:0|3:0,3:0:0:0:
506,259,158317,37,14,3:0:0:0:
453,270,158392,1,0,3:0:0:0:
404,247,158467,1,0,3:0:0:0:
378,199,158542,1,0,3:0:0:0:
385,146,158617,1,0,3:0:0:0:
424,108,158692,1,0,3:0:0:0:
477,100,158767,2,0,L|465:163,1,55.0000016784668,10|0,3:0|3:0,0:0:0:0:
332,89,158917,5,0,3:0:0:0:
329,67,158992,1,0,3:0:0:0:
325,45,159067,1,0,3:0:0:0:
321,24,159142,1,0,3:0:0:0:
317,2,159217,37,10,3:0:0:0:
311,39,159292,1,0,3:0:0:0:
304,77,159367,1,0,3:0:0:0:
297,115,159442,1,0,3:0:0:0:
291,153,159517,5,10,3:0:0:0:
253,193,159592,1,0,3:0:0:0:
203,214,159667,1,0,3:0:0:0:
149,212,159742,1,0,3:0:0:0:
100,188,159817,2,0,L|88:124,1,55.0000016784668,0|0,3:0|3:0,0:0:0:0:
194,268,159967,2,0,L|205:204,1,55.0000016784668,10|0,3:0|3:0,0:0:0:0:
3,241,160117,1,0,3:0:0:0:
18,264,160192,1,0,3:0:0:0:
26,290,160267,1,0,3:0:0:0:
27,318,160342,1,0,3:0:0:0:
22,345,160417,37,8,2:0:0:0:
64,292,160492,1,8,2:0:0:0:
126,264,160567,1,8,2:0:0:0:
194,268,160642,1,8,2:0:0:0:
253,303,160717,6,0,P|351:345|450:304,1,220.000006713867,6|2,3:0|3:2,0:0:0:0:
353,207,161167,1,10,2:2:0:0:
505,63,161317,2,0,L|484:181,1,110.000003356934,2|10,3:2|2:2,3:0:0:0:
353,207,161617,2,0,L|374:325,1,110.000003356934,2|10,3:2|2:2,3:0:0:0:
239,74,161917,38,0,B|166:100|166:100|18:73,1,220.000006713867,6|2,3:0|3:2,3:0:0:0:
158,0,162367,1,10,2:2:0:0:
204,197,162517,2,0,B|56:170,1,110.000003356934,2|10,3:2|2:2,3:0:0:0:
347,54,162817,2,0,B|238:73,1,110.000003356934,2|10,3:2|2:2,3:0:0:0:
433,323,163117,5,6,3:2:0:0:
318,246,163267,2,0,P|407:187|511:210,1,220.000006713867,10|10,2:2|2:2,0:0:0:0:
308,384,163717,2,0,B|199:364,1,110.000003356934,2|10,3:2|3:2,3:0:0:0:
95,216,164017,2,0,B|203:196,1,110.000003356934,2|10,3:2|2:2,3:0:0:0:
422,0,164317,38,0,B|406:86|406:86|377:114|377:114|359:216,1,220.000006713867,6|2,3:0|3:2,3:0:0:0:
433,323,164767,1,10,2:0:0:0:
199,364,164917,2,0,B|308:384,1,110.000003356934,2|10,3:2|2:0,3:0:0:0:
139,209,165217,1,8,2:2:0:0:
95,216,165292,1,8,2:0:0:0:
52,224,165367,1,0,3:0:0:0:
45,237,165442,1,0,3:0:0:0:
38,250,165517,6,0,L|17:131,1,119.999996337891,10|0,3:0|3:0,0:0:0:0:
107,59,165742,1,0,3:0:0:0:
107,59,165817,2,0,L|117:0,1,59.9999981689454,0|0,3:0|3:0,0:0:0:0:
194,130,165967,1,0,3:0:0:0:
225,165,166042,1,0,3:0:0:0:
266,191,166117,1,0,3:0:0:0:
312,204,166192,1,0,3:0:0:0:
360,204,166267,1,0,3:0:0:0:
405,190,166342,1,0,3:0:0:0:
446,164,166417,37,8,2:0:0:0:
400,101,166492,1,0,3:0:0:0:
329,71,166567,1,0,3:0:0:0:
253,82,166642,1,0,3:0:0:0:
192,130,166717,1,14,3:0:0:0:
464,384,167917,5,6,3:0:0:0:
323,275,168067,2,0,L|433:294,1,100,0|2,0:0|3:2,0:0:0:0:
256,353,168367,37,10,3:2:0:0:
287,177,168517,1,2,3:2:0:0:
323,275,168667,1,10,3:2:0:0:
220,256,168817,1,2,3:2:0:0:
387,195,168967,1,10,3:2:0:0:
256,353,169117,5,2,3:2:0:0:
185,158,169267,2,0,L|204:48,1,100,10|0,3:2|0:0,3:0:0:0:
117,237,169567,37,10,3:2:0:0:
56,67,169717,1,2,3:2:0:0:
185,158,169867,1,10,3:2:0:0:
185,158,169942,1,0,3:0:0:0:
185,158,170017,1,2,3:2:0:0:
15,219,170167,1,10,3:2:0:0:
237,354,170317,6,0,L|218:244,1,100,2|8,3:0|0:0,3:0:0:0:
304,79,170617,2,0,L|286:177,1,100,2|8,3:0|0:0,3:0:0:0:
335,371,170917,37,2,3:2:0:0:
219,255,171067,1,10,3:2:0:0:
317,272,171217,1,2,3:2:0:0:
237,354,171367,1,10,3:2:0:0:
123,222,171517,5,8,2:0:0:0:
133,199,171592,1,0,3:0:0:0:
149,180,171667,1,0,3:0:0:0:
169,165,171742,1,0,3:0:0:0:
192,155,171817,1,0,3:0:0:0:
217,152,171892,1,0,3:0:0:0:
241,154,171967,1,0,3:0:0:0:
265,163,172042,1,0,3:0:0:0:
285,176,172117,37,8,2:0:0:0:
281,156,172192,1,0,3:0:0:0:
278,136,172267,1,0,3:0:0:0:
274,116,172342,1,0,3:0:0:0:
271,97,172417,1,0,3:0:0:0:
267,77,172492,1,0,3:0:0:0:
264,57,172567,1,0,3:0:0:0:
260,38,172642,1,0,3:0:0:0:
257,18,172717,5,6,3:0:0:0:
372,133,172867,2,0,L|262:114,1,100,0|2,0:0|3:2,0:0:0:0:
123,222,173167,37,10,3:2:0:0:
290,298,173317,1,2,3:2:0:0:
228,211,173467,1,10,3:2:0:0:
184,309,173617,1,2,3:2:0:0:
334,200,173767,1,10,3:2:0:0:
166,126,173917,5,2,3:2:0:0:
85,326,174067,2,0,L|183:308,1,100,10|0,3:2|0:0,3:0:0:0:
334,200,174367,37,10,3:2:0:0:
263,61,174517,1,2,3:2:0:0:
227,210,174667,1,10,3:2:0:0:
227,210,174742,1,0,3:0:0:0:
227,210,174817,1,2,3:2:0:0:
380,105,174967,1,10,3:2:0:0:
156,71,175117,6,0,L|169:149,1,55.0000016784668,8|8,2:0|2:0,0:0:0:0:
227,210,175267,2,0,L|213:288,3,55.0000016784668,8|8|8|8,2:0|2:0|2:0|2:0,0:0:0:0:
263,61,175567,2,0,L|276:139,1,55.0000016784668,8|8,2:0|2:0,0:0:0:0:
334,200,175717,2,0,L|320:278,3,55.0000016784668,8|8|8|8,3:0|2:0|2:0|2:0,0:0:0:0:
370,51,176017,2,0,L|383:129,1,55.0000016784668,8|8,2:0|2:0,3:0:0:0:
441,190,176167,1,0,3:0:0:0:
441,190,176242,1,0,3:0:0:0:
441,190,176317,38,0,L|427:268,1,55.0000016784668,14|0,0:0|0:0,0:0:0:0:
370,51,176467,2,0,L|384:129,1,55.0000016784668,0|0,3:0|3:0,3:0:0:0:
324,254,176617,2,0,L|334:200,1,55.0000016784668,10|0,2:3|3:0,0:0:0:0:
263,61,176767,2,0,L|277:139,1,55.0000016784668,0|0,3:0|3:0,0:0:0:0:
217,264,176917,2,0,L|227:210,3,55.0000016784668,0|0|0|0,3:0|3:0|3:0|3:0,3:0:0:0:
156,71,177217,2,0,L|165:125,3,55.0000016784668,8|0|0|0,2:0|3:0|3:0|3:0,3:0:0:0:
30,215,177517,5,14,3:0:0:0:
59,201,177592,1,0,3:0:0:0:
92,203,177667,1,0,3:0:0:0:
119,221,177742,1,0,3:0:0:0:
133,250,177817,1,0,3:0:0:0:
131,283,177892,1,0,3:0:0:0:
114,310,177967,1,0,3:0:0:0:
85,326,178042,1,0,3:0:0:0:
52,325,178117,2,0,L|-2:315,1,55.0000016784668,0|0,3:0|3:0,2:0:0:0:
92,203,178267,2,0,L|146:193,1,55.0000016784668,0|0,3:0|3:0,2:0:0:0:
291,363,178417,2,0,L|236:353,1,55.0000016784668,8|0,2:0|3:0,2:0:0:0:
334,199,178567,2,0,L|388:189,1,55.0000016784668,0|0,3:0|3:0,2:0:0:0:
512,384,178717,1,8,2:0:0:0:
512,384,179317,37,10,3:0:0:0:
329,0,179467,1,8,0:0:0:0:
277,335,179917,22,0,L|365:319,1,89.9999972534181,6|0,3:0|0:0,3:0:0:0:
396,141,180217,2,0,L|380:229,1,89.9999972534181,10|0,3:0|3:0,3:0:0:0:
466,377,180517,1,0,3:0:0:0:
466,377,180667,1,0,3:0:0:0:
365,319,180817,1,10,3:0:0:0:
465,199,180967,6,0,L|449:287,1,89.9999972534181,0|0,3:0|3:0,3:0:0:0:
380,229,181267,2,0,L|350:145,1,89.9999972534181,0|10,3:0|3:0,3:0:0:0:
449,25,181567,2,0,L|433:113,1,89.9999972534181,0|0,3:0|0:0,3:0:0:0:
350,145,181867,1,0,3:0:0:0:
319,60,182017,1,10,3:0:0:0:
292,213,182167,1,2,3:0:0:0:
172,113,182317,38,0,L|260:128,1,89.9999972534181,0|0,3:0|0:0,0:0:0:0:
136,28,182617,2,0,P|100:55|82:96,1,89.9999972534181,10|0,3:0|3:0,3:0:0:0:
202,196,182917,1,0,3:0:0:0:
202,196,183067,1,0,3:0:0:0:
136,28,183217,1,10,3:0:0:0:
25,194,183367,6,0,L|113:211,1,89.9999972534181,0|0,3:0|3:0,3:0:0:0:
267,365,183667,2,0,P|222:369|181:352,1,89.9999972534181,0|10,3:0|3:0,3:0:0:0:
258,127,183967,2,0,P|283:163|289:207,1,89.9999972534181,0|0,3:0|0:0,3:0:0:0:
181,352,184267,1,0,3:0:0:0:
202,196,184417,1,10,3:0:0:0:
267,365,184567,1,0,3:0:0:0:
375,178,184717,38,0,L|290:208,1,89.9999972534181,2|0,3:0|0:0,3:0:0:0:
446,232,185017,2,0,P|463:190|458:146,1,89.9999972534181,10|0,3:0|3:0,3:0:0:0:
342,0,185317,2,0,L|358:88,1,89.9999972534181,0|0,3:0|3:0,0:0:0:0:
375,178,185617,1,10,3:0:0:0:
274,59,185767,6,0,L|358:89,1,89.9999972534181,0|0,3:0|3:0,3:0:0:0:
357,265,186067,2,0,L|273:235,1,89.9999972534181,0|10,3:0|3:0,3:0:0:0:
200,163,186367,2,0,L|288:147,1,89.9999972534181,0|0,3:0|3:0,0:0:0:0:
215,303,186667,1,0,3:0:0:0:
111,179,186817,1,10,3:0:0:0:
273,235,186967,1,2,3:0:0:0:
53,247,187117,38,0,P|28:209|24:164,1,89.9999972534181,2|0,3:0|0:0,0:0:0:0:
79,1,187417,2,0,L|94:89,1,89.9999972534181,10|0,3:0|3:0,3:0:0:0:
195,147,187717,1,2,3:0:0:0:
195,147,187867,1,0,3:0:0:0:
111,179,188017,1,10,3:0:0:0:
164,325,188167,6,0,L|179:236,1,89.9999972534181,0|2,3:0|3:0,3:0:0:0:
263,89,188467,2,0,L|278:177,1,89.9999972534181,0|10,3:0|3:0,3:0:0:0:
362,325,188767,2,0,L|377:236,1,89.9999972534181,0|0,3:0|0:0,3:0:0:0:
394,147,189067,1,0,3:0:0:0:
293,265,189217,1,10,3:0:0:0:
195,147,189367,1,2,3:0:0:0:
81,353,189517,38,0,L|96:264,1,89.9999972534181,6|0,3:0|0:0,3:0:0:0:
207,55,189817,2,0,P|162:60|126:85,1,89.9999972534181,10|0,3:0|3:0,3:0:0:0:
111,175,190117,1,2,3:0:0:0:
111,175,190267,1,0,3:0:0:0:
279,110,190417,2,0,P|296:69|292:24,1,89.9999972534181,10|0,3:0|3:0,3:0:0:0:
195,147,190717,6,0,P|221:182|262:201,1,89.9999972534181,2|0,3:0|3:0,3:0:0:0:
456,140,191017,1,10,3:0:0:0:
367,125,191167,2,0,L|278:109,1,89.9999972534181,0|2,3:0|3:0,3:0:0:0:
351,216,191467,2,0,L|439:231,1,89.9999972534181,0|10,3:0|3:0,3:0:0:0:
382,36,191767,1,0,3:0:0:0:
262,201,191917,38,0,P|221:181|194:146,1,89.9999972534181,2|0,3:0|0:0,3:0:0:0:
293,25,192217,1,10,3:0:0:0:
278,109,192367,1,0,3:0:0:0:
123,87,192517,2,0,P|159:61|203:56,1,89.9999972534181,2|0,3:0|3:0,3:0:0:0:
34,71,192817,6,0,L|122:86,1,89.9999972534181,10|0,3:0|3:0,3:0:0:0:
262,201,193117,2,0,L|173:216,1,89.9999972534181,2|0,3:0|3:0,3:0:0:0:
64,155,193417,1,10,3:0:0:0:
19,308,193567,2,0,B|55:280|55:280|187:304,1,179.999994506836,0|0,3:0|3:0,0:0:0:0:
350,185,194017,2,0,L|261:200,1,89.9999972534181,10|0,3:0|3:0,0:0:0:0:
145,62,194317,38,0,L|202:130,1,89.9999972534181,2|0,3:0|0:0,3:0:0:0:
261,200,194617,1,10,3:0:0:0:
261,200,194767,1,0,3:0:0:0:
142,301,194917,6,0,L|172:216,1,89.9999972534181,2|0,3:0|3:0,0:0:0:0:
203,131,195217,1,10,3:0:0:0:
203,131,195367,1,0,3:0:0:0:
350,184,195517,38,0,L|261:199,1,89.9999972534181,2|0,3:0|3:0,0:0:0:0:
172,216,195817,1,10,3:0:0:0:
172,216,195967,1,0,3:0:0:0:
203,131,196117,5,2,3:0:0:0:
320,269,196267,1,0,3:0:0:0:
383,100,196417,1,10,3:0:0:0:
500,238,196567,1,0,3:0:0:0:
476,75,196717,38,0,L|484:25,1,50,2|0,3:0|0:0,0:0:0:0:
362,13,196867,1,0,3:0:0:0:
331,27,196942,1,8,2:0:0:0:
308,51,197017,1,8,3:0:0:0:
296,82,197092,1,8,2:0:0:0:
296,116,197167,1,8,2:0:0:0:
308,147,197242,1,8,2:0:0:0:
331,171,197317,1,8,3:0:0:0:
361,186,197392,1,8,2:0:0:0:
395,188,197467,2,0,L|450:191,1,50,8|8,2:0|2:0,0:0:0:0:
512,268,197617,5,8,3:0:0:0:
438,281,197692,1,8,2:0:0:0:
364,294,197767,1,0,3:0:0:0:
290,307,197842,1,0,3:0:0:0:
216,320,197917,1,0,3:0:0:0:
1,255,199117,5,6,3:0:0:0:
41,235,199192,1,0,3:0:0:0:
85,233,199267,1,10,3:0:0:0:
127,250,199342,1,0,3:0:0:0:
158,281,199417,1,0,3:0:0:0:
189,312,199492,1,0,3:0:0:0:
230,329,199567,1,10,3:0:0:0:
275,327,199642,1,0,3:0:0:0:
315,308,199717,6,0,L|303:371,1,44.999998626709,0|0,3:0|3:0,3:0:0:0:
246,225,199867,2,0,L|238:180,1,44.999998626709,10|0,3:0|3:0,3:0:0:0:
322,320,200017,2,0,L|310:383,1,44.999998626709,0|0,3:0|3:0,3:0:0:0:
235,216,200167,2,0,L|223:152,1,44.999998626709,10|0,3:0|3:0,3:0:0:0:
376,98,200317,38,0,L|357:200,1,89.9999972534181,0|10,3:0|3:0,0:0:0:0:
322,320,200617,1,2,3:0:0:0:
235,216,200767,1,10,3:0:0:0:
452,160,200917,2,0,P|449:220|422:261,1,89.9999972534181,0|10,3:0|3:0,0:0:0:0:
284,124,201217,2,0,P|286:63|313:22,1,89.9999972534181,0|10,3:0|3:0,0:0:0:0:
306,247,201517,5,0,3:0:0:0:
261,254,201592,1,0,3:0:0:0:
217,262,201667,1,10,3:0:0:0:
173,270,201742,1,0,3:0:0:0:
128,278,201817,1,0,3:0:0:0:
84,286,201892,1,0,3:0:0:0:
40,293,201967,37,10,3:0:0:0:
59,333,202042,1,0,3:0:0:0:
93,361,202117,1,0,3:0:0:0:
137,371,202192,1,0,3:0:0:0:
180,361,202267,1,10,3:0:0:0:
215,333,202342,1,0,3:0:0:0:
234,293,202417,1,0,3:0:0:0:
234,248,202492,1,0,3:0:0:0:
214,208,202567,1,10,3:0:0:0:
179,181,202642,1,0,3:0:0:0:
135,172,202717,1,0,3:0:0:0:
92,183,202792,1,0,3:0:0:0:
58,211,202867,6,0,L|67:266,1,44.999998626709,10|0,3:0|3:0,3:0:0:0:
129,81,203017,1,2,3:0:0:0:
129,81,203167,1,10,3:0:0:0:
214,208,203317,2,0,L|223:263,1,44.999998626709,2|0,3:0|3:0,3:0:0:0:
281,111,203467,1,10,3:0:0:0:
353,239,203617,2,0,L|362:294,1,44.999998626709,2|0,3:0|0:0,3:0:0:0:
424,163,203767,2,0,L|431:118,1,44.999998626709,8|0,0:0|3:0,0:0:0:0:
509,219,203917,37,6,3:0:0:0:
477,251,203992,1,0,3:0:0:0:
435,266,204067,1,10,3:0:0:0:
391,261,204142,1,0,3:0:0:0:
352,238,204217,1,0,3:0:0:0:
313,215,204292,1,0,3:0:0:0:
269,210,204367,1,10,3:0:0:0:
227,225,204442,1,0,3:0:0:0:
195,257,204517,5,0,3:0:0:0:
172,218,204592,1,0,3:0:0:0:
137,191,204667,1,10,3:0:0:0:
93,179,204742,1,0,3:0:0:0:
49,187,204817,1,0,3:0:0:0:
93,289,204967,1,10,3:0:0:0:
280,112,205117,37,0,3:0:0:0:
121,39,205267,1,10,3:0:0:0:
105,30,205342,2,0,L|10:46,2,89.9999972534181,0|0|0,3:0|3:0|3:0,0:0:0:0:
121,39,205717,2,0,P|162:56|206:53,1,89.9999972534181,0|10,3:0|3:0,3:0:0:0:
367,0,206017,1,0,3:0:0:0:
269,210,206167,1,10,3:0:0:0:
454,112,206317,6,0,B|394:90|394:90|274:112,1,179.999994506836,6|10,3:0|3:0,0:0:0:0:
348,371,206767,2,0,L|381:181,1,179.999994506836,14|10,3:0|3:0,0:0:0:0:
263,23,207217,2,0,L|283:141,1,89.9999972534181,14|0,3:0|3:0,0:0:0:0:
179,304,207517,37,14,3:0:0:0:
159,292,207592,1,0,3:0:0:0:
137,286,207667,1,0,3:0:0:0:
115,285,207742,1,0,3:0:0:0:
93,289,207817,1,0,3:0:0:0:
122,384,207967,1,10,3:0:0:0:
227,225,208117,2,0,L|218:177,3,44.999998626709,0|0|0|0,3:0|3:0|3:0|3:0,0:0:0:0:
113,83,208417,2,0,L|121:35,3,44.999998626709,10|0|0|0,3:0|3:0|3:0|3:0,0:0:0:0:
0,218,208717,6,0,L|102:199,1,89.9999972534181,6|10,3:0|3:2,0:0:0:0:
219,180,209017,1,0,3:0:0:0:
113,83,209167,1,10,3:2:0:0:
276,13,209317,2,0,P|252:51|249:95,1,89.9999972534181,0|10,3:0|0:2,0:0:0:0:
307,164,209542,2,0,P|331:202|335:247,1,89.9999972534181,0|0,3:0|3:0,3:0:0:0:
276,316,209767,1,10,3:2:0:0:
89,269,209917,37,0,3:0:0:0:
126,245,209992,1,0,3:0:0:0:
171,240,210067,1,10,3:2:0:0:
213,255,210142,1,0,3:0:0:0:
245,286,210217,1,0,3:0:0:0:
276,316,210292,1,0,3:0:0:0:
319,331,210367,1,10,3:2:0:0:
363,326,210442,1,0,3:0:0:0:
400,303,210517,2,0,P|429:265|497:244,1,89.9999972534181,0|10,3:0|3:2,0:0:0:0:
307,164,210817,1,2,3:2:0:0:
454,112,210967,1,10,3:2:0:0:
231,0,211117,6,0,L|251:118,1,89.9999972534181,2|10,3:2|3:2,3:0:0:0:
126,245,211417,1,2,3:2:0:0:
186,166,211567,1,10,3:2:0:0:
72,65,211717,2,0,L|92:183,1,89.9999972534181,2|10,3:2|3:2,3:0:0:0:
66,324,212017,1,2,3:2:0:0:
126,245,212167,1,10,3:2:0:0:
276,316,212317,38,0,L|205:328,1,44.999998626709,6|0,3:0|3:0,3:0:0:0:
335,224,212467,1,10,3:2:0:0:
379,231,212542,1,0,3:0:0:0:
423,239,212617,1,0,3:0:0:0:
467,247,212692,1,0,3:0:0:0:
512,255,212767,2,0,L|522:304,3,44.999998626709,10|0|6|0,3:2|3:0|3:0|3:0,3:0:0:0:
439,151,213067,2,0,L|447:106,1,44.999998626709,10|0,3:2|3:0,3:0:0:0:
335,224,213217,1,8,2:0:0:0:
335,224,213292,1,8,2:0:0:0:
335,224,213367,2,0,L|343:268,1,44.999998626709,0|0,3:0|3:0,0:0:0:0:
263,99,213517,6,0,P|278:79|300:67,1,50,6|0,3:0|3:0,3:0:0:0:
188,138,213667,2,0,P|179:114|179:89,1,50,10|0,3:2|3:0,3:0:0:0:
187,224,213817,2,0,P|162:219|140:206,1,50,10|0,3:2|3:0,3:0:0:0:
261,267,213967,2,0,P|244:285|223:299,1,50,10|0,3:2|3:0,3:0:0:0:
300,67,214117,38,0,P|316:48|337:34,1,50,10|0,3:2|3:0,3:0:0:0:
380,160,214267,2,0,P|404:164|426:176,1,50,10|0,3:2|3:0,3:0:0:0:
341,274,214417,2,0,P|348:297|350:322,1,50,10|0,3:2|3:0,3:0:0:0:
223,299,214567,2,0,P|207:318|185:330,1,50,10|0,3:2|3:0,3:0:0:0:
130,80,214717,6,0,L|208:93,1,50,10|0,3:2|3:0,0:0:0:0:
337,34,214867,2,0,L|258:47,1,50,10|0,3:2|3:0,3:0:0:0:
160,2,215017,2,0,L|238:15,1,50,10|0,3:2|3:0,0:0:0:0:
318,120,215167,2,0,L|240:133,1,50,10|0,3:2|3:0,3:0:0:0:
148,269,215317,38,0,L|99:261,1,50,10|0,3:2|3:0,0:0:0:0:
256,223,215467,2,0,L|306:215,1,50,10|0,3:2|3:0,3:0:0:0:
178,191,215617,2,0,L|129:183,1,50,10|0,3:2|3:0,0:0:0:0:
237,309,215767,2,0,L|287:301,1,50,10|0,3:2|3:0,3:0:0:0:
43,338,215917,5,8,3:0:0:0:
11,300,215992,1,8,3:0:0:0:
2,251,216067,1,8,2:0:0:0:
19,205,216142,1,8,2:0:0:0:
57,173,216217,1,8,2:0:0:0:
105,164,216292,1,8,2:0:0:0:
152,181,216367,1,8,3:0:0:0:
198,197,216442,1,8,2:0:0:0:
246,188,216517,1,8,2:0:0:0:
284,156,216592,1,8,2:0:0:0:
301,110,216667,1,8,2:0:0:0:
292,61,216742,1,8,2:0:0:0:
261,24,216817,37,8,3:0:0:0:
240,37,216892,1,8,2:0:0:0:
223,56,216967,1,8,2:0:0:0:
211,78,217042,1,8,2:0:0:0:
205,102,217117,6,0,P|195:73|195:46,1,50,8|8,3:0|2:0,3:0:0:0:
284,156,217267,2,0,P|297:128|300:102,1,50,8|8,2:0|2:0,3:0:0:0:
152,181,217417,2,0,P|129:160|117:136,1,50,8|0,2:0|0:0,3:0:0:0:
329,244,217567,2,0,P|353:225|368:204,1,50,0|0,3:0|3:0,3:0:0:0:
142,275,217717,37,0,3:0:0:0:
142,275,217792,1,0,3:0:0:0:
142,275,217867,2,0,P|112:267|90:252,1,50,0|0,3:0|3:0,3:0:0:0:
326,337,218017,1,0,3:0:0:0:
326,337,218092,1,0,3:0:0:0:
326,337,218167,2,0,P|356:332|379:320,1,50,0|0,3:0|3:0,3:0:0:0:
329,146,218317,22,0,B|284:172|284:172|119:143,1,220.000006713867,6|10,3:0|3:0,0:0:0:0:
316,31,218767,2,0,L|370:40,1,55.0000016784668,0|0,3:0|3:0,0:0:0:0:
508,125,218917,1,10,3:0:0:0:
503,152,218992,1,0,3:0:0:0:
498,179,219067,1,0,3:0:0:0:
493,206,219142,1,0,3:0:0:0:
489,234,219217,1,10,3:0:0:0:
481,193,219292,1,0,3:0:0:0:
474,152,219367,1,0,3:0:0:0:
467,112,219442,1,0,3:0:0:0:
460,71,219517,5,10,3:0:0:0:
427,106,219592,1,0,3:0:0:0:
385,130,219667,1,0,3:0:0:0:
339,141,219742,1,0,3:0:0:0:
291,139,219817,1,10,3:0:0:0:
245,124,219892,1,0,3:0:0:0:
206,97,219967,1,0,3:0:0:0:
175,60,220042,1,0,3:0:0:0:
157,15,220117,2,0,L|265:34,1,110.000003356934,10|0,3:0|3:0,0:0:0:0:
329,230,220417,2,0,L|221:211,1,110.000003356934,10|2,3:0|3:0,3:0:0:0:
103,7,220717,38,0,L|157:16,1,55.0000016784668,14|0,3:0|3:0,0:0:0:0:
266,35,220867,1,0,3:0:0:0:
249,78,220942,1,0,3:0:0:0:
218,112,221017,1,10,3:0:0:0:
178,133,221092,1,0,3:0:0:0:
132,139,221167,1,0,3:0:0:0:
88,129,221242,1,0,3:0:0:0:
50,104,221317,2,0,L|104:94,3,55.0000016784668,10|0|0|0,3:0|3:0|3:0|3:0,0:0:0:0:
276,220,221617,2,0,L|221:210,3,55.0000016784668,10|0|0|0,3:0|3:0|3:0|3:0,0:0:0:0:
90,302,221917,5,14,3:0:0:0:
127,341,221992,1,0,3:0:0:0:
178,360,222067,1,0,3:0:0:0:
232,353,222142,1,0,3:0:0:0:
278,323,222217,1,10,3:0:0:0:
323,292,222292,1,0,3:0:0:0:
377,286,222367,1,0,3:0:0:0:
428,305,222442,1,0,3:0:0:0:
466,344,222517,2,0,L|446:235,1,110.000003356934,10|2,3:0|3:0,3:0:0:0:
244,171,222817,2,0,L|263:62,1,110.000003356934,10|0,3:0|3:0,0:0:0:0:
408,19,223117,37,10,3:0:0:0:
411,37,223192,1,0,3:0:0:0:
414,55,223267,1,0,3:0:0:0:
417,73,223342,1,0,3:0:0:0:
420,91,223417,1,10,3:0:0:0:
424,109,223492,1,0,3:0:0:0:
427,127,223567,2,0,L|372:117,1,55.0000016784668,0|0,3:0|3:0,0:0:0:0:
263,62,223717,2,0,L|208:71,3,55.0000016784668,10|0|0|0,3:0|3:0|3:0|3:0,0:0:0:0:
99,127,224017,2,0,L|44:117,3,55.0000016784668,10|0|0|0,3:0|3:0|3:0|3:0,0:0:0:0:
97,330,224317,5,10,3:0:0:0:
101,302,224392,1,0,3:0:0:0:
106,275,224467,2,0,L|115:220,1,55.0000016784668,0|0,3:0|3:0,3:0:0:0:
208,71,224617,37,10,3:0:0:0:
212,99,224692,1,0,3:0:0:0:
217,126,224767,2,0,L|226:180,1,55.0000016784668,0|0,3:0|3:0,3:0:0:0:
319,330,224917,5,10,3:0:0:0:
323,302,224992,1,0,3:0:0:0:
328,275,225067,2,0,L|337:220,1,55.0000016784668,0|0,3:0|3:0,3:0:0:0:
430,71,225217,37,10,3:0:0:0:
434,99,225292,1,0,3:0:0:0:
439,126,225367,2,0,L|448:180,1,55.0000016784668,0|0,3:0|3:0,3:0:0:0:
231,339,225517,5,14,3:0:0:0:
207,336,225592,1,0,0:0:0:0:
185,329,225667,1,8,2:0:0:0:
164,317,225742,1,8,2:0:0:0:
147,301,225817,1,8,2:0:0:0:
134,282,225892,1,8,2:0:0:0:
128,260,225967,2,0,L|118:205,1,55.0000016784668,8|8,2:0|2:0,0:0:0:0:
337,220,226117,37,0,3:0:0:0:
309,224,226192,1,8,2:0:0:0:
282,229,226267,2,0,L|228:238,1,55.0000016784668,8|8,2:0|2:0,0:0:0:0:
297,95,226417,5,0,3:0:0:0:
325,99,226492,1,8,2:0:0:0:
352,104,226567,2,0,L|407:113,1,55.0000016784668,8|8,2:0|2:0,0:0:0:0:
467,314,226717,37,0,3:0:0:0:
430,354,226792,1,8,2:0:0:0:
379,374,226867,1,8,2:0:0:0:
325,371,226942,1,8,2:0:0:0:
277,344,227017,1,0,3:0:0:0:
229,317,227092,1,8,2:0:0:0:
175,313,227167,1,8,2:0:0:0:
124,333,227242,1,8,2:0:0:0:
86,373,227317,5,0,3:0:0:0:
148,373,227392,1,0,3:0:0:0:
201,342,227467,1,0,3:0:0:0:
232,289,227542,1,0,3:0:0:0:
232,228,227617,1,0,3:0:0:0:
203,174,227692,1,0,3:0:0:0:
151,142,227767,1,0,3:0:0:0:
90,140,227842,1,0,3:0:0:0:
36,168,227917,38,0,B|91:198|91:198|245:164,1,220.000006713867,6|2,3:0|3:2,3:0:0:0:
352,140,228367,1,10,3:2:0:0:
156,262,228517,2,0,L|48:287,1,110.000003356934,2|10,3:2|3:2,3:0:0:0:
308,316,228817,2,0,L|416:291,1,110.000003356934,2|10,3:2|3:2,3:0:0:0:
381,27,229117,6,0,P|351:126|429:195,1,220.000006713867,2|2,3:2|3:2,3:0:0:0:
444,101,229567,1,10,3:2:0:0:
250,77,229717,2,0,L|142:95,1,110.000003356934,2|10,3:2|3:2,3:0:0:0:
187,225,230017,2,0,L|296:243,1,110.000003356934,2|10,3:2|3:2,3:0:0:0:
409,348,230317,38,0,L|355:339,1,55.0000016784668,6|0,3:0|0:0,0:0:0:0:
248,320,230467,1,10,3:2:0:0:
265,277,230542,1,0,0:0:0:0:
296,243,230617,1,2,3:2:0:0:
336,222,230692,1,2,3:2:0:0:
382,216,230767,1,10,3:2:0:0:
426,226,230842,1,0,0:0:0:0:
464,251,230917,2,0,L|473:196,3,55.0000016784668,2|0|10|0,3:2|0:0|3:2|0:0,3:0:0:0:
419,95,231217,2,0,L|409:40,3,55.0000016784668,2|0|10|0,3:2|0:0|3:2|0:0,3:0:0:0:
210,90,231517,6,0,B|264:122|264:122|419:94,1,220.000006713867,6|2,3:0|3:2,3:0:0:0:
316,0,231967,1,10,3:2:0:0:
109,42,232117,2,0,P|98:97|114:149,1,110.000003356934,2|10,3:2|3:2,3:0:0:0:
303,250,232417,2,0,P|260:213|207:201,1,110.000003356934,2|10,3:2|3:2,3:1:0:0:
34,151,232717,37,2,3:2:0:0:
55,200,232792,1,0,3:0:0:0:
103,225,232867,1,10,3:2:0:0:
156,213,232942,1,0,3:0:0:0:
209,201,233017,1,2,3:2:0:0:
262,214,233092,1,0,3:0:0:0:
303,250,233167,1,10,3:2:0:0:
341,287,233242,1,0,3:0:0:0:
394,293,233317,1,2,3:2:0:0:
440,264,233392,1,0,3:0:0:0:
457,212,233467,1,10,3:2:0:0:
438,162,233542,1,0,3:0:0:0:
392,135,233617,5,0,3:0:0:0:
312,151,233692,1,0,3:0:0:0:
262,214,233767,1,0,3:0:0:0:
263,294,233842,1,0,3:0:0:0:
316,355,233917,1,10,3:0:0:0:
252,81,235117,37,6,3:0:0:0:
120,193,235267,2,0,L|218:175,1,100,10|2,2:2|3:2,3:0:0:0:
252,81,235567,1,10,2:0:0:0:
282,251,235717,1,2,3:2:0:0:
316,157,235867,1,10,2:2:0:0:
184,269,236017,1,2,3:2:0:0:
380,233,236167,1,10,2:0:0:0:
154,99,236317,5,2,3:2:0:0:
24,212,236467,2,0,L|122:194,1,100,10|0,2:0|0:0,3:0:0:0:
218,175,236767,1,10,2:0:0:0:
24,212,236917,1,2,3:2:0:0:
149,362,237067,1,10,2:0:0:0:
149,362,237142,1,0,3:0:0:0:
149,362,237217,2,0,L|248:345,1,100,2|10,3:2|2:0,3:0:0:0:
271,159,237517,38,0,L|253:257,1,100,6|8,3:0|0:0,3:0:0:0:
429,209,237817,2,0,L|411:111,1,100,2|8,3:0|0:0,3:0:0:0:
288,60,238117,1,2,3:2:0:0:
271,159,238267,1,10,2:0:0:0:
410,110,238417,1,2,0:2:0:0:
394,12,238567,1,10,2:0:0:0:
252,256,238717,5,8,0:0:0:0:
229,249,238792,1,0,3:0:0:0:
208,235,238867,1,8,2:0:0:0:
191,217,238942,1,8,2:0:0:0:
179,195,239017,1,8,0:2:0:0:
173,171,239092,1,8,2:0:0:0:
174,146,239167,1,8,2:0:0:0:
180,122,239242,1,8,2:0:0:0:
192,99,239317,38,0,L|142:107,1,50,0|0,3:0|3:0,0:0:0:0:
23,47,239467,2,0,L|73:39,1,50,0|0,3:0|3:0,0:0:0:0:
179,195,239617,6,0,L|129:203,1,50,0|0,3:0|3:0,0:0:0:0:
10,143,239767,2,0,L|60:135,1,50,0|0,3:0|3:0,0:0:0:0:
213,289,239917,37,6,3:0:0:0:
271,159,240067,1,10,2:2:0:0:
271,159,240142,1,0,3:0:0:0:
271,159,240217,1,2,3:2:0:0:
179,195,240367,1,10,2:0:0:0:
307,251,240517,1,2,3:2:0:0:
363,123,240667,1,10,2:0:0:0:
235,67,240817,1,2,3:2:0:0:
401,217,240967,1,10,2:0:0:0:
329,29,241117,5,2,0:2:0:0:
136,49,241267,2,0,L|234:66,1,100,10|0,2:0|0:0,3:0:0:0:
329,29,241567,1,10,2:0:0:0:
244,150,241717,1,2,3:2:0:0:
136,49,241867,1,10,2:0:0:0:
136,49,241942,1,0,3:0:0:0:
136,49,242017,2,0,L|234:66,1,100,2|10,3:2|2:0,3:0:0:0:
309,262,242317,38,0,L|317:311,5,50,8|8|8|8|8|8,3:0|2:0|2:0|2:0|2:0|2:0,0:0:0:0:
226,117,242767,2,0,L|235:68,3,50,8|8|8|8,3:0|2:0|2:0|2:0,0:0:0:0:
227,275,243067,2,0,L|235:324,1,50,8|8,3:0|2:0,0:0:0:0:
145,131,243217,2,0,L|153:81,1,50,8|8,2:0|2:0,0:0:0:0:
145,288,243367,2,0,L|154:338,1,50,8|8,3:0|2:0,3:0:0:0:
315,54,243517,6,0,L|306:103,1,50,8|8,3:0|2:0,0:0:0:0:
235,324,243667,2,0,L|227:275,1,50,8|8,2:0|2:0,0:0:0:0:
154,81,243817,2,0,L|145:130,1,50,8|8,3:0|2:0,0:0:0:0:
72,351,243967,2,0,L|63:301,1,50,8|8,2:0|2:0,0:0:0:0:
294,185,244117,37,0,3:0:0:0:
263,190,244192,1,0,3:0:0:0:
232,195,244267,1,0,3:0:0:0:
201,201,244342,1,0,3:0:0:0:
170,206,244417,1,0,3:0:0:0:
140,212,244492,1,0,3:0:0:0:
109,217,244567,1,0,3:0:0:0:
78,222,244642,1,0,3:0:0:0:
47,228,244717,21,0,3:0:0:0:
235,324,244867,2,0,L|333:306,1,100,14|0,3:0|0:0,3:0:0:0:
475,184,245167,5,10,3:0:0:0:
423,338,245317,2,0,P|362:328|326:297,1,100,0|10,3:0|3:0,3:0:0:0:
404,247,245542,2,0,P|381:189|390:142,1,100,0|0,3:0|3:0,3:0:0:0:
475,184,245767,1,10,3:0:0:0:
291,121,245917,37,0,3:0:0:0:
266,125,245992,1,0,3:0:0:0:
241,129,246067,1,10,3:0:0:0:
217,134,246142,1,0,3:0:0:0:
192,138,246217,1,0,3:0:0:0:
167,142,246292,1,0,3:0:0:0:
143,147,246367,5,10,3:0:0:0:
42,10,246517,2,0,P|90:23|126:58,1,100,0|10,3:0|3:0,3:0:0:0:
143,147,246742,2,0,P|121:191|80:220,1,100,0|0,3:0|3:0,3:0:0:0:
37,120,246967,1,10,3:0:0:0:
215,0,247117,37,0,3:0:0:0:
243,4,247192,1,0,3:0:0:0:
273,9,247267,1,10,3:0:0:0:
302,15,247342,1,0,3:0:0:0:
332,20,247417,1,0,3:0:0:0:
362,25,247492,1,0,3:0:0:0:
391,31,247567,5,10,3:0:0:0:
421,203,247717,2,0,B|462:214|462:214|517:203,1,100,0|10,3:0|3:0,3:0:0:0:
465,125,247942,2,0,B|423:113|423:113|367:124,1,100,0|0,3:0|3:0,3:0:0:0:
325,210,248167,1,10,3:0:0:0:
505,326,248317,38,0,B|352:279|377:422|223:376,1,300,6|10,3:0|3:0,0:0:0:0:
242,138,248917,2,0,B|314:76|314:76|279:279,1,300,6|10,3:0|3:0,0:0:0:0:
224,376,249517,1,0,3:0:0:0:
69,181,249667,2,0,L|179:200,1,100,14|0,3:0|0:0,3:0:0:0:
279,278,249967,5,10,3:0:0:0:
485,200,250117,2,0,P|436:206|396:235,1,100,0|10,3:0|3:0,3:0:0:0:
330,172,250342,2,0,P|281:166|241:137,1,100,0|0,3:0|3:0,3:0:0:0:
167,198,250567,1,10,3:0:0:0:
52,82,250717,37,0,3:0:0:0:
56,107,250792,1,0,3:0:0:0:
60,132,250867,1,10,3:0:0:0:
65,156,250942,1,0,3:0:0:0:
69,181,251017,1,0,3:0:0:0:
73,206,251092,1,0,3:0:0:0:
78,230,251167,5,10,3:0:0:0:
0,350,251317,2,0,P|49:355|89:384,1,100,0|10,3:0|3:0,3:0:0:0:
154,321,251542,2,0,P|203:315|243:286,1,100,0|0,3:0|3:0,3:0:0:0:
318,347,251767,1,10,3:0:0:0:
464,257,251917,37,0,3:0:0:0:
439,249,251992,1,0,0:0:0:0:
415,249,252067,1,10,3:0:0:0:
390,254,252142,1,0,0:0:0:0:
368,264,252217,1,0,3:0:0:0:
348,280,252292,1,0,3:0:0:0:
333,299,252367,1,10,3:0:0:0:
322,322,252442,1,0,0:0:0:0:
318,347,252517,5,0,3:0:0:0:
464,257,252667,1,10,3:0:0:0:
240,136,252817,1,0,3:0:0:0:
240,136,252892,1,0,3:0:0:0:
240,136,252967,1,10,3:0:0:0:
89,384,253117,37,8,3:0:0:0:
125,350,253192,1,8,2:0:0:0:
144,304,253267,1,8,2:0:0:0:
141,255,253342,1,8,2:0:0:0:
118,211,253417,1,8,3:0:0:0:
94,167,253492,1,0,2:0:0:0:
91,117,253567,1,0,2:0:0:0:
110,71,253642,1,0,2:0:0:0:
147,38,253717,5,0,3:0:0:0:
163,66,253792,1,0,3:0:0:0:
172,98,253867,1,0,3:0:0:0:
171,130,253942,1,0,3:0:0:0:
161,162,254017,1,0,3:0:0:0:
143,189,254092,1,0,3:0:0:0:
118,210,254167,1,0,3:0:0:0:
88,224,254242,1,0,3:0:0:0:
55,229,254317,38,0,L|-4:218,1,59.9999981689454,6|0,3:0|3:0,0:0:0:0:
164,347,254467,1,0,3:0:0:0:
164,347,254542,1,0,3:0:0:0:
164,347,254617,2,0,L|104:357,1,59.9999981689454,0|0,3:0|3:0,0:0:0:0:
284,251,254767,1,0,3:0:0:0:
284,251,254842,1,0,3:0:0:0:
284,251,254917,5,6,3:0:0:0:
312,242,254992,1,0,3:0:0:0:
342,241,255067,1,0,3:0:0:0:
371,246,255142,1,0,3:0:0:0:
399,258,255217,1,0,3:0:0:0:
423,277,255292,1,0,3:0:0:0:
443,299,255367,1,0,3:0:0:0:
457,325,255442,1,0,3:0:0:0:
462,352,255517,5,6,3:0:0:0:
428,318,255592,1,0,3:0:0:0:
383,300,255667,1,10,3:2:0:0:
335,302,255742,1,0,3:0:0:0:
291,323,255817,1,2,3:2:0:0:
247,343,255892,1,0,3:0:0:0:
198,345,255967,1,10,3:2:0:0:
153,327,256042,1,0,3:0:0:0:
119,293,256117,1,2,3:2:0:0:
165,304,256192,1,0,3:0:0:0:
211,287,256267,1,10,3:2:0:0:
239,249,256342,1,0,3:0:0:0:
242,201,256417,1,2,3:2:0:0:
219,159,256492,1,0,3:0:0:0:
176,137,256567,1,10,3:2:0:0:
128,142,256642,1,0,3:0:0:0:
91,172,256717,5,2,3:2:0:0:
132,194,256792,1,0,3:0:0:0:
181,190,256867,1,10,3:2:0:0:
217,160,256942,1,0,3:0:0:0:
233,114,257017,1,2,3:2:0:0:
249,68,257092,1,0,3:0:0:0:
285,38,257167,1,10,3:2:0:0:
334,34,257242,1,0,3:0:0:0:
375,56,257317,1,2,3:2:0:0:
334,90,257392,1,0,3:0:0:0:
324,143,257467,1,10,3:2:0:0:
349,189,257542,1,0,3:0:0:0:
398,211,257617,1,2,3:2:0:0:
449,197,257692,1,0,3:0:0:0:
481,154,257767,2,0,L|417:142,1,64.9999970245363,10|0,3:2|3:0,3:0:0:0:
163,58,257917,37,6,3:0:0:0:
198,92,257992,1,0,3:0:0:0:
242,110,258067,1,10,3:2:0:0:
290,109,258142,1,0,3:0:0:0:
334,90,258217,1,2,3:2:0:0:
300,55,258292,1,0,3:0:0:0:
255,36,258367,1,10,3:2:0:0:
207,38,258442,1,0,3:0:0:0:
163,58,258517,1,2,3:2:0:0:
138,99,258592,1,0,3:0:0:0:
139,147,258667,1,10,3:2:0:0:
165,188,258742,1,0,3:0:0:0:
208,209,258817,1,2,3:2:0:0:
249,234,258892,1,0,3:0:0:0:
271,276,258967,1,10,3:2:0:0:
267,324,259042,1,0,3:0:0:0:
239,364,259117,6,0,L|174:352,3,64.9999970245363,2|0|10|0,3:2|3:0|3:2|3:0,0:0:0:0:
143,220,259417,2,0,L|207:208,3,64.9999970245363,2|0|10|0,3:2|3:0|3:2|3:0,0:0:0:0:
363,183,259717,1,0,3:2:0:0:
381,210,259792,1,8,2:0:0:0:
410,223,259867,1,8,2:0:0:0:
442,218,259942,1,8,2:0:0:0:
466,196,260017,1,8,3:0:0:0:
474,165,260092,1,8,2:0:0:0:
464,135,260167,1,8,2:0:0:0:
439,115,260242,1,8,2:0:0:0:
407,112,260317,37,6,3:0:0:0:
416,166,260392,1,0,3:0:0:0:
426,220,260467,1,0,3:0:0:0:
435,274,260542,1,0,3:0:0:0:
445,328,260617,1,10,3:0:0:0:
399,297,260692,1,0,3:0:0:0:
346,285,260767,1,0,3:0:0:0:
292,294,260842,1,0,3:0:0:0:
244,322,260917,1,2,3:0:0:0:
202,355,260992,1,0,3:0:0:0:
148,361,261067,1,0,3:0:0:0:
98,339,261142,1,0,3:0:0:0:
68,294,261217,1,10,3:0:0:0:
65,240,261292,1,0,3:0:0:0:
90,192,261367,1,0,3:0:0:0:
137,164,261442,1,0,3:0:0:0:
190,164,261517,5,2,3:0:0:0:
241,199,261592,1,0,3:0:0:0:
301,196,261667,1,0,3:0:0:0:
347,156,261742,1,0,3:0:0:0:
360,97,261817,1,10,3:0:0:0:
333,42,261892,1,0,3:0:0:0:
279,15,261967,1,0,3:0:0:0:
220,26,262042,1,0,3:0:0:0:
179,71,262117,38,0,P|225:99|279:101,1,110.000003356934,2|0,3:0|3:0,3:0:0:0:
464,33,262417,1,10,3:0:0:0:
301,196,262567,1,0,3:0:0:0:
501,265,262717,6,0,L|496:319,1,55.0000016784668,6|0,3:0|3:0,3:0:0:0:
456,142,262867,2,0,L|451:196,1,55.0000016784668,0|0,3:0|3:0,0:0:0:0:
399,277,263017,38,0,L|394:331,1,55.0000016784668,10|0,3:0|3:0,0:0:0:0:
352,101,263167,2,0,L|347:155,1,55.0000016784668,0|0,3:0|3:0,0:0:0:0:
297,289,263317,6,0,L|292:343,1,55.0000016784668,2|0,3:0|3:0,0:0:0:0:
248,60,263467,2,0,L|243:114,1,55.0000016784668,0|0,3:0|3:0,0:0:0:0:
195,301,263617,38,0,L|190:355,1,55.0000016784668,10|0,3:0|3:0,0:0:0:0:
144,19,263767,2,0,L|139:73,1,55.0000016784668,0|0,3:0|3:0,0:0:0:0:
93,313,263917,6,0,L|88:367,1,55.0000016784668,2|8,3:0|2:0,0:0:0:0:
0,227,264067,1,8,2:0:0:0:
24,191,264142,1,8,2:0:0:0:
60,166,264217,1,0,3:0:0:0:
102,153,264292,1,8,2:0:0:0:
146,157,264367,1,8,2:0:0:0:
186,172,264442,1,8,2:0:0:0:
226,191,264517,1,8,3:0:0:0:
269,194,264592,1,8,2:0:0:0:
311,180,264667,1,8,2:0:0:0:
347,155,264742,1,8,2:0:0:0:
373,120,264817,2,0,L|319:111,3,55.0000016784668,0|0|0|0,3:0|3:0|3:0|3:0,3:0:0:0:
424,14,265117,37,6,3:0:0:0:
383,20,265192,1,0,3:0:0:0:
342,27,265267,1,10,2:2:0:0:
302,34,265342,1,0,3:0:0:0:
261,41,265417,2,0,L|207:50,3,55.0000016784668,2|0|10|0,3:2|3:0|2:2|3:0,0:0:0:0:
143,130,265717,6,0,B|179:168|179:168|290:187,1,165.000005035401,2|0,3:2|3:0,0:0:0:0:
325,299,266017,2,0,B|288:260|288:260|178:241,1,165.000005035401,2|0,3:0|3:0,3:0:0:0:
163,327,266317,37,2,3:2:0:0:
203,320,266392,1,0,3:0:0:0:
244,313,266467,1,10,2:0:0:0:
284,306,266542,1,0,3:0:0:0:
325,299,266617,5,2,3:2:0:0:
178,241,266767,1,10,2:0:0:0:
328,74,266917,1,2,3:2:0:0:
270,221,267067,1,10,2:0:0:0:
103,71,267217,1,2,3:2:0:0:
250,129,267367,1,10,2:0:0:0:
6,265,267517,37,6,3:0:0:0:
17,239,267592,1,0,3:0:0:0:
34,218,267667,1,10,2:0:0:0:
57,203,267742,1,0,3:0:0:0:
84,196,267817,1,2,3:2:0:0:
111,196,267892,1,0,3:0:0:0:
137,204,267967,1,10,2:0:0:0:
160,219,268042,1,0,3:0:0:0:
178,240,268117,5,2,3:2:0:0:
173,209,268192,1,0,3:0:0:0:
159,182,268267,1,10,2:0:0:0:
137,160,268342,1,0,3:0:0:0:
110,145,268417,1,2,3:2:0:0:
80,140,268492,1,0,3:0:0:0:
49,144,268567,1,10,2:2:0:0:
21,157,268642,1,0,3:0:0:0:
0,178,268717,38,0,P|20:100|90:61,1,165.000005035401,2|0,3:2|3:0,3:0:0:0:
236,81,269017,2,0,P|158:102|89:60,1,165.000005035401,2|0,3:2|3:0,3:0:0:0:
173,209,269317,6,0,L|335:180,1,165.000005035401,2|0,3:2|3:0,3:0:0:0:
391,24,269617,2,0,L|335:180,1,165.000005035401,2|0,3:0|3:0,3:0:0:0:
441,306,269917,37,6,3:0:0:0:
404,287,269992,1,0,3:0:0:0:
363,282,270067,1,10,0:0:0:0:
323,291,270142,1,0,3:0:0:0:
289,314,270217,1,0,3:0:0:0:
254,336,270292,1,0,3:0:0:0:
214,346,270367,1,10,0:0:0:0:
174,341,270442,1,0,3:0:0:0:
137,322,270517,5,0,3:0:0:0:
189,308,270592,1,0,3:0:0:0:
228,270,270667,1,10,0:0:0:0:
242,218,270742,1,0,3:0:0:0:
228,165,270817,1,0,3:0:0:0:
189,128,270892,1,0,3:0:0:0:
136,115,270967,1,10,0:0:0:0:
84,130,271042,1,0,3:0:0:0:
47,170,271117,38,0,L|37:224,1,55.0000016784668,0|0,3:0|3:0,0:0:0:0:
24,20,271267,2,0,L|34:74,3,55.0000016784668,10|0|0|0,3:0|3:0|3:0|3:0,0:0:0:0:
149,211,271567,6,0,L|139:265,1,55.0000016784668,10|0,3:0|3:0,0:0:0:0:
126,61,271717,2,0,L|136:115,3,55.0000016784668,0|0|10|0,3:0|3:0|3:0|3:0,0:0:0:0:
251,252,272017,38,0,L|241:306,1,55.0000016784668,0|0,3:0|3:0,3:0:0:0:
228,102,272167,2,0,L|238:156,1,55.0000016784668,10|0,3:0|3:0,3:0:0:0:
461,273,272317,5,8,2:0:0:0:
433,277,272392,1,8,2:0:0:0:
406,282,272467,1,0,3:0:0:0:
379,287,272542,1,0,3:0:0:0:
353,293,272617,2,0,L|343:347,3,55.0000016784668,0|0|0|0,3:0|3:0|3:0|3:0,0:0:0:0:
339,197,272917,2,0,L|330:143,3,55.0000016784668,0|0|0|0,3:0|3:0|3:0|3:0,0:0:0:0:
438,162,273217,1,8,2:0:0:0:
410,157,273292,1,8,2:0:0:0:
383,152,273367,1,0,3:0:0:0:
356,147,273442,1,0,3:0:0:0:
330,143,273517,37,8,2:0:0:0:
310,178,273592,1,8,2:0:0:0:
274,196,273667,1,0,3:0:0:0:
234,189,273742,1,0,3:0:0:0:
205,161,273817,1,0,3:0:0:0:
199,121,273892,1,0,3:0:0:0:
216,84,273967,1,0,3:0:0:0:
252,65,274042,1,0,3:0:0:0:
292,70,274117,5,0,3:0:0:0:
256,272,274267,1,0,3:0:0:0:
415,196,274417,37,14,3:0:0:0:
146,295,274567,1,0,3:0:0:0:
196,13,274717,1,10,3:0:0:0:
146,295,277117,21,8,2:0:0:0:
252,65,277267,1,8,2:0:0:0:
342,347,277417,1,8,2:0:0:0:
453,227,279517,6,0,L|358:243,1,80,6|0,3:0|3:0,3:0:0:0:
374,150,280117,2,0,L|452:136,1,80,0|0,3:0|3:0,0:0:0:0:
382,339,280717,38,0,L|302:353,1,80,0|0,3:0|3:0,3:0:0:0:
295,254,281317,2,0,L|373:240,1,80,0|0,3:0|3:0,0:0:0:0:
118,169,281917,6,0,L|30:153,1,80,0|0,3:0|3:0,3:0:0:0:
59,48,282517,2,0,L|145:63,1,80,0|0,3:0|3:0,0:0:0:0:
183,303,283117,38,0,L|86:285,1,80,0|0,3:0|3:0,3:0:0:0:
118,169,283717,2,0,L|213:185,1,80,0|0,3:0|3:0,0:0:0:0:
452,0,284317,6,0,B|435:43|435:43|452:134,1,139.999995727539,6|2,3:0|3:0,3:0:0:0:
469,236,284767,1,0,3:0:0:0:
342,261,284917,2,0,P|402:227|470:237,1,139.999995727539,10|2,3:0|3:0,3:0:0:0:
420,332,285367,1,0,3:0:0:0:
342,261,285517,2,0,L|357:174,1,69.9999978637696,2|0,3:0|0:0,0:0:0:0:
256,315,285817,1,2,3:0:0:0:
256,315,285967,1,0,3:0:0:0:
157,192,286117,2,0,L|169:260,1,69.9999978637696,10|0,3:0|3:0,0:0:0:0:
92,332,286417,1,2,3:0:0:0:
41,237,286567,1,8,3:0:0:0:
170,261,286717,38,0,P|109:227|41:237,1,139.999995727539,2|2,3:0|3:0,3:0:0:0:
92,332,287167,1,0,3:0:0:0:
256,315,287317,2,0,L|230:173,1,139.999995727539,10|2,3:0|3:0,0:0:0:0:
212,73,287767,1,0,3:0:0:0:
131,141,287917,1,2,3:0:0:0:
324,177,288067,2,0,L|311:106,1,69.9999978637696,8|2,3:0|3:0,0:0:0:0:
292,4,288367,1,0,3:0:0:0:
458,64,288517,2,0,L|402:110,1,69.9999978637696,10|0,3:0|3:0,0:0:0:0:
324,177,288817,1,2,3:0:0:0:
324,177,288967,1,0,3:0:0:0:
477,279,289117,6,0,B|433:262|433:262|342:279,1,139.999995727539,2|2,3:0|3:0,3:0:0:0:
244,242,289567,1,0,3:0:0:0:
182,381,289717,2,0,L|170:313,1,69.9999978637696,10|0,3:0|3:0,0:0:0:0:
72,275,290017,1,2,3:0:0:0:
147,205,290167,1,0,3:0:0:0:
244,242,290317,1,2,3:0:0:0:
339,278,290467,1,0,3:0:0:0:
414,208,290617,1,2,3:0:0:0:
302,71,290767,1,0,3:0:0:0:
244,242,290917,2,0,L|232:174,1,69.9999978637696,10|0,3:0|3:0,0:0:0:0:
131,102,291217,1,2,3:0:0:0:
131,102,291367,1,0,3:0:0:0:
41,336,291517,38,0,P|109:345|169:311,1,139.999995727539,6|2,3:0|3:0,3:0:0:0:
88,227,291967,1,0,3:0:0:0:
219,104,292117,2,0,L|231:172,1,69.9999978637696,10|0,3:0|3:0,0:0:0:0:
339,278,292417,1,2,3:0:0:0:
458,64,292567,1,8,2:0:0:0:
458,64,292642,1,8,2:0:0:0:
458,64,292717,5,8,2:0:0:0:
491,156,292867,1,8,2:0:0:0:
414,216,293017,1,8,2:0:0:0:
335,163,293167,1,8,2:0:0:0:
359,67,293317,37,8,2:0:0:0:
414,216,293467,1,8,2:0:0:0:
257,189,293617,1,0,3:0:0:0:
255,182,293692,1,0,3:0:0:0:
254,175,293767,1,0,3:0:0:0:
253,168,293842,1,0,3:0:0:0:
252,161,293917,6,0,L|243:111,1,50,6|0,3:0|0:0,0:0:0:0:
172,16,294067,2,0,L|163:65,1,50,0|0,3:0|3:0,3:0:0:0:
64,176,294217,37,10,3:0:0:0:
88,171,294292,1,0,0:0:0:0:
113,167,294367,1,0,3:0:0:0:
137,162,294442,1,0,0:0:0:0:
162,158,294517,2,0,L|139:220,3,50,10|0|0|0,3:0|3:0|3:0|0:0,3:0:0:0:
95,346,294817,5,10,3:0:0:0:
78,327,294892,1,0,0:0:0:0:
62,308,294967,1,0,3:0:0:0:
46,289,295042,1,0,3:0:0:0:
30,270,295117,2,0,L|94:258,3,50,10|0|0|0,3:0|0:0|3:0|0:0,0:0:0:0:
227,235,295417,37,10,3:0:0:0:
219,258,295492,1,0,3:0:0:0:
210,281,295567,1,0,3:0:0:0:
202,305,295642,1,0,0:0:0:0:
193,328,295717,2,0,L|150:277,3,50,10|0|0|0,3:0|0:0|3:0|0:0,0:0:0:0:
162,158,296017,6,0,L|225:146,1,50,10|0,3:0|0:0,0:0:0:0:
276,243,296167,2,0,L|226:234,1,50,0|0,3:0|0:0,0:0:0:0:
316,90,296317,38,0,L|325:140,1,50,10|0,3:0|0:0,0:0:0:0:
396,235,296467,2,0,L|405:186,1,50,0|0,3:0|3:0,3:0:0:0:
512,71,296617,5,10,3:0:0:0:
484,62,296692,1,0,0:0:0:0:
453,62,296767,1,0,3:0:0:0:
426,73,296842,1,0,0:0:0:0:
403,92,296917,2,0,L|412:42,3,50,10|0|0|0,3:0|3:0|3:0|0:0,3:0:0:0:
252,56,297217,37,10,3:0:0:0:
258,84,297292,1,0,0:0:0:0:
274,111,297367,1,0,3:0:0:0:
297,129,297442,1,0,3:0:0:0:
324,139,297517,2,0,L|276:156,3,50,10|0|0|0,3:0|0:0|3:0|0:0,0:0:0:0:
370,289,297817,5,10,3:0:0:0:
391,270,297892,1,0,0:0:0:0:
406,243,297967,1,0,3:0:0:0:
410,214,298042,1,0,0:0:0:0:
405,185,298117,2,0,L|443:217,3,50,10|0|0|0,3:0|0:0|3:0|0:0,0:0:0:0:
411,42,298417,38,0,L|402:91,1,50,10|0,3:0|0:0,0:0:0:0:
324,139,298567,2,0,L|333:188,1,50,0|0,3:0|0:0,0:0:0:0:
221,24,298717,6,0,L|171:15,1,50,14|0,3:0|0:0,0:0:0:0:
81,110,298867,2,0,L|130:101,1,50,0|0,3:0|3:0,3:0:0:0:
224,229,299017,37,10,3:0:0:0:
190,223,299092,1,0,0:0:0:0:
155,217,299167,1,0,3:0:0:0:
121,211,299242,1,0,0:0:0:0:
86,204,299317,2,0,L|103:250,3,50,10|0|0|0,3:0|3:0|3:0|0:0,3:0:0:0:
183,345,299617,5,10,3:0:0:0:
205,318,299692,1,0,0:0:0:0:
227,291,299767,1,0,3:0:0:0:
250,264,299842,1,0,3:0:0:0:
273,237,299917,2,0,L|223:228,3,50,10|0|0|0,3:0|0:0|3:0|0:0,0:0:0:0:
104,252,300217,37,10,3:0:0:0:
116,285,300292,1,0,3:0:0:0:
128,317,300367,1,0,3:0:0:0:
140,351,300442,1,0,0:0:0:0:
152,384,300517,2,0,L|184:345,3,50,10|0|0|0,3:0|0:0|3:0|0:0,0:0:0:0:
273,237,300817,6,0,L|281:286,1,50,10|0,3:0|0:0,0:0:0:0:
181,171,300967,2,0,L|172:220,1,50,0|0,3:0|0:0,0:0:0:0:
286,95,301117,37,0,3:0:0:0:
301,93,301192,1,0,3:0:0:0:
316,90,301267,2,0,L|365:81,1,50,8|0,2:0|3:0,0:0:0:0:
218,0,301417,5,0,3:0:0:0:
215,14,301492,1,0,3:0:0:0:
212,29,301567,1,0,3:0:0:0:
209,44,301642,1,0,3:0:0:0:
206,58,301717,2,0,L|197:107,1,50,8|0,2:0|3:0,0:0:0:0:
286,95,301867,37,0,3:0:0:0:
289,109,301942,1,0,3:0:0:0:
292,124,302017,1,0,3:0:0:0:
295,139,302092,1,0,3:0:0:0:
298,153,302167,2,0,L|307:202,1,50,8|0,2:0|3:0,0:0:0:0:
177,191,302317,5,0,3:0:0:0:
174,205,302392,1,0,3:0:0:0:
171,220,302467,1,0,3:0:0:0:
168,235,302542,1,0,3:0:0:0:
165,249,302617,2,0,L|156:298,1,50,8|0,2:0|3:0,3:0:0:0:
323,286,302767,37,0,3:0:0:0:
326,301,302842,1,0,3:0:0:0:
329,315,302917,2,0,L|338:364,1,50,8|0,2:0|3:0,3:0:0:0:
456,259,303067,5,0,3:0:0:0:
433,248,303142,1,0,3:0:0:0:
409,243,303217,1,0,3:0:0:0:
384,245,303292,1,0,3:0:0:0:
360,253,303367,1,0,3:0:0:0:
340,267,303442,1,0,3:0:0:0:
323,286,303517,37,6,3:0:0:0:
379,303,303592,1,0,3:0:0:0:
434,284,303667,1,10,3:2:0:0:
467,235,303742,1,0,3:0:0:0:
465,176,303817,1,2,3:2:0:0:
427,130,303892,1,0,3:0:0:0:
370,116,303967,1,10,3:2:0:0:
316,139,304042,1,0,3:0:0:0:
286,189,304117,1,2,0:2:0:0:
261,229,304192,1,0,0:0:0:0:
218,247,304267,1,10,0:2:0:0:
172,236,304342,1,0,0:0:0:0:
142,199,304417,1,2,3:2:0:0:
136,164,304492,1,0,3:0:0:0:
147,131,304567,1,10,3:2:0:0:
171,107,304642,1,0,3:0:0:0:
204,95,304717,1,2,3:2:0:0:
231,97,304792,1,0,3:0:0:0:
255,110,304867,1,10,3:2:0:0:
274,130,304942,1,0,3:0:0:0:
284,155,305017,1,2,3:2:0:0:
285,182,305092,1,0,3:0:0:0:
276,208,305167,2,0,L|220:217,1,50,10|0,3:2|3:0,0:0:0:0:
323,286,305317,5,2,3:2:0:0:
315,304,305392,1,0,3:0:0:0:
312,324,305467,1,10,3:2:0:0:
315,343,305542,1,0,3:0:0:0:
323,362,305617,37,2,3:2:0:0:
313,359,305692,1,0,3:0:0:0:
303,357,305767,2,0,P|278:358|254:365,1,50,10|0,3:2|3:0,3:0:0:0:
155,298,305917,5,2,3:2:0:0:
138,309,305992,1,0,3:0:0:0:
120,317,306067,1,10,3:2:0:0:
100,320,306142,1,0,3:0:0:0:
80,319,306217,1,2,3:2:0:0:
61,314,306292,1,0,3:0:0:0:
43,305,306367,2,0,P|21:287|8:266,1,50,10|0,3:2|3:0,0:0:0:0:
31,176,306517,37,2,3:2:0:0:
63,157,306592,1,0,3:0:0:0:
100,153,306667,1,10,3:2:0:0:
136,164,306742,1,0,3:0:0:0:
164,188,306817,1,2,3:2:0:0:
196,214,306892,1,0,3:0:0:0:
237,223,306967,1,10,3:2:0:0:
278,213,307042,1,0,3:0:0:0:
311,186,307117,6,0,L|319:136,1,50,2|0,3:2|3:0,3:0:0:0:
402,0,307267,2,0,L|410:49,1,50,10|0,3:2|3:0,3:0:0:0:
512,208,307417,1,2,3:2:0:0:
512,208,307492,1,0,3:0:0:0:
512,208,307567,2,0,L|462:199,1,50,10|0,0:2|3:0,0:0:0:0:
294,88,307717,1,2,3:2:0:0:
302,137,307792,1,0,3:0:0:0:
311,186,307867,1,10,0:2:0:0:
320,235,307942,1,0,3:0:0:0:
328,284,308017,2,0,B|334:317|363:342|363:342|304:292|232:319,1,209.999993591309,2|0,3:2|3:0,3:0:0:0:
418,268,308317,37,6,3:0:0:0:
237,223,308467,1,10,0:2:0:0:
377,100,308617,1,2,3:2:0:0:
150,43,308767,5,10,0:2:0:0:
377,100,308917,1,2,3:2:0:0:
109,167,309067,37,10,0:2:0:0:
377,100,309217,1,2,3:2:0:0:
150,43,309367,1,10,0:2:0:0:
232,319,309517,5,2,3:2:0:0:
302,137,309667,1,10,3:2:0:0:
150,43,309817,37,2,3:2:0:0:
237,223,309967,1,10,3:2:0:0:
380,177,310117,5,2,3:2:0:0:
198,107,310267,1,10,3:2:0:0:
74,286,310417,37,2,3:2:0:0:
237,223,310567,1,10,3:2:0:0:
241,10,310717,5,6,3:0:0:0:
176,3,310792,1,0,3:0:0:0:
120,35,310867,1,10,3:2:0:0:
93,94,310942,1,0,3:0:0:0:
106,158,311017,1,2,3:2:0:0:
153,202,311092,1,0,3:0:0:0:
217,210,311167,1,10,3:2:0:0:
274,180,311242,1,0,3:0:0:0:
303,122,311317,1,2,3:2:0:0:
328,68,311392,1,0,3:0:0:0:
379,41,311467,1,10,3:2:0:0:
437,49,311542,1,0,3:0:0:0:
479,88,311617,1,2,3:2:0:0:
491,146,311692,1,0,3:0:0:0:
466,199,311767,1,10,3:2:0:0:
416,228,311842,1,0,3:0:0:0:
358,222,311917,1,2,3:2:0:0:
305,216,311992,1,0,0:0:0:0:
260,242,312067,1,10,3:2:0:0:
238,290,312142,1,0,0:0:0:0:
249,342,312217,1,2,3:2:0:0:
286,377,312292,1,0,0:0:0:0:
339,384,312367,1,10,3:2:0:0:
385,360,312442,1,0,0:0:0:0:
407,312,312517,38,0,L|352:321,3,44.999998626709,2|0|10|0,3:2|0:0|3:2|0:0,0:0:0:0:
260,242,312817,2,0,L|213:233,3,44.999998626709,2|0|10|0,3:2|0:0|3:2|0:0,0:0:0:0:
98,384,313117,5,6,3:0:0:0:
0,174,313267,2,0,B|46:155|46:155|144:174,1,150,8|0,0:0|3:0,0:0:0:0:
215,234,313567,1,10,3:2:0:0:
120,35,313717,37,2,3:2:0:0:
55,248,313867,1,10,3:2:0:0:
232,130,314017,5,2,3:2:0:0:
297,343,314167,1,10,3:2:0:0:
437,49,314317,37,6,3:0:0:0:
512,245,314467,2,0,L|385:222,1,100,8|2,0:0|3:2,0:0:0:0:
232,131,314767,5,10,3:2:0:0:
297,343,314917,1,2,3:2:0:0:
437,49,315067,37,10,3:2:0:0:
309,322,315217,1,2,3:2:0:0:
151,0,315367,1,10,3:2:0:0:
232,131,315517,5,6,3:0:0:0:
227,155,315592,1,0,3:0:0:0:
223,180,315667,1,10,3:2:0:0:
218,204,315742,1,0,3:0:0:0:
214,229,315817,1,2,3:2:0:0:
210,254,315892,1,0,3:0:0:0:
205,278,315967,2,0,L|193:341,1,50,10|0,3:2|3:0,0:0:0:0:
55,248,316117,37,2,3:2:0:0:
55,248,316192,1,0,3:0:0:0:
55,248,316267,2,0,L|110:238,1,50,10|0,3:2|3:0,0:0:0:0:
223,180,316417,2,0,L|272:188,1,50,2|0,3:2|3:0,0:0:0:0:
407,312,316567,1,10,3:2:0:0:
407,312,316642,1,0,3:0:0:0:
407,312,316717,6,0,L|343:323,1,50,6|0,3:0|3:0,3:0:0:0:
246,369,316867,2,0,L|309:380,1,50,10|0,3:2|3:0,3:0:0:0:
393,221,317017,2,0,L|329:232,1,50,2|0,3:2|3:0,3:0:0:0:
232,278,317167,2,0,L|295:289,1,50,10|0,3:2|3:0,3:0:0:0:
385,128,317317,38,0,L|321:139,3,50,2|0|8|0,3:2|0:0|0:0|0:0,3:0:0:0:
224,185,317617,2,0,L|287:196,3,50,2|0|10|0,0:0|0:0|3:2|0:0,0:0:0:0:
142,0,317917,5,6,3:0:0:0:
150,28,317992,1,0,3:0:0:0:
152,58,318067,1,10,3:2:0:0:
146,87,318142,1,0,3:0:0:0:
132,114,318217,1,2,3:2:0:0:
112,136,318292,1,0,3:0:0:0:
87,153,318367,2,0,L|31:162,1,50,10|0,3:2|3:0,0:0:0:0:
150,230,318517,37,2,3:2:0:0:
141,263,318592,1,0,3:0:0:0:
142,298,318667,1,10,3:2:0:0:
153,331,318742,1,0,3:0:0:0:
174,359,318817,5,2,3:2:0:0:
220,322,318892,1,0,3:0:0:0:
279,314,318967,1,10,3:2:0:0:
334,336,319042,1,0,3:0:0:0:
372,382,319117,37,2,3:2:0:0:
304,352,319192,1,0,3:0:0:0:
270,287,319267,1,10,3:2:0:0:
282,215,319342,1,0,3:0:0:0:
337,165,319417,1,2,3:2:0:0:
411,161,319492,1,0,3:0:0:0:
471,202,319567,6,0,L|459:265,1,50,10|0,3:2|3:0,0:0:0:0:
372,382,319717,1,2,3:2:0:0:
284,85,319867,1,10,3:2:0:0:
92,289,320017,38,0,L|162:301,1,50,2|0,3:2|3:0,3:0:0:0:
282,215,320167,2,0,L|211:227,1,50,10|0,3:2|3:0,3:0:0:0:
39,40,320317,5,8,2:0:0:0:
99,84,320392,1,8,2:0:0:0:
132,150,320467,1,0,3:0:0:0:
129,224,320542,1,0,3:0:0:0:
92,289,320617,37,8,2:0:0:0:
37,242,320692,1,0,3:0:0:0:
23,173,320767,1,0,3:0:0:0:
55,109,320842,1,0,3:0:0:0:
120,79,320917,1,0,3:0:0:0:
189,95,320992,1,0,3:0:0:0:
233,150,321067,1,8,2:0:0:0:
285,203,321142,1,8,2:0:0:0:
358,207,321217,1,0,3:0:0:0:
416,162,321292,1,0,3:0:0:0:
428,90,321367,1,8,2:0:0:0:
391,26,321442,1,0,3:0:0:0:
321,3,321517,6,0,P|304:73|349:136,1,150.000005722046,0|8,0:0|2:0,0:0:0:0:
471,177,321742,2,0,P|418:127|346:134,1,150.000005722046
211,189,321967,2,0,L|284:202,1,75.0000028610231
438,277,322117,37,8,2:0:0:0:
407,262,322192,1,0,3:0:0:0:
372,258,322267,1,0,3:0:0:0:
338,266,322342,1,0,3:0:0:0:
309,285,322417,1,0,3:0:0:0:
280,303,322492,1,0,3:0:0:0:
246,311,322567,1,0,3:0:0:0:
211,308,322642,1,0,3:0:0:0:
180,293,322717,22,0,B|143:262|143:262|125:213,1,89.9999972534181,14|0,3:0|3:0,3:0:0:0:
49,227,322867,2,0,B|57:179|57:179|90:139,1,89.9999972534181,10|0,3:2|3:0,3:0:0:0:
41,81,323017,2,0,B|86:64|86:64|137:73,1,89.9999972534181,10|0,3:2|3:0,3:0:0:0:
161,0,323167,2,0,B|197:30|197:30|215:79,1,89.9999972534181,10|0,3:2|3:0,3:0:0:0:
425,131,323317,6,0,B|416:178|416:178|383:218,1,89.9999972534181,10|0,3:2|3:0,3:0:0:0:
433,277,323467,2,0,B|387:293|387:293|336:284,1,89.9999972534181,10|0,3:2|3:0,3:0:0:0:
310,357,323617,2,0,B|273:326|273:326|255:277,1,89.9999972534181,10|0,3:2|3:0,3:0:0:0:
180,293,323767,2,0,B|188:245|188:245|221:205,1,89.9999972534181,10|0,3:2|3:0,3:0:0:0:
428,44,323917,38,0,B|437:91|437:91|421:141,1,89.9999972534181,10|0,3:2|3:0,3:0:0:0:
394,296,324067,2,0,B|380:261|380:261|389:210,1,89.9999972534181,10|0,3:2|3:0,3:0:0:0:
344,42,324217,6,0,B|353:88|353:88|336:138,1,89.9999972534181,10|0,3:2|3:0,3:0:0:0:
307,299,324367,2,0,B|293:264|293:264|302:213,1,89.9999972534181,10|0,3:2|3:0,3:0:0:0:
260,40,324517,38,0,B|269:86|269:86|252:136,1,89.9999972534181,10|0,3:2|3:0,3:0:0:0:
219,299,324667,2,0,B|205:264|205:264|214:213,1,89.9999972534181,10|0,3:2|3:0,3:0:0:0:
175,37,324817,6,0,B|184:83|184:83|170:123|170:123|156:163|156:163|165:210,1,179.999994506836,10|0,3:2|0:0,3:0:0:0:
50,317,325117,37,14,3:0:0:0:
7,256,325192,1,0,3:0:0:0:
5,182,325267,1,10,3:2:0:0:
46,120,325342,1,0,3:0:0:0:
114,92,325417,1,10,3:2:0:0:
186,107,325492,1,0,3:0:0:0:
238,160,325567,1,10,3:2:0:0:
251,233,325642,1,0,3:0:0:0:
219,299,325717,5,10,3:2:0:0:
243,281,325792,1,0,3:0:0:0:
271,270,325867,1,10,3:2:0:0:
301,266,325942,1,0,3:0:0:0:
330,269,326017,1,10,3:2:0:0:
358,279,326092,1,0,3:0:0:0:
383,297,326167,1,10,3:2:0:0:
402,320,326242,1,0,3:0:0:0:
415,345,326317,38,0,P|424:259|367:203,1,150.000005722046,0|8,3:0|2:0,3:0:0:0:
366,204,326542,2,0,P|330:193|300:170,1,75.0000028610231,8|8,2:0|3:0,3:0:0:0:
288,151,326692,2,0,P|232:103|159:107,1,150.000005722046,8|0,3:0|3:0,0:0:0:0:
149,126,326917,5,8,3:0:0:0:
138,141,326992,1,8,3:0:0:0:
125,155,327067,1,8,3:0:0:0:
110,166,327142,1,8,3:0:0:0:
93,173,327217,1,0,3:0:0:0:
75,178,327292,1,0,3:0:0:0:
56,178,327367,1,0,3:0:0:0:
38,176,327442,1,0,3:0:0:0:
20,170,327517,38,0,B|9:211|9:211|22:256,1,89.9999972534181,14|0,3:2|3:0,0:0:0:0:
205,335,327667,2,0,B|215:293|215:293|202:248,1,89.9999972534181,10|0,3:2|3:0,0:0:0:0:
110,166,327817,6,0,B|99:207|99:207|112:252,1,89.9999972534181,10|0,3:2|3:0,3:0:0:0:
295,331,327967,2,0,B|305:289|305:289|292:244,1,89.9999972534181,10|0,3:2|3:0,3:0:0:0:
200,162,328117,38,0,B|189:203|189:203|202:248,1,89.9999972534181,10|0,3:2|3:0,3:0:0:0:
383,325,328267,2,0,B|393:283|393:283|380:238,1,89.9999972534181,10|0,3:2|3:0,3:0:0:0:
290,158,328417,6,0,B|279:199|279:199|292:244,1,89.9999972534181,10|0,3:2|0:0,3:0:0:0:
475,323,328567,2,0,B|485:281|485:281|472:236,1,89.9999972534181,10|0,3:2|0:0,0:0:0:0:
466,62,328717,38,0,B|478:107|478:107|467:149,1,89.9999972534181,14|0,3:2|3:0,3:0:0:0:
381,239,328867,2,0,B|368:194|368:194|379:153,1,89.9999972534181,10|0,3:2|3:0,0:0:0:0:
378,65,329017,6,0,B|390:110|390:110|379:152,1,89.9999972534181,10|0,3:2|3:2,0:0:0:0:
292,244,329167,2,0,B|279:199|279:199|290:158,1,89.9999972534181,10|0,3:2|3:0,0:0:0:0:
289,70,329317,38,0,B|301:115|301:115|290:157,1,89.9999972534181,10|0,3:2|3:0,3:0:0:0:
202,248,329467,2,0,B|189:203|189:203|200:162,1,89.9999972534181,10|0,3:2|3:0,3:0:0:0:
199,74,329617,6,0,B|211:119|211:119|200:161,1,89.9999972534181,10|0,3:2|0:0,3:0:0:0:
112,252,329767,2,0,B|99:207|99:207|110:166,1,89.9999972534181,10|0,3:2|0:0,0:0:0:0:
9,26,329917,37,14,2:0:0:0:
53,90,329992,1,0,3:0:0:0:
129,110,330067,1,10,3:2:0:0:
199,73,330142,1,0,3:0:0:0:
267,36,330217,1,10,3:2:0:0:
341,60,330292,1,0,3:0:0:0:
374,131,330367,1,10,3:2:0:0:
345,203,330442,1,0,3:0:0:0:
272,231,330517,1,10,3:2:0:0:
201,197,330592,1,0,3:0:0:0:
136,156,330667,1,10,3:2:0:0:
59,170,330742,1,0,3:0:0:0:
13,234,330817,1,10,3:2:0:0:
23,311,330892,1,0,3:0:0:0:
84,361,330967,1,10,3:2:0:0:
162,355,331042,1,0,3:0:0:0:
215,298,331117,5,14,3:0:0:0:
227,313,331192,1,0,3:0:0:0:
242,326,331267,1,0,3:0:0:0:
260,335,331342,1,0,3:0:0:0:
279,341,331417,1,10,3:0:0:0:
299,342,331492,1,0,3:0:0:0:
319,340,331567,1,0,3:0:0:0:
337,333,331642,1,0,3:0:0:0:
355,323,331717,38,0,L|414:333,3,59.9999981689454,10|0|0|0,3:0|3:0|3:0|3:0,0:0:0:0:
488,237,332017,2,0,L|428:247,3,59.9999981689454,10|0|0|0,3:0|3:0|3:0|3:0,0:0:0:0:
329,228,332317,5,6,3:0:0:0:
483,152,332467,2,0,L|384:134,1,100,10|2,2:0|3:2,3:0:0:0:
285,116,332767,1,10,2:0:0:0:
285,116,332917,1,2,3:2:0:0:
349,40,333067,1,10,2:0:0:0:
187,99,333217,2,0,L|285:116,1,100,2|10,3:2|2:0,3:0:0:0:
152,268,333517,38,0,L|52:251,1,100,6|0,3:0|0:0,3:0:0:0:
149,353,333817,1,2,3:2:0:0:
149,353,333892,1,0,3:0:0:0:
149,353,333967,5,10,2:0:0:0:
197,339,334042,1,0,0:0:0:0:
228,301,334117,1,2,3:2:0:0:
234,252,334192,1,0,3:0:0:0:
211,208,334267,1,10,2:0:0:0:
167,184,334342,1,0,3:0:0:0:
124,160,334417,1,2,3:2:0:0:
101,116,334492,1,0,3:0:0:0:
107,67,334567,1,10,2:0:0:0:
138,29,334642,1,0,3:0:0:0:
186,16,334717,37,2,3:2:0:0:
285,116,334867,2,0,L|187:99,1,100,10|2,2:0|3:2,3:0:0:0:
383,133,335167,1,10,2:0:0:0:
383,133,335317,1,2,3:2:0:0:
349,39,335467,1,10,2:0:0:0:
319,206,335617,2,0,L|301:303,1,100,2|10,3:2|2:0,3:0:0:0:
460,198,335917,6,0,L|477:100,1,100,2|0,3:2|0:0,3:0:0:0:
285,116,336217,1,2,3:2:0:0:
349,39,336367,1,10,2:0:0:0:
319,206,336517,1,2,3:2:0:0:
251,26,336667,1,10,2:0:0:0:
383,133,336817,1,2,3:2:0:0:
255,279,336967,1,10,2:0:0:0:
87,146,337117,37,6,3:0:0:0:
111,142,337192,1,0,3:0:0:0:
136,138,337267,1,10,2:0:0:0:
161,134,337342,1,0,3:0:0:0:
185,130,337417,1,2,3:2:0:0:
210,126,337492,1,0,3:0:0:0:
235,122,337567,1,10,2:0:0:0:
259,118,337642,1,0,3:0:0:0:
284,115,337717,5,2,3:2:0:0:
271,150,337792,1,0,3:0:0:0:
258,185,337867,1,10,2:0:0:0:
245,220,337942,1,0,3:0:0:0:
232,255,338017,1,2,3:2:0:0:
207,226,338092,1,0,3:0:0:0:
183,197,338167,1,10,2:0:0:0:
159,168,338242,1,0,3:0:0:0:
135,139,338317,37,2,3:2:0:0:
115,178,338392,1,0,3:0:0:0:
110,221,338467,1,10,2:0:0:0:
121,263,338542,1,0,3:0:0:0:
146,299,338617,1,2,3:2:0:0:
183,322,338692,1,0,3:0:0:0:
225,331,338767,1,10,2:0:0:0:
268,324,338842,1,0,3:0:0:0:
306,303,338917,5,2,3:2:0:0:
286,264,338992,1,0,3:0:0:0:
281,221,339067,1,10,2:0:0:0:
292,179,339142,1,0,3:0:0:0:
317,143,339217,1,2,3:2:0:0:
354,120,339292,1,0,3:0:0:0:
396,111,339367,1,10,2:0:0:0:
439,118,339442,1,0,3:0:0:0:
477,138,339517,37,6,3:0:0:0:
450,180,339592,1,0,3:0:0:0:
409,208,339667,1,10,2:2:0:0:
361,218,339742,1,0,3:0:0:0:
312,207,339817,1,2,3:2:0:0:
272,178,339892,1,0,3:0:0:0:
245,135,339967,1,10,2:0:0:0:
214,87,340042,1,0,3:0:0:0:
164,58,340117,1,2,3:2:0:0:
106,56,340192,1,0,3:0:0:0:
54,81,340267,1,10,2:0:0:0:
19,127,340342,1,0,3:0:0:0:
11,184,340417,1,2,3:2:0:0:
68,186,340492,1,0,3:0:0:0:
120,161,340567,1,10,2:0:0:0:
155,115,340642,1,0,3:0:0:0:
165,58,340717,6,0,L|191:205,1,150,2|0,3:2|3:0,0:0:0:0:
305,109,341017,2,0,L|258:92,1,50,2|0,3:2|3:0,3:0:0:0:
284,240,341167,2,0,L|322:207,1,50,10|0,2:0|3:0,3:0:0:0:
438,110,341317,38,0,B|398:142|398:142|297:106,1,150,2|0,3:2|0:0,3:0:0:0:
322,207,341617,2,0,B|370:224|370:224|389:331,1,150,2|0,3:2|0:0,3:0:0:0:
456,209,341917,5,6,3:0:0:0:
260,287,342067,2,0,L|166:322,1,100,10|2,2:2|3:2,3:0:0:0:
180,155,342367,1,10,2:0:0:0:
322,207,342517,1,2,3:2:0:0:
310,18,342667,1,10,2:2:0:0:
86,120,342817,2,0,L|180:155,1,100,2|10,3:2|2:0,3:0:0:0:
165,296,343117,37,6,0:0:0:0:
102,218,343267,1,10,2:0:0:0:
243,233,343417,1,2,3:2:0:0:
179,154,343567,1,10,2:0:0:0:
78,301,343717,5,2,3:2:0:0:
266,149,343867,1,10,2:0:0:0:
96,131,344017,1,2,0:2:0:0:
248,319,344167,1,10,2:0:0:0:
361,132,344317,37,6,3:0:0:0:
347,97,344392,1,0,3:0:0:0:
321,70,344467,1,10,2:0:0:0:
287,55,344542,1,0,3:0:0:0:
250,53,344617,2,0,P|226:58|203:72,3,50,2|0|10|0,3:2|3:0|2:0|3:0,0:0:0:0:
328,222,344917,5,2,3:2:0:0:
365,228,344992,1,0,3:0:0:0:
401,219,345067,1,10,2:0:0:0:
431,197,345142,1,0,3:0:0:0:
451,166,345217,2,0,P|458:142|458:115,3,50,2|0|10|0,3:2|3:0|2:0|3:0,0:0:0:0:
266,149,345517,37,6,3:0:0:0:
404,305,345667,1,10,2:0:0:0:
195,304,345817,1,2,3:2:0:0:
421,218,345967,5,10,2:0:0:0:
210,218,346117,1,2,3:2:0:0:
352,374,346267,1,10,2:0:0:0:
350,163,346417,37,2,0:2:0:0:
264,358,346567,1,10,2:0:0:0:
210,218,346717,5,6,3:0:0:0:
185,189,346792,1,0,3:0:0:0:
152,172,346867,1,10,2:0:0:0:
115,168,346942,1,0,3:0:0:0:
79,179,347017,1,2,3:2:0:0:
99,148,347092,1,0,3:0:0:0:
107,111,347167,1,10,2:0:0:0:
101,74,347242,1,0,3:0:0:0:
82,42,347317,1,2,3:2:0:0:
112,21,347392,1,0,3:0:0:0:
149,13,347467,1,10,2:0:0:0:
186,19,347542,1,0,3:0:0:0:
218,38,347617,1,2,3:2:0:0:
249,56,347692,1,0,3:0:0:0:
286,62,347767,1,10,2:0:0:0:
323,54,347842,1,0,3:0:0:0:
353,34,347917,37,2,3:2:0:0:
318,69,347992,1,0,3:0:0:0:
297,113,348067,1,10,2:0:0:0:
292,163,348142,1,0,3:0:0:0:
305,211,348217,1,2,3:2:0:0:
333,252,348292,1,0,3:0:0:0:
374,281,348367,1,10,2:0:0:0:
422,294,348442,1,0,3:0:0:0:
472,290,348517,5,2,3:2:0:0:
443,249,348592,1,0,3:0:0:0:
402,220,348667,1,10,2:0:0:0:
355,207,348742,1,0,3:0:0:0:
305,211,348817,1,2,3:2:0:0:
272,248,348892,1,0,3:0:0:0:
226,265,348967,1,10,2:0:0:0:
177,259,349042,1,0,3:0:0:0:
136,230,349117,37,8,2:0:0:0:
193,207,349192,1,0,3:0:0:0:
227,155,349267,1,0,3:0:0:0:
226,94,349342,1,0,3:0:0:0:
191,43,349417,1,8,2:0:0:0:
133,22,349492,1,0,3:0:0:0:
73,37,349567,1,0,3:0:0:0:
32,83,349642,1,0,3:0:0:0:
25,144,349717,6,0,L|74:135,1,50,0|0,3:0|3:0,0:0:0:0:
144,198,349867,2,0,L|193:206,1,50,8|0,2:0|3:0,0:0:0:0:
263,144,350017,2,0,L|312:135,1,50,0|0,3:0|3:0,3:0:0:0:
382,198,350167,2,0,L|431:206,1,50,8|0,2:0|3:0,3:0:0:0:
297,305,350317,37,0,3:0:0:0:
256,314,350392,1,0,3:0:0:0:
215,305,350467,1,8,2:0:0:0:
382,102,350617,6,0,L|332:110,1,50,8|0,2:0|3:0,3:0:0:0:
130,102,350767,2,0,L|179:110,1,50,0|0,3:0|3:0,3:0:0:0:
345,297,350917,37,8,2:0:0:0:
304,326,350992,1,0,3:0:0:0:
256,336,351067,1,0,3:0:0:0:
207,326,351142,1,0,3:0:0:0:
167,296,351217,1,0,3:0:0:0:
256,115,351367,5,0,3:0:0:0:
256,174,351442,1,0,3:0:0:0:
256,232,351517,1,14,2:3:0:0:
256,192,351592,12,0,353917,0:0:0:0:
140,9,361117,37,2,3:1:0:0:
388,57,361267,1,0,3:1:0:0:
388,57,361417,1,0,0:0:0:0:
374,60,362317,5,2,3:1:0:0:
126,108,362467,1,0,3:0:0:0:
126,108,362617,37,0,3:0:0:0:
112,111,362917,1,0,3:0:0:0:
98,114,363217,1,0,3:0:0:0:
112,117,363517,5,2,3:1:0:0:
357,180,363667,1,0,3:0:0:0:
357,180,363817,1,0,3:0:0:0:
371,183,364117,1,0,3:0:0:0:
385,186,364417,1,0,3:0:0:0:
402,189,364717,38,0,P|454:147|349:181,1,412.500012588501,6|0,3:0|0:0,3:0:0:0:
291,253,365917,6,0,P|189:120|346:179,1,449.99998626709,6|0,3:0|0:0,3:0:0:0:
259,172,367117,37,0,3:0:0:0:
362,281,367267,1,8,2:0:0:0:
380,284,367342,1,8,2:0:0:0:
398,287,367417,1,0,3:0:0:0:
416,290,367492,1,0,3:0:0:0:
434,293,367567,1,0,3:0:0:0:
452,296,367642,1,0,3:0:0:0:
470,300,367717,2,0,L|525:309,3,55.0000016784668,8|8|0|0,2:0|2:0|3:0|3:0,0:0:0:0:
464,131,368017,5,8,2:0:0:0:
454,106,368092,1,8,2:0:0:0:
437,84,368167,1,0,3:0:0:0:
414,69,368242,1,0,3:0:0:0:
388,63,368317,38,0,L|397:117,1,55.0000016784668,0|0,3:0|3:0,0:0:0:0:
362,281,368467,2,0,L|352:226,3,55.0000016784668,8|8|0|0,2:0|2:0|3:0|3:0,0:0:0:0:
301,43,368767,2,0,L|310:97,1,55.0000016784668,0|0,3:0|3:0,0:0:0:0:
279,303,368917,2,0,L|269:248,3,55.0000016784668,8|8|0|0,2:0|2:0|3:0|3:0,0:0:0:0:
214,23,369217,2,0,L|223:77,1,55.0000016784668,0|0,3:0|3:0,0:0:0:0:
195,324,369367,2,0,L|185:269,1,55.0000016784668,0|0,3:0|3:0,0:0:0:0:
136,57,369517,5,8,0:0:0:0:
223,77,369817,1,0,0:0:0:0:
310,97,370117,1,0,0:0:0:0:
49,37,370417,1,0,0:0:0:0:
397,117,370717,6,0,B|336:167|336:167|367:337,1,220.000006713867,14|10,3:0|3:0,0:0:0:0:
512,189,371167,2,0,L|457:199,1,55.0000016784668,0|0,3:0|3:0,0:0:0:0:
397,117,371317,1,10,3:0:0:0:
375,114,371392,1,0,3:0:0:0:
353,110,371467,1,0,3:0:0:0:
332,106,371542,1,0,3:0:0:0:
310,102,371617,5,10,3:0:0:0:
347,96,371692,1,0,3:0:0:0:
385,89,371767,1,0,3:0:0:0:
423,82,371842,1,0,3:0:0:0:
461,76,371917,37,10,3:0:0:0:
423,38,371992,1,0,3:0:0:0:
372,18,372067,1,0,3:0:0:0:
318,19,372142,1,0,3:0:0:0:
268,41,372217,1,10,3:0:0:0:
231,82,372292,1,0,3:0:0:0:
213,133,372367,1,0,3:0:0:0:
216,188,372442,1,0,3:0:0:0:
241,235,372517,2,0,L|360:215,1,110.000003356934,10|0,3:0|3:0,0:0:0:0:
159,22,372817,2,0,L|267:40,1,110.000003356934,10|2,3:0|3:0,3:0:0:0:
87,330,373117,6,4,L|96:384,1,55.0000016784668,14|0,3:0|3:0,0:0:0:0:
26,243,373267,1,0,3:0:0:0:
76,223,373342,1,0,3:0:0:0:
130,232,373417,1,10,3:0:0:0:
171,267,373492,1,0,3:0:0:0:
212,302,373567,1,0,3:0:0:0:
265,311,373642,1,0,3:0:0:0:
316,291,373717,2,0,L|306:345,3,55.0000016784668,10|0|0|0,3:0|3:0|3:0|3:0,0:0:0:0:
457,198,374017,2,0,L|466:252,3,55.0000016784668,10|0|0|0,3:0|3:0|3:0|3:0,0:0:0:0:
388,57,374317,37,14,3:0:0:0:
340,31,374392,1,0,3:0:0:0:
286,28,374467,1,0,3:0:0:0:
236,50,374542,1,0,3:0:0:0:
202,91,374617,1,10,3:0:0:0:
167,132,374692,1,0,3:0:0:0:
117,154,374767,1,0,3:0:0:0:
63,152,374842,1,0,3:0:0:0:
15,126,374917,5,10,3:0:0:0:
96,36,375067,1,2,3:0:0:0:
169,244,375217,2,0,L|149:352,1,110.000003356934,10|0,3:0|3:0,3:0:0:0:
273,152,375517,37,10,3:0:0:0:
309,194,375592,1,0,3:0:0:0:
359,215,375667,1,0,3:0:0:0:
413,213,375742,1,0,3:0:0:0:
461,186,375817,1,10,3:0:0:0:
491,141,375892,1,0,3:0:0:0:
498,87,375967,2,0,L|443:96,1,55.0000016784668,0|0,3:0|3:0,0:0:0:0:
346,0,376117,2,0,L|336:54,3,55.0000016784668,10|0|0|0,3:0|3:0|3:0|3:0,0:0:0:0:
282,206,376417,2,0,L|272:151,3,55.0000016784668,10|0|0|0,3:0|3:0|3:0|3:0,0:0:0:0:
40,54,376717,5,10,3:0:0:0:
40,54,376792,1,0,3:0:0:0:
40,54,376867,2,0,L|30:0,1,55.0000016784668,0|0,3:0|3:0,3:0:0:0:
146,157,377017,1,10,3:0:0:0:
146,157,377092,1,0,3:0:0:0:
146,157,377167,2,0,L|155:102,1,55.0000016784668,0|0,3:0|3:0,3:0:0:0:
40,260,377317,1,10,3:0:0:0:
40,260,377392,1,0,3:0:0:0:
40,260,377467,2,0,L|30:205,1,55.0000016784668,0|0,3:0|3:0,3:0:0:0:
146,363,377617,1,10,3:0:0:0:
146,363,377692,1,0,3:0:0:0:
146,363,377767,2,0,L|155:308,1,55.0000016784668,0|0,3:0|3:0,3:0:0:0:
272,151,377917,37,8,2:0:0:0:
325,140,377992,1,0,0:0:0:0:
374,163,378067,1,0,0:0:0:0:
400,211,378142,1,0,0:0:0:0:
393,264,378217,1,0,0:0:0:0:
354,302,378292,1,0,0:0:0:0:
301,310,378367,2,0,L|313:247,1,55.0000016784668,8|0,2:0|0:0,0:0:0:0:
272,151,378517,5,0,0:0:0:0:
269,129,378592,1,0,0:0:0:0:
265,107,378667,1,0,0:0:0:0:
261,86,378742,1,0,0:0:0:0:
257,64,378817,37,8,2:0:0:0:
251,101,378892,1,0,0:0:0:0:
244,139,378967,1,0,0:0:0:0:
237,177,379042,1,0,0:0:0:0:
231,215,379117,6,0,L|221:270,1,55.0000016784668,8|0,2:0|0:0,0:0:0:0:
146,363,379267,1,8,2:0:0:0:
168,331,379342,1,0,0:0:0:0:
199,308,379417,1,8,2:0:0:0:
235,294,379492,1,0,0:0:0:0:
273,293,379567,1,8,3:0:0:0:
310,302,379642,1,0,0:0:0:0:
342,323,379717,1,8,2:0:0:0:
369,343,379792,1,0,0:0:0:0:
401,349,379867,1,0,0:0:0:0:
433,343,379942,1,0,0:0:0:0:
459,323,380017,37,0,0:0:0:0:
452,331,380092,1,0,0:0:0:0:
446,340,380167,1,0,0:0:0:0:
440,350,380242,1,0,0:0:0:0:
437,360,380317,6,0,L|398:143,1,220.000006713867,6|2,0:0|0:2,0:0:0:0:
374,0,380767,1,10,0:2:0:0:
507,162,380917,2,0,L|398:142,1,110.000003356934,2|10,0:2|0:2,0:0:0:0:
311,255,381217,2,0,L|202:274,1,110.000003356934,2|10,0:2|0:2,0:0:0:0:
91,1,381517,38,0,B|75:87|75:87|46:115|46:115|28:217,1,220.000006713867,2|2,0:0|0:2,0:0:0:0:
81,326,381967,1,10,0:2:0:0:
247,167,382117,2,0,L|138:186,1,110.000003356934,2|10,0:2|0:2,0:0:0:0:
81,326,382417,2,0,L|189:345,1,110.000003356934,2|10,0:2|0:2,0:0:0:0:
507,162,382717,5,6,0:0:0:0:
433,81,382867,2,0,B|407:154|407:154|434:302,1,220.000006713867,10|10,0:2|0:2,0:0:0:0:
189,345,383317,2,0,L|297:364,1,110.000003356934,2|10,0:2|0:2,0:0:0:0:
138,186,383617,2,0,L|29:205,1,110.000003356934,2|10,0:2|0:2,0:0:0:0:
321,3,383917,38,0,P|297:107|356:196,1,220.000006713867,6|2,0:0|0:2,0:0:0:0:
433,81,384367,1,10,0:2:0:0:
191,0,384517,2,0,L|214:133,1,110.000003356934,2|10,0:2|0:2,0:0:0:0:
312,277,384817,5,8,2:0:0:0:
305,321,384892,1,8,2:0:0:0:
297,364,384967,37,0,0:0:0:0:
284,371,385042,1,0,0:0:0:0:
271,378,385117,6,0,L|292:259,1,119.999996337891,14|0,0:2|0:0,0:0:0:0:
220,167,385342,1,0,0:0:0:0:
220,167,385417,2,0,L|209:107,1,59.9999981689454
122,231,385567,37,0,0:0:0:0:
156,265,385642,1,0,0:0:0:0:
200,283,385717,1,0,0:0:0:0:
248,281,385792,1,0,0:0:0:0:
291,260,385867,1,0,0:0:0:0:
322,223,385942,1,0,0:0:0:0:
336,178,386017,5,8,2:0:0:0:
326,254,386092,1,8,2:0:0:0:
358,324,386167,1,8,2:0:0:0:
423,365,386242,1,8,2:0:0:0:
500,365,386317,1,14,0:0:0:0:
57,250,387517,37,6,0:0:0:0:
172,135,387667,2,0,L|153:245,1,100,10|2,0:2|0:2,0:0:0:0:
261,384,387967,5,10,0:2:0:0:
337,217,388117,1,2,0:2:0:0:
250,279,388267,1,10,0:2:0:0:
348,323,388417,1,2,0:2:0:0:
239,173,388567,1,10,0:2:0:0:
165,341,388717,37,2,0:2:0:0:
57,215,388867,2,0,L|155:233,1,100,10|0,0:2|0:0,0:0:0:0:
322,113,389167,5,10,0:2:0:0:
435,261,389317,1,2,0:2:0:0:
239,173,389467,1,10,0:2:0:0:
239,173,389542,1,0,0:0:0:0:
239,173,389617,1,2,0:2:0:0:
403,51,389767,1,10,0:2:0:0:
171,11,389917,38,0,L|153:109,1,100,6|8,0:0|0:0,0:0:0:0:
257,271,390217,2,0,L|239:173,1,100,2|8,0:0|0:0,0:0:0:0:
403,51,390517,5,2,0:2:0:0:
360,210,390667,1,10,0:2:0:0:
326,117,390817,1,2,0:2:0:0:
437,145,390967,1,10,0:2:0:0:
434,306,391117,37,8,2:0:0:0:
390,329,391192,1,8,2:0:0:0:
340,331,391267,1,0,0:0:0:0:
294,313,391342,1,0,0:0:0:0:
259,279,391417,5,0,0:0:0:0:
254,303,391492,1,0,0:0:0:0:
250,328,391567,1,0,0:0:0:0:
245,352,391642,1,0,0:0:0:0:
241,377,391717,37,0,0:0:0:0:
234,338,391792,1,0,0:0:0:0:
227,298,391867,1,0,0:0:0:0:
220,259,391942,1,0,0:0:0:0:
214,220,392017,5,8,2:0:0:0:
164,255,392092,1,8,2:0:0:0:
103,262,392167,1,0,0:0:0:0:
46,237,392242,1,0,0:0:0:0:
9,187,392317,37,6,0:0:0:0:
231,121,392467,2,0,L|211:231,1,100,10|2,0:2|0:2,0:0:0:0:
101,262,392767,5,10,0:2:0:0:
326,175,392917,1,2,0:2:0:0:
137,65,393067,1,10,0:2:0:0:
213,218,393217,1,2,0:2:0:0:
325,66,393367,1,10,0:2:0:0:
8,186,393517,37,2,0:2:0:0:
229,316,393667,2,0,L|210:205,1,100,10|0,0:2|0:0,0:0:0:0:
137,65,393967,5,10,0:2:0:0:
101,262,394117,1,2,0:2:0:0:
231,121,394267,1,10,0:2:0:0:
231,121,394342,1,0,0:0:0:0:
231,121,394417,1,2,0:2:0:0:
8,186,394567,1,10,0:2:0:0:
229,316,394717,1,0,0:0:0:0:
261,278,394792,1,8,2:0:0:0:
306,258,394867,1,8,2:0:0:0:
356,260,394942,1,8,2:0:0:0:
400,283,395017,38,0,L|409:338,3,50,8|0|0|0,2:0|0:0|0:0|0:0,0:0:0:0:
491,193,395317,2,0,L|499:143,3,34.9999989318848,8|0|0|0,2:0|0:0|0:0|0:0,0:0:0:0:
315,11,395617,2,0,L|326:74,1,55.0000016784668,0|8,0:0|2:0,0:0:0:0:
403,183,395767,2,0,L|412:128,1,55.0000016784668,8|8,2:0|2:0,0:0:0:0:
306,258,395917,1,8,0:2:0:0:
274,296,395992,1,0,0:0:0:0:
229,316,396067,1,8,2:0:0:0:
179,314,396142,1,8,2:0:0:0:
135,291,396217,2,0,L|125:235,3,40
110,152,396517,2,0,L|162:171,3,44.999998626709
250,196,396817,2,0,L|207:231,3,50
43,276,397117,6,0,L|27:188,3,59.9999981689454
122,83,397417,2,0,L|108:157,3,69.9999978637696,8|0|0|0,2:0|0:0|0:0|0:0,0:0:0:0:
225,306,397717,2,0,L|210:222,3,80,8|0|0|0,2:0|0:0|0:0|0:0,0:0:0:0:
324,65,398017,2,0,L|307:157,3,89.9999972534181
412,339,398317,1,10,0:0:0:0:
412,339,398917,1,10,2:3:0:0:
32,216,399067,1,10,2:3:0:0:
412,339,399517,37,10,2:3:0:0:
32,216,399667,1,10,2:3:0:0:
468,76,399817,1,10,2:3:0:0:
113,0,400117,6,0,B|120:43|120:43|137:68|137:68|145:116,1,119.999996337891,2|0,2:3|0:0,0:0:0:0:
32,216,400717,2,0,L|49:117,2,93.3333304850261,0|0|0,3:0|3:0|3:0,0:0:0:0:
81,326,401017,1,0,3:0:0:0:
453,1,401317,38,0,L|500:131,1,139.999995727539
287,200,401542,2,0,L|376:92,1,139.999995727539
474,222,401767,2,0,L|404:209,1,69.9999978637696
182,54,401917,5,14,0:0:0:0:
124,383,402067,2,0,B|14:280|14:280|457:358|457:358|272:186,1,832.999983476258,14|0,0:0|0:0,0:0:0:0:
