osu file format v14

[General]
AudioFilename: audio.mp3
AudioLeadIn: 0
PreviewTime: 217042
Countdown: 0
SampleSet: Drum
StackLeniency: 0.4
Mode: 0
LetterboxInBreaks: 0
WidescreenStoryboard: 1

[Editor]
Bookmarks: 2400,15642,25573,37158,50404,62404,74404,88804,103117,122403,132004,141603,151204,160803,168004,180004,189603,199204,208803,218404,228003,235204,244954,255604,265204,279517,294004,303604,313204,322804,327604,332404,342004,346804,351517,370804,387604,403354
DistanceSpacing: 1.8
BeatDivisor: 8
GridSize: 16
TimelineZoom: 5.199997

[Metadata]
Title:Highway to Oblivion
TitleUnicode:Highway to Oblivion
Artist:DragonForce
ArtistUnicode:DragonForce
Creator:SILENCE PLAYER
Version:Gangsta Collab
Source:Audica
Tags:woey itswinter -keitaro ghouru WISPG_G mashasg kappapraise dragon force herman li marc hudson sam totman gee anzalone coen janssen frédéric frederic leclercq extreme power metal speed death stream rsi dragging english rock
BeatmapID:2211017
BeatmapSetID:1056699

[Difficulty]
HPDrainRate:5
CircleSize:4.2
OverallDifficulty:10
ApproachRate:9.8
SliderMultiplier:2
SliderTickRate:1

[Events]
//Background and Video events
0,0,"Df_Hw_2_Obn.png",0,0
//Break Periods
2,103717,111742
2,355317,360638
//Storyboard Layer 0 (Background)
//Storyboard Layer 1 (Fail)
//Storyboard Layer 2 (Pass)
//Storyboard Layer 3 (Foreground)
//Storyboard Layer 4 (Overlay)
//Storyboard Sound Samples

[TimingPoints]
659,413.793103448276,4,2,0,10,1,0
2262,-100,4,2,0,5,0,0
2314,-100,4,2,0,20,0,0
5417,-100,4,2,0,30,0,0
5624,-100,4,2,0,30,0,0
5831,-100,4,2,0,20,0,0
8727,-100,4,2,0,50,0,0
8934,-133.333333333333,4,3,20,35,0,0
9140,-133.333333333333,4,2,0,20,0,0
9348,-200,4,2,0,20,0,0
9762,-133.333333333333,4,2,0,20,0,0
10176,-200,4,2,0,20,0,0
10589,-133.333333333333,4,2,0,20,0,0
11003,-200,4,2,0,20,0,0
11417,-133.333333333333,4,2,0,20,0,0
11831,-200,4,2,0,20,0,0
11934,-200,4,2,0,10,0,0
12038,-200,4,2,20,40,0,0
12245,-66.6666666666667,4,2,20,40,0,0
12451,-66.6666666666667,4,2,0,20,0,0
12658,-133.333333333333,4,2,0,20,0,0
13072,-100,4,2,0,20,0,0
13486,-133.333333333333,4,2,0,20,0,0
13900,-100,4,2,0,20,0,0
14314,-133.333333333333,4,2,0,20,0,0
14934,-133.333333333333,4,2,0,30,0,0
15555,-100,4,2,20,30,0,0
15865,-100,4,2,20,10,0,0
15969,-100,4,2,0,30,0,0
17210,-66.6666666666667,4,2,0,30,0,0
17623,-133.333333333333,4,2,0,30,0,0
17624,-133.333333333333,4,2,0,30,0,0
18037,-100,4,2,0,30,0,0
18038,-100,4,2,0,30,0,0
18451,-133.333333333333,4,2,0,30,0,0
18865,-66.6666666666667,4,2,0,30,0,0
19278,-133.333333333333,4,2,0,30,0,0
19279,-133.333333333333,4,2,0,30,0,0
19692,-100,4,2,0,30,0,0
19693,-100,4,2,0,30,0,0
20106,-133.333333333333,4,2,0,30,0,0
20107,-133.333333333333,4,2,0,30,0,0
20520,-66.6666666666667,4,2,0,30,0,0
20933,-133.333333333333,4,2,0,30,0,0
20934,-133.333333333333,4,2,0,30,0,0
21347,-100,4,2,0,30,0,0
21348,-100,4,2,0,30,0,0
21761,-133.333333333333,4,2,0,30,0,0
21762,-133.333333333333,4,2,0,30,0,0
22176,-100,4,2,0,20,0,0
22589,-100,4,2,0,30,0,0
23831,-66.6666666666667,4,2,0,30,0,0
24244,-133.333333333333,4,2,0,30,0,0
24245,-133.333333333333,4,2,0,30,0,0
24658,-100,4,2,0,30,0,0
25072,-133.333333333333,4,2,0,30,0,0
25486,-133.333333333333,4,3,20,30,0,0
25796,-133.333333333333,4,2,20,10,0,0
25900,-133.333333333333,4,3,20,30,0,0
27037,-133.333333333333,4,2,20,10,0,0
27141,-133.333333333333,4,3,20,30,0,0
30451,-100,4,2,0,30,0,0
30865,-133.333333333333,4,2,0,30,0,0
31279,-100,4,2,0,30,0,0
31693,-133.333333333333,4,2,0,30,0,0
32107,-100,4,2,0,30,0,0
32520,-133.333333333333,4,2,0,30,0,0
32934,-100,4,2,0,30,0,0
33347,-133.333333333333,4,2,0,30,0,0
33762,-100,4,2,0,30,0,0
34175,-133.333333333333,4,2,20,30,0,0
34176,-133.333333333333,4,2,20,30,0,0
35417,-100,4,2,20,30,0,0
36865,-100,4,2,0,30,0,0
37072,-66.6666666666667,4,2,20,30,0,0
37486,-100,4,2,0,30,0,0
38726,-100,4,2,0,10,0,0
38933,-100,4,2,0,30,0,0
39554,-100,4,2,0,10,0,0
39761,-100,4,2,0,30,0,0
42038,-100,4,2,0,20,0,0
42244,-100,4,2,0,30,0,0
42864,-100,4,2,0,10,0,0
43071,-100,4,2,0,30,0,0
43693,-100,4,2,20,30,0,0
49900,-66.6666666666667,4,2,20,30,0,0
50314,375,4,3,1,50,1,0
50314,-133.333333333333,4,3,1,50,0,0
56126,-133.333333333333,4,2,1,30,0,0
56314,-133.333333333333,4,3,1,50,0,0
58939,-133.333333333333,4,2,0,30,0,0
59126,-133.333333333333,4,3,1,50,0,0
62126,-133.333333333333,4,2,1,30,0,0
62314,-100,4,3,1,50,0,0
62595,-100,4,3,1,5,0,0
62689,-100,4,3,1,50,0,0
63251,-100,4,3,7,50,0,0
64376,-100,4,3,8,50,0,0
64751,-100,4,3,9,50,0,0
64939,-100,4,3,1,50,0,0
65126,-100,4,3,10,50,0,0
65314,-100,4,3,1,50,0,0
66251,-100,4,3,8,50,0,0
66814,-100,4,3,1,50,0,0
67376,-100,4,3,7,50,0,0
67564,-100,4,3,1,50,0,0
68314,-66.6666666666667,4,3,1,50,0,0
68595,-66.6666666666667,4,2,1,30,0,0
68689,-100,4,3,1,50,0,0
69251,-100,4,3,9,50,0,0
69814,-100,4,3,1,50,0,0
69907,-100,4,3,7,50,0,0
70001,-100,4,3,1,50,0,0
70189,-100,4,3,8,50,0,0
70282,-100,4,3,9,50,0,0
70375,-100,4,3,1,50,0,0
70469,-100,4,3,7,50,0,0
70563,-100,4,3,1,50,0,0
70751,-100,4,3,8,50,0,0
70845,-100,4,3,9,50,0,0
70939,-100,4,3,1,50,0,0
71032,-100,4,3,7,50,0,0
71126,-100,4,3,10,50,0,0
71314,-66.6666666666667,4,3,1,50,0,0
71407,-66.6666666666667,4,2,1,30,0,0
71501,-66.6666666666667,4,3,1,50,0,0
71563,-66.6666666666667,4,3,7,50,0,0
71626,-66.6666666666667,4,3,8,50,0,0
71688,-66.6666666666667,4,3,1,50,0,0
71969,-66.6666666666667,4,2,1,30,0,0
72063,-66.6666666666667,4,3,1,50,0,0
72125,-66.6666666666667,4,3,8,50,0,0
72188,-66.6666666666667,4,3,9,50,0,0
72250,-66.6666666666667,4,3,1,50,0,0
72814,-66.6666666666667,4,3,7,50,0,0
73064,-66.6666666666667,4,3,1,50,0,0
73188,-66.6666666666667,4,3,8,50,0,0
73377,-66.6666666666667,4,3,10,50,0,0
73439,-66.6666666666667,4,3,9,50,0,0
73564,-66.6666666666667,4,3,8,50,0,0
73813,-66.6666666666667,4,3,10,50,0,0
73938,-66.6666666666667,4,3,1,50,0,0
74317,300,4,2,1,63,1,0
75217,-100,4,2,1,15,0,0
75367,-100,4,2,1,20,0,0
75517,-100,4,2,1,25,0,0
75817,-100,4,2,1,30,0,0
75967,-100,4,2,1,35,0,0
76117,-100,4,2,1,40,0,0
76267,-100,4,2,1,35,0,0
76417,-100,4,2,1,30,0,0
76567,-100,4,2,1,25,0,0
76717,-100,4,3,8,45,0,0
77567,-50,4,3,8,50,0,0
77917,-50,4,3,9,63,0,0
78142,-25,4,2,1,63,0,0
78517,-25,4,2,10,70,0,0
78767,-50,4,2,1,63,0,0
79117,-100,4,2,1,63,0,0
86917,-100,4,3,7,63,0,0
87067,-100,4,3,1,63,0,0
87217,-100,4,3,8,63,0,0
87367,-100,4,2,1,63,0,0
87592,-100,4,3,7,63,0,0
87667,-100,4,3,1,63,0,0
87817,-100,4,3,7,63,0,0
87967,-100,4,3,1,63,0,0
88417,-100,4,3,8,63,0,0
88567,-100,4,3,10,63,0,0
88717,-80,4,3,1,63,0,0
90142,-80,4,2,1,63,0,0
90217,-80,4,3,1,63,0,0
93517,-66.6666666666667,4,3,1,63,0,0
98917,-50,4,3,1,63,0,0
100717,-66.6666666666667,4,3,1,63,0,0
102217,-50,4,3,1,63,0,0
113017,-100,4,3,1,63,0,0
117742,-100,4,3,1,5,0,0
117817,-100,4,3,1,63,0,0
122542,-100,4,3,1,5,0,0
122617,-100,4,3,1,63,0,0
123367,-100,4,2,1,63,0,0
123517,-100,4,3,1,63,0,0
124942,-100,4,3,1,5,0,0
125017,-100,4,3,1,63,0,0
126967,-100,4,2,1,63,0,0
127117,-100,4,3,1,63,0,0
127342,-100,4,2,1,63,0,0
127417,-100,4,3,1,63,0,0
129592,-100,4,3,7,63,0,0
129667,-100,4,3,1,63,0,0
129817,-100,4,3,8,63,0,0
129967,-100,4,3,1,63,0,0
130192,-100,4,3,8,63,0,0
130267,-100,4,3,1,63,0,0
130417,-100,4,3,9,63,0,0
130567,-100,4,3,10,63,0,0
130717,-100,4,3,1,63,0,0
131617,-500,4,3,1,63,0,0
131842,-500,4,3,1,5,0,0
131917,-100,4,3,1,63,0,0
133792,-100,4,2,1,63,0,0
133867,-100,4,3,1,63,0,0
133942,-100,4,2,1,63,0,0
134017,-100,4,3,1,63,0,0
134092,-100,4,2,1,63,0,0
134167,-100,4,3,1,63,0,0
134242,-100,4,2,1,63,0,0
134317,-100,4,3,1,63,0,0
136417,-66.6666666666667,4,3,1,63,0,0
136717,-100,4,3,1,63,0,0
138592,-100,4,2,1,63,0,0
138667,-100,4,3,1,63,0,0
138817,-100,4,2,1,63,0,0
138892,-100,4,3,1,63,0,0
140317,-100,4,3,7,63,0,0
140392,-100,4,3,1,63,0,0
140917,-100,4,3,8,63,0,0
141067,-100,4,3,1,63,0,0
141217,-100,4,3,9,63,0,0
141367,-100,4,3,10,63,0,0
141517,-100,4,3,1,63,0,0
143992,-100,4,2,1,63,0,0
144067,-100,4,3,1,63,0,0
144254,-100,4,2,1,63,0,0
144292,-100,4,3,1,63,0,0
144329,-100,4,2,1,63,0,0
144367,-100,4,3,1,63,0,0
144517,-80,4,3,1,63,0,0
146317,-66.6666666666667,4,3,1,63,0,0
147817,-80,4,3,1,63,0,0
148117,-66.6666666666667,4,3,1,63,0,0
148417,-80,4,3,1,63,0,0
148717,-66.6666666666667,4,3,1,63,0,0
149392,-66.6666666666667,4,3,8,63,0,0
149467,-66.6666666666667,4,3,1,63,0,0
149692,-66.6666666666667,4,3,7,63,0,0
149767,-66.6666666666667,4,3,1,63,0,0
150067,-66.6666666666667,4,3,7,63,0,0
150217,-66.6666666666667,4,3,1,63,0,0
150517,-66.6666666666667,4,3,10,63,0,0
150592,-66.6666666666667,4,3,8,63,0,0
150742,-66.6666666666667,4,3,7,63,0,0
150817,-66.6666666666667,4,3,8,63,0,0
150967,-66.6666666666667,4,3,10,63,0,0
151117,-66.6666666666667,4,3,1,63,0,1
160717,-66.6666666666667,4,3,1,63,0,1
160792,-66.6666666666667,4,2,1,63,0,1
160867,-66.6666666666667,4,3,1,63,0,1
161242,-66.6666666666667,4,2,1,63,0,1
161317,-66.6666666666667,4,3,1,63,0,1
162142,-66.6666666666667,4,2,1,63,0,1
162217,-66.6666666666667,4,3,1,63,0,1
163192,-66.6666666666667,4,2,1,63,0,1
163267,-66.6666666666667,4,3,1,63,0,1
163642,-66.6666666666667,4,2,1,63,0,1
163717,-66.6666666666667,4,3,1,63,0,1
164542,-66.6666666666667,4,2,1,63,0,1
164617,-66.6666666666667,4,3,1,63,0,1
165592,-66.6666666666667,4,2,1,63,0,1
165667,-66.6666666666667,4,3,1,63,0,1
165817,-66.6666666666667,4,3,7,63,0,1
165967,-66.6666666666667,4,3,1,63,0,1
166117,-66.6666666666667,4,3,8,63,0,1
166267,-66.6666666666667,4,3,1,63,0,1
166492,-66.6666666666667,4,3,7,63,0,1
166567,-66.6666666666667,4,3,10,63,0,1
166717,-66.6666666666667,4,3,1,63,0,1
167842,-66.6666666666667,4,3,1,5,0,1
167917,-66.6666666666667,4,3,1,63,0,0
167992,-66.6666666666667,4,2,1,63,0,0
168142,-66.6666666666667,4,3,1,63,0,0
168592,-66.6666666666667,4,2,1,63,0,0
168667,-66.6666666666667,4,3,1,63,0,0
168742,-66.6666666666667,4,2,1,63,0,0
168817,-66.6666666666667,4,3,1,63,0,0
168892,-66.6666666666667,4,2,1,63,0,0
168967,-66.6666666666667,4,3,1,63,0,0
169042,-66.6666666666667,4,2,1,63,0,0
169117,-66.6666666666667,4,3,1,63,0,0
170092,-66.6666666666667,4,2,1,63,0,0
170167,-66.6666666666667,4,3,1,63,0,0
170242,-66.6666666666667,4,2,1,63,0,0
170317,-66.6666666666667,4,3,1,63,0,0
170542,-66.6666666666667,4,3,1,5,0,0
170617,-66.6666666666667,4,3,1,63,0,0
170842,-66.6666666666667,4,3,1,5,0,0
170917,-66.6666666666667,4,3,1,63,0,0
171592,-66.6666666666667,4,3,7,63,0,0
171667,-66.6666666666667,4,3,1,63,0,0
171817,-66.6666666666667,4,3,8,63,0,0
171967,-66.6666666666667,4,3,1,63,0,0
172192,-66.6666666666667,4,3,7,63,0,0
172267,-66.6666666666667,4,3,1,63,0,0
172417,-66.6666666666667,4,3,9,63,0,0
172567,-66.6666666666667,4,3,10,63,0,0
172717,-66.6666666666667,4,3,1,63,0,0
172867,-66.6666666666667,4,2,1,63,0,0
172942,-66.6666666666667,4,3,1,63,0,0
173392,-66.6666666666667,4,2,1,63,0,0
173467,-66.6666666666667,4,3,1,63,0,0
173542,-66.6666666666667,4,2,1,63,0,0
173617,-66.6666666666667,4,3,1,63,0,0
173692,-66.6666666666667,4,2,1,63,0,0
173767,-66.6666666666667,4,3,1,63,0,0
173842,-66.6666666666667,4,2,1,63,0,0
173917,-66.6666666666667,4,3,1,63,0,0
174892,-66.6666666666667,4,2,1,63,0,0
174967,-66.6666666666667,4,3,1,63,0,0
175042,-66.6666666666667,4,2,1,63,0,0
175117,-66.6666666666667,4,3,1,63,0,0
176392,-66.6666666666667,4,2,1,63,0,0
176467,-66.6666666666667,4,3,1,63,0,0
176692,-66.6666666666667,4,3,7,63,0,0
176767,-66.6666666666667,4,3,1,63,0,0
176917,-66.6666666666667,4,3,8,63,0,0
177067,-66.6666666666667,4,3,1,63,0,0
177292,-66.6666666666667,4,3,7,63,0,0
177367,-66.6666666666667,4,3,10,63,0,0
177517,-66.6666666666667,4,3,1,63,0,0
177817,-66.6666666666667,4,3,7,63,0,0
177967,-66.6666666666667,4,3,1,63,0,0
178117,-66.6666666666667,4,3,8,63,0,0
178267,-66.6666666666667,4,3,1,63,0,0
178492,-66.6666666666667,4,3,7,63,0,0
178567,-66.6666666666667,4,3,10,63,0,0
178717,-66.6666666666667,4,3,1,63,0,0
179842,-66.6666666666667,4,3,1,5,0,0
179917,-80,4,3,1,63,0,0
180142,-80,4,3,1,5,0,0
180217,-80,4,3,1,63,0,0
180442,-80,4,2,1,63,0,0
180517,-80,4,3,1,63,0,0
180592,-80,4,2,1,63,0,0
180667,-80,4,3,1,63,0,0
180742,-80,4,2,1,63,0,0
180817,-80,4,3,1,63,0,0
180892,-80,4,2,1,63,0,0
180967,-80,4,3,1,63,0,0
181042,-80,4,2,1,63,0,0
181117,-80,4,3,1,63,0,0
181717,-80,4,2,1,63,0,0
181867,-80,4,3,1,63,0,0
182242,-80,4,2,1,63,0,0
182317,-80,4,3,1,63,0,0
182467,-80,4,2,1,63,0,0
182617,-80,4,3,1,63,0,0
184117,-80,4,2,1,63,0,0
184267,-80,4,3,1,63,0,0
184942,-80,4,3,1,5,0,0
185017,-80,4,3,1,63,0,0
187267,-80,4,2,1,63,0,0
187417,-80,4,3,1,63,0,0
188917,-80,4,2,1,63,0,0
189067,-80,4,3,1,63,0,0
189742,-80,4,3,1,5,0,0
189817,-80,4,3,1,63,0,0
192142,-80,4,3,1,5,0,0
192217,-80,4,3,1,63,0,0
196792,-80,4,2,1,63,0,0
196867,-80,4,3,7,63,0,0
196942,-80,4,3,1,63,0,0
197767,-80,4,3,10,63,0,0
197917,-80,4,3,1,63,0,0
198817,-500,4,3,1,63,0,0
199042,-500,4,3,1,5,0,0
199117,-100,4,3,1,63,0,0
203617,-66.6666666666667,4,3,1,63,0,0
203917,-100,4,3,1,63,0,0
213517,-66.6666666666667,4,3,1,63,0,0
217117,-400,4,3,1,20,0,0
217154,-400,4,3,1,5,0,0
217192,-333.333333333333,4,3,1,20,0,0
217229,-333.333333333333,4,3,1,5,0,0
217267,-250,4,3,1,20,0,0
217304,-250,4,3,1,5,0,0
217342,-166.666666666667,4,3,1,25,0,0
217379,-166.666666666667,4,3,1,5,0,0
217417,-111.111111111111,4,3,1,30,0,0
217454,-111.111111111111,4,3,1,5,0,0
217492,-83.3333333333333,4,3,1,35,0,0
217529,-76.9230769230769,4,3,1,5,0,0
217567,-71.4285714285714,4,3,1,40,0,0
217604,-58.8235294117647,4,3,1,5,0,0
217642,-62.5,4,3,1,45,0,0
217679,-45.4545454545455,4,3,1,5,0,0
217717,-55.5555555555556,4,3,8,50,0,0
217754,-40,4,3,1,5,0,0
217792,-50,4,3,8,55,0,0
217829,-35.7142857142857,4,3,1,5,0,0
217867,-45.4545454545455,4,3,1,60,0,0
217904,-30.3030303030303,4,3,1,5,0,0
217942,-38.4615384615385,4,3,1,65,0,0
217979,-27.027027027027,4,3,1,5,0,0
218017,-34.4827586206897,4,3,9,70,0,0
218054,-25,4,3,1,5,0,0
218092,-30.3030303030303,4,3,9,75,0,0
218129,-25,4,3,1,5,0,0
218167,-27.7777777777778,4,3,10,80,0,0
218204,-25,4,3,1,5,0,0
218242,-25,4,3,10,85,0,0
218279,-25,4,3,1,5,0,0
218317,-66.6666666666667,4,3,1,70,0,1
227317,-66.6666666666667,4,3,7,63,0,1
227467,-66.6666666666667,4,3,1,63,0,1
227617,-66.6666666666667,4,3,8,63,0,1
227767,-66.6666666666667,4,3,10,63,0,1
227917,-66.6666666666667,4,3,1,63,0,1
227992,-66.6666666666667,4,3,1,70,0,1
228067,-66.6666666666667,4,3,1,63,0,1
228442,-66.6666666666667,4,3,1,70,0,1
228517,-66.6666666666667,4,3,1,63,0,1
229342,-66.6666666666667,4,3,1,70,0,1
229417,-66.6666666666667,4,3,1,63,0,1
230242,-66.6666666666667,4,3,1,70,0,1
230317,-66.6666666666667,4,3,1,63,0,1
230392,-66.6666666666667,4,3,1,70,0,1
230467,-66.6666666666667,4,3,1,63,0,1
230842,-66.6666666666667,4,3,1,70,0,1
230917,-66.6666666666667,4,3,1,63,0,1
231292,-66.6666666666667,4,3,1,70,0,1
231367,-66.6666666666667,4,3,1,63,0,1
231742,-66.6666666666667,4,3,1,70,0,1
231817,-66.6666666666667,4,3,1,63,0,1
233617,-66.6666666666667,4,3,9,63,0,1
233767,-66.6666666666667,4,3,10,63,0,1
233917,-166.666666666667,4,3,1,63,0,0
235041,-166.666666666667,4,3,1,5,0,0
235117,-66.6666666666667,4,3,1,63,0,0
236392,-66.6666666666667,4,3,1,65,0,0
236467,-66.6666666666667,4,3,1,63,0,0
236617,-66.6666666666667,4,3,1,65,0,0
236692,-66.6666666666667,4,3,1,63,0,0
236842,-66.6666666666667,4,3,1,65,0,0
236917,-66.6666666666667,4,3,1,63,0,0
237742,-66.6666666666667,4,3,1,5,0,0
237817,-66.6666666666667,4,3,1,63,0,0
238042,-66.6666666666667,4,3,1,5,0,0
238117,-66.6666666666667,4,3,1,63,0,0
238192,-66.6666666666667,4,3,1,65,0,0
238267,-66.6666666666667,4,3,1,63,0,0
238342,-66.6666666666667,4,3,1,65,0,0
238417,-66.6666666666667,4,3,1,63,0,0
238492,-66.6666666666667,4,3,1,65,0,0
238567,-66.6666666666667,4,3,1,63,0,0
238642,-66.6666666666667,4,3,1,65,0,0
238717,-66.6666666666667,4,3,1,63,0,0
238792,-66.6666666666667,4,3,7,63,0,0
238867,-66.6666666666667,4,3,1,63,0,0
239054,-66.6666666666667,4,3,1,65,0,0
239092,-66.6666666666667,4,3,1,63,0,0
239317,-66.6666666666667,4,3,7,63,0,0
239467,-66.6666666666667,4,3,1,63,0,0
239617,-66.6666666666667,4,3,8,63,0,0
239767,-66.6666666666667,4,3,10,63,0,0
239917,-66.6666666666667,4,3,1,63,0,0
240442,-66.6666666666667,4,3,1,65,0,0
240517,-66.6666666666667,4,3,1,63,0,0
240592,-66.6666666666667,4,3,1,65,0,0
240667,-66.6666666666667,4,3,1,63,0,0
240742,-66.6666666666667,4,3,1,65,0,0
240817,-66.6666666666667,4,3,1,63,0,0
240892,-66.6666666666667,4,3,1,65,0,0
240967,-66.6666666666667,4,3,1,63,0,0
241042,-66.6666666666667,4,3,1,65,0,0
241117,-66.6666666666667,4,3,1,63,0,0
241192,-66.6666666666667,4,3,1,65,0,0
241267,-66.6666666666667,4,3,1,63,0,0
241417,-66.6666666666667,4,3,1,65,0,0
241492,-66.6666666666667,4,3,1,63,0,0
241642,-66.6666666666667,4,3,1,65,0,0
241717,-66.6666666666667,4,3,1,63,0,0
244117,-66.6666666666667,4,3,7,63,0,0
244267,-66.6666666666667,4,3,1,63,0,0
244417,-66.6666666666667,4,3,8,63,0,0
244492,-66.6666666666667,4,3,9,63,0,0
244567,-66.6666666666667,4,3,10,63,0,0
244717,-133.333333333333,4,3,1,63,0,0
244792,-133.333333333333,4,3,1,5,0,0
244867,-50,4,3,1,63,0,0
245017,-66.6666666666667,4,3,1,65,0,0
245092,-66.6666666666667,4,3,1,63,0,0
245242,-66.6666666666667,4,3,1,65,0,0
245317,-66.6666666666667,4,3,1,63,0,0
249517,-166.666666666667,4,3,1,63,0,0
249591,-166.666666666667,4,3,1,65,0,0
249667,-50,4,3,1,63,0,0
249817,-66.6666666666667,4,3,1,65,0,0
249892,-66.6666666666667,4,3,1,63,0,0
250042,-66.6666666666667,4,3,1,65,0,0
250117,-66.6666666666667,4,3,1,63,0,0
251992,-66.6666666666667,4,3,1,65,0,0
252067,-66.6666666666667,4,3,1,63,0,0
252142,-66.6666666666667,4,3,1,65,0,0
252217,-66.6666666666667,4,3,1,63,0,0
252442,-66.6666666666667,4,3,1,65,0,0
252517,-66.6666666666667,4,3,1,63,0,0
252592,-66.6666666666667,4,3,1,65,0,0
252667,-66.6666666666667,4,3,1,63,0,0
252742,-66.6666666666667,4,3,1,65,0,0
252817,-66.6666666666667,4,3,1,63,0,0
253042,-66.6666666666667,4,3,1,65,0,0
253117,-66.6666666666667,4,3,1,63,0,0
259717,-66.6666666666667,4,3,7,63,0,0
259792,-66.6666666666667,4,3,1,63,0,0
262717,-100,4,3,1,63,0,0
262754,-100,4,2,1,5,0,0
262792,-100,4,3,1,63,0,0
262829,-100,4,2,1,5,0,0
262867,-100,4,3,1,63,0,0
262904,-100,4,2,1,5,0,0
262942,-100,4,3,1,63,0,0
262979,-100,4,2,1,5,0,0
263017,-100,4,3,1,63,0,0
263054,-100,4,2,1,5,0,0
263092,-100,4,3,1,63,0,0
263129,-100,4,2,1,5,0,0
263167,-100,4,3,1,63,0,0
263204,-100,4,2,1,5,0,0
263242,-100,4,3,1,63,0,0
263279,-100,4,2,1,5,0,0
263317,-80,4,3,1,63,0,0
263354,-80,4,2,1,5,0,0
263392,-80,4,3,1,63,0,0
263429,-80,4,2,1,5,0,0
263467,-80,4,3,1,63,0,0
263504,-80,4,2,1,5,0,0
263542,-80,4,3,1,63,0,0
263579,-80,4,2,1,5,0,0
263617,-80,4,3,1,63,0,0
263654,-80,4,2,1,5,0,0
263692,-80,4,3,1,63,0,0
263729,-80,4,2,1,5,0,0
263767,-80,4,3,1,63,0,0
263804,-80,4,2,1,5,0,0
263842,-80,4,3,1,63,0,0
263879,-80,4,2,1,5,0,0
263917,-66.6666666666667,4,3,1,63,0,0
263954,-66.6666666666667,4,3,1,65,0,0
263992,-66.6666666666667,4,3,1,63,0,0
264029,-66.6666666666667,4,3,1,65,0,0
264067,-66.6666666666667,4,3,1,63,0,0
264104,-66.6666666666667,4,3,1,65,0,0
264142,-66.6666666666667,4,3,1,63,0,0
264179,-66.6666666666667,4,3,1,65,0,0
264217,-66.6666666666667,4,3,1,63,0,0
264254,-66.6666666666667,4,3,1,65,0,0
264292,-66.6666666666667,4,3,1,63,0,0
264329,-66.6666666666667,4,3,1,65,0,0
264367,-66.6666666666667,4,3,1,63,0,0
264404,-66.6666666666667,4,3,1,65,0,0
264442,-66.6666666666667,4,3,1,63,0,0
264479,-66.6666666666667,4,3,1,65,0,0
264517,-57.1428571428571,4,3,1,63,0,0
264554,-57.1428571428571,4,3,1,65,0,0
264592,-57.1428571428571,4,3,1,63,0,0
264629,-57.1428571428571,4,3,1,65,0,0
264667,-57.1428571428571,4,3,1,63,0,0
264704,-57.1428571428571,4,3,1,65,0,0
264742,-57.1428571428571,4,3,1,63,0,0
264779,-57.1428571428571,4,3,1,65,0,0
264817,-57.1428571428571,4,3,9,63,0,0
264854,-57.1428571428571,4,3,1,65,0,0
264892,-57.1428571428571,4,3,9,63,0,0
264929,-57.1428571428571,4,3,1,65,0,0
264967,-57.1428571428571,4,3,10,63,0,0
265004,-57.1428571428571,4,3,1,65,0,0
265042,-57.1428571428571,4,3,10,63,0,0
265079,-57.1428571428571,4,3,1,65,0,0
265117,-66.6666666666667,4,3,1,63,0,0
268717,-40,4,3,1,63,0,0
268754,-33.3333333333333,4,3,1,5,0,0
268867,-33.3333333333333,4,3,1,63,0,0
268904,-33.3333333333333,4,3,1,5,0,0
268979,-33.3333333333333,4,3,1,63,0,0
269017,-33.3333333333333,4,3,1,63,0,0
269054,-25,4,3,1,5,0,0
269092,-25,4,3,1,63,0,0
269129,-25,4,3,1,5,0,0
269167,-25,4,3,1,63,0,0
269204,-25,4,3,1,5,0,0
269279,-25,4,3,1,63,0,0
269317,-40,4,3,1,63,0,0
269354,-33.3333333333333,4,3,1,5,0,0
269467,-33.3333333333333,4,3,1,63,0,0
269504,-33.3333333333333,4,3,1,5,0,0
269579,-37.037037037037,4,3,1,63,0,0
269654,-37.037037037037,4,3,1,5,0,0
269917,-100,4,3,1,63,0,0
272617,-100,4,3,7,63,0,0
272767,-100,4,3,1,63,0,0
272917,-100,4,3,8,63,0,0
273067,-100,4,3,1,63,0,0
273817,-100,4,3,7,63,0,0
273967,-100,4,3,8,63,0,0
274117,-100,4,3,9,63,0,0
274267,-100,4,3,1,63,0,0
274567,-100,4,3,10,63,0,0
274717,-100,4,3,1,63,0,0
277042,-100,4,3,1,5,0,0
277117,-100,4,3,1,63,0,0
279442,-100,4,3,1,5,0,0
279517,-200,4,3,1,63,0,0
281917,-133.333333333333,4,3,1,63,0,0
283117,-100,4,3,1,63,0,0
283717,-80,4,3,1,63,0,0
284317,-100,4,3,1,63,0,0
293617,-100,4,3,8,63,0,0
293767,-100,4,3,10,63,0,0
293917,-66.6666666666667,4,3,1,63,0,0
301117,-66.6666666666667,4,3,7,63,0,0
301192,-66.6666666666667,4,3,8,63,0,0
301267,-66.6666666666667,4,3,1,63,0,0
301342,-66.6666666666667,4,3,7,63,0,0
301417,-66.6666666666667,4,3,1,63,0,0
301567,-66.6666666666667,4,3,8,63,0,0
301717,-66.6666666666667,4,3,1,63,0,0
301792,-66.6666666666667,4,3,7,63,0,0
301867,-66.6666666666667,4,3,1,63,0,0
302017,-66.6666666666667,4,3,8,63,0,0
302167,-66.6666666666667,4,3,1,63,0,0
302242,-66.6666666666667,4,3,7,63,0,0
302317,-66.6666666666667,4,3,1,63,0,0
302467,-66.6666666666667,4,3,9,63,0,0
302617,-66.6666666666667,4,3,1,63,0,0
302692,-66.6666666666667,4,3,7,63,0,0
302767,-66.6666666666667,4,3,1,63,0,0
302992,-66.6666666666667,4,3,7,63,0,0
303067,-66.6666666666667,4,3,1,63,0,0
303217,-66.6666666666667,4,3,9,63,0,0
303367,-66.6666666666667,4,3,10,63,0,0
303517,-66.6666666666667,4,3,1,63,0,0
308242,-66.6666666666667,4,3,1,5,0,0
308317,-66.6666666666667,4,3,1,63,0,0
312217,-80,4,3,1,63,0,0
312517,-100,4,3,1,63,0,0
313117,-66.6666666666667,4,3,1,63,0,0
314017,-80,4,3,1,63,0,0
314317,-76.9230769230769,4,3,1,63,0,0
315217,-71.4285714285714,4,3,1,63,0,0
316717,-55.5555555555556,4,3,1,63,0,0
317317,-66.6666666666667,4,3,1,63,0,0
320017,-50,4,3,1,63,0,0
320317,-100,4,3,1,63,0,0
320692,-100,4,3,7,63,0,0
320767,-100,4,3,1,63,0,0
320917,-100,4,3,7,63,0,0
321067,-100,4,3,1,63,0,0
321442,-100,4,3,7,63,0,0
321517,-50,4,3,1,63,0,0
321742,-50,4,3,8,63,0,0
321817,-50,4,3,1,63,0,0
321892,-50,4,3,8,63,0,0
321967,-50,4,3,1,63,0,0
322192,-50,4,3,9,63,0,0
322267,-50,4,3,1,63,0,0
322417,-50,4,3,8,63,0,0
322567,-50,4,3,10,63,0,0
322717,-50,4,3,1,63,0,0
326317,-50,4,3,8,63,0,0
326467,-50,4,3,1,63,0,0
326767,-50,4,3,8,63,0,0
326917,-50,4,3,1,63,0,0
327217,-50,4,3,9,63,0,0
327367,-50,4,3,10,63,0,0
327517,-50,4,3,1,63,0,0
329917,-55.5555555555556,4,3,1,70,0,0
330067,-62.5,4,3,1,65,0,0
330217,-71.4285714285714,4,3,1,60,0,0
330367,-83.3333333333333,4,3,1,55,0,0
330517,-100,4,3,1,50,0,0
330667,-100,4,3,1,45,0,0
330817,-100,4,3,1,40,0,0
330967,-100,4,3,1,35,0,0
331117,-100,4,3,1,60,0,0
332317,-66.6666666666667,4,3,1,63,0,0
336817,-57.1428571428571,4,3,1,63,0,0
337117,-66.6666666666667,4,3,1,63,0,0
345517,-57.1428571428571,4,3,1,63,0,0
345817,-80,4,3,1,63,0,0
345967,-57.1428571428571,4,3,1,63,0,0
346267,-80,4,3,1,63,0,0
346417,-57.1428571428571,4,3,1,63,0,0
349192,-57.1428571428571,4,3,7,63,0,0
349267,-57.1428571428571,4,3,1,63,0,0
349492,-57.1428571428571,4,3,7,63,0,0
349567,-57.1428571428571,4,3,1,63,0,0
349717,-57.1428571428571,4,3,8,63,0,0
349867,-57.1428571428571,4,3,1,63,0,0
349942,-57.1428571428571,4,3,8,63,0,0
350017,-57.1428571428571,4,3,1,63,0,0
350242,-57.1428571428571,4,3,7,63,0,0
350317,-57.1428571428571,4,3,1,63,0,0
350692,-57.1428571428571,4,3,8,63,0,0
350767,-57.1428571428571,4,3,1,63,0,0
350992,-57.1428571428571,4,3,7,63,0,0
351067,-57.1428571428571,4,3,8,63,0,0
351217,-57.1428571428571,4,3,9,63,0,0
351367,-57.1428571428571,4,3,10,63,0,0
351517,-57.1428571428571,4,3,1,63,0,0
365917,-133.333333333333,4,3,1,63,0,0
367117,-133.333333333333,4,3,7,63,0,0
367267,-133.333333333333,4,3,1,63,0,0
367567,-133.333333333333,4,3,8,63,0,0
367717,-133.333333333333,4,3,1,63,0,0
368317,-133.333333333333,4,3,8,63,0,0
368467,-133.333333333333,4,3,1,63,0,0
368767,-133.333333333333,4,3,8,63,0,0
368917,-133.333333333333,4,3,1,63,0,0
369217,-133.333333333333,4,3,9,63,0,0
369367,-133.333333333333,4,3,10,63,0,0
369517,-200,4,3,1,63,0,0
370717,-66.6666666666667,4,3,1,70,0,1
377992,-66.6666666666667,4,3,7,70,0,1
378067,-66.6666666666667,4,3,9,70,0,1
378217,-66.6666666666667,4,3,1,70,0,1
378442,-66.6666666666667,4,3,7,70,0,1
378517,-66.6666666666667,4,3,8,70,0,1
378592,-66.6666666666667,4,3,9,70,0,1
378667,-66.6666666666667,4,3,1,70,0,1
378892,-66.6666666666667,4,3,7,70,0,1
378967,-66.6666666666667,4,3,1,70,0,1
379192,-66.6666666666667,4,3,7,70,0,1
379267,-66.6666666666667,4,3,1,70,0,1
379342,-66.6666666666667,4,3,7,70,0,1
379417,-66.6666666666667,4,3,1,70,0,1
379642,-66.6666666666667,4,3,7,70,0,1
379717,-66.6666666666667,4,3,1,70,0,1
379792,-66.6666666666667,4,3,7,70,0,1
379867,-66.6666666666667,4,3,1,70,0,1
380017,-66.6666666666667,4,3,8,70,0,1
380167,-66.6666666666667,4,3,10,70,0,1
380317,-66.6666666666667,4,3,1,70,0,1
380392,-66.6666666666667,4,3,1,63,0,1
380467,-66.6666666666667,4,3,1,70,0,1
380842,-66.6666666666667,4,3,1,63,0,1
380917,-66.6666666666667,4,3,1,70,0,1
381742,-66.6666666666667,4,3,1,63,0,1
381817,-66.6666666666667,4,3,1,70,0,1
382792,-66.6666666666667,4,3,1,63,0,1
382867,-66.6666666666667,4,3,1,70,0,1
383242,-66.6666666666667,4,3,1,63,0,1
383317,-66.6666666666667,4,3,1,70,0,1
384142,-66.6666666666667,4,3,1,63,0,1
384217,-66.6666666666667,4,3,1,70,0,1
385417,-66.6666666666667,4,3,7,70,0,1
385567,-66.6666666666667,4,3,1,70,0,1
385717,-66.6666666666667,4,3,8,70,0,1
386017,-66.6666666666667,4,3,1,70,0,1
386392,-66.6666666666667,4,3,1,63,0,0
387442,-66.6666666666667,4,3,1,5,0,0
387517,-66.6666666666667,4,3,1,70,0,0
390142,-66.6666666666667,4,3,1,5,0,0
390217,-66.6666666666667,4,3,1,70,0,0
390442,-66.6666666666667,4,3,1,5,0,0
390517,-66.6666666666667,4,3,1,70,0,0
391417,-66.6666666666667,4,3,7,70,0,0
391567,-66.6666666666667,4,3,1,70,0,0
391717,-66.6666666666667,4,3,8,70,0,0
391867,-66.6666666666667,4,3,1,70,0,0
392167,-66.6666666666667,4,3,10,70,0,0
392317,-66.6666666666667,4,3,1,70,0,0
392992,-66.6666666666667,4,3,1,63,0,0
393067,-66.6666666666667,4,3,1,70,0,0
393142,-66.6666666666667,4,3,1,63,0,0
393217,-66.6666666666667,4,3,1,70,0,0
393292,-66.6666666666667,4,3,1,63,0,0
393367,-66.6666666666667,4,3,1,70,0,0
393442,-66.6666666666667,4,3,1,63,0,0
393517,-66.6666666666667,4,3,1,70,0,0
394717,-66.6666666666667,4,3,10,70,0,0
394792,-66.6666666666667,4,3,1,70,0,0
395092,-66.6666666666667,4,3,7,70,0,0
395167,-66.6666666666667,4,3,1,70,0,0
395392,-66.6666666666667,4,3,8,70,0,0
395467,-66.6666666666667,4,3,1,70,0,0
395617,-66.6666666666667,4,3,10,70,0,0
395692,-66.6666666666667,4,3,1,70,0,0
395992,-66.6666666666667,4,3,1,63,0,0
396067,-66.6666666666667,4,3,1,70,0,0
396217,-66.6666666666667,4,3,8,70,0,0
396367,-66.6666666666667,4,3,1,70,0,0
396517,-66.6666666666667,4,3,7,70,0,0
396667,-66.6666666666667,4,3,1,70,0,0
396817,-66.6666666666667,4,3,8,70,0,0
396967,-66.6666666666667,4,3,1,70,0,0
397117,-66.6666666666667,4,3,7,70,0,0
397267,-66.6666666666667,4,3,1,70,0,0
397492,-66.6666666666667,4,3,8,70,0,0
397567,-66.6666666666667,4,3,1,70,0,0
397792,-66.6666666666667,4,3,7,70,0,0
397867,-66.6666666666667,4,3,1,70,0,0
398017,-66.6666666666667,4,3,8,70,0,0
398092,-66.6666666666667,4,3,9,70,0,0
398167,-66.6666666666667,4,3,10,70,0,0
398317,-66.6666666666667,4,3,1,70,0,0
399067,-200,4,3,1,70,0,0
399442,-200,4,3,1,63,0,0
399517,-200,4,3,1,70,0,0
399779,-400,4,3,1,63,0,0
399817,-400,4,3,1,70,0,0
400042,-400,4,2,1,5,0,0
400117,-100,4,3,1,70,0,0
400417,-100,4,3,8,70,0,0
400717,-100,4,3,9,70,0,0
401917,-100,4,3,1,70,0,0
402067,-66.6666666666667,4,3,1,70,0,0
403117,-100,4,3,1,55,0,0

[Colours]
Combo1 : 54,131,225
Combo2 : 133,60,210
Combo3 : 239,242,248

[HitObjects]
256,192,917,12,0,2262,0:0:0:0:
412,332,2313,5,6,2:0:0:0:
406,323,2520,1,0,2:0:0:0:
403,312,2727,1,2,2:0:0:0:
402,304,2934,1,0,2:0:0:0:
455,253,3141,5,2,2:0:0:0:
440,237,3348,1,0,2:0:0:0:
421,227,3555,1,2,2:0:0:0:
400,224,3762,1,0,2:0:0:0:
314,264,3969,5,2,2:0:0:0:
299,235,4176,1,0,2:0:0:0:
297,203,4382,1,2,2:0:0:0:
306,172,4589,1,0,2:0:0:0:
373,116,4796,5,2,2:0:0:0:
340,89,5003,1,0,2:0:0:0:
298,82,5210,1,2,2:0:0:0:
256,90,5417,1,2,2:0:0:0:
140,343,5624,5,10,2:0:0:0:
149,340,5831,1,0,2:0:0:0:
158,337,6038,1,2,2:0:0:0:
167,334,6245,1,0,2:0:0:0:
269,309,6451,5,2,2:0:0:0:
264,289,6658,1,0,2:0:0:0:
258,269,6865,1,2,2:0:0:0:
252,249,7072,1,0,2:0:0:0:
193,187,7279,5,2,2:0:0:0:
198,157,7486,1,0,2:0:0:0:
203,127,7693,1,2,2:0:0:0:
209,97,7900,1,0,2:0:0:0:
319,3,8107,5,2,2:0:0:0:
325,42,8314,1,0,2:0:0:0:
332,81,8520,1,2,2:0:0:0:
339,120,8727,5,0,3:0:0:0:
390,92,8831,1,0,3:0:0:0:
441,64,8934,6,0,L|447:146,1,75.0000028610231,14|0,3:0|2:0,2:0:0:0:
301,257,9348,2,0,L|306:205,1,50,2|0,2:0|2:0,2:0:0:0:
71,64,9762,6,0,L|64:146,1,75.0000028610231,2|0,2:0|2:0,2:0:0:0:
211,257,10176,2,0,L|205:205,1,50,2|0,2:0|2:0,2:0:0:0:
49,320,10589,6,0,P|89:331|134:314,1,75.0000028610231,2|0,2:0|2:0,2:0:0:0:
170,139,11003,2,0,P|142:167|133:197,1,50,2|0,2:0|2:0,2:0:0:0:
463,320,11417,6,0,P|423:331|378:314,1,75.0000028610231,2|0,2:0|2:0,2:0:0:0:
342,139,11831,2,0,P|359:156|365:175,1,25,2|0,2:0|0:0,0:0:0:0:
374,176,12038,1,2,3:0:0:0:
31,67,12245,6,0,L|191:29,1,150.000005722046,14|0,3:0|2:0,2:0:0:0:
292,201,12658,2,0,L|211:187,1,75.0000028610231,2|0,2:0|2:0,2:0:0:0:
476,159,13072,6,0,L|339:126,1,100,2|0,2:0|2:0,2:0:0:0:
215,293,13486,2,0,L|296:279,1,75.0000028610231,2|0,2:0|2:0,2:0:0:0:
322,69,13900,6,0,P|298:109|308:188,1,100,2|0,2:0|2:0,2:0:0:0:
470,306,14314,2,0,P|454:283|405:263,1,75.0000028610231,2|0,2:0|2:0,2:0:0:0:
221,266,14727,1,2,2:0:0:0:
328,382,14934,5,2,2:0:0:0:
359,197,15141,1,2,2:0:0:0:
390,12,15348,1,2,2:0:0:0:
207,177,15555,6,0,B|114:168|114:168|79:164|68:217,1,150,6|0,3:0|0:0,2:0:0:0:
81,212,15969,1,2,2:0:0:0:
303,367,16176,2,0,B|286:340|286:340|307:257,2,100,2|0|0,2:0|2:0|2:0,2:0:0:0:
448,185,16796,1,2,2:0:0:0:
463,307,17003,1,2,2:0:0:0:
216,166,17210,6,0,P|302:154|345:237,1,150.000005722046,2|0,2:0|2:0,2:0:0:0:
184,356,17624,2,0,L|181:271,1,75.0000028610231,2|0,2:0|2:0,2:0:0:0:
0,247,18038,6,0,P|60:252|107:206,1,100,2|0,2:0|2:0,2:0:0:0:
99,137,18452,2,0,L|102:222,1,75.0000028610231,2|0,2:0|2:0,2:0:0:0:
352,84,18865,6,0,P|266:96|223:13,1,150.000005722046,2|0,2:0|2:0,2:0:0:0:
453,0,19279,2,0,L|456:85,1,75.0000028610231,2|0,2:0|2:0,2:0:0:0:
228,249,19693,6,0,P|266:225|341:251,1,100,2|0,2:0|2:0,2:0:0:0:
341,329,20107,2,0,L|338:244,1,75.0000028610231,2|0,2:0|2:0,2:0:0:0:
182,378,20520,6,0,L|12:365,1,150.000005722046,2|0,2:0|2:0,2:0:0:0:
216,242,20934,2,0,P|221:277|253:321,1,75.0000028610231,2|0,2:0|2:0,2:0:0:0:
19,218,21348,5,2,2:0:0:0:
260,158,21555,1,2,2:0:0:0:
133,47,21762,1,2,2:0:0:0:
130,263,21969,1,2,2:0:0:0:
256,128,22176,6,0,B|354:94|354:180|459:150,1,200,0|2,0:0|2:0,0:0:0:0:
419,360,22796,2,0,P|408:306|472:361,1,200,2|0,2:0|2:0,2:0:0:0:
295,222,23417,1,2,2:0:0:0:
244,384,23624,1,2,2:0:0:0:
29,311,23831,6,0,P|131:312|192:263,1,150.000005722046,2|0,2:0|2:0,2:0:0:0:
391,379,24245,2,0,P|375:347|381:290,1,75.0000028610231,2|0,2:0|2:0,2:0:0:0:
447,149,24658,6,0,P|387:140|340:96,1,100,2|0,2:0|2:0,2:0:0:0:
85,217,25072,2,0,P|101:185|95:128,1,75.0000028610231,2|0,2:0|2:0,0:0:0:0:
426,297,25486,6,0,P|367:283|288:300,1,112.500004291535,10|0,3:0|0:0,2:0:0:0:
290,301,25900,1,0,3:0:0:0:
96,131,26107,2,0,P|123:135|230:221,1,150.000005722046,2|0,3:0|3:0,3:0:0:0:
454,116,26727,6,0,P|396:138|356:176,1,112.500004291535,2|0,3:0|0:0,2:0:0:0:
351,190,27141,1,0,3:0:0:0:
205,12,27348,2,0,P|221:49|229:168,1,150.000005722046,2|0,3:0|3:0,2:0:0:0:
198,264,27969,1,0,2:0:0:0:
323,348,28176,5,2,2:0:0:0:
184,282,28382,1,2,2:0:0:0:
45,216,28589,1,2,2:0:0:0:
187,384,28796,5,0,3:0:0:0:
178,343,28900,1,0,3:0:0:0:
171,303,29003,1,0,3:0:0:0:
93,355,29210,1,0,2:0:0:0:
257,368,29417,2,0,L|226:212,1,150.000005722046,2|0,2:0|2:0,2:0:0:0:
110,90,30038,1,0,2:0:0:0:
95,186,30245,1,0,2:0:0:0:
382,120,30452,6,0,P|345:97|250:105,1,100,2|0,2:0|2:0,2:0:0:0:
145,269,30865,2,0,P|186:263|239:228,1,75.0000028610231,2|0,2:0|2:0,2:0:0:0:
222,41,31279,6,0,P|259:18|354:26,1,100,2|0,2:0|2:0,2:0:0:0:
459,190,31693,2,0,P|418:184|365:149,1,75.0000028610231,2|0,2:0|2:0,2:0:0:0:
132,0,32107,6,0,L|105:129,1,100,2|0,2:0|2:0,2:0:0:0:
205,267,32520,2,0,L|185:172,1,75.0000028610231,2|0,2:0|2:0,2:0:0:0:
380,0,32934,6,0,L|407:129,1,100,2|0,2:0|2:0,2:0:0:0:
307,267,33348,2,0,L|326:172,1,75.0000028610231,2|0,2:0|2:0,2:0:0:0:
63,163,33762,6,0,P|113:176|174:153,1,100,2|0,2:0|2:0,2:0:0:0:
368,20,34176,2,0,P|333:11|263:26,1,75.0000028610231,2|0,2:0|2:0,2:0:0:0:
151,174,34589,1,2,2:0:0:0:
161,22,34796,5,2,2:0:0:0:
181,162,35003,1,2,2:0:0:0:
201,302,35210,1,0,3:0:0:0:
238,270,35314,1,0,3:0:0:0:
275,238,35417,6,0,L|252:92,1,100,2|0,3:0|2:0,2:0:0:0:
353,295,35831,1,0,2:0:0:0:
100,79,36038,2,0,L|140:282,1,200,2|0,2:0|2:0,2:0:0:0:
301,185,36658,1,0,2:0:0:0:
10,152,36865,1,0,2:0:0:0:
217,353,37072,6,0,P|278:328|369:341,1,150.000005722046,2|0,3:0|2:0,2:0:0:0:
474,176,37486,2,0,P|458:224|461:284,1,100,2|0,2:0|2:0,2:0:0:0:
338,107,37900,1,2,2:0:0:0:
438,267,38107,1,2,2:0:0:0:
212,269,38314,1,2,2:0:0:0:
351,139,38520,6,0,P|298:129|254:-2,1,200,2|0,2:0|0:0,2:0:0:0:
144,163,39141,1,0,2:0:0:0:
325,318,39348,2,0,P|335:265|484:213,1,200,2|0,2:0|0:0,2:0:0:0:
463,186,39969,1,0,2:0:0:0:
489,359,40176,1,0,2:0:0:0:
252,256,40383,6,0,L|119:260,1,100,2|0,2:0|2:0,2:0:0:0:
40,139,40796,2,0,L|173:143,1,100,2|0,2:0|2:0,2:0:0:0:
167,30,41210,1,0,2:0:0:0:
248,238,41417,1,2,2:0:0:0:
127,123,41624,1,2,2:0:0:0:
315,89,41831,1,2,2:0:0:0:
224,252,42038,6,0,B|178:218|178:218|25:256,1,200,0|0,0:0|2:0,0:0:0:0:
0,349,42659,2,0,B|46:383|46:383|199:345,1,200,0|0,0:0|2:0,0:0:0:0:
110,219,43279,1,0,2:0:0:0:
204,375,43486,1,0,2:0:0:0:
447,304,43693,6,0,P|412:292|378:299,1,50,14|0,3:0|3:0,0:0:0:0:
342,214,43900,2,0,P|314:238|303:271,1,50,0|0,3:0|3:0,0:0:0:0:
486,196,44107,1,0,3:0:0:0:
68,152,44314,6,0,P|103:140|137:147,1,50,10|0,3:0|3:0,0:0:0:0:
173,62,44521,2,0,P|200:86|211:119,1,50,0|0,3:0|3:0,0:0:0:0:
29,44,44728,1,0,3:0:0:0:
204,197,44934,1,2,2:0:0:0:
265,31,45141,1,0,2:0:0:0:
358,223,45348,5,2,2:0:0:0:
438,119,45555,1,0,2:0:0:0:
435,94,45658,1,0,2:0:0:0:
433,69,45761,1,0,2:0:0:0:
432,142,45969,5,10,3:0:0:0:
399,111,46072,1,0,3:0:0:0:
357,96,46175,1,0,3:0:0:0:
312,98,46279,1,0,3:0:0:0:
271,117,46382,2,0,L|273:195,1,50,2|0,3:0|3:0,0:0:0:0:
276,319,46589,1,0,3:0:0:0:
420,169,46796,1,0,3:0:0:0:
389,327,47003,5,14,3:0:0:0:
366,317,47106,1,0,3:0:0:0:
341,316,47209,1,0,3:0:0:0:
317,325,47313,1,0,3:0:0:0:
299,342,47416,1,0,3:0:0:0:
48,223,47624,5,10,3:0:0:0:
86,205,47727,1,0,3:0:0:0:
129,202,47830,1,0,3:0:0:0:
171,218,47934,1,0,3:0:0:0:
202,248,48038,6,0,L|199:330,1,50,2|0,3:0|3:0,3:0:0:0:
284,109,48245,2,0,L|294:190,1,50,2|0,3:0|3:0,3:0:0:0:
173,26,48451,1,2,2:0:0:0:
312,274,48658,5,10,3:0:0:0:
459,139,48865,1,0,3:0:0:0:
453,96,48968,1,0,3:0:0:0:
450,54,49071,1,0,3:0:0:0:
380,298,49279,5,10,3:0:0:0:
332,270,49382,1,0,3:0:0:0:
276,270,49486,1,0,3:0:0:0:
230,300,49589,1,0,3:0:0:0:
184,330,49693,1,0,3:0:0:0:
131,316,49796,1,0,3:0:0:0:
104,269,49900,6,0,L|107:177,1,75.0000028610231,2|0,3:0|3:0,3:0:0:0:
259,17,50107,2,0,L|262:109,1,75.0000028610231,2|0,3:0|3:0,3:0:0:0:
489,237,50314,6,0,B|407:100|255:166|243:244|243:244|244:372|402:354|361:211|243:244|243:244|239:248|239:248|236:242|236:242|140:274|60:197|67:103|107:29|107:29|94:102|126:137,1,1050.00004005432,6|0,3:0|2:0,2:0:0:0:
176,10,53126,1,6,3:0:0:0:
15,298,53314,6,4,B|358:233|358:233|509:209|477:101|434:56|434:56|415:120|350:205|176:232|181:72|214:-17|316:-52|374:14|382:123|256:109,1,1125.00004291535,6|0,3:0|0:0,2:0:0:0:
118,2,56314,6,0,B|130:152|130:152|69:110|-28:187|7:289|7:289|106:197|200:260|200:260|169:336|241:398|328:364|334:306|334:306|408:356|483:314|440:215|378:249,1,1050.00004005432,6|0,3:0|2:0,2:0:0:0:
265,287,59126,1,6,3:0:0:0:
512,80,59314,6,0,B|423:37|329:43|379:148|156:80|156:80|246:197|149:284|149:284|282:253|253:332|359:325|359:325|287:270|318:183|318:183|402:241|468:178,1,1125.00004291535,6|0,3:0|0:0,2:0:0:0:
142,102,62314,6,0,P|212:98|283:28,1,150,6|0,3:0|2:0,2:0:0:0:
316,285,62689,5,8,2:0:0:0:
272,276,62735,1,8,2:0:0:0:
84,214,63251,5,0,0:0:0:0:
101,209,63298,1,0,0:0:0:0:
357,132,63814,5,0,0:0:0:0:
340,134,63860,1,0,0:0:0:0:
401,326,64376,5,0,0:0:0:0:
401,305,64423,1,0,0:0:0:0:
379,32,64751,5,0,3:0:0:0:
234,73,64939,1,0,3:0:0:0:
88,109,65126,1,0,3:0:0:0:
505,243,65314,5,6,3:0:0:0:
160,370,65689,5,8,2:0:0:0:
156,347,65735,1,8,2:0:0:0:
318,288,66251,5,0,0:0:0:0:
316,309,66298,1,0,0:0:0:0:
56,161,66814,5,8,2:0:0:0:
28,95,66907,1,8,2:0:0:0:
82,49,67001,1,8,2:0:0:0:
143,87,67095,1,8,2:0:0:0:
126,155,67189,5,0,3:0:0:0:
175,152,67282,1,0,3:0:0:0:
251,96,67376,5,0,3:0:0:0:
226,94,67469,1,0,3:0:0:0:
288,181,67564,5,8,2:0:0:0:
356,198,67658,1,8,2:0:0:0:
394,137,67752,1,0,3:0:0:0:
348,83,67846,1,0,3:0:0:0:
282,111,67939,5,8,2:0:0:0:
290,202,68032,1,8,2:0:0:0:
378,224,68126,1,8,2:0:0:0:
427,144,68220,1,8,2:0:0:0:
368,74,68314,6,0,B|373:166|373:166|390:189|390:189|397:314,1,225.000008583069,6|0,3:0|0:0,2:0:0:0:
240,340,68689,5,8,2:0:0:0:
280,335,68735,1,8,2:0:0:0:
76,228,69251,5,0,0:0:0:0:
101,234,69298,1,0,0:0:0:0:
39,161,69814,5,8,2:0:0:0:
86,196,69907,1,0,3:0:0:0:
146,199,70001,1,0,3:0:0:0:
198,170,70095,1,0,3:0:0:0:
248,91,70189,5,0,3:0:0:0:
240,104,70282,1,0,3:0:0:0:
266,181,70375,5,8,2:0:0:0:
325,169,70469,1,0,3:0:0:0:
367,127,70563,5,0,3:0:0:0:
343,118,70657,1,0,3:0:0:0:
318,122,70751,1,0,3:0:0:0:
299,137,70845,1,0,3:0:0:0:
381,232,70939,5,8,2:0:0:0:
334,197,71032,1,0,3:0:0:0:
274,194,71126,1,0,3:0:0:0:
222,223,71220,1,0,3:0:0:0:
228,301,71314,6,0,L|316:288,1,75.0000028610231,8|0,2:0|0:0,0:0:0:0:
165,381,71501,5,8,2:0:0:0:
150,379,71563,1,0,3:0:0:0:
135,376,71626,1,0,3:0:0:0:
120,375,71688,1,0,3:0:0:0:
139,157,71876,6,0,L|227:144,1,75.0000028610231,8|0,2:0|0:0,0:0:0:0:
76,237,72063,5,8,2:0:0:0:
61,235,72125,1,0,3:0:0:0:
46,232,72188,1,0,3:0:0:0:
30,231,72250,1,0,3:0:0:0:
153,58,72439,5,8,2:0:0:0:
187,52,72501,1,8,2:0:0:0:
222,47,72564,2,0,L|310:34,1,50.0000019073487,8|8,2:0|2:0,0:0:0:0:
393,145,72689,5,0,3:0:0:0:
372,141,72751,1,0,3:0:0:0:
351,138,72814,2,0,L|298:130,3,50.0000019073487,0|0|0|0,3:0|3:0|3:0|3:0,0:0:0:0:
331,256,73064,5,0,0:0:0:0:
326,244,73126,1,0,0:0:0:0:
321,232,73189,1,0,0:0:0:0:
317,221,73251,1,0,0:0:0:0:
312,209,73314,1,0,0:0:0:0:
218,297,73376,5,0,0:0:0:0:
225,287,73438,1,0,0:0:0:0:
233,277,73501,1,0,0:0:0:0:
241,267,73563,1,0,0:0:0:0:
248,257,73626,1,0,0:0:0:0:
125,219,73689,5,0,0:0:0:0:
137,220,73751,1,0,0:0:0:0:
149,222,73814,1,0,0:0:0:0:
162,224,73876,1,0,0:0:0:0:
174,225,73939,1,0,0:0:0:0:
253,332,74149,6,0,P|230:319|181:329,1,75.0000028610231
170,335,74317,5,0,3:0:0:0:
364,381,74467,1,0,3:0:0:0:
478,226,74617,1,0,3:0:0:0:
420,62,74767,1,0,3:0:0:0:
466,351,74917,1,0,3:0:0:0:
264,240,75217,5,0,2:0:0:0:
316,248,75367,1,0,2:0:0:0:
259,253,75517,1,0,2:0:0:0:
319,232,75667,1,0,2:0:0:0:
257,227,75817,1,0,2:0:0:0:
320,259,75967,1,0,2:0:0:0:
253,267,76117,1,0,2:0:0:0:
329,212,76267,1,0,2:0:0:0:
256,235,76417,1,0,2:0:0:0:
314,257,76567,1,0,2:0:0:0:
183,341,76717,5,0,3:0:0:0:
328,198,76867,1,0,3:0:0:0:
221,23,77017,1,0,3:0:0:0:
31,77,77167,1,0,3:0:0:0:
371,29,77317,1,0,3:0:0:0:
183,284,77567,6,0,L|191:371,6,66.6666666666667,0|0|0|0|0|0|0,2:0|2:0|2:0|2:0|2:0|2:0|2:0,2:0:0:0:
220,362,77917,5,0,3:0:0:0:
12,189,78067,1,0,3:0:0:0:
198,27,78167,6,0,P|197:62|159:21,6,133.333333333333,0|0|0|0|0|0|0,2:0|2:0|2:0|2:0|2:0|2:0|2:0,2:0:0:0:
5,201,78517,1,0,3:0:0:0:
260,335,78767,2,0,L|247:251,6,66.6666666666667,0|0|0|0|0|0|0,2:0|2:0|2:0|2:0|2:0|2:0|2:0,2:0:0:0:
191,243,79117,6,0,L|276:221,1,50,6|0,3:0|0:0,3:0:0:0:
432,317,79267,2,0,L|404:172,1,100,10|2,3:2|3:2,0:0:0:0:
245,88,79567,2,0,L|255:159,1,50,10|0,3:2|3:2,3:0:0:0:
424,187,79717,2,0,L|414:116,1,50,2|0,3:2|3:0,3:0:0:0:
308,14,79867,2,0,L|318:85,1,50,10|0,3:2|3:0,3:0:0:0:
512,43,80017,2,0,B|476:32|476:32|394:59,1,100,2|10,3:2|3:2,3:0:0:0:
299,238,80317,6,0,P|332:230|365:198,1,50,6|0,3:0|0:0,3:0:0:0:
181,11,80467,2,0,P|170:51|182:125,1,100,10|2,3:2|3:2,0:0:0:0:
387,150,80767,2,0,P|345:139|329:142,1,50,10|0,3:2|3:0,3:0:0:0:
250,296,80917,2,0,P|272:267|273:239,1,50,2|0,3:2|3:0,3:0:0:0:
188,113,81067,2,0,P|188:146|202:188,1,50,10|0,3:2|3:0,3:0:0:0:
372,59,81217,2,0,P|314:49|261:80,1,100,2|10,3:2|3:2,3:0:0:0:
173,255,81517,5,6,3:0:0:0:
209,228,81592,1,0,3:0:0:0:
225,186,81667,1,10,3:2:0:0:
209,143,81742,1,0,3:0:0:0:
168,123,81817,1,2,3:2:0:0:
123,129,81892,1,0,3:0:0:0:
88,157,81967,2,0,P|68:185|62:212,1,50,10|0,3:2|3:0,0:0:0:0:
185,342,82117,5,2,3:2:0:0:
222,301,82192,1,0,3:0:0:0:
274,286,82267,1,10,3:2:0:0:
326,303,82342,1,0,3:0:0:0:
371,334,82417,6,0,L|375:272,1,50,2|0,3:2|3:0,3:0:0:0:
280,85,82567,2,0,L|283:134,1,50,10|0,3:2|3:0,3:0:0:0:
433,158,82717,5,2,3:2:0:0:
480,141,82792,1,0,3:0:0:0:
504,97,82867,1,10,3:2:0:0:
487,49,82942,1,0,3:0:0:0:
439,32,83017,2,0,P|422:63|426:98,1,50,2|0,3:2|3:0,0:0:0:0:
470,259,83167,2,0,P|483:228|478:198,1,50,10|0,3:2|3:0,0:0:0:0:
375,149,83317,5,2,3:2:0:0:
316,145,83392,1,0,3:0:0:0:
269,192,83467,5,10,3:2:0:0:
216,195,83542,1,0,3:0:0:0:
128,127,83617,5,2,3:2:0:0:
194,100,83692,1,0,3:0:0:0:
198,229,83767,5,10,3:2:0:0:
130,206,83842,1,0,3:0:0:0:
51,169,83917,6,0,L|118:163,3,50,14|0|0|0,3:0|3:0|3:0|3:0,3:0:0:0:
99,286,84217,2,0,L|32:280,3,50,10|0|0|0,3:0|3:0|3:0|3:0,3:0:0:0:
40,153,84517,6,0,L|107:147,1,50,10|0,3:0|3:0,3:0:0:0:
117,304,84667,2,0,L|50:298,1,50,2|0,3:0|3:0,3:0:0:0:
171,184,84817,2,0,L|238:178,1,50,10|0,3:0|3:0,3:0:0:0:
259,275,84967,2,0,L|209:270,1,50,2|0,3:0|3:0,3:0:0:0:
329,195,85117,1,10,3:0:0:0:
348,201,85192,1,0,3:0:0:0:
367,206,85267,6,0,L|374:267,1,50,0|0,3:0|3:0,0:0:0:0:
189,352,85417,2,0,L|246:360,1,50,10|0,3:0|3:0,3:0:0:0:
393,285,85567,2,0,L|336:293,1,50,2|0,3:0|3:0,3:0:0:0:
201,193,85717,2,0,P|216:234|205:272,1,50,10|0,3:0|3:0,3:0:0:0:
343,113,85867,2,0,P|320:147|315:175,1,50,2|0,3:0|3:0,3:0:0:0:
211,36,86017,2,0,P|224:77|221:105,3,50,10|0|0|0,3:0|3:0|3:0|3:0,3:0:0:0:
141,80,86317,5,6,3:0:0:0:
350,12,86467,1,8,2:0:0:0:
385,54,86542,1,8,2:0:0:0:
386,108,86617,1,0,0:0:0:0:
361,157,86692,1,8,2:0:0:0:
316,189,86767,1,8,2:0:0:0:
304,242,86842,1,8,2:0:0:0:
325,292,86917,1,0,3:0:0:0:
368,316,86992,1,0,3:0:0:0:
412,309,87067,1,0,3:0:0:0:
440,280,87142,1,0,3:0:0:0:
442,250,87217,1,0,3:0:0:0:
430,227,87292,1,0,3:0:0:0:
411,218,87367,1,0,3:0:0:0:
396,219,87442,1,0,3:0:0:0:
326,300,87517,5,8,0:0:0:0:
306,305,87592,1,0,3:0:0:0:
271,301,87667,1,0,3:0:0:0:
243,272,87742,1,0,3:0:0:0:
242,227,87817,1,0,3:0:0:0:
281,196,87892,1,0,3:0:0:0:
333,211,87967,1,0,3:0:0:0:
348,268,88042,1,0,3:0:0:0:
325,333,88117,6,0,P|291:349|256:346,1,50,8|8,2:0|2:0,0:0:0:0:
169,131,88267,2,0,P|179:162|178:200,1,50,0|0,3:0|3:0,0:0:0:0:
76,364,88417,2,0,P|121:339|121:316,1,50,0|0,3:0|3:0,0:0:0:0:
335,202,88567,2,0,P|301:205|279:218,1,50,0|0,3:0|3:0,0:0:0:0:
16,255,88717,6,0,B|98:249|98:249|117:262|117:262|221:250,1,187.5,6|0,3:0|3:0,3:0:0:0:
216,357,89017,1,2,3:2:0:0:
216,357,89092,2,0,L|298:347,1,62.5,0|10,3:0|3:2,0:0:0:0:
439,143,89317,6,0,B|357:137|357:137|338:150|338:150|234:138,1,187.5,2|0,3:2|3:0,3:0:0:0:
239,245,89617,1,2,3:2:0:0:
239,245,89692,2,0,L|156:235,1,62.5,0|10,3:0|3:2,0:0:0:0:
458,350,89917,6,0,B|427:311|427:311|445:160,1,187.5,6|0,3:0|0:0,3:0:0:0:
376,43,90217,2,0,L|365:131,1,62.5,2|0,3:2|3:0,0:0:0:0:
348,268,90367,1,10,3:2:0:0:
209,62,90517,1,2,3:2:0:0:
253,277,90667,6,0,B|247:252|247:252|251:246|251:246|241:194,1,62.5,10|0,0:2|3:0,3:0:0:0:
131,76,90817,2,0,B|125:101|125:101|129:107|129:107|119:159,1,62.5,2|0,3:2|3:0,3:0:0:0:
281,136,90967,2,0,B|256:142|256:142|250:138|250:138|198:148,1,62.5,10|0,3:2|3:0,3:0:0:0:
17,291,91117,6,0,B|69:296|69:296|72:286|72:286|173:311,1,125,6|10,3:0|3:2,3:0:0:0:
30,56,91417,1,2,3:2:0:0:
30,56,91492,1,0,3:0:0:0:
30,56,91567,1,10,3:2:0:0:
227,229,91717,5,2,3:2:0:0:
0,184,91867,1,10,3:2:0:0:
209,62,92017,1,2,3:2:0:0:
209,62,92092,1,0,3:0:0:0:
209,62,92167,1,10,3:2:0:0:
390,318,92317,5,2,3:2:0:0:
374,263,92392,1,0,3:0:0:0:
428,248,92467,1,10,3:2:0:0:
444,302,92542,1,0,3:0:0:0:
381,305,92617,1,2,3:2:0:0:
383,248,92692,1,0,3:0:0:0:
439,253,92767,1,10,3:2:0:0:
436,308,92842,1,0,3:0:0:0:
374,316,92917,6,0,P|334:308|297:289,1,62.5,2|0,3:2|3:0,0:0:0:0:
90,222,93067,2,0,P|130:214|167:195,1,62.5,10|0,3:2|3:0,0:0:0:0:
255,48,93217,1,2,3:2:0:0:
233,99,93292,1,0,3:0:0:0:
249,152,93367,2,0,L|338:145,1,62.5,10|0,3:2|3:0,0:0:0:0:
497,84,93517,6,0,B|460:68|460:68|401:78,1,75.0000028610231,6|0,3:0|3:0,3:0:0:0:
312,288,93667,5,10,3:2:0:0:
262,304,93742,1,0,3:0:0:0:
209,301,93817,1,10,3:2:0:0:
168,267,93892,1,0,3:0:0:0:
156,215,93967,6,0,B|193:199|193:199|252:209,1,75.0000028610231,10|0,3:2|3:0,3:0:0:0:
435,357,94117,2,0,L|338:346,1,75.0000028610231,10|0,3:2|3:0,3:0:0:0:
71,144,94267,2,0,B|105:149|105:149|142:133,1,75.0000028610231,10|0,3:2|3:0,3:0:0:0:
355,62,94417,2,0,L|344:159,1,75.0000028610231,10|0,3:2|3:0,3:0:0:0:
249,366,94567,2,0,B|246:336|246:336|241:329|241:329|238:269,1,75.0000028610231,10|0,3:2|3:0,3:0:0:0:
103,62,94717,6,0,P|150:55|195:79,1,75.0000028610231,10|0,3:2|3:0,3:0:0:0:
377,206,94867,2,0,P|330:213|285:189,1,75.0000028610231,10|0,3:2|3:0,3:0:0:0:
152,297,95017,2,0,B|154:267|154:267|160:260|160:260|163:200,1,75.0000028610231,10|0,3:2|3:0,3:0:0:0:
270,0,95167,2,0,B|272:29|272:29|278:37|278:37|281:97,1,75.0000028610231,10|0,3:2|3:0,3:0:0:0:
487,296,95317,5,10,3:2:0:0:
433,323,95392,1,0,3:0:0:0:
383,292,95467,1,10,3:2:0:0:
333,338,95542,1,0,3:0:0:0:
273,297,95617,6,0,L|278:197,1,75.0000028610231,10|0,3:2|3:0,3:0:0:0:
453,180,95767,2,10,L|448:80,1,75.0000028610231,10|0,3:2|3:0,3:2:0:0:
248,20,95917,5,6,3:0:0:0:
201,4,95992,1,0,3:0:0:0:
151,6,96067,1,0,3:0:0:0:
111,35,96142,1,0,3:0:0:0:
92,79,96217,1,10,3:0:0:0:
98,127,96292,1,0,3:0:0:0:
128,165,96367,1,0,3:0:0:0:
160,200,96442,1,0,3:0:0:0:
167,248,96517,1,2,3:0:0:0:
153,295,96592,1,0,3:0:0:0:
114,324,96667,1,0,3:0:0:0:
66,332,96742,1,0,3:0:0:0:
24,304,96817,5,10,3:0:0:0:
55,267,96892,1,0,3:0:0:0:
101,251,96967,1,0,3:0:0:0:
146,265,97042,1,0,3:0:0:0:
181,298,97117,1,2,3:0:0:0:
224,319,97192,1,0,3:0:0:0:
272,324,97267,1,0,3:0:0:0:
319,312,97342,1,0,3:0:0:0:
349,273,97417,1,10,3:0:0:0:
362,226,97492,1,0,3:0:0:0:
352,178,97567,1,0,3:0:0:0:
323,138,97642,1,0,3:0:0:0:
318,88,97717,1,2,3:0:0:0:
348,49,97792,1,0,3:0:0:0:
391,26,97867,1,0,3:0:0:0:
437,35,97942,1,0,3:0:0:0:
471,69,98017,5,10,3:0:0:0:
440,107,98092,1,0,3:0:0:0:
394,126,98167,1,0,3:0:0:0:
345,129,98242,1,0,3:0:0:0:
288,77,98317,5,8,2:0:0:0:
357,71,98417,1,8,2:0:0:0:
426,68,98517,1,8,2:0:0:0:
499,177,98617,5,8,2:0:0:0:
430,180,98717,1,8,2:0:0:0:
361,186,98817,1,8,2:0:0:0:
312,305,98917,6,0,B|354:281|354:281|451:305,2,133.333333333333,6|0|0,3:0|3:0|3:0,3:0:0:0:
150,212,99217,2,0,B|232:232|232:232|274:208,2,133.333333333333,6|0|0,3:0|3:0|3:0,3:0:0:0:
165,333,99517,5,8,2:0:0:0:
171,264,99617,1,8,2:0:0:0:
174,195,99717,1,8,2:0:0:0:
61,97,99817,5,8,2:0:0:0:
67,166,99917,1,8,2:0:0:0:
70,235,100017,1,8,2:0:0:0:
213,120,100117,6,0,P|164:115|90:159,2,133.333333333333,6|0|0,3:0|3:0|3:0,3:0:0:0:
358,44,100417,2,0,P|309:49|235:5,2,133.333333333333,6|0|0,3:0|3:0|3:0,3:0:0:0:
435,158,100717,5,8,2:0:0:0:
384,206,100817,1,8,2:0:0:0:
317,183,100917,1,8,2:0:0:0:
205,249,101017,5,8,2:0:0:0:
256,297,101117,1,8,2:0:0:0:
323,274,101217,1,8,2:0:0:0:
211,220,101317,5,8,2:0:0:0:
184,327,101417,1,8,2:0:0:0:
92,174,101517,1,8,2:0:0:0:
119,281,101617,1,8,2:0:0:0:
512,356,101917,5,2,2:1:0:0:
40,245,102217,6,0,B|109:241|109:241|169:172,1,133.333333333333,6|0,3:0|3:0,3:0:0:0:
206,89,102417,1,0,3:0:0:0:
227,301,102517,6,0,B|272:249|272:249|266:158,1,133.333333333333,6|0,3:0|3:0,3:0:0:0:
234,73,102717,1,0,3:0:0:0:
398,208,102817,6,0,B|394:138|394:138|325:79,1,133.333333333333,6|0,3:0|3:0,3:0:0:0:
242,43,103017,1,0,3:0:0:0:
366,359,103117,5,14,2:3:0:0:
353,367,112267,5,0,3:0:0:0:
226,120,112417,2,0,L|221:180,1,50,8|8,2:0|2:0,2:0:0:0:
470,170,112717,5,6,3:0:0:0:
146,52,113017,2,0,L|263:33,1,100,10|0,3:0|3:0,3:0:0:0:
366,168,113317,1,2,3:0:0:0:
269,145,113467,1,0,3:0:0:0:
440,260,113617,1,10,3:0:0:0:
253,363,113767,6,0,L|260:249,1,100,0|2,3:0|3:0,0:0:0:0:
84,91,114067,2,0,L|90:190,1,100,0|10,3:0|3:0,0:0:0:0:
186,4,114367,1,0,3:0:0:0:
270,192,114517,5,2,3:0:0:0:
229,104,114667,1,0,3:0:0:0:
168,274,114817,1,10,3:0:0:0:
187,191,114967,1,0,3:0:0:0:
281,339,115117,1,2,3:0:0:0:
16,249,115417,6,0,P|73:268|124:278,1,100,10|0,3:0|3:0,3:0:0:0:
346,133,115717,2,0,P|287:133|235:159,1,100,2|0,3:0|3:0,3:0:0:0:
461,245,116017,1,10,3:0:0:0:
197,14,116167,6,0,L|180:140,1,100,0|2,3:0|3:0,3:0:0:0:
355,384,116467,2,0,L|338:258,1,100,0|10,3:0|3:0,3:0:0:0:
222,181,116767,1,0,3:0:0:0:
433,93,116917,5,2,3:0:0:0:
332,139,117067,1,0,3:0:0:0:
454,117,117217,1,10,3:0:0:0:
326,113,117367,1,0,3:0:0:0:
504,283,117517,6,0,B|446:265|446:265|318:281,1,150,2|0,0:0|0:0,0:0:0:0:
330,281,117817,1,10,3:0:0:0:
393,364,117967,1,0,3:0:0:0:
217,227,118117,2,0,B|237:257|237:257|242:346,1,100,2|0,3:0|3:0,3:0:0:0:
270,165,118417,1,10,3:0:0:0:
51,246,118567,6,0,B|83:254|83:254|160:245,1,100,0|2,3:0|3:0,3:0:0:0:
311,89,118867,2,0,B|279:81|279:81|202:90,1,100,0|10,3:0|3:0,3:0:0:0:
462,223,119167,1,0,3:0:0:0:
288,205,119317,5,2,3:0:0:0:
366,274,119467,1,0,3:0:0:0:
297,352,119617,1,10,3:0:0:0:
219,283,119767,1,0,3:0:0:0:
386,356,119917,1,2,3:0:0:0:
232,100,120217,5,10,3:0:0:0:
207,203,120367,1,0,3:0:0:0:
437,223,120517,2,0,P|379:197|334:191,1,100,2|0,3:0|3:0,3:0:0:0:
182,219,120817,1,10,3:0:0:0:
357,383,120967,2,0,P|349:324|325:263,1,100,0|2,3:0|3:0,3:0:0:0:
117,94,121267,2,0,P|181:108|263:104,1,100,0|10,3:0|3:0,3:0:0:0:
353,21,121567,1,0,3:0:0:0:
463,234,121717,5,2,3:0:0:0:
419,134,121867,1,0,3:0:0:0:
342,383,122017,1,2,3:0:0:0:
370,214,122167,1,8,2:0:0:0:
370,214,122242,1,8,2:0:0:0:
370,214,122317,6,0,B|308:204|308:204|280:219|280:219|190:208,1,150,6|10,3:0|3:0,3:0:0:0:
193,209,122617,1,10,0:0:0:0:
348,307,122767,1,0,3:0:0:0:
214,73,122917,1,2,3:0:0:0:
165,205,123067,1,0,3:0:0:0:
96,76,123217,2,0,P|170:69|201:35,1,100,10|0,3:0|0:0,3:0:0:0:
406,126,123517,6,0,B|335:115|335:115|360:151,1,100,2|0,3:0|3:0,3:0:0:0:
445,299,123817,1,10,3:0:0:0:
297,309,123967,2,0,B|226:320|226:320|251:284,1,100,0|2,3:0|3:0,3:0:0:0:
61,212,124267,1,0,3:0:0:0:
241,196,124417,1,10,3:0:0:0:
112,306,124567,1,0,3:0:0:0:
239,94,124717,6,0,B|203:115|203:115|78:64,1,150,6|0,3:0|3:0,3:0:0:0:
0,192,125017,2,0,P|58:188|115:229,1,100,10|0,3:0|3:0,3:0:0:0:
184,384,125317,2,0,P|151:335|158:265,1,100,2|0,3:0|3:0,3:0:0:0:
258,128,125617,2,0,P|232:180|168:209,1,100,10|0,3:0|3:0,3:0:0:0:
281,357,125917,6,0,B|313:339|313:339|390:363,1,100,2|0,3:0|3:0,3:0:0:0:
368,176,126217,1,10,3:0:0:0:
461,310,126367,1,0,3:0:0:0:
466,90,126517,5,2,3:0:0:0:
381,202,126667,1,0,3:0:0:0:
259,99,126817,2,0,L|391:92,1,100,10|0,3:0|0:0,3:0:0:0:
175,307,127117,6,0,B|117:303|117:303|98:319|98:319|13:316,1,150,6|0,3:0|0:0,3:0:0:0:
41,186,127417,2,0,L|45:310,1,100,10|0,3:0|3:0,0:0:0:0:
257,175,127717,1,2,3:0:0:0:
143,232,127867,1,0,3:0:0:0:
12,104,128017,2,0,P|73:106|113:141,1,100,10|0,3:0|3:0,0:0:0:0:
288,21,128317,6,0,P|227:23|187:58,1,100,2|0,3:0|3:0,3:0:0:0:
276,238,128617,2,0,B|249:213|278:132,1,100,10|0,3:0|3:0,3:0:0:0:
465,306,128917,1,2,3:0:0:0:
446,150,129067,1,0,3:0:0:0:
358,356,129217,1,10,3:0:0:0:
96,279,129367,5,0,3:0:0:0:
96,279,129442,1,0,3:0:0:0:
68,227,129517,5,8,2:0:0:0:
111,202,129592,1,0,3:0:0:0:
160,202,129667,1,0,3:0:0:0:
198,233,129742,1,0,3:0:0:0:
216,302,129817,5,0,3:0:0:0:
236,297,129892,1,0,3:0:0:0:
253,293,129967,1,0,3:0:0:0:
270,290,130042,1,0,3:0:0:0:
294,216,130117,5,8,2:0:0:0:
291,156,130192,1,0,3:0:0:0:
288,96,130267,1,0,3:0:0:0:
286,36,130342,1,0,3:0:0:0:
365,67,130417,5,0,3:0:0:0:
326,119,130492,1,0,3:0:0:0:
261,121,130567,1,0,3:0:0:0:
204,81,130642,1,0,3:0:0:0:
193,0,130717,5,14,3:0:0:0:
29,356,131017,5,0,2:0:0:0:
48,354,131167,1,0,2:0:0:0:
67,352,131317,1,0,2:0:0:0:
86,350,131467,1,0,2:0:0:0:
105,348,131617,6,0,L|138:344,1,30,0|0,2:0|2:0,2:0:0:0:
339,380,131917,5,6,3:0:0:0:
392,367,131992,1,0,3:0:0:0:
420,319,132067,1,10,3:0:0:0:
409,265,132142,1,0,3:0:0:0:
372,223,132217,1,0,3:0:0:0:
355,170,132292,1,0,3:0:0:0:
366,116,132367,1,10,3:0:0:0:
408,81,132442,1,0,3:0:0:0:
462,82,132517,5,0,3:0:0:0:
476,137,132592,1,0,3:0:0:0:
438,192,132667,5,10,3:0:0:0:
436,177,132742,1,0,3:0:0:0:
479,197,132817,5,0,3:0:0:0:
475,252,132892,1,0,3:0:0:0:
432,289,132967,5,10,3:0:0:0:
427,274,133042,1,0,3:0:0:0:
483,342,133117,5,0,3:0:0:0:
438,373,133192,1,0,3:0:0:0:
383,375,133267,1,10,3:0:0:0:
335,347,133342,1,0,3:0:0:0:
310,297,133417,2,0,P|307:260|312:244,1,50,0|0,3:0|3:0,0:0:0:0:
469,167,133567,2,0,P|454:187|434:201,1,50,10|0,3:0|3:0,0:0:0:0:
247,100,133717,5,2,3:0:0:0:
277,74,133792,1,0,0:0:0:0:
316,70,133867,1,10,3:0:0:0:
350,89,133942,1,0,0:0:0:0:
341,162,134017,5,2,3:0:0:0:
349,117,134092,1,0,0:0:0:0:
383,88,134167,1,10,3:0:0:0:
428,90,134242,1,0,0:0:0:0:
481,142,134317,5,0,3:0:0:0:
479,196,134392,1,0,3:0:0:0:
449,242,134467,1,10,3:0:0:0:
395,254,134542,1,0,3:0:0:0:
342,238,134617,1,0,3:0:0:0:
288,225,134692,1,0,3:0:0:0:
235,240,134767,5,10,3:0:0:0:
219,287,134842,1,0,3:0:0:0:
239,332,134917,1,0,3:0:0:0:
287,344,134992,1,0,3:0:0:0:
334,326,135067,1,10,3:0:0:0:
355,280,135142,1,0,3:0:0:0:
338,232,135217,1,0,3:0:0:0:
297,202,135292,1,0,3:0:0:0:
273,158,135367,1,10,3:0:0:0:
272,108,135442,1,0,3:0:0:0:
301,67,135517,6,0,L|382:58,1,50,0|0,3:0|3:0,0:0:0:0:
456,179,135667,2,0,L|375:170,1,50,10|0,3:0|3:0,3:0:0:0:
224,54,135817,2,0,L|236:1,1,50,2|0,0:0|0:0,0:0:0:0:
364,57,135967,2,0,L|375:105,1,50,2|0,0:0|0:0,0:0:0:0:
155,232,136117,2,0,L|136:108,1,100,2|10,3:0|3:0,3:0:0:0:
266,348,136417,2,0,B|273:310|273:310|273:293|273:293|282:274|282:274|282:257|282:257|282:240|282:240|289:219|289:219|290:201|290:201|302:187|302:187|302:172|302:172|306:159|306:159|307:112,1,225.000008583069,2|0,3:0|3:0,3:0:0:0:
376,12,136717,5,6,3:0:0:0:
429,26,136792,1,0,3:0:0:0:
463,69,136867,1,10,3:0:0:0:
471,123,136942,1,0,3:0:0:0:
453,175,137017,1,0,3:0:0:0:
414,214,137092,1,0,3:0:0:0:
397,266,137167,1,10,3:0:0:0:
411,319,137242,1,0,3:0:0:0:
457,347,137317,5,0,3:0:0:0:
495,315,137392,1,0,3:0:0:0:
487,261,137467,5,10,3:0:0:0:
473,280,137542,1,0,3:0:0:0:
509,259,137617,5,0,3:0:0:0:
505,203,137692,1,0,3:0:0:0:
453,175,137767,5,10,3:0:0:0:
454,198,137842,1,0,3:0:0:0:
496,132,137917,5,0,3:0:0:0:
460,90,137992,1,0,3:0:0:0:
406,79,138067,1,10,3:0:0:0:
353,95,138142,1,0,3:0:0:0:
314,134,138217,2,0,P|307:168|314:202,1,50,2|0,3:0|3:0,0:0:0:0:
418,300,138367,2,0,P|409:266|388:238,1,50,10|0,3:0|3:0,0:0:0:0:
263,368,138517,6,0,L|268:305,1,50,2|0,3:0|0:0,3:0:0:0:
191,234,138667,1,10,3:0:0:0:
181,230,138742,2,0,L|176:167,1,50,0|0,3:0|0:0,3:0:0:0:
259,106,138892,1,0,3:0:0:0:
269,102,138967,2,0,L|274:39,1,50,10|0,3:0|3:0,3:0:0:0:
145,2,139117,5,6,3:0:0:0:
91,14,139192,1,0,3:0:0:0:
58,58,139267,1,10,3:0:0:0:
61,112,139342,1,0,3:0:0:0:
94,155,139417,1,0,3:0:0:0:
121,190,139492,1,0,3:0:0:0:
128,234,139567,1,10,3:0:0:0:
113,276,139642,1,0,3:0:0:0:
77,304,139717,5,0,3:0:0:0:
113,287,139792,1,0,3:0:0:0:
152,294,139867,1,10,3:0:0:0:
186,315,139942,1,0,3:0:0:0:
210,346,140017,5,0,3:0:0:0:
237,323,140092,1,0,3:0:0:0:
271,319,140167,1,10,3:0:0:0:
304,330,140242,1,0,3:0:0:0:
381,372,140317,5,0,3:0:0:0:
369,333,140392,1,8,2:0:0:0:
377,293,140467,1,8,2:0:0:0:
403,262,140542,1,8,2:0:0:0:
474,237,140617,5,8,3:0:0:0:
479,209,140692,1,8,2:0:0:0:
434,169,140767,1,8,2:0:0:0:
431,136,140842,1,8,2:0:0:0:
459,55,140917,5,0,3:0:0:0:
475,85,140992,1,0,3:0:0:0:
475,120,141067,1,0,3:0:0:0:
458,151,141142,1,0,3:0:0:0:
391,85,141217,5,0,3:0:0:0:
381,102,141292,1,0,3:0:0:0:
377,121,141367,1,0,3:0:0:0:
379,140,141442,1,0,3:0:0:0:
391,155,141517,5,6,3:0:0:0:
348,181,141592,1,0,3:0:0:0:
298,180,141667,1,10,3:0:0:0:
254,155,141742,1,0,3:0:0:0:
214,124,141817,1,0,3:0:0:0:
164,130,141892,1,0,3:0:0:0:
130,167,141967,6,0,L|138:243,1,50,10|0,3:0|3:0,3:0:0:0:
231,262,142117,2,0,L|223:338,2,50,2|0|10,3:0|3:0|3:0,3:0:0:0:
313,366,142342,1,2,3:0:0:0:
328,384,142417,2,0,L|404:376,1,50,0|0,3:0|3:0,0:0:0:0:
497,267,142567,2,0,L|421:259,1,50,10|0,3:0|3:0,3:0:0:0:
261,172,142717,5,6,3:0:0:0:
308,187,142792,1,0,3:0:0:0:
354,168,142867,1,10,3:0:0:0:
377,123,142942,1,0,3:0:0:0:
364,74,143017,1,0,3:0:0:0:
322,46,143092,1,0,3:0:0:0:
272,50,143167,1,10,3:0:0:0:
230,77,143242,1,0,3:0:0:0:
205,120,143317,1,0,3:0:0:0:
166,151,143392,1,0,3:0:0:0:
116,160,143467,1,10,3:0:0:0:
69,140,143542,1,0,3:0:0:0:
45,95,143617,6,0,P|41:71|46:27,1,50,2|0,3:0|3:0,3:0:0:0:
209,182,143767,2,0,P|219:159|225:116,1,50,10|0,3:0|3:0,3:0:0:0:
20,301,143917,2,0,B|29:294|29:294|45:301|45:301|65:291,3,50,2|0|10|2,3:0|0:0|3:0|3:0,3:0:0:0:
227,258,144217,6,0,L|221:301,1,25,0|0,3:0|0:0,0:0:0:0:
200,333,144292,2,0,L|194:290,1,25,2|0,3:0|0:0,3:0:0:0:
155,268,144367,2,0,L|230:261,1,50,10|0,3:0|3:0,0:0:0:0:
394,372,144517,6,0,L|319:365,1,62.5,2|0,3:0|3:0,3:0:0:0:
355,202,144667,1,10,3:0:0:0:
415,259,144742,2,0,P|438:256|476:223,1,62.5,2|0,3:0|3:0,3:0:0:0:
399,125,144892,1,0,3:0:0:0:
339,182,144967,2,0,P|316:179|278:146,1,62.5,10|0,3:0|3:0,3:0:0:0:
228,4,145117,6,0,B|224:36|224:36|230:45|230:45|223:91,1,62.5,2|0,3:0|3:0,3:0:0:0:
21,166,145267,1,10,3:0:0:0:
70,171,145342,1,0,3:0:0:0:
119,177,145417,1,0,3:0:0:0:
168,184,145492,1,0,3:0:0:0:
204,263,145567,5,10,3:0:0:0:
253,258,145642,1,0,3:0:0:0:
302,252,145717,2,0,L|379:239,1,62.5,2|0,3:0|3:0,3:0:0:0:
504,48,145867,5,10,3:0:0:0:
499,97,145942,1,0,3:0:0:0:
493,146,146017,1,2,3:0:0:0:
486,195,146092,1,0,3:0:0:0:
479,244,146167,2,0,L|470:326,1,62.5,10|0,3:0|2:0,2:0:0:0:
282,357,146317,6,0,B|306:339|306:339|342:356|407:350,1,75.0000028610231,14|0,3:2|3:0,3:0:0:0:
186,205,146467,1,10,3:2:0:0:
129,226,146542,1,0,3:0:0:0:
71,210,146617,1,10,3:2:0:0:
38,159,146692,1,0,3:0:0:0:
43,99,146767,6,0,L|137:85,1,75.0000028610231,10|0,3:2|3:0,0:0:0:0:
334,183,146917,2,0,B|297:188|297:188|253:161,1,75.0000028610231,10|0,3:2|3:0,3:0:0:0:
105,267,147067,2,0,B|142:272|142:272|186:245,1,75.0000028610231,10|0,3:2|3:0,3:0:0:0:
398,91,147217,2,0,L|304:77,1,75.0000028610231,10|0,3:2|3:0,3:0:0:0:
268,347,147367,2,0,B|262:318|262:318|266:309|266:309|257:265,1,75.0000028610231,10|0,3:2|3:0,3:0:0:0:
126,47,147517,5,10,3:2:0:0:
124,84,147592,1,0,3:0:0:0:
122,121,147667,2,0,B|151:100|151:100|208:122,1,75.0000028610231,10|0,3:2|3:0,3:0:0:0:
476,133,147817,5,10,3:2:0:0:
478,162,147892,1,0,3:0:0:0:
480,193,147967,2,0,B|456:176|456:176|411:193,1,62.5,10|0,3:2|3:0,3:0:0:0:
162,190,148117,5,10,3:2:0:0:
164,228,148192,1,0,3:0:0:0:
166,264,148267,2,0,B|195:243|195:243|252:265,1,75.0000028610231,10|0,3:2|3:0,3:0:0:0:
405,291,148417,5,10,3:2:0:0:
403,320,148492,1,0,3:0:0:0:
401,351,148567,2,0,B|377:334|377:334|332:351,1,62.5,10|0,3:2|3:0,3:0:0:0:
133,347,148717,6,0,P|171:350|215:312,1,75.0000028610231,14|0,3:0|3:0,0:0:0:0:
59,116,148867,1,8,0:2:0:0:
35,154,148942,1,8,0:2:0:0:
50,204,149017,1,8,3:2:0:0:
102,233,149092,1,8,0:2:0:0:
168,222,149167,5,8,2:0:0:0:
205,156,149242,1,8,2:0:0:0:
276,133,149317,1,8,3:2:0:0:
345,161,149392,1,0,3:0:0:0:
359,234,149467,5,0,3:0:0:0:
355,263,149542,1,0,3:0:0:0:
352,292,149617,1,8,2:0:0:0:
329,324,149692,5,0,3:0:0:0:
325,295,149767,1,0,3:0:0:0:
322,266,149842,1,0,3:0:0:0:
402,177,149917,5,8,2:0:0:0:
456,203,149992,1,8,2:0:0:0:
481,257,150067,1,0,3:0:0:0:
465,315,150142,1,0,3:0:0:0:
356,352,150217,5,8,2:0:0:0:
302,326,150292,1,8,2:0:0:0:
277,272,150367,1,8,3:0:0:0:
293,214,150442,1,8,3:0:0:0:
276,304,150517,5,0,3:0:0:0:
210,341,150592,1,0,3:0:0:0:
136,324,150667,1,0,3:0:0:0:
97,259,150742,1,0,3:0:0:0:
165,186,150817,5,0,3:0:0:0:
172,197,150892,1,0,3:0:0:0:
164,210,150967,1,0,3:0:0:0:
153,198,151042,1,0,3:0:0:0:
80,146,151117,5,6,3:0:0:0:
116,107,151192,1,0,3:0:0:0:
166,93,151267,1,0,3:0:0:0:
215,110,151342,1,0,3:0:0:0:
248,150,151417,1,10,3:0:0:0:
296,169,151492,1,0,3:0:0:0:
348,163,151567,1,0,3:0:0:0:
394,138,151642,1,0,3:0:0:0:
400,54,151717,5,10,3:0:0:0:
388,73,151792,1,0,3:0:0:0:
383,95,151867,1,0,3:0:0:0:
390,116,151942,1,0,3:0:0:0:
483,129,152017,5,10,3:0:0:0:
475,115,152092,1,0,3:0:0:0:
462,106,152167,1,0,3:0:0:0:
447,103,152242,1,0,3:0:0:0:
389,154,152317,5,10,3:0:0:0:
359,188,152392,1,0,3:0:0:0:
315,198,152467,1,0,3:0:0:0:
272,184,152542,1,0,3:0:0:0:
244,148,152617,1,10,3:0:0:0:
210,117,152692,1,0,3:0:0:0:
165,110,152767,1,0,3:0:0:0:
122,125,152842,1,0,3:0:0:0:
76,190,152917,5,10,3:0:0:0:
71,211,152992,1,0,3:0:0:0:
73,233,153067,1,0,3:0:0:0:
83,253,153142,1,0,3:0:0:0:
174,246,153217,6,0,P|144:237|97:248,1,75.0000028610231,10|0,3:0|3:0,0:0:0:0:
224,360,153367,2,0,P|254:369|301:358,1,75.0000028610231,2|0,3:0|3:0,3:0:0:0:
356,187,153517,5,14,3:0:0:0:
333,234,153592,1,0,3:0:0:0:
360,278,153667,1,0,3:0:0:0:
410,291,153742,1,0,3:0:0:0:
459,273,153817,1,10,3:0:0:0:
475,223,153892,1,0,3:0:0:0:
450,176,153967,1,0,3:0:0:0:
400,159,154042,1,0,3:0:0:0:
315,160,154117,5,10,3:0:0:0:
287,147,154192,1,0,3:0:0:0:
273,119,154267,1,0,3:0:0:0:
274,89,154342,1,0,3:0:0:0:
351,19,154417,5,10,3:0:0:0:
362,54,154492,1,0,3:0:0:0:
352,90,154567,1,0,3:0:0:0:
325,116,154642,1,0,3:0:0:0:
236,101,154717,5,10,3:0:0:0:
182,128,154792,1,0,3:0:0:0:
152,180,154867,1,0,3:0:0:0:
149,239,154942,1,0,3:0:0:0:
180,290,155017,1,10,3:0:0:0:
236,311,155092,1,0,3:0:0:0:
294,297,155167,1,0,3:0:0:0:
331,250,155242,1,0,3:0:0:0:
306,174,155317,6,0,P|287:214|295:267,1,75.0000028610231,10|0,3:0|3:0,0:0:0:0:
486,235,155467,2,0,P|456:191|407:170,1,75.0000028610231,0|0,3:0|3:0,3:0:0:0:
354,345,155617,2,0,P|395:350|446:325,3,75.0000028610231,10|0|0|0,3:0|3:0|3:0|3:0,0:0:0:0:
271,265,155917,5,14,3:0:0:0:
220,280,155992,1,0,3:0:0:0:
170,261,156067,1,0,3:0:0:0:
141,216,156142,1,0,3:0:0:0:
142,163,156217,1,10,3:0:0:0:
170,119,156292,1,0,3:0:0:0:
173,66,156367,1,0,3:0:0:0:
139,25,156442,1,0,3:0:0:0:
47,30,156517,5,10,3:0:0:0:
48,44,156592,1,0,3:0:0:0:
49,58,156667,1,0,3:0:0:0:
50,72,156742,1,0,3:0:0:0:
121,117,156817,5,10,3:0:0:0:
122,96,156892,1,0,3:0:0:0:
123,76,156967,1,0,3:0:0:0:
125,55,157042,1,0,3:0:0:0:
45,87,157117,5,10,3:0:0:0:
21,125,157192,1,0,3:0:0:0:
21,169,157267,1,0,3:0:0:0:
45,206,157342,1,0,3:0:0:0:
151,203,157417,5,10,3:0:0:0:
119,183,157492,1,0,3:0:0:0:
81,182,157567,1,0,3:0:0:0:
50,203,157642,1,0,3:0:0:0:
9,284,157717,5,10,3:0:0:0:
38,276,157792,1,0,3:0:0:0:
67,268,157867,1,0,3:0:0:0:
96,260,157942,1,0,3:0:0:0:
169,306,158017,5,10,3:0:0:0:
159,285,158092,1,0,3:0:0:0:
160,262,158167,1,0,3:0:0:0:
170,242,158242,1,0,3:0:0:0:
234,144,158317,5,14,3:0:0:0:
241,156,158392,1,0,3:0:0:0:
247,177,158467,1,0,3:0:0:0:
241,206,158542,1,0,3:0:0:0:
211,229,158617,1,0,3:0:0:0:
166,226,158692,1,0,3:0:0:0:
130,118,158767,5,10,3:0:0:0:
137,131,158842,1,0,3:0:0:0:
142,160,158917,1,0,3:0:0:0:
132,196,158992,1,0,3:0:0:0:
92,217,159067,1,0,3:0:0:0:
40,206,159142,1,0,3:0:0:0:
38,112,159217,5,10,3:0:0:0:
58,133,159292,1,0,3:0:0:0:
72,167,159367,1,0,3:0:0:0:
68,211,159442,1,0,3:0:0:0:
26,271,159517,5,10,3:0:0:0:
33,322,159592,1,0,3:0:0:0:
73,354,159667,1,0,3:0:0:0:
125,352,159742,1,0,3:0:0:0:
169,323,159817,2,0,P|189:280|191:250,1,75.0000028610231,0|0,3:0|3:0,0:0:0:0:
289,160,159967,5,10,3:0:0:0:
294,219,160042,1,0,3:0:0:0:
336,261,160117,1,0,3:0:0:0:
395,271,160192,1,0,3:0:0:0:
437,228,160267,1,0,3:0:0:0:
445,168,160342,1,0,3:0:0:0:
398,113,160417,5,8,2:0:0:0:
304,160,160492,1,8,2:0:0:0:
321,264,160567,1,8,2:0:0:0:
425,281,160642,1,8,2:0:0:0:
471,187,160717,6,0,L|394:174,1,75.0000028610231,6|0,3:0|0:0,0:0:0:0:
99,178,160867,2,0,B|144:203|144:203|263:153,1,150.000005722046,10|2,2:2|3:2,0:0:0:0:
275,69,161092,1,0,3:0:0:0:
192,25,161167,2,0,P|181:57|194:112,1,75.0000028610231,10|0,2:2|0:0,0:0:0:0:
254,277,161317,5,2,3:2:0:0:
285,50,161467,1,10,2:2:0:0:
470,176,161617,1,2,3:2:0:0:
425,167,161692,1,0,3:0:0:0:
381,160,161767,1,10,2:2:0:0:
211,300,161917,6,0,B|307:295|307:295|330:319|330:319|449:313,1,225.000008583069,6|0,3:0|0:0,3:0:0:0:
450,84,162217,2,0,L|441:189,1,75.0000028610231,2|0,3:2|3:0,0:0:0:0:
423,334,162367,1,10,2:2:0:0:
183,226,162517,5,2,3:2:0:0:
383,240,162667,1,10,2:2:0:0:
301,369,162817,2,0,L|297:288,1,75.0000028610231,2|0,3:2|3:0,3:0:0:0:
204,140,162967,2,0,L|200:221,1,75.0000028610231,10|0,2:2|3:0,3:0:0:0:
29,351,163117,6,0,P|73:355|105:334,1,75.0000028610231,6|0,3:2|0:0,0:0:0:0:
110,112,163267,2,0,B|85:157|85:157|117:300,1,150.000005722046,10|2,2:2|3:2,0:0:0:0:
189,304,163492,1,0,3:0:0:0:
251,203,163567,2,0,P|207:199|175:220,1,75.0000028610231,10|0,2:2|0:0,0:0:0:0:
396,355,163717,6,0,B|498:344|498:344|458:317,1,150.000005722046,2|10,3:2|3:2,3:0:0:0:
279,193,164017,1,2,3:2:0:0:
275,237,164092,1,0,3:0:0:0:
271,282,164167,1,10,2:2:0:0:
492,82,164317,6,0,B|396:77|396:77|373:101|373:101|254:95,1,225.000008583069,6|0,3:0|0:0,3:0:0:0:
442,211,164617,2,0,L|354:219,1,75.0000028610231,2|0,3:2|3:0,0:0:0:0:
194,232,164767,1,10,2:0:0:0:
347,84,164917,5,2,3:2:0:0:
310,356,165067,1,10,2:0:0:0:
119,86,165217,1,8,2:2:0:0:
121,130,165292,1,8,2:0:0:0:
124,175,165367,1,0,3:0:0:0:
435,320,165517,5,10,3:0:0:0:
390,324,165592,1,0,0:0:0:0:
342,301,165667,1,0,3:0:0:0:
324,243,165742,1,0,3:0:0:0:
345,179,165817,2,0,L|422:161,1,75.0000028610231,0|0,3:0|3:0,0:0:0:0:
45,190,165967,5,0,3:0:0:0:
57,123,166042,1,0,3:0:0:0:
118,95,166117,1,0,3:0:0:0:
183,111,166192,1,0,3:0:0:0:
221,166,166267,1,0,3:0:0:0:
276,203,166342,1,0,3:0:0:0:
343,195,166417,5,8,2:0:0:0:
381,139,166492,1,0,3:0:0:0:
345,81,166567,5,0,3:0:0:0:
250,155,166642,1,0,3:0:0:0:
451,168,166717,5,14,3:0:0:0:
256,192,166792,12,0,167842,2:0:0:0:
43,65,167917,6,0,L|157:46,1,75.0000028610231,6|0,3:0|0:0,3:0:0:0:
374,201,168067,1,0,0:0:0:0:
322,191,168142,1,0,3:0:0:0:
270,182,168217,1,2,3:2:0:0:
218,173,168292,1,0,3:0:0:0:
166,164,168367,2,0,L|81:147,1,75.0000028610231,10|0,3:2|3:0,3:0:0:0:
54,333,168517,6,0,P|89:330|142:300,1,75.0000028610231,2|0,3:2|0:0,0:0:0:0:
256,133,168667,2,0,P|233:177|228:233,1,75.0000028610231,10|0,3:2|0:0,0:0:0:0:
386,338,168817,2,0,P|372:303|347:276,1,75.0000028610231,2|0,3:2|0:0,0:0:0:0:
95,219,168967,2,0,P|140:240|205:247,1,75.0000028610231,10|0,3:2|0:0,0:0:0:0:
288,65,169117,5,2,3:2:0:0:
261,384,169267,2,0,L|237:131,1,225.000008583069,10|0,3:2|3:0,3:0:0:0:
245,130,169567,1,10,3:2:0:0:
463,248,169717,1,2,3:2:0:0:
403,240,169792,1,0,3:0:0:0:
343,232,169867,1,10,3:2:0:0:
283,221,169942,1,0,3:0:0:0:
223,211,170017,2,0,L|231:298,1,75.0000028610231,2|0,3:2|0:0,0:0:0:0:
374,150,170167,2,0,L|367:75,1,75.0000028610231,10|0,3:2|0:0,0:0:0:0:
138,26,170317,6,0,B|129:102|129:102|205:112|205:112|215:36,1,225.000008583069,2|0,3:0|3:0,3:0:0:0:
124,42,170617,2,0,B|115:118|115:118|191:128|191:128|201:52,1,225.000008583069,2|0,3:0|3:0,3:0:0:0:
181,18,170917,1,2,3:2:0:0:
25,160,171067,1,10,3:2:0:0:
94,333,171217,1,2,3:2:0:0:
268,295,171367,1,10,3:2:0:0:
36,257,171517,5,8,2:0:0:0:
21,317,171592,1,0,3:0:0:0:
46,301,171667,1,0,3:0:0:0:
75,302,171742,1,0,3:0:0:0:
131,346,171817,5,0,3:0:0:0:
186,340,171892,1,0,3:0:0:0:
229,231,171967,5,0,3:0:0:0:
156,248,172042,1,0,3:0:0:0:
266,283,172117,5,8,2:0:0:0:
270,253,172192,1,0,3:0:0:0:
274,223,172267,1,0,3:0:0:0:
277,193,172342,1,0,3:0:0:0:
330,143,172417,5,0,3:0:0:0:
332,71,172492,1,0,3:0:0:0:
267,29,172567,5,0,3:0:0:0:
253,104,172642,1,0,3:0:0:0:
338,163,172717,5,6,3:0:0:0:
256,15,172867,1,0,0:0:0:0:
263,74,172942,1,0,3:0:0:0:
270,133,173017,1,2,3:2:0:0:
277,192,173092,1,0,3:0:0:0:
284,251,173167,2,0,L|292:342,1,75.0000028610231,10|0,3:2|3:0,3:0:0:0:
484,205,173317,6,0,P|426:189|400:194,1,75.0000028610231,2|0,3:2|0:0,0:0:0:0:
161,141,173467,2,0,P|214:152|240:173,1,75.0000028610231,10|0,3:2|0:0,0:0:0:0:
394,375,173617,2,0,P|370:313|371:273,1,75.0000028610231,2|0,3:2|0:0,0:0:0:0:
185,346,173767,2,0,P|229:310|241:280,1,75.0000028610231,10|0,3:2|0:0,0:0:0:0:
325,151,173917,5,2,3:2:0:0:
43,270,174067,2,0,L|278:218,1,225.000008583069,10|0,3:2|3:0,3:0:0:0:
293,230,174367,1,10,3:2:0:0:
48,176,174517,1,2,3:2:0:0:
106,163,174592,1,0,3:0:0:0:
165,150,174667,1,10,3:2:0:0:
223,137,174742,1,0,3:0:0:0:
281,124,174817,2,0,L|369:100,1,75.0000028610231,2|0,3:2|0:0,0:0:0:0:
131,12,174967,2,0,L|219:36,1,75.0000028610231,10|0,3:2|0:0,0:0:0:0:
416,319,175117,5,8,2:0:0:0:
372,259,175192,1,8,2:0:0:0:
325,284,175267,1,8,2:0:0:0:
268,269,175342,1,8,2:0:0:0:
223,235,175417,1,8,2:0:0:0:
157,240,175492,1,8,2:0:0:0:
90,302,175567,5,8,2:0:0:0:
105,230,175642,1,8,2:0:0:0:
65,148,175717,5,8,3:0:0:0:
108,185,175792,1,8,2:0:0:0:
168,177,175867,1,8,2:0:0:0:
212,139,175942,1,8,2:0:0:0:
234,68,176017,5,8,2:0:0:0:
253,127,176092,1,8,2:0:0:0:
302,95,176167,1,0,3:0:0:0:
301,72,176242,1,0,3:0:0:0:
178,7,176317,5,14,0:0:0:0:
175,31,176392,1,0,0:0:0:0:
192,66,176467,1,0,3:0:0:0:
197,96,176542,1,0,3:0:0:0:
147,148,176617,5,10,2:3:0:0:
218,198,176692,1,0,3:0:0:0:
218,266,176767,1,0,3:0:0:0:
183,279,176842,1,0,3:0:0:0:
93,239,176917,5,0,3:0:0:0:
91,232,176992,1,0,3:0:0:0:
91,227,177067,1,0,3:0:0:0:
91,219,177142,1,0,3:0:0:0:
181,288,177217,5,8,2:0:0:0:
183,295,177292,1,0,3:0:0:0:
183,300,177367,1,0,3:0:0:0:
183,308,177442,1,0,3:0:0:0:
93,352,177517,5,14,3:0:0:0:
151,314,177592,1,0,3:0:0:0:
227,318,177667,1,0,3:0:0:0:
286,362,177742,1,0,3:0:0:0:
365,363,177817,1,0,3:0:0:0:
425,317,177892,1,0,3:0:0:0:
446,248,177967,1,0,3:0:0:0:
431,178,178042,1,0,3:0:0:0:
371,141,178117,6,0,L|335:183,1,37.5000014305115,0|0,3:0|2:0,2:0:0:0:
309,188,178192,2,0,L|319:239,1,37.5000014305115,0|0,3:0|2:0,2:0:0:0:
317,265,178267,2,0,L|354:287,1,37.5000014305115,0|0,3:0|2:0,2:0:0:0:
382,306,178342,2,0,L|424:283,1,37.5000014305115,0|0,3:0|2:0,2:0:0:0:
452,288,178417,2,0,L|461:251,1,37.5000014305115,8|0,2:0|2:0,2:0:0:0:
482,225,178492,2,0,L|452:192,1,37.5000014305115,0|0,3:0|2:0,2:0:0:0:
465,159,178567,2,0,L|419:148,1,37.5000014305115,0|0,3:0|2:0,2:0:0:0:
407,131,178642,2,0,L|400:177,1,37.5000014305115,0|0,3:0|2:0,2:0:0:0:
392,220,178717,5,8,2:0:0:0:
72,131,179017,5,2,3:0:0:0:
402,239,179317,5,10,3:0:0:0:
52,124,179467,2,0,P|91:49|59:142,1,375.000014305115,8|0,0:0|0:0,0:0:0:0:
220,4,179917,6,0,P|250:51|238:186,1,187.5,6|0,3:0|3:0,3:0:0:0:
158,242,180217,6,0,B|110:246|110:246|108:275|108:275|162:290|159:344|127:353|78:349,1,187.5,10|0,3:0|0:0,3:0:0:0:
243,283,180517,2,0,P|233:313|252:361,1,62.5,0|0,3:0|0:0,0:0:0:0:
302,346,180667,2,0,P|312:316|293:268,1,62.5,0|0,3:0|0:0,0:0:0:0:
410,255,180817,2,0,P|405:286|432:330,1,62.5,10|0,3:0|0:0,0:0:0:0:
479,306,180967,2,0,P|483:274|456:230,1,62.5,0|0,3:0|0:0,3:0:0:0:
319,143,181117,5,0,3:0:0:0:
399,236,181267,1,0,3:0:0:0:
512,117,181417,2,0,B|474:134|474:134|395:78,1,125,10|0,3:0|3:0,0:0:0:0:
235,269,181717,5,0,0:0:0:0:
343,155,181867,1,0,3:0:0:0:
131,82,182017,1,10,3:0:0:0:
319,75,182167,2,0,P|292:83|260:117,1,62.5,2|0,3:0|0:0,0:0:0:0:
24,178,182317,6,0,P|92:176|140:216,1,125,0|0,3:0|0:0,0:0:0:0:
282,343,182617,2,0,B|259:373|259:373|250:267,1,125,10|0,3:0|3:0,3:0:0:0:
414,235,182917,1,0,3:0:0:0:
388,359,183067,1,0,3:0:0:0:
274,195,183217,1,10,3:0:0:0:
468,301,183367,6,0,B|433:275|433:275|321:294,1,125,0|0,3:0|3:0,3:0:0:0:
204,134,183667,2,0,B|239:108|239:108|351:127,1,125,0|10,3:0|3:0,3:0:0:0:
176,325,183967,1,0,3:0:0:0:
99,117,184117,5,0,0:0:0:0:
139,308,184267,1,0,3:0:0:0:
111,91,184417,1,10,3:0:0:0:
249,233,184567,1,0,3:0:0:0:
0,215,184717,6,0,B|68:203|68:203|100:232|100:232|206:213,1,187.5,2|0,3:0|3:0,3:0:0:0:
387,342,185017,2,0,L|254:320,1,125,10|0,3:0|3:0,3:0:0:0:
458,96,185317,2,0,P|444:171|476:223,1,125,0|0,3:0|3:0,0:0:0:0:
303,19,185617,1,10,3:0:0:0:
223,158,185767,2,0,L|351:145,1,125,0|0,3:0|3:0,3:0:0:0:
78,14,186067,2,0,L|206:27,1,125,0|10,3:0|3:0,3:0:0:0:
164,241,186367,1,0,3:0:0:0:
131,98,186517,5,0,3:0:0:0:
41,298,186667,1,0,3:0:0:0:
251,355,186817,1,10,3:0:0:0:
329,162,186967,1,2,3:0:0:0:
429,369,187117,5,2,3:0:0:0:
429,369,187267,1,0,0:0:0:0:
289,233,187417,2,0,P|357:239|400:193,1,125,10|0,3:0|3:0,3:0:0:0:
391,33,187717,1,2,3:0:0:0:
276,224,187867,1,0,3:0:0:0:
266,55,188017,1,10,3:0:0:0:
461,262,188167,6,0,B|488:207|488:207|460:145,1,125,0|2,3:0|3:0,3:0:0:0:
214,290,188467,2,0,B|177:240|177:240|194:174,1,125,0|10,3:0|3:0,3:0:0:0:
340,364,188767,1,0,3:0:0:0:
278,133,188917,5,0,0:0:0:0:
296,304,189067,1,0,3:0:0:0:
118,232,189217,1,10,3:0:0:0:
378,199,189367,1,2,3:0:0:0:
170,375,189517,6,0,B|134:340|134:340|-22:371,1,187.5,6|0,3:0|3:0,3:0:0:0:
118,232,189817,2,0,B|176:221|176:221|242:251,1,125,10|0,3:0|3:0,3:0:0:0:
102,117,190117,2,0,B|44:125|44:125|-4:178,1,125,2|0,3:0|3:0,3:0:0:0:
211,140,190417,1,10,3:0:0:0:
233,49,190567,1,0,3:0:0:0:
426,233,190717,6,0,L|283:196,1,125,2|0,3:0|3:0,3:0:0:0:
491,155,191017,1,10,3:0:0:0:
247,343,191167,2,0,P|290:316|380:308,1,125,0|2,3:0|3:0,3:0:0:0:
223,353,191467,1,0,3:0:0:0:
369,283,191617,1,10,3:0:0:0:
393,137,191767,1,0,3:0:0:0:
202,235,191917,6,0,L|392:171,1,187.5,2|0,3:0|3:0,3:0:0:0:
402,183,192217,1,10,3:0:0:0:
360,74,192367,1,0,3:0:0:0:
246,349,192517,2,0,L|264:183,1,125,2|0,3:0|3:0,3:0:0:0:
477,384,192817,2,0,L|459:218,1,125,10|0,3:0|3:0,3:0:0:0:
259,117,193117,6,0,P|334:146|412:135,1,125,2|0,3:0|3:0,3:0:0:0:
472,80,193417,1,10,3:0:0:0:
138,122,193567,2,0,P|211:105|276:126,1,125,0|2,3:0|3:0,0:0:0:0:
61,208,193867,1,0,3:0:0:0:
243,313,194017,2,0,P|162:281|106:284,1,125,10|0,3:0|3:0,0:0:0:0:
336,384,194317,6,0,B|372:314|372:314|342:133,1,250,2|10,3:0|3:0,3:0:0:0:
320,39,194767,1,0,3:0:0:0:
258,227,194917,1,2,3:0:0:0:
233,152,195067,1,0,3:0:0:0:
434,251,195217,1,10,3:0:0:0:
459,176,195367,1,0,3:0:0:0:
346,342,195517,6,0,L|331:200,1,125,2|0,3:0|3:0,0:0:0:0:
404,37,195817,1,10,3:0:0:0:
396,117,195967,1,0,3:0:0:0:
268,0,196117,2,0,L|259:124,1,125,2|0,3:0|3:0,0:0:0:0:
138,200,196417,1,10,3:0:0:0:
136,118,196567,1,0,3:0:0:0:
308,310,196717,6,0,L|338:275,1,31.25,2|8,3:0|0:0,0:0:0:0:
293,352,196792,1,0,0:0:0:0:
240,357,196867,1,0,3:0:0:0:
219,314,196942,1,8,2:0:0:0:
241,255,197017,1,8,3:0:0:0:
221,193,197092,1,8,2:0:0:0:
165,155,197167,1,8,2:0:0:0:
100,153,197242,1,8,2:0:0:0:
41,119,197317,1,8,3:0:0:0:
39,53,197392,1,8,2:0:0:0:
95,11,197467,5,8,2:0:0:0:
158,33,197542,1,8,2:0:0:0:
205,90,197617,1,8,3:0:0:0:
284,102,197692,1,8,2:0:0:0:
355,69,197767,5,0,3:0:0:0:
291,21,197842,1,0,3:0:0:0:
280,109,197917,5,0,3:0:0:0:
483,356,198217,5,0,2:0:0:0:
464,354,198367,1,0,2:0:0:0:
445,352,198517,1,0,2:0:0:0:
426,350,198667,1,0,2:0:0:0:
407,348,198817,6,0,L|374:344,1,30,0|0,2:0|2:0,2:0:0:0:
211,358,199117,5,6,3:0:0:0:
156,349,199192,1,0,3:0:0:0:
122,305,199267,1,10,3:0:0:0:
137,252,199342,1,0,3:0:0:0:
185,225,199417,1,0,3:0:0:0:
238,236,199492,1,0,3:0:0:0:
274,276,199567,1,10,3:0:0:0:
328,286,199642,1,0,3:0:0:0:
381,272,199717,5,0,3:0:0:0:
379,240,199792,1,0,3:0:0:0:
341,173,199867,5,10,3:0:0:0:
339,205,199942,1,0,3:0:0:0:
390,177,200017,5,0,3:0:0:0:
388,145,200092,1,0,3:0:0:0:
350,78,200167,5,10,3:0:0:0:
348,110,200242,1,0,3:0:0:0:
428,80,200317,5,0,3:0:0:0:
390,40,200392,1,0,3:0:0:0:
335,34,200467,1,10,3:0:0:0:
285,57,200542,1,0,3:0:0:0:
268,109,200617,2,0,P|240:122|204:118,1,50,2|0,3:0|3:0,3:0:0:0:
149,196,200767,2,0,P|123:178|109:145,1,50,10|0,3:0|3:0,3:0:0:0:
62,21,200917,5,0,3:0:0:0:
108,50,200992,1,0,3:0:0:0:
117,104,201067,1,10,3:0:0:0:
98,155,201142,1,0,3:0:0:0:
14,187,201217,5,0,3:0:0:0:
43,141,201292,1,0,3:0:0:0:
97,132,201367,1,10,3:0:0:0:
148,151,201442,1,0,3:0:0:0:
190,239,201517,5,0,3:0:0:0:
221,284,201592,1,0,3:0:0:0:
272,302,201667,1,10,3:0:0:0:
326,293,201742,1,0,3:0:0:0:
362,251,201817,1,0,3:0:0:0:
368,196,201892,1,0,3:0:0:0:
339,148,201967,5,10,3:0:0:0:
292,118,202042,1,0,3:0:0:0:
284,63,202117,1,0,3:0:0:0:
319,20,202192,1,0,3:0:0:0:
373,12,202267,1,10,3:0:0:0:
410,51,202342,1,0,3:0:0:0:
411,105,202417,1,0,3:0:0:0:
381,151,202492,1,0,3:0:0:0:
391,205,202567,1,10,3:0:0:0:
437,234,202642,1,0,3:0:0:0:
491,226,202717,6,0,L|485:168,1,50,0|0,3:0|3:0,0:0:0:0:
434,20,202867,2,0,L|428:78,1,50,10|0,3:0|3:0,3:0:0:0:
275,204,203017,5,2,3:0:0:0:
471,165,203167,1,10,3:0:0:0:
327,365,203317,2,0,B|292:354|292:354|274:364|274:364|219:355,1,100,2|10,3:0|3:0,3:0:0:0:
0,188,203617,6,0,B|77:174|77:174|91:192|91:192|136:171|136:171|176:182|176:182|217:151,1,225.000008583069,2|0,3:0|3:0,3:0:0:0:
146,0,203917,5,6,3:0:0:0:
97,26,203992,1,0,3:0:0:0:
79,78,204067,1,10,3:0:0:0:
102,127,204142,1,0,3:0:0:0:
151,150,204217,1,0,3:0:0:0:
205,147,204292,1,0,3:0:0:0:
242,106,204367,1,10,3:0:0:0:
292,83,204442,1,0,3:0:0:0:
345,97,204517,5,0,3:0:0:0:
353,146,204592,1,0,3:0:0:0:
305,202,204667,5,10,3:0:0:0:
313,153,204742,1,0,3:0:0:0:
377,201,204817,5,0,3:0:0:0:
369,250,204892,1,0,3:0:0:0:
323,302,204967,5,10,3:0:0:0:
315,253,205042,1,0,3:0:0:0:
411,320,205117,5,0,3:0:0:0:
379,364,205192,1,0,3:0:0:0:
327,383,205267,1,10,3:0:0:0:
273,372,205342,1,0,3:0:0:0:
237,329,205417,6,0,L|233:252,1,50,2|0,3:0|3:0,3:0:0:0:
144,115,205567,2,0,L|140:192,1,50,10|0,3:0|3:0,3:0:0:0:
15,293,205717,6,0,L|92:289,1,50,0|0,3:0|3:0,3:0:0:0:
177,143,205867,1,10,3:0:0:0:
156,125,205942,2,0,L|205:127,1,50,0|0,3:0|3:0,3:0:0:0:
274,273,206092,1,0,3:0:0:0:
253,291,206167,2,0,L|330:287,1,50,10|0,3:0|3:0,3:0:0:0:
484,181,206317,5,6,3:0:0:0:
426,198,206392,1,0,3:0:0:0:
366,191,206467,1,0,3:0:0:0:
327,144,206542,1,0,3:0:0:0:
321,84,206617,1,10,3:0:0:0:
357,36,206692,1,0,3:0:0:0:
370,131,206767,5,14,3:0:0:0:
319,162,206842,1,0,3:0:0:0:
259,158,206917,1,0,3:0:0:0:
218,114,206992,1,0,3:0:0:0:
159,100,207067,1,10,3:0:0:0:
106,129,207142,1,0,3:0:0:0:
121,236,207217,5,14,3:0:0:0:
165,195,207292,1,0,3:0:0:0:
165,135,207367,1,0,3:0:0:0:
129,86,207442,1,0,3:0:0:0:
40,188,207517,5,14,3:0:0:0:
76,235,207592,1,0,3:0:0:0:
133,253,207667,1,0,3:0:0:0:
192,244,207742,1,0,3:0:0:0:
237,204,207817,1,0,3:0:0:0:
253,146,207892,1,0,3:0:0:0:
390,215,207967,5,10,3:0:0:0:
365,244,208042,1,0,3:0:0:0:
328,256,208117,1,0,3:0:0:0:
289,251,208192,1,0,3:0:0:0:
261,225,208267,1,0,3:0:0:0:
250,186,208342,1,0,3:0:0:0:
173,275,208417,5,10,3:0:0:0:
191,291,208492,1,0,3:0:0:0:
215,293,208567,1,0,3:0:0:0:
239,286,208642,1,0,3:0:0:0:
347,298,208717,5,6,3:0:0:0:
306,278,208792,1,0,3:0:0:0:
289,235,208867,1,10,3:2:0:0:
304,192,208942,1,0,3:0:0:0:
342,168,209017,6,0,L|398:155,1,50,0|0,3:0|3:0,0:0:0:0:
512,275,209167,2,0,L|455:261,1,50,10|0,3:2|3:0,0:0:0:0:
331,369,209317,2,0,L|396:357,2,50,0|0|10,3:0|3:2|0:2,0:0:0:0:
394,239,209542,2,0,L|344:248,1,50,0|0,3:0|3:0,3:0:0:0:
227,293,209692,2,0,L|229:363,2,50,0|10|0,3:0|3:2|3:0,0:0:0:0:
141,125,209917,5,0,3:0:0:0:
128,178,209992,1,0,3:0:0:0:
150,228,210067,1,10,3:2:0:0:
200,248,210142,1,0,3:0:0:0:
254,240,210217,1,0,3:0:0:0:
297,206,210292,1,0,3:0:0:0:
344,178,210367,1,10,3:2:0:0:
398,181,210442,1,0,3:0:0:0:
438,218,210517,1,0,3:0:0:0:
446,272,210592,1,0,3:0:0:0:
418,319,210667,1,10,3:2:0:0:
365,334,210742,1,0,3:0:0:0:
310,326,210817,6,0,P|297:285|296:265,1,50,2|0,3:2|3:0,3:0:0:0:
408,132,210967,2,0,P|400:174|391:192,1,50,10|0,3:2|3:0,3:0:0:0:
258,52,211117,6,0,P|249:80|252:124,2,50,2|0|10,3:2|3:0|3:2,3:0:0:0:
373,0,211342,2,0,P|382:28|379:72,2,50,0|2|0,3:0|3:2|3:0,0:0:0:0:
240,129,211567,2,0,P|277:122|319:133,1,50,10|0,3:2|3:0,3:0:0:0:
433,281,211717,2,0,L|371:274,1,50,2|0,3:2|3:0,3:0:0:0:
201,299,211867,1,10,3:2:0:0:
238,346,211942,2,0,P|260:335|291:294,1,50,0|2,3:0|3:2,3:0:0:0:
186,219,212092,1,0,3:0:0:0:
149,246,212167,2,0,P|151:279|177:313,1,50,10|0,3:2|3:0,3:0:0:0:
436,200,212317,6,0,L|375:187,1,50,6|0,3:0|3:0,3:0:0:0:
266,161,212467,1,10,3:2:0:0:
212,147,212542,1,0,3:0:0:0:
158,134,212617,1,0,3:0:0:0:
104,121,212692,1,0,3:0:0:0:
51,105,212767,2,0,L|-3:89,1,50,10|0,3:2|3:0,3:0:0:0:
201,31,212917,2,0,L|153:45,1,50,6|0,3:0|3:0,3:0:0:0:
31,237,213067,5,10,3:2:0:0:
31,200,213142,1,0,3:0:0:0:
67,182,213217,1,8,2:0:0:0:
113,234,213292,1,8,2:0:0:0:
176,253,213367,1,0,3:0:0:0:
221,211,213442,1,0,3:0:0:0:
186,138,213517,6,0,B|174:162|174:162|177:242,1,75.0000028610231,6|0,3:0|3:0,3:0:0:0:
306,362,213667,1,10,3:2:0:0:
330,299,213742,1,0,3:0:0:0:
354,236,213817,1,10,3:2:0:0:
379,173,213892,1,0,3:0:0:0:
404,110,213967,6,0,B|410:81|410:81|391:22,1,75.0000028610231,10|0,3:2|3:0,3:0:0:0:
180,112,214117,2,0,B|205:144|205:144|273:160,1,75.0000028610231,10|0,3:2|3:0,3:0:0:0:
462,239,214267,2,0,B|437:227|437:227|357:231,1,75.0000028610231,10|0,3:2|3:0,3:0:0:0:
177,251,214417,2,0,B|204:249|204:249|277:282,1,75.0000028610231,10|0,3:2|3:0,3:0:0:0:
416,382,214567,2,0,B|388:385|388:385|314:355,1,75.0000028610231,10|0,3:2|3:0,3:0:0:0:
308,178,214717,5,10,3:2:0:0:
357,161,214792,1,0,3:0:0:0:
406,144,214867,2,0,B|412:181|412:181|409:240,1,75.0000028610231,10|0,3:2|3:0,3:0:0:0:
279,312,215017,5,10,3:2:0:0:
241,317,215092,1,0,3:0:0:0:
203,323,215167,2,0,L|110:336,1,75.0000028610231,10|0,3:2|3:0,3:0:0:0:
51,187,215317,5,10,3:2:0:0:
79,195,215392,1,0,3:0:0:0:
107,203,215467,2,0,L|197:231,1,75.0000028610231,10|0,3:2|3:0,3:0:0:0:
282,60,215617,5,10,3:2:0:0:
264,73,215692,1,0,3:0:0:0:
252,82,215767,2,0,L|182:111,1,75.0000028610231,10|0,3:2|3:0,3:0:0:0:
16,82,215917,5,8,3:0:0:0:
43,21,215992,1,8,3:0:0:0:
98,44,216067,1,8,2:0:0:0:
121,98,216142,1,8,2:0:0:0:
111,140,216217,1,8,2:0:0:0:
77,174,216292,1,8,2:0:0:0:
32,237,216367,5,8,3:0:0:0:
70,205,216442,1,8,2:0:0:0:
131,203,216517,1,8,2:0:0:0:
175,227,216592,1,8,2:0:0:0:
211,267,216667,1,8,2:0:0:0:
273,262,216742,1,8,2:0:0:0:
307,194,216817,5,8,3:0:0:0:
294,163,216892,1,8,2:0:0:0:
275,168,216967,1,8,2:0:0:0:
276,199,217042,1,8,2:0:0:0:
367,244,217117,6,0,L|359:241,1,6.25,8|0,3:0|3:0,3:0:0:0:
400,170,217192,2,0,L|389:172,1,7.49999977111817,8|0,2:0|3:0,3:0:0:0:
367,92,217267,2,0,L|357:106,1,10,8|0,2:0|3:0,3:0:0:0:
291,52,217342,2,0,L|292:78,1,14.9999995422363,8|0,2:0|3:0,3:0:0:0:
206,65,217417,2,0,L|218:97,1,22.4999993133545,8|0,2:0|3:0,3:0:0:0:
153,137,217492,2,0,L|188:143,1,29.9999990844727,0|0,0:0|3:0,3:0:0:0:
168,224,217567,2,0,P|193:221|214:212,1,34.9999989318848,0|0,3:0|3:0,3:0:0:0:
110,292,217642,2,0,P|131:314|168:324,1,40,0|0,3:0|3:0,3:0:0:0:
33,288,217717,6,0,P|27:321|50:365,1,44.999998626709,0|0,3:0|3:0,3:0:0:0:
12,206,217792,2,0,P|30:228|74:231,1,50,0|0,3:0|3:0,3:0:0:0:
76,147,217867,2,0,P|74:93|54:47,1,55.0000016784668,0|0,3:0|3:0,3:0:0:0:
169,153,217942,2,0,P|196:94|187:46,1,64.9999970245363,0|0,3:0|3:0,3:0:0:0:
247,201,218017,2,0,P|242:264|208:302,1,72.5000022125245,0|0,3:0|3:0,3:0:0:0:
334,215,218092,2,0,P|342:164|330:99,1,82.5000007867813,0|0,3:0|3:0,3:0:0:0:
428,165,218167,2,0,P|445:213|429:268,1,89.9999972534181,0|0,3:0|3:0,3:0:0:0:
445,68,218242,2,0,P|480:88|525:157,1,100,0|0,3:0|3:0,3:0:0:0:
355,4,218317,5,6,3:0:0:0:
298,23,218392,1,0,3:0:0:0:
270,76,218467,1,0,3:0:0:0:
291,132,218542,1,0,3:0:0:0:
331,176,218617,1,10,3:0:0:0:
346,234,218692,1,0,3:0:0:0:
324,290,218767,1,0,3:0:0:0:
268,312,218842,1,0,3:0:0:0:
168,265,218917,5,10,3:0:0:0:
199,244,218992,1,0,3:0:0:0:
236,238,219067,1,0,3:0:0:0:
270,253,219142,1,0,3:0:0:0:
282,331,219217,5,10,3:0:0:0:
279,293,219292,1,0,3:0:0:0:
292,258,219367,1,0,3:0:0:0:
322,236,219442,1,0,3:0:0:0:
395,334,219517,5,10,3:0:0:0:
342,363,219592,1,0,3:0:0:0:
282,357,219667,1,0,3:0:0:0:
238,315,219742,1,0,3:0:0:0:
232,255,219817,1,10,3:0:0:0:
267,206,219892,1,0,3:0:0:0:
294,152,219967,1,0,3:0:0:0:
269,97,220042,1,0,3:0:0:0:
306,191,220117,5,10,3:0:0:0:
335,195,220192,1,0,3:0:0:0:
364,187,220267,1,0,3:0:0:0:
386,167,220342,1,0,3:0:0:0:
380,65,220417,6,0,P|370:102|373:139,1,75.0000028610231,10|0,3:0|3:0,3:0:0:0:
485,169,220567,2,0,P|488:206|479:243,1,75.0000028610231,2|0,3:0|3:0,3:0:0:0:
343,278,220717,5,14,3:0:0:0:
287,301,220792,1,0,3:0:0:0:
231,277,220867,5,0,3:0:0:0:
276,237,220942,1,0,3:0:0:0:
291,179,221017,1,10,3:0:0:0:
277,120,221092,1,0,3:0:0:0:
238,73,221167,1,0,3:0:0:0:
178,66,221242,1,0,3:0:0:0:
156,169,221317,5,10,3:0:0:0:
185,162,221392,1,0,3:0:0:0:
206,141,221467,1,0,3:0:0:0:
212,111,221542,1,0,3:0:0:0:
116,120,221617,5,10,3:0:0:0:
107,148,221692,1,0,3:0:0:0:
115,177,221767,1,0,3:0:0:0:
138,197,221842,1,0,3:0:0:0:
132,84,221917,5,14,3:0:0:0:
73,72,221992,1,0,3:0:0:0:
20,101,222067,1,0,3:0:0:0:
13,160,222142,1,0,3:0:0:0:
44,211,222217,1,10,3:0:0:0:
103,220,222292,1,0,3:0:0:0:
153,187,222367,1,0,3:0:0:0:
212,184,222442,1,0,3:0:0:0:
254,269,222517,6,0,P|209:280|177:272,1,75.0000028610231,10|0,3:0|3:0,3:0:0:0:
267,108,222667,2,0,P|297:141|305:173,1,75.0000028610231,2|0,3:0|3:0,3:0:0:0:
121,159,222817,2,0,P|143:117|192:96,3,75.0000028610231,10|0|0|0,3:0|3:0|3:0|3:0,0:0:0:0:
354,380,223117,5,10,3:0:0:0:
309,339,223192,1,0,3:0:0:0:
304,279,223267,1,0,3:0:0:0:
338,230,223342,1,0,3:0:0:0:
394,209,223417,1,10,3:0:0:0:
421,155,223492,1,0,3:0:0:0:
409,96,223567,1,0,3:0:0:0:
359,61,223642,1,0,3:0:0:0:
306,147,223717,5,10,3:0:0:0:
335,140,223792,1,0,3:0:0:0:
364,133,223867,1,0,3:0:0:0:
393,126,223942,1,0,3:0:0:0:
268,58,224017,5,10,3:0:0:0:
239,51,224092,1,0,3:0:0:0:
210,44,224167,1,0,3:0:0:0:
181,37,224242,1,0,3:0:0:0:
98,85,224317,5,10,3:0:0:0:
92,144,224392,1,0,3:0:0:0:
87,203,224467,1,0,3:0:0:0:
82,262,224542,1,0,3:0:0:0:
188,330,224617,5,10,3:0:0:0:
185,300,224692,1,0,3:0:0:0:
182,270,224767,1,0,3:0:0:0:
179,240,224842,1,0,3:0:0:0:
107,349,224917,5,10,3:0:0:0:
140,365,224992,1,0,3:0:0:0:
177,363,225067,1,0,3:0:0:0:
206,339,225142,1,0,3:0:0:0:
215,204,225217,5,10,3:0:0:0:
199,237,225292,1,0,3:0:0:0:
201,274,225367,1,0,3:0:0:0:
225,303,225442,1,0,3:0:0:0:
336,309,225517,5,14,3:0:0:0:
282,267,225592,1,0,0:0:0:0:
214,267,225667,1,8,2:0:0:0:
166,315,225742,1,8,2:0:0:0:
102,338,225817,1,8,2:0:0:0:
46,314,225892,1,8,2:0:0:0:
29,264,225967,1,8,2:0:0:0:
43,221,226042,1,8,2:0:0:0:
134,186,226117,5,0,3:0:0:0:
87,234,226192,1,8,2:0:0:0:
21,218,226267,1,8,2:0:0:0:
4,152,226342,1,8,2:0:0:0:
91,90,226417,5,0,3:0:0:0:
127,97,226492,1,8,2:0:0:0:
164,94,226567,1,8,2:0:0:0:
195,73,226642,1,8,2:0:0:0:
277,3,226717,5,0,3:0:0:0:
226,47,226792,1,8,2:0:0:0:
226,114,226867,1,8,2:0:0:0:
277,158,226942,1,8,2:0:0:0:
300,221,227017,1,0,3:0:0:0:
291,280,227092,1,8,2:0:0:0:
245,305,227167,1,8,2:0:0:0:
197,301,227242,1,8,2:0:0:0:
114,240,227317,5,0,3:0:0:0:
151,234,227392,1,0,3:0:0:0:
188,228,227467,1,0,3:0:0:0:
225,222,227542,1,0,3:0:0:0:
393,98,227617,5,0,3:0:0:0:
363,93,227692,1,0,3:0:0:0:
333,88,227767,1,0,3:0:0:0:
304,83,227842,1,0,3:0:0:0:
417,269,227917,6,0,L|508:255,1,75.0000028610231,6|0,3:0|0:0,3:0:0:0:
388,84,228067,2,0,L|225:56,1,150.000005722046,10|2,3:2|3:2,0:0:0:0:
163,174,228292,1,0,3:0:0:0:
246,204,228367,2,0,B|251:169|251:169|229:108,1,75.0000028610231,10|0,3:2|0:0,0:0:0:0:
117,24,228517,5,2,3:2:0:0:
46,340,228667,1,10,3:2:0:0:
161,159,228817,1,2,3:2:0:0:
169,210,228892,1,0,3:0:0:0:
176,261,228967,1,10,3:2:0:0:
1,167,229117,6,0,B|98:147|98:147|115:155|115:155|265:122,1,225.000008583069,2|0,3:2|0:0,3:0:0:0:
394,251,229417,2,0,L|303:238,1,75.0000028610231,2|0,3:2|3:0,0:0:0:0:
169,210,229567,1,10,3:2:0:0:
322,76,229717,5,2,3:2:0:0:
366,355,229867,1,10,3:2:0:0:
161,217,230017,2,0,L|244:200,1,75.0000028610231,2|0,3:2|3:0,3:0:0:0:
460,291,230167,2,0,L|377:274,1,75.0000028610231,10|0,3:2|0:0,0:0:0:0:
340,59,230317,6,0,L|349:150,1,75.0000028610231,6|0,3:0|0:0,0:0:0:0:
301,316,230467,2,0,P|257:295|138:331,1,150.000005722046,10|2,3:2|3:2,0:0:0:0:
59,353,230692,1,2,3:2:0:0:
121,308,230767,2,0,P|131:268|121:231,1,75.0000028610231,10|0,3:2|0:0,0:0:0:0:
0,135,230917,2,0,B|34:164|34:164|141:142,1,150.000005722046,2|10,3:2|3:2,3:0:0:0:
294,4,231217,1,2,3:2:0:0:
250,13,231292,1,0,0:0:0:0:
206,23,231367,1,10,3:2:0:0:
401,293,231517,6,0,L|419:60,1,225.000008583069,6|0,3:0|0:0,3:0:0:0:
512,1,231817,2,0,L|507:93,1,75.0000028610231,2|2,3:2|3:2,0:0:0:0:
493,204,231967,1,10,3:2:0:0:
335,3,232117,5,2,3:2:0:0:
257,296,232267,1,10,3:2:0:0:
427,170,232417,1,2,3:2:0:0:
382,166,232492,1,0,3:0:0:0:
337,162,232567,1,10,3:2:0:0:
131,91,232717,5,2,3:2:0:0:
75,129,232792,1,0,3:0:0:0:
52,192,232867,1,10,3:2:0:0:
59,259,232942,1,0,3:0:0:0:
103,310,233017,2,0,P|147:331|197:323,1,75.0000028610231,2|0,3:2|3:0,0:0:0:0:
430,219,233167,5,10,3:2:0:0:
369,178,233242,1,0,3:0:0:0:
302,177,233317,1,2,3:2:0:0:
241,214,233392,1,0,3:0:0:0:
169,228,233467,1,10,3:2:0:0:
109,181,233542,1,0,3:0:0:0:
94,110,233617,5,0,3:0:0:0:
139,38,233692,1,0,3:0:0:0:
207,90,233767,1,0,3:0:0:0:
164,157,233842,1,0,3:0:0:0:
85,121,233917,6,0,B|406:18|199:278|517:159,1,449.99998626709,10|0,3:0|3:0,3:0:0:0:
512,0,235117,6,0,P|493:43|496:98,1,75.0000028610231,6|0,3:0|3:0,3:0:0:0:
402,242,235267,1,10,2:2:0:0:
361,209,235342,1,0,3:0:0:0:
308,212,235417,1,2,3:2:0:0:
265,242,235492,1,0,3:0:0:0:
262,294,235567,2,0,L|356:268,1,75.0000028610231,10|0,2:0|3:0,0:0:0:0:
338,87,235717,6,0,B|347:68|347:68|262:84,1,75.0000028610231,2|0,3:2|3:0,3:0:0:0:
152,174,235867,2,0,B|143:193|143:193|228:177,1,75.0000028610231,10|0,2:2|3:0,3:0:0:0:
188,12,236017,2,0,B|203:48|203:48|188:86,1,75.0000028610231,2|0,3:2|3:0,3:0:0:0:
302,196,236167,2,0,B|287:232|287:232|302:270,1,75.0000028610231,10|0,2:0|3:0,3:0:0:0:
87,281,236317,2,0,B|123:277|123:277|133:284|133:284|187:279,1,75.0000028610231,2|0,3:2|0:0,0:0:0:0:
345,346,236467,6,0,B|324:371|324:371|335:226,1,150.000005722046,10|0,2:0|0:0,3:0:0:0:
394,191,236692,1,0,3:0:0:0:
445,256,236767,2,0,P|485:254|516:229,1,75.0000028610231,10|0,2:0|0:0,0:0:0:0:
488,30,236917,2,0,B|470:18|470:18|478:85,1,75.0000028610231,2|0,3:2|3:0,0:0:0:0:
196,183,237067,1,10,2:0:0:0:
255,178,237142,1,0,3:0:0:0:
314,173,237217,6,0,L|419:163,1,75.0000028610231,2|0,3:2|3:0,3:0:0:0:
359,338,237367,2,0,B|341:350|341:350|349:283,1,75.0000028610231,10|0,2:0|3:0,3:0:0:0:
189,93,237517,6,0,B|230:53|230:53|220:171|220:171|275:99,1,225.000008583069,6|0,3:0|3:0,3:0:0:0:
358,286,237817,2,0,B|317:246|317:246|327:364|327:364|272:292,1,225.000008583069,2|0,3:0|3:0,3:0:0:0:
125,311,238117,6,0,L|223:316,1,75.0000028610231,2|0,3:2|0:0,0:0:0:0:
240,152,238267,2,0,B|218:181|218:181|229:224,1,75.0000028610231,10|0,2:0|0:0,0:0:0:0:
9,183,238417,2,0,L|107:178,1,75.0000028610231,2|0,0:2|0:0,0:0:0:0:
157,19,238567,2,0,B|179:48|179:48|168:91,1,75.0000028610231,10|0,2:0|0:0,0:0:0:0:
218,312,238717,5,8,0:0:0:0:
277,304,238792,1,0,3:0:0:0:
336,297,238867,1,8,2:0:0:0:
395,291,238942,1,8,2:0:0:0:
468,228,239017,6,0,L|506:215,1,37.5000014305115,8|0,0:2|0:0,0:0:0:0:
408,194,239092,1,8,2:0:0:0:
395,127,239167,1,8,2:0:0:0:
433,71,239242,1,8,2:0:0:0:
500,65,239317,5,0,3:0:0:0:
476,126,239392,1,0,3:0:0:0:
413,172,239467,5,0,3:0:0:0:
389,111,239542,1,0,3:0:0:0:
347,61,239617,5,0,3:0:0:0:
340,108,239692,1,0,3:0:0:0:
278,138,239767,5,0,3:0:0:0:
271,91,239842,1,0,3:0:0:0:
231,24,239917,6,0,B|117:17,1,75.0000028610231,6|0,3:0|3:0,3:0:0:0:
96,223,240067,1,10,2:2:0:0:
171,207,240142,1,0,3:0:0:0:
117,149,240217,2,0,B|3:142,1,75.0000028610231,2|0,3:2|3:0,0:0:0:0:
186,329,240367,6,0,B|212:315|212:315|278:344,1,75.0000028610231,10|0,2:0|0:0,0:0:0:0:
331,162,240517,2,0,B|317:188|317:188|346:254,1,75.0000028610231,2|0,3:2|0:0,0:0:0:0:
379,369,240667,2,0,B|365:343|365:343|394:277,1,75.0000028610231,10|0,2:0|0:0,0:0:0:0:
450,113,240817,6,0,B|453:140|453:140|460:142|460:142|465:193,1,75.0000028610231,2|0,3:2|0:0,0:0:0:0:
476,384,240967,2,0,B|479:357|479:357|486:355|486:355|491:304,1,75.0000028610231,10|0,2:0|0:0,0:0:0:0:
372,77,241117,6,0,L|298:84,1,75.0000028610231,2|0,0:2|0:0,0:0:0:0:
177,297,241267,2,0,B|207:324|207:324|197:170,1,150.000005722046,10|0,2:0|0:0,3:0:0:0:
194,129,241492,1,0,3:0:0:0:
115,209,241567,2,0,B|143:224|143:224|192:202,1,75.0000028610231,10|0,2:0|0:0,0:0:0:0:
95,14,241717,6,0,B|92:41|92:41|85:43|85:43|80:94,1,75.0000028610231,2|0,3:2|3:0,0:0:0:0:
248,355,241867,1,10,2:0:0:0:
243,296,241942,1,0,3:0:0:0:
238,237,242017,6,0,L|228:132,1,75.0000028610231,2|0,3:2|3:0,3:0:0:0:
67,300,242167,2,0,B|95:285|95:285|144:307,1,75.0000028610231,10|0,2:0|3:0,3:0:0:0:
382,360,242317,5,8,3:0:0:0:
321,329,242392,1,8,2:0:0:0:
303,263,242467,1,8,2:0:0:0:
330,201,242542,1,8,2:0:0:0:
410,169,242617,5,8,2:0:0:0:
437,107,242692,1,8,2:0:0:0:
419,41,242767,1,8,3:0:0:0:
358,10,242842,1,8,2:0:0:0:
315,100,242917,5,8,2:0:0:0:
234,114,242992,1,8,2:0:0:0:
262,35,243067,2,0,L|349:39,1,75.0000028610231,8|8,3:0|2:0,0:0:0:0:
233,280,243217,6,0,B|254:260|254:260|223:172,1,75.0000028610231,8|8,2:0|2:0,0:0:0:0:
118,10,243367,2,0,B|97:30|97:30|128:118,1,75.0000028610231,8|8,3:0|2:0,3:0:0:0:
48,244,243517,5,8,3:0:0:0:
83,205,243592,1,8,2:0:0:0:
134,205,243667,1,8,2:0:0:0:
167,238,243742,1,8,2:0:0:0:
220,325,243817,5,8,3:0:0:0:
267,311,243892,1,8,2:0:0:0:
295,252,243967,1,8,2:0:0:0:
360,239,244042,1,8,2:0:0:0:
429,326,244117,5,0,3:0:0:0:
396,294,244192,1,0,3:0:0:0:
388,250,244267,1,0,3:0:0:0:
404,207,244342,1,0,3:0:0:0:
502,287,244417,5,0,3:0:0:0:
512,257,244492,1,0,3:0:0:0:
506,225,244567,1,0,3:0:0:0:
483,203,244642,1,0,3:0:0:0:
403,340,244717,6,0,B|386:339|386:339|373:341|373:341|338:336,1,37.5000014305115,0|0,3:0|3:0,3:0:0:0:
57,285,244867,6,0,B|180:277|180:277|249:264|217:177,1,200,14|0,3:0|0:0,3:0:0:0:
185,39,245092,1,0,3:0:0:0:
116,79,245167,2,0,L|125:184,1,75.0000028610231,10|0,3:0|0:0,0:0:0:0:
172,336,245317,5,0,3:0:0:0:
214,321,245392,1,0,3:0:0:0:
256,307,245467,1,10,3:0:0:0:
325,321,245542,5,0,3:0:0:0:
367,305,245617,1,0,3:0:0:0:
409,289,245692,1,0,3:0:0:0:
436,234,245767,2,0,P|430:276|452:318,1,75.0000028610231,10|0,3:0|3:0,3:0:0:0:
506,121,245917,5,0,3:0:0:0:
461,92,245992,1,0,3:0:0:0:
408,94,246067,1,10,3:0:0:0:
365,125,246142,1,0,3:0:0:0:
334,168,246217,1,0,3:0:0:0:
285,187,246292,1,0,3:0:0:0:
234,171,246367,2,0,P|216:129|215:99,1,75.0000028610231,10|0,3:0|3:0,0:0:0:0:
380,5,246517,5,0,3:0:0:0:
386,57,246592,1,0,3:0:0:0:
392,109,246667,1,10,3:0:0:0:
445,161,246742,5,0,3:0:0:0:
451,213,246817,1,0,3:0:0:0:
457,265,246892,1,0,3:0:0:0:
500,317,246967,2,0,B|475:306|475:306|412:313,1,75.0000028610231,10|0,3:0|3:0,3:0:0:0:
294,358,247117,5,0,3:0:0:0:
249,357,247192,1,0,3:0:0:0:
204,354,247267,1,10,3:0:0:0:
159,351,247342,1,0,3:0:0:0:
114,349,247417,1,0,3:0:0:0:
69,345,247492,1,0,3:0:0:0:
24,341,247567,2,0,L|27:251,1,75.0000028610231,10|0,3:0|3:0,0:0:0:0:
76,108,247717,5,0,3:0:0:0:
119,97,247792,1,0,3:0:0:0:
162,86,247867,1,10,3:0:0:0:
231,110,247942,5,0,3:0:0:0:
274,99,248017,1,0,3:0:0:0:
317,88,248092,1,0,3:0:0:0:
358,27,248167,2,0,B|345:48|345:48|360:123,1,75.0000028610231,10|0,3:0|3:0,3:0:0:0:
451,215,248317,5,6,3:0:0:0:
158,112,248467,1,10,3:0:0:0:
133,191,248617,5,0,3:0:0:0:
420,63,248767,1,10,3:0:0:0:
435,140,248917,5,6,3:0:0:0:
349,368,249067,1,10,3:0:0:0:
424,365,249217,5,0,3:0:0:0:
142,266,249367,1,10,3:0:0:0:
389,276,249517,6,0,B|385:293|385:293|386:305|386:305|383:327,1,29.9999990844727,0|0,3:0|0:0,0:0:0:0:
512,110,249667,2,0,B|505:77|451:77|451:77|305:78,1,200,14|0,3:0|0:0,3:0:0:0:
216,157,249892,1,0,3:0:0:0:
144,129,249967,2,0,B|142:95|142:95|154:55,1,75.0000028610231,10|0,3:0|0:0,0:0:0:0:
293,2,250117,5,0,3:0:0:0:
301,53,250192,1,0,3:0:0:0:
310,104,250267,1,10,3:0:0:0:
366,157,250342,5,0,3:0:0:0:
358,208,250417,1,0,3:0:0:0:
349,259,250492,1,0,3:0:0:0:
299,317,250567,2,0,B|319:305|319:305|381:296,1,75.0000028610231,10|0,3:0|3:0,3:0:0:0:
506,187,250717,5,0,3:0:0:0:
454,155,250792,1,0,3:0:0:0:
394,156,250867,1,10,3:0:0:0:
342,187,250942,1,0,3:0:0:0:
285,208,251017,1,0,3:0:0:0:
226,196,251092,1,0,3:0:0:0:
180,156,251167,2,0,B|170:183|170:183|182:241,1,75.0000028610231,10|0,3:0|3:0,0:0:0:0:
377,69,251317,5,0,3:0:0:0:
317,60,251392,1,0,3:0:0:0:
257,52,251467,1,10,3:0:0:0:
187,85,251542,5,0,3:0:0:0:
127,76,251617,1,0,3:0:0:0:
67,68,251692,1,0,3:0:0:0:
32,13,251767,2,0,L|38:132,1,75.0000028610231,10|0,3:0|3:0,3:0:0:0:
162,232,251917,5,0,3:0:0:0:
165,291,251992,1,0,0:0:0:0:
121,331,252067,1,10,3:0:0:0:
61,326,252142,1,0,0:0:0:0:
11,243,252217,5,0,3:0:0:0:
48,237,252292,1,0,3:0:0:0:
85,231,252367,1,10,3:0:0:0:
122,226,252442,1,0,0:0:0:0:
238,326,252517,5,0,3:0:0:0:
199,289,252592,1,0,0:0:0:0:
197,236,252667,1,10,3:0:0:0:
227,193,252742,1,0,0:0:0:0:
301,169,252817,5,0,3:0:0:0:
321,137,252892,1,0,3:0:0:0:
323,99,252967,2,0,P|311:54|284:25,1,75.0000028610231,10|0,3:0|0:0,0:0:0:0:
119,12,253117,5,8,3:0:0:0:
58,51,253192,1,8,2:0:0:0:
104,76,253267,1,8,2:0:0:0:
132,119,253342,1,8,2:0:0:0:
128,171,253417,1,8,3:0:0:0:
64,201,253492,5,0,2:0:0:0:
100,251,253567,1,0,2:0:0:0:
87,303,253642,1,0,2:0:0:0:
26,343,253717,5,0,3:0:0:0:
46,331,253792,1,0,3:0:0:0:
71,330,253867,1,0,3:0:0:0:
141,363,253942,5,0,3:0:0:0:
167,375,254017,1,0,3:0:0:0:
196,354,254092,1,0,3:0:0:0:
261,381,254167,2,0,L|348:371,1,75.0000028610231,0|0,3:0|3:0,0:0:0:0:
451,185,254317,5,6,3:0:0:0:
376,167,254392,1,0,3:0:0:0:
317,213,254467,1,0,3:0:0:0:
322,280,254542,1,0,3:0:0:0:
370,314,254617,1,0,3:0:0:0:
419,295,254692,1,0,3:0:0:0:
396,230,254767,6,0,L|391:316,1,75.0000028610231,0|0,3:0|3:0,0:0:0:0:
512,149,254917,5,6,3:0:0:0:
461,82,254992,1,0,3:0:0:0:
382,59,255067,1,0,3:0:0:0:
301,91,255142,1,0,3:0:0:0:
242,144,255217,1,0,3:0:0:0:
166,168,255292,1,0,3:0:0:0:
90,162,255367,2,0,P|56:146|24:98,1,75.0000028610231,0|0,3:0|3:0,3:0:0:0:
254,28,255517,5,6,3:0:0:0:
304,72,255592,1,0,3:0:0:0:
312,138,255667,1,10,3:2:0:0:
281,197,255742,1,0,3:0:0:0:
230,242,255817,1,2,3:2:0:0:
230,309,255892,1,0,3:0:0:0:
270,363,255967,1,10,3:2:0:0:
337,369,256042,1,0,3:0:0:0:
397,338,256117,5,2,3:2:0:0:
394,270,256192,1,0,3:0:0:0:
328,229,256267,5,10,3:2:0:0:
325,297,256342,1,0,3:0:0:0:
403,245,256417,5,2,3:2:0:0:
346,208,256492,1,0,3:0:0:0:
278,210,256567,1,10,3:2:0:0:
230,257,256642,1,0,3:0:0:0:
175,343,256717,5,2,3:2:0:0:
124,298,256792,1,0,3:0:0:0:
124,230,256867,1,10,3:2:0:0:
167,178,256942,1,0,3:0:0:0:
196,117,257017,1,2,3:2:0:0:
186,50,257092,1,0,3:0:0:0:
129,13,257167,1,10,3:2:0:0:
62,21,257242,1,0,3:0:0:0:
25,77,257317,5,2,3:2:0:0:
91,90,257392,1,0,3:0:0:0:
150,9,257467,5,10,3:2:0:0:
84,22,257542,1,0,3:0:0:0:
167,105,257617,5,2,3:2:0:0:
233,115,257692,1,0,3:0:0:0:
285,73,257767,2,0,P|286:21|260:-27,1,75.0000028610231,10|0,3:2|3:0,3:0:0:0:
111,179,257917,5,6,3:0:0:0:
67,230,257992,1,0,3:0:0:0:
81,295,258067,1,10,3:2:0:0:
142,323,258142,1,0,3:0:0:0:
209,318,258217,5,2,3:2:0:0:
242,259,258292,1,0,3:0:0:0:
302,215,258367,5,10,3:2:0:0:
269,156,258442,1,0,3:0:0:0:
186,267,258517,5,2,3:2:0:0:
252,280,258592,1,0,3:0:0:0:
287,346,258667,5,10,3:2:0:0:
353,333,258742,1,0,3:0:0:0:
417,366,258817,5,2,3:2:0:0:
454,310,258892,1,0,3:0:0:0:
424,249,258967,1,10,3:2:0:0:
449,186,259042,1,0,3:0:0:0:
405,130,259117,5,2,3:2:0:0:
340,148,259192,1,0,3:0:0:0:
254,62,259267,5,10,3:2:0:0:
319,80,259342,1,0,3:0:0:0:
313,162,259417,5,2,3:2:0:0:
248,144,259492,1,0,3:0:0:0:
170,77,259567,5,10,3:2:0:0:
235,59,259642,1,0,3:0:0:0:
172,155,259717,5,0,3:2:0:0:
107,174,259792,1,8,2:0:0:0:
46,144,259867,1,8,2:0:0:0:
36,77,259942,1,8,2:0:0:0:
75,22,260017,5,8,3:0:0:0:
77,89,260092,1,8,2:0:0:0:
80,156,260167,1,8,2:0:0:0:
83,223,260242,1,8,2:0:0:0:
138,282,260317,5,6,3:0:0:0:
167,258,260392,1,0,3:0:0:0:
203,251,260467,1,0,3:0:0:0:
238,262,260542,1,0,3:0:0:0:
261,291,260617,1,10,3:0:0:0:
300,313,260692,1,0,3:0:0:0:
344,315,260767,1,0,3:0:0:0:
384,294,260842,1,0,3:0:0:0:
400,252,260917,5,2,3:0:0:0:
389,200,260992,1,0,3:0:0:0:
351,163,261067,1,0,3:0:0:0:
362,111,261142,1,0,3:0:0:0:
344,61,261217,5,10,3:0:0:0:
299,101,261292,1,0,3:0:0:0:
239,103,261367,1,0,3:0:0:0:
194,62,261442,1,0,3:0:0:0:
136,45,261517,1,2,3:0:0:0:
77,78,261592,1,0,3:0:0:0:
63,144,261667,1,0,3:0:0:0:
104,206,261742,1,0,3:0:0:0:
178,213,261817,5,10,3:0:0:0:
240,159,261892,1,0,3:0:0:0:
321,173,261967,1,0,3:0:0:0:
335,254,262042,1,0,3:0:0:0:
270,305,262117,6,0,B|232:300|232:300|233:304|233:304|186:296,1,75.0000028610231,2|0,3:0|3:0,3:0:0:0:
38,130,262267,2,0,B|76:125|76:125|75:129|75:129|122:121,1,75.0000028610231,0|0,3:0|3:0,3:0:0:0:
391,255,262417,6,0,B|344:250|344:250|380:221,1,75.0000028610231,10|0,3:0|3:0,3:0:0:0:
192,200,262567,2,0,B|239:195|239:195|203:166,1,75.0000028610231,0|0,3:0|3:0,3:0:0:0:
422,72,262717,6,0,P|414:59|412:30,1,25,6|0,3:0|3:0,3:0:0:0:
380,104,262792,2,0,P|374:87|373:61,1,25,0|0,3:0|2:0,0:0:0:0:
327,99,262867,2,0,P|330:78|338:63,1,25,0|0,3:0|2:0,0:0:0:0:
292,59,262942,2,0,P|296:45|309:28,1,25,0|0,3:0|3:0,0:0:0:0:
248,29,263017,2,0,P|248:5|251:-10,1,25,10|0,3:0|3:0,0:0:0:0:
188,37,263092,2,0,P|177:16|176:-1,1,25,0|0,3:0|3:0,0:0:0:0:
150,83,263167,2,0,P|128:75|112:66,1,25,0|0,3:0|2:0,0:0:0:0:
165,140,263242,2,0,P|149:148|121:146,1,25,0|0,3:0|2:0,0:0:0:0:
215,172,263317,6,0,P|203:185|179:196,1,31.25,2|0,3:0|2:0,0:0:0:0:
256,225,263392,2,0,P|228:239|206:235,1,31.25,0|0,3:0|3:0,0:0:0:0:
241,291,263467,2,0,P|217:291|195:280,1,31.25,0|0,3:0|3:0,0:0:0:0:
192,337,263542,2,0,P|172:322|163:297,1,31.25,0|0,3:0|3:0,0:0:0:0:
124,341,263617,2,0,P|120:316|124:291,1,31.25,10|0,3:0|2:0,0:0:0:0:
61,316,263692,2,0,P|68:283|77:267,1,31.25,0|0,3:0|2:0,0:0:0:0:
28,256,263767,2,0,P|49:239|71:234,1,31.25,0|0,3:0|3:0,0:0:0:0:
32,188,263842,2,0,P|57:187|85:202,1,31.25,0|0,3:0|3:0,0:0:0:0:
79,139,263917,6,0,L|118:154,1,37.5000014305115,2|0,3:0|0:0,0:0:0:0:
132,191,263992,2,0,L|172:165,1,37.5000014305115,8|0,2:0|0:0,0:0:0:0:
205,206,264067,2,0,L|214:159,1,37.5000014305115,8|0,2:0|0:0,0:0:0:0:
271,173,264142,2,0,L|266:117,1,37.5000014305115,8|0,2:0|0:0,0:0:0:0:
324,120,264217,2,0,L|318:63,1,37.5000014305115,0|0,3:0|0:0,0:0:0:0:
395,96,264292,2,0,L|396:49,1,37.5000014305115,8|0,2:0|0:0,0:0:0:0:
459,134,264367,2,0,L|484:96,1,37.5000014305115,8|0,2:0|0:0,0:0:0:0:
471,207,264442,2,0,L|522:201,1,37.5000014305115,8|0,2:0|0:0,0:0:0:0:
425,266,264517,6,0,P|410:256|397:217,1,43.7500004172325,8|0,3:0|0:0,3:0:0:0:
342,270,264592,2,0,P|333:249|343:211,1,43.7500004172325,8|0,2:0|0:0,0:0:0:0:
267,234,264667,2,0,P|273:204|289:175,1,43.7500004172325,8|0,2:0|0:0,3:0:0:0:
245,154,264742,2,0,P|266:127|285:116,1,43.7500004172325,8|0,2:0|0:0,0:0:0:0:
175,109,264817,2,0,P|179:85|194:60,1,43.7500004172325,0|0,3:0|0:0,3:0:0:0:
95,130,264892,2,0,P|76:117|63:85,1,43.7500004172325,0|0,3:0|0:0,0:0:0:0:
53,201,264967,2,0,P|28:205|0:193,1,43.7500004172325,0|0,3:0|0:0,3:0:0:0:
80,278,265042,2,0,P|65:297|46:309,1,43.7500004172325,0|0,3:0|0:0,0:0:0:0:
180,328,265117,6,0,B|190:305|190:305|175:244,1,75.0000028610231,6|0,3:0|3:0,0:0:0:0:
106,65,265267,1,10,2:2:0:0:
95,120,265342,1,0,3:0:0:0:
85,163,265417,5,2,3:2:0:0:
129,130,265492,1,0,3:0:0:0:
190,130,265567,1,10,2:2:0:0:
235,163,265642,1,0,3:0:0:0:
275,235,265717,5,2,3:2:0:0:
286,177,265792,1,0,3:0:0:0:
295,116,265867,1,10,2:0:0:0:
306,57,265942,1,0,3:0:0:0:
231,21,266017,6,0,B|206:83|206:83|409:20,1,225.000008583069,2|0,3:0|3:0,3:0:0:0:
501,195,266317,5,2,3:2:0:0:
453,172,266392,1,0,3:0:0:0:
400,175,266467,1,10,2:0:0:0:
358,206,266542,1,0,3:0:0:0:
318,287,266617,5,2,3:2:0:0:
311,227,266692,1,0,3:0:0:0:
304,167,266767,1,10,2:0:0:0:
297,107,266842,1,0,3:0:0:0:
357,36,266917,6,0,B|404:58|404:58|250:93,1,150.000005722046,2|10,3:2|2:0,3:0:0:0:
201,25,267142,1,0,3:0:0:0:
127,66,267217,2,0,B|120:125|120:125|153:78,1,75.0000028610231,2|0,3:2|3:0,3:0:0:0:
396,180,267367,2,0,B|384:121|384:121|367:176,1,75.0000028610231,10|0,2:0|3:0,3:0:0:0:
182,214,267517,5,6,3:0:0:0:
198,287,267592,1,0,3:0:0:0:
261,327,267667,1,10,2:0:0:0:
335,322,267742,1,0,3:0:0:0:
395,255,267817,5,2,3:2:0:0:
381,289,267892,1,0,3:0:0:0:
383,318,267967,1,10,2:0:0:0:
400,342,268042,1,0,3:0:0:0:
484,323,268117,5,2,3:2:0:0:
479,263,268192,1,0,3:0:0:0:
442,215,268267,1,10,2:0:0:0:
384,199,268342,1,0,3:0:0:0:
303,211,268417,5,2,3:2:0:0:
270,192,268492,1,0,3:0:0:0:
256,156,268567,1,10,2:2:0:0:
262,119,268642,1,0,3:0:0:0:
354,46,268717,6,0,L|336:149,6,62.5,2|0|0|0|10|0|0,3:2|3:0|3:0|3:0|2:0|3:0|3:0,3:0:0:0:
205,3,269017,6,0,L|223:106,6,75.0000028610231,2|0|0|0|10|0|0,3:2|3:0|3:0|2:0|3:2|3:0|3:0,3:0:0:0:
366,32,269317,6,0,L|348:135,6,62.5,2|0|0|0|10|0|0,3:2|3:0|3:0|3:0|2:0|3:0|3:0,3:0:0:0:
276,225,269617,6,0,B|187:289|41:288|87:62|313:123|129:400|0:182,1,405.000001544952,2|0,3:0|3:0,3:0:0:0:
186,115,269917,5,6,3:0:0:0:
226,159,269992,1,0,3:0:0:0:
241,216,270067,1,10,0:0:0:0:
219,272,270142,1,0,3:0:0:0:
131,313,270217,5,0,3:0:0:0:
191,298,270292,1,0,3:0:0:0:
253,322,270367,1,10,0:0:0:0:
315,314,270442,1,0,3:0:0:0:
386,360,270517,5,0,3:0:0:0:
356,296,270592,1,0,3:0:0:0:
370,227,270667,1,10,0:0:0:0:
423,181,270742,1,0,3:0:0:0:
459,121,270817,1,0,3:0:0:0:
430,56,270892,1,0,3:0:0:0:
361,40,270967,1,10,0:0:0:0:
304,81,271042,1,0,3:0:0:0:
256,180,271117,5,0,3:0:0:0:
324,149,271192,1,0,3:0:0:0:
330,74,271267,1,10,3:0:0:0:
284,14,271342,1,0,3:0:0:0:
209,18,271417,1,0,3:0:0:0:
154,69,271492,1,0,3:0:0:0:
83,95,271567,1,10,3:0:0:0:
11,70,271642,1,0,3:0:0:0:
76,2,271717,5,0,3:0:0:0:
87,76,271792,1,0,3:0:0:0:
99,150,271867,1,10,3:0:0:0:
111,224,271942,1,0,3:0:0:0:
73,288,272017,5,0,3:0:0:0:
147,259,272092,1,0,3:0:0:0:
224,277,272167,2,0,L|214:363,1,50,10|0,3:0|3:0,3:0:0:0:
32,164,272317,5,8,2:0:0:0:
6,227,272392,1,8,2:0:0:0:
41,200,272467,1,0,3:0:0:0:
89,195,272542,1,0,3:0:0:0:
146,227,272617,1,0,3:0:0:0:
211,232,272692,1,0,3:0:0:0:
265,197,272767,1,0,3:0:0:0:
325,177,272842,1,0,3:0:0:0:
396,203,272917,5,0,3:0:0:0:
387,238,272992,1,0,3:0:0:0:
387,264,273067,1,0,3:0:0:0:
402,291,273142,1,0,3:0:0:0:
475,322,273217,5,8,2:0:0:0:
473,243,273292,1,8,2:0:0:0:
406,199,273367,5,0,3:0:0:0:
400,211,273442,1,0,3:0:0:0:
479,147,273517,5,8,2:0:0:0:
409,106,273592,1,8,2:0:0:0:
329,108,273667,1,0,3:0:0:0:
260,149,273742,1,0,3:0:0:0:
182,169,273817,1,0,3:0:0:0:
110,134,273892,1,0,3:0:0:0:
97,60,273967,1,0,3:0:0:0:
153,18,274042,1,0,3:0:0:0:
181,90,274117,5,0,3:0:0:0:
70,355,274267,2,0,L|87:291,1,50,0|0,3:0|3:0,3:0:0:0:
153,18,274417,5,14,3:0:0:0:
102,89,274567,2,0,L|117:165,1,50,0|0,3:0|3:0,3:0:0:0:
149,375,274717,5,10,3:0:0:0:
256,192,274792,12,0,277042,3:0:0:0:
75,272,277117,5,8,2:0:0:0:
253,233,277267,1,8,2:0:0:0:
431,194,277417,1,8,2:0:0:0:
256,192,277492,12,0,279442,3:0:0:0:
476,87,279517,6,0,P|433:109|376:90,7,100,6|0|0|0|0|0|0|0,3:0|3:0|3:0|3:0|3:0|3:0|3:0|3:0,3:0:0:0:
352,223,281917,6,0,P|306:208|256:120,3,150.000005722046,0|0|0|0,3:0|3:0|3:0|3:0,3:0:0:0:
152,384,283117,6,0,P|202:330|329:337,1,200,0|0,3:0|3:0,3:0:0:0:
70,38,283717,6,0,P|91:109|-4:247,1,250,0|0,3:0|3:0,0:0:0:0:
479,239,284317,6,0,B|416:232|416:232|394:247|394:247|312:238,1,150,6|0,3:0|0:0,3:0:0:0:
340,209,284617,1,2,3:0:0:0:
302,348,284767,1,0,3:0:0:0:
207,146,284917,1,10,3:0:0:0:
219,276,285067,1,0,3:0:0:0:
347,174,285217,1,2,3:0:0:0:
347,174,285367,1,0,3:0:0:0:
177,123,285517,6,0,P|232:122|279:74,1,100,2|0,3:0|0:0,0:0:0:0:
104,281,285817,1,2,3:0:0:0:
84,153,285967,1,0,3:0:0:0:
204,372,286117,5,10,3:0:0:0:
275,123,286267,1,0,3:0:0:0:
296,264,286417,1,2,3:0:0:0:
201,28,286567,1,8,3:0:0:0:
63,182,286717,6,0,B|126:175|126:175|148:190|148:190|230:181,1,150,2|0,3:0|0:0,3:0:0:0:
240,181,287017,1,2,3:0:0:0:
199,353,287167,1,0,3:0:0:0:
173,102,287317,1,10,3:0:0:0:
113,268,287467,1,0,3:0:0:0:
358,217,287617,5,2,3:0:0:0:
179,187,287767,1,0,3:0:0:0:
262,273,287917,1,2,3:0:0:0:
318,30,288067,5,8,3:0:0:0:
329,193,288217,1,2,3:0:0:0:
415,129,288367,1,0,3:0:0:0:
147,185,288517,5,10,3:0:0:0:
248,180,288667,1,0,3:0:0:0:
243,79,288817,1,2,3:0:0:0:
142,84,288967,1,0,3:0:0:0:
51,332,289117,6,0,B|41:158,1,150,2|0,3:0|0:0,3:0:0:0:
43,149,289417,1,2,3:0:0:0:
137,350,289567,1,0,3:0:0:0:
379,261,289717,1,10,3:0:0:0:
150,223,289867,1,0,3:0:0:0:
288,377,290017,1,2,3:0:0:0:
251,95,290167,1,0,3:0:0:0:
374,291,290317,5,2,3:0:0:0:
388,70,290467,1,0,3:0:0:0:
289,347,290617,1,2,3:0:0:0:
271,191,290767,1,0,3:0:0:0:
87,360,290917,5,10,3:0:0:0:
113,101,291067,1,0,3:0:0:0:
259,337,291217,1,2,3:0:0:0:
247,207,291367,1,0,3:0:0:0:
447,379,291517,6,0,B|457:205,1,150,6|0,3:0|0:0,3:0:0:0:
455,196,291817,1,2,3:0:0:0:
359,307,291967,1,0,3:0:0:0:
137,114,292117,1,10,3:0:0:0:
396,84,292267,1,0,3:0:0:0:
175,311,292417,1,2,3:0:0:0:
249,18,292567,5,8,2:0:0:0:
249,18,292642,1,8,2:0:0:0:
249,18,292717,1,8,2:0:0:0:
511,115,292867,1,8,2:0:0:0:
199,160,293017,5,8,2:0:0:0:
437,206,293167,1,8,2:0:0:0:
246,298,293317,5,8,2:0:0:0:
382,287,293467,1,8,2:0:0:0:
361,84,293617,5,0,3:0:0:0:
345,98,293692,1,0,3:0:0:0:
359,114,293767,1,0,3:0:0:0:
375,99,293842,1,0,3:0:0:0:
272,42,293917,6,0,L|162:50,1,75.0000028610231,6|0,3:0|0:0,0:0:0:0:
58,123,294067,2,0,L|168:131,1,75.0000028610231,0|0,3:0|3:0,3:0:0:0:
277,190,294217,2,0,L|167:198,1,75.0000028610231,10|0,3:0|0:0,0:0:0:0:
59,287,294367,5,0,3:0:0:0:
55,264,294442,1,0,0:0:0:0:
51,241,294517,2,0,L|131:250,1,75.0000028610231,10|0,3:0|3:0,3:0:0:0:
258,325,294667,2,0,L|178:334,1,75.0000028610231,0|0,3:0|0:0,0:0:0:0:
339,239,294817,5,10,3:0:0:0:
360,233,294892,1,0,0:0:0:0:
381,226,294967,2,0,L|389:319,1,75.0000028610231,0|0,3:0|3:0,3:0:0:0:
270,176,295117,2,0,L|276:101,1,75.0000028610231,10|0,3:0|0:0,0:0:0:0:
349,19,295267,5,0,3:0:0:0:
370,13,295342,1,0,0:0:0:0:
391,6,295417,2,0,L|399:99,1,75.0000028610231,10|0,3:0|3:0,3:0:0:0:
256,182,295567,5,0,3:0:0:0:
235,188,295642,1,0,0:0:0:0:
214,195,295717,2,0,B|208:167|208:167|216:111,1,75.0000028610231,10|0,3:0|0:0,0:0:0:0:
365,238,295867,5,0,3:0:0:0:
386,232,295942,1,0,0:0:0:0:
407,225,296017,2,0,B|416:257|416:257|415:318,1,75.0000028610231,10|0,3:0|0:0,0:0:0:0:
195,353,296167,2,0,B|190:322|190:322|201:278,1,75.0000028610231,0|0,3:0|0:0,0:0:0:0:
356,112,296317,6,0,L|335:206,1,75.0000028610231,10|0,3:0|0:0,0:0:0:0:
210,60,296467,2,0,L|318:39,1,75.0000028610231,0|0,3:0|3:0,3:0:0:0:
236,201,296617,2,0,L|179:141,1,75.0000028610231,10|0,3:0|0:0,0:0:0:0:
367,28,296767,5,0,3:0:0:0:
387,18,296842,1,0,0:0:0:0:
407,8,296917,2,0,L|419:96,1,75.0000028610231,10|0,3:0|3:0,3:0:0:0:
291,219,297067,2,0,L|301:144,1,75.0000028610231,0|0,3:0|0:0,0:0:0:0:
436,236,297217,5,10,3:0:0:0:
446,256,297292,1,0,0:0:0:0:
455,276,297367,2,0,P|423:294|367:288,1,75.0000028610231,0|0,3:0|3:0,0:0:0:0:
218,191,297517,2,0,P|253:187|292:201,1,75.0000028610231,10|0,3:0|0:0,0:0:0:0:
281,359,297667,5,0,3:0:0:0:
259,351,297742,1,0,0:0:0:0:
243,335,297817,2,0,P|248:298|269:268,1,75.0000028610231,10|0,3:0|0:0,0:0:0:0:
425,215,297967,2,0,P|424:252|406:284,1,75.0000028610231,0|0,3:0|0:0,0:0:0:0:
211,177,298117,6,0,P|246:154|313:169,1,75.0000028610231,10|0,3:0|0:0,0:0:0:0:
413,95,298267,2,0,P|381:77|310:83,1,75.0000028610231,0|0,3:0|0:0,0:0:0:0:
347,237,298417,2,0,L|357:153,1,75.0000028610231,10|0,3:0|0:0,0:0:0:0:
210,8,298567,2,0,L|218:82,1,75.0000028610231,0|0,3:0|0:0,0:0:0:0:
422,80,298717,6,0,L|341:94,1,75.0000028610231,14|0,3:0|0:0,0:0:0:0:
169,177,298867,2,0,L|250:191,1,75.0000028610231,0|0,3:0|3:0,3:0:0:0:
419,249,299017,2,0,L|338:263,1,75.0000028610231,10|0,3:0|0:0,0:0:0:0:
175,295,299167,5,0,3:0:0:0:
169,273,299242,1,0,0:0:0:0:
163,251,299317,2,0,L|170:157,1,75.0000028610231,10|0,3:0|3:0,3:0:0:0:
276,41,299467,2,0,L|270:115,1,75.0000028610231,0|0,3:0|0:0,0:0:0:0:
93,148,299617,5,10,3:0:0:0:
87,126,299692,1,0,0:0:0:0:
81,104,299767,2,0,L|88:10,1,75.0000028610231,0|0,3:0|3:0,3:0:0:0:
244,193,299917,2,0,L|249:267,1,75.0000028610231,10|0,3:0|0:0,0:0:0:0:
40,320,300067,5,0,3:0:0:0:
47,298,300142,1,0,0:0:0:0:
63,282,300217,2,0,L|156:275,1,75.0000028610231,10|0,3:0|3:0,3:0:0:0:
249,334,300367,5,0,3:0:0:0:
260,354,300442,1,0,0:0:0:0:
278,366,300517,2,0,L|370:355,1,75.0000028610231,10|0,3:0|0:0,0:0:0:0:
394,249,300667,5,0,3:0:0:0:
405,229,300742,1,0,0:0:0:0:
423,217,300817,2,0,L|515:227,1,75.0000028610231,10|0,3:0|0:0,0:0:0:0:
421,347,300967,2,0,L|328:336,1,75.0000028610231,0|0,3:0|0:0,0:0:0:0:
239,149,301117,5,0,3:0:0:0:
242,175,301192,1,0,3:0:0:0:
286,234,301267,5,8,2:0:0:0:
240,208,301342,1,0,3:0:0:0:
187,211,301417,1,0,3:0:0:0:
142,238,301492,1,0,3:0:0:0:
91,306,301567,5,0,3:0:0:0:
103,282,301642,1,0,3:0:0:0:
48,197,301717,5,8,2:0:0:0:
101,226,301792,1,0,3:0:0:0:
151,212,301867,1,0,3:0:0:0:
188,175,301942,1,0,3:0:0:0:
206,77,302017,5,0,3:0:0:0:
204,114,302092,1,0,3:0:0:0:
268,145,302167,5,8,2:0:0:0:
217,171,302242,1,0,3:0:0:0:
206,227,302317,1,0,3:0:0:0:
229,286,302392,1,0,3:0:0:0:
299,297,302467,5,0,3:0:0:0:
298,273,302542,1,0,3:0:0:0:
237,248,302617,5,8,2:0:0:0:
282,283,302692,1,0,3:0:0:0:
345,285,302767,1,0,3:0:0:0:
397,256,302842,1,0,3:0:0:0:
415,191,302917,6,0,P|401:231|403:289,1,75.0000028610231,8|0,2:0|3:0,3:0:0:0:
277,95,303067,2,0,P|291:135|289:193,1,75.0000028610231,0|0,3:0|3:0,3:0:0:0:
475,292,303217,2,0,L|380:276,1,75.0000028610231,0|0,3:0|3:0,3:0:0:0:
167,258,303367,2,0,L|292:235,1,75.0000028610231,0|0,3:0|3:0,3:0:0:0:
453,70,303517,5,6,3:0:0:0:
406,108,303592,1,0,3:0:0:0:
346,116,303667,1,10,3:2:0:0:
297,80,303742,1,0,3:0:0:0:
304,8,303817,5,2,3:2:0:0:
318,34,303892,1,0,3:0:0:0:
297,56,303967,1,10,3:2:0:0:
280,30,304042,1,0,3:0:0:0:
213,0,304117,6,0,L|206:91,1,75.0000028610231,2|0,0:2|0:0,0:0:0:0:
314,203,304267,2,0,L|308:128,1,75.0000028610231,10|0,0:2|0:0,0:0:0:0:
136,269,304417,5,2,3:2:0:0:
125,236,304492,1,0,3:0:0:0:
141,204,304567,1,10,3:2:0:0:
130,170,304642,1,0,3:0:0:0:
77,297,304717,5,2,3:2:0:0:
106,293,304792,1,0,3:0:0:0:
152,316,304867,1,10,3:2:0:0:
177,300,304942,1,0,3:0:0:0:
246,260,305017,5,2,3:2:0:0:
234,287,305092,1,0,3:0:0:0:
287,331,305167,2,0,L|410:324,1,75.0000028610231,10|0,3:2|3:0,0:0:0:0:
469,157,305317,5,2,3:2:0:0:
452,190,305392,1,0,3:0:0:0:
469,220,305467,1,10,3:2:0:0:
452,253,305542,1,0,3:0:0:0:
395,302,305617,5,2,3:2:0:0:
364,280,305692,1,0,3:0:0:0:
326,279,305767,1,10,3:2:0:0:
294,299,305842,1,0,3:0:0:0:
308,378,305917,5,2,3:2:0:0:
316,357,305992,1,0,3:0:0:0:
315,334,306067,1,10,3:2:0:0:
304,313,306142,1,0,3:0:0:0:
218,270,306217,5,2,3:2:0:0:
200,237,306292,1,0,3:0:0:0:
200,199,306367,1,10,3:2:0:0:
224,171,306442,1,0,3:0:0:0:
297,220,306517,5,2,3:2:0:0:
247,254,306592,1,0,3:0:0:0:
187,245,306667,1,10,3:2:0:0:
147,190,306742,1,0,3:0:0:0:
222,100,306817,5,2,3:2:0:0:
283,128,306892,1,0,3:0:0:0:
349,116,306967,1,10,3:2:0:0:
390,62,307042,1,0,3:0:0:0:
375,38,307117,5,2,3:2:0:0:
365,104,307192,1,0,3:0:0:0:
425,134,307267,1,10,3:2:0:0:
435,200,307342,1,0,3:0:0:0:
382,268,307417,5,2,3:2:0:0:
323,233,307492,1,0,3:0:0:0:
258,253,307567,1,10,0:2:0:0:
236,317,307642,1,0,3:0:0:0:
321,344,307717,5,2,3:2:0:0:
253,312,307792,1,0,3:0:0:0:
189,358,307867,1,10,0:2:0:0:
130,305,307942,1,0,3:0:0:0:
43,384,308017,6,0,B|59:312|59:312|48:298|48:298|73:237|73:237|58:237|58:237|48:174,1,225.000008583069,2|0,3:2|3:0,3:0:0:0:
85,64,308317,6,0,B|123:74|123:74|165:50,1,75.0000028610231,6|0,3:0|3:0,3:0:0:0:
367,166,308467,2,0,L|280:158,1,75.0000028610231,10|0,0:2|3:0,3:0:0:0:
176,239,308617,2,0,L|263:231,1,75.0000028610231,2|0,3:2|3:0,3:0:0:0:
380,82,308767,6,0,B|385:132|385:132|405:108,1,75.0000028610231,10|0,0:2|3:0,3:0:0:0:
460,239,308917,2,0,B|455:189|455:189|435:213,1,75.0000028610231,2|0,3:2|3:0,3:0:0:0:
483,14,309067,2,0,B|478:64|478:64|458:40,1,75.0000028610231,10|0,0:2|3:0,3:0:0:0:
371,298,309217,2,0,B|366:248|366:248|346:272,1,75.0000028610231,2|0,3:2|3:0,3:0:0:0:
259,98,309367,2,0,B|264:148|264:148|284:124,1,75.0000028610231,10|0,0:2|3:0,3:0:0:0:
262,353,309517,6,0,B|246:372|246:372|241:322,1,75.0000028610231,2|0,3:2|3:0,3:0:0:0:
35,233,309667,2,0,L|145:228,1,75.0000028610231,10|0,3:2|3:0,3:0:0:0:
262,31,309817,2,0,B|246:11|246:11|241:61,1,75.0000028610231,2|0,3:2|3:0,3:0:0:0:
35,151,309967,2,0,L|145:156,1,75.0000028610231,10|0,3:2|3:0,3:0:0:0:
377,258,310117,6,0,B|360:243|360:243|376:156,1,75.0000028610231,2|0,3:2|3:0,3:0:0:0:
182,202,310267,2,0,B|199:187|199:187|183:100,1,75.0000028610231,10|0,3:2|3:0,3:0:0:0:
394,336,310417,2,0,B|353:337|353:337|308:304,1,75.0000028610231,2|0,3:2|3:0,3:0:0:0:
167,278,310567,2,0,B|208:279|208:279|253:246,1,75.0000028610231,10|0,3:2|3:0,3:0:0:0:
457,104,310717,5,6,3:0:0:0:
434,124,310792,1,0,3:0:0:0:
391,138,310867,1,10,3:2:0:0:
337,111,310942,1,0,3:0:0:0:
310,57,311017,5,2,3:2:0:0:
236,43,311092,1,0,3:0:0:0:
181,94,311167,1,10,3:2:0:0:
199,166,311242,1,0,3:0:0:0:
280,194,311317,5,2,3:2:0:0:
308,204,311392,1,0,3:0:0:0:
337,200,311467,1,10,3:2:0:0:
360,181,311542,1,0,3:0:0:0:
323,101,311617,5,2,3:2:0:0:
323,168,311692,1,0,3:0:0:0:
326,235,311767,1,10,3:2:0:0:
329,302,311842,1,0,3:0:0:0:
331,369,311917,6,0,B|286:353|286:353|251:382,1,75.0000028610231,2|0,3:2|0:0,0:0:0:0:
69,258,312067,2,0,B|114:242|114:242|149:271,1,75.0000028610231,10|0,3:2|0:0,0:0:0:0:
247,90,312217,6,0,B|249:134|249:134|235:120,1,62.5,2|0,3:2|0:0,0:0:0:0:
154,240,312367,2,0,B|152:196|152:196|166:210,1,62.5,10|0,3:2|0:0,0:0:0:0:
345,246,312517,6,0,L|278:237,1,50,2|0,3:2|0:0,0:0:0:0:
219,147,312667,2,0,L|286:138,1,50,10|0,3:2|0:0,0:0:0:0:
452,194,312817,6,0,L|385:185,1,50,2|0,3:2|0:0,0:0:0:0:
329,265,312967,2,0,L|396:256,1,50,10|0,3:2|0:0,0:0:0:0:
512,384,313117,6,0,B|489:245|489:245|503:218|503:218|480:68,1,300.000011444092,6|2,3:0|3:2,3:0:0:0:
370,20,313492,1,0,3:0:0:0:
354,27,313567,2,0,B|343:48|343:48|354:113,1,75.0000028610231,10|0,3:2|0:0,0:0:0:0:
512,164,313717,6,0,L|497:82,1,75.0000028610231,2|0,3:2|3:0,3:0:0:0:
260,65,313867,2,0,L|273:138,1,75.0000028610231,10|0,3:2|3:0,3:0:0:0:
462,256,314017,2,0,B|438:242|438:242|373:243,1,62.5,2|0,3:2|3:0,3:0:0:0:
264,330,314167,2,0,B|288:344|288:344|353:343,1,62.5,10|0,3:2|3:0,3:0:0:0:
484,249,314317,6,0,B|516:215|516:215|250:236,1,259.999988098145,6|2,3:0|3:2,3:0:0:0:
144,293,314692,1,0,3:0:0:0:
151,303,314767,2,0,L|271:298,1,64.9999970245363,10|0,3:2|0:0,0:0:0:0:
312,145,314917,6,0,L|327:232,1,64.9999970245363,2|0,3:2|3:0,3:0:0:0:
164,89,315067,2,0,L|175:24,1,64.9999970245363,10|0,3:2|3:0,3:0:0:0:
191,213,315217,2,0,B|159:225|159:225|103:222,1,69.9999978637696,2|0,3:2|3:0,3:0:0:0:
284,57,315367,2,0,B|316:45|316:45|372:48,1,69.9999978637696,10|0,3:2|0:0,0:0:0:0:
494,166,315517,5,6,3:0:0:0:
487,242,315592,1,0,3:0:0:0:
434,288,315667,1,10,3:2:0:0:
371,286,315742,1,0,3:0:0:0:
315,241,315817,5,2,3:2:0:0:
278,232,315892,1,0,3:0:0:0:
229,248,315967,1,10,3:2:0:0:
207,283,316042,1,0,3:0:0:0:
219,356,316117,5,2,3:2:0:0:
175,301,316192,1,0,3:0:0:0:
105,290,316267,1,10,3:2:0:0:
39,313,316342,1,0,3:0:0:0:
98,362,316417,5,2,3:2:0:0:
127,314,316492,1,0,3:0:0:0:
123,258,316567,1,10,3:2:0:0:
92,211,316642,1,0,3:0:0:0:
28,263,316717,6,0,B|11:288|11:288|116:265,1,89.9999972534181,6|0,3:0|3:0,3:0:0:0:
219,142,316867,2,0,B|236:117|236:117|131:140,1,89.9999972534181,10|0,3:2|3:0,3:0:0:0:
221,319,317017,2,0,B|212:284|212:284|220:265|220:265|210:217,1,89.9999972534181,2|0,3:2|3:0,3:0:0:0:
63,51,317167,2,0,B|56:83|56:83|64:102|64:102|55:137,1,89.9999972534181,10|0,3:2|3:0,3:0:0:0:
291,222,317317,6,0,B|358:264|427:238|427:238|525:207|483:80|336:147|427:239|427:239|478:298|444:368,1,525.000020027161,2|0,3:2|0:0,3:0:0:0:
416,365,317917,5,6,3:0:0:0:
374,321,317992,1,0,3:0:0:0:
315,309,318067,1,10,3:2:0:0:
256,322,318142,1,0,3:0:0:0:
206,355,318217,5,2,3:2:0:0:
231,292,318292,1,0,3:0:0:0:
290,259,318367,1,10,3:2:0:0:
357,256,318442,1,0,3:0:0:0:
421,277,318517,5,2,3:2:0:0:
406,203,318592,1,0,3:0:0:0:
346,157,318667,1,10,3:2:0:0:
271,150,318742,1,0,3:0:0:0:
211,195,318817,5,2,3:2:0:0:
264,257,318892,1,0,3:0:0:0:
346,258,318967,2,0,P|400:233|423:201,1,75.0000028610231,10|0,3:2|3:0,0:0:0:0:
390,28,319117,5,2,3:2:0:0:
324,13,319192,1,0,3:0:0:0:
249,21,319267,1,10,3:2:0:0:
188,77,319342,1,0,3:0:0:0:
172,158,319417,5,2,3:2:0:0:
143,219,319492,1,0,3:0:0:0:
78,240,319567,1,10,3:2:0:0:
16,212,319642,1,0,3:0:0:0:
13,144,319717,6,0,L|39:65,1,75.0000028610231,2|0,3:2|3:0,3:0:0:0:
267,288,319867,2,0,L|243:359,1,75.0000028610231,10|0,3:2|3:0,3:0:0:0:
158,84,320017,6,0,L|274:53,1,100,2|0,3:2|3:0,3:0:0:0:
448,327,320167,2,0,L|332:296,1,100,10|0,3:2|3:0,3:0:0:0:
429,75,320317,5,8,2:0:0:0:
422,154,320392,1,8,2:0:0:0:
363,208,320467,1,0,3:0:0:0:
283,213,320542,1,0,3:0:0:0:
207,174,320617,5,8,2:0:0:0:
129,153,320692,1,0,3:0:0:0:
58,191,320767,1,0,3:0:0:0:
36,268,320842,1,0,3:0:0:0:
60,344,320917,1,0,3:0:0:0:
136,365,320992,1,0,3:0:0:0:
204,323,321067,5,8,2:0:0:0:
270,278,321142,1,8,2:0:0:0:
349,275,321217,1,0,3:0:0:0:
420,310,321292,1,0,3:0:0:0:
466,372,321367,5,8,2:0:0:0:
475,297,321442,1,0,3:0:0:0:
486,222,321517,6,0,B|460:202|460:202|371:207,1,100
194,150,321667,1,8,2:0:0:0:
205,138,321742,2,0,B|231:118|231:118|320:123,1,100,0|8,0:0|2:0,0:0:0:0:
398,322,321892,1,0,0:0:0:0:
366,342,321967,2,0,B|333:347|333:347|257:301,1,100
253,68,322117,5,8,2:0:0:0:
281,132,322192,1,0,3:0:0:0:
268,200,322267,1,0,3:0:0:0:
214,244,322342,1,0,3:0:0:0:
135,256,322417,5,0,3:0:0:0:
111,237,322492,1,0,3:0:0:0:
106,207,322567,1,0,3:0:0:0:
124,183,322642,1,0,3:0:0:0:
221,265,322717,6,0,B|177:286|177:286|103:270,1,100,14|0,3:0|3:0,3:0:0:0:
112,47,322867,2,0,B|156:26|156:26|230:42,1,100,10|0,3:2|3:0,3:0:0:0:
352,158,323017,2,0,L|239:148,1,100,10|0,3:2|3:0,3:0:0:0:
370,358,323167,2,0,L|483:348,1,100,10|0,3:2|3:0,3:0:0:0:
437,32,323317,6,0,B|426:82|426:82|447:126,1,100,10|0,3:2|3:0,3:0:0:0:
347,334,323467,2,0,B|357:283|357:283|336:239,1,100,10|0,3:2|3:0,3:0:0:0:
178,109,323617,2,0,B|167:159|167:159|188:203,1,100,10|0,3:2|3:0,3:0:0:0:
86,329,323767,2,0,B|48:294|48:294|0:290,1,100,10|0,3:2|3:0,3:0:0:0:
0,46,323917,6,0,B|27:69|27:69|120:11,1,100,10|0,3:2|3:0,3:0:0:0:
362,44,324067,2,0,B|335:67|335:67|242:9,1,100,10|0,3:2|3:0,3:0:0:0:
24,170,324217,2,0,B|78:135|78:135|105:158,1,100,10|0,3:2|3:0,3:0:0:0:
330,161,324367,2,0,B|275:126|275:126|248:149,1,100,10|0,3:2|3:0,3:0:0:0:
174,301,324517,6,0,L|306:291,1,100,10|0,3:2|3:0,3:0:0:0:
445,154,324667,2,0,L|313:144,1,100,10|0,3:2|3:0,3:0:0:0:
180,18,324817,6,0,B|165:79|165:79|183:111,1,100,10|0,3:2|0:0,3:0:0:0:
172,18,324967,2,0,B|157:79|157:79|175:111,1,100,10|0,3:2|0:0,0:0:0:0:
357,325,325117,5,14,3:0:0:0:
325,285,325192,1,0,3:0:0:0:
265,274,325267,1,10,3:2:0:0:
207,314,325342,1,0,3:0:0:0:
140,337,325417,1,10,3:2:0:0:
68,300,325492,1,0,3:0:0:0:
61,220,325567,1,10,3:2:0:0:
123,169,325642,1,0,3:0:0:0:
196,197,325717,5,10,3:2:0:0:
264,184,325792,1,0,3:0:0:0:
296,121,325867,1,10,3:2:0:0:
288,61,325942,1,0,3:0:0:0:
248,30,326017,1,10,3:2:0:0:
208,38,326092,1,0,3:0:0:0:
193,75,326167,1,10,3:2:0:0:
206,101,326242,1,0,3:0:0:0:
281,119,326317,6,0,B|332:130|332:130|405:91,1,100,0|0,3:0|3:0,3:0:0:0:
371,222,326467,1,8,2:0:0:0:
395,205,326542,2,0,B|437:182|437:182|488:193,1,100,8|8,2:0|3:0,3:0:0:0:
357,356,326692,1,8,3:0:0:0:
339,384,326767,2,0,L|224:375,1,100,0|0,3:0|3:0,3:0:0:0:
60,312,326917,5,8,3:0:0:0:
127,268,326992,1,8,3:0:0:0:
131,191,327067,1,8,3:0:0:0:
91,121,327142,1,8,3:0:0:0:
13,186,327217,5,0,3:0:0:0:
62,192,327292,1,0,3:0:0:0:
99,178,327367,1,0,3:0:0:0:
118,155,327442,1,0,3:0:0:0:
123,32,327517,5,14,3:2:0:0:
67,22,327592,2,0,B|50:73|50:73|75:134,1,100,0|10,3:0|3:2,3:0:0:0:
199,226,327742,1,0,3:0:0:0:
245,228,327817,2,0,B|262:177|262:177|237:116,1,100,10|0,3:2|3:0,3:0:0:0:
94,252,327967,5,10,3:2:0:0:
56,251,328042,2,0,B|39:302|39:302|64:363,1,100,0|10,3:0|3:2,0:0:0:0:
220,364,328192,1,0,3:0:0:0:
258,365,328267,2,0,B|275:314|275:314|250:253,1,100,10|0,3:2|3:0,3:0:0:0:
171,131,328417,2,0,B|130:63|130:63|159:291,1,300,10|0,3:2|0:0,3:0:0:0:
342,283,328717,5,14,3:2:0:0:
373,231,328792,2,0,B|353:214|353:214|233:203,1,100,0|10,3:0|3:2,0:0:0:0:
132,311,328942,1,0,3:0:0:0:
111,344,329017,2,0,B|131:361|131:361|251:372,1,100,10|0,3:2|3:2,0:0:0:0:
282,134,329167,6,0,B|266:210|266:210|298:172,1,100,10|0,3:2|3:0,0:0:0:0:
456,361,329317,2,0,B|441:284|441:284|426:332,1,100,10|0,3:2|3:0,3:0:0:0:
199,282,329467,2,0,B|254:295|254:295|316:278,1,100,10|0,3:2|3:0,3:0:0:0:
474,133,329617,2,0,B|426:120|426:120|357:137,1,100,10|0,3:2|0:0,3:0:0:0:
415,333,329767,2,0,B|431:281|431:281|412:214,1,100,10|0,3:2|0:0,0:0:0:0:
187,10,329917,6,0,L|217:122,1,89.9999972534181,14|0,2:0|3:0,3:0:0:0:
336,78,330067,2,0,L|316:156,1,80,10|0,3:2|3:0,3:0:0:0:
196,182,330217,2,0,L|214:249,1,69.9999978637696,10|0,3:2|3:0,3:0:0:0:
299,267,330367,2,0,L|284:325,1,59.9999981689454,10|0,3:2|3:0,3:0:0:0:
142,357,330517,6,0,L|130:263,1,50,10|0,3:2|3:0,3:0:0:0:
376,307,330667,2,0,L|370:357,1,50,10|0,3:2|3:0,3:0:0:0:
188,221,330817,2,0,L|181:171,1,50,10|0,3:2|3:0,3:0:0:0:
325,180,330967,2,0,L|318:229,1,50,10|0,3:2|3:0,3:0:0:0:
253,77,331117,5,14,3:0:0:0:
251,62,331192,1,0,3:0:0:0:
249,47,331267,1,0,3:0:0:0:
247,32,331342,1,0,3:0:0:0:
322,126,331417,5,10,3:0:0:0:
331,123,331492,1,0,3:0:0:0:
340,120,331567,1,0,3:0:0:0:
349,117,331642,1,0,3:0:0:0:
262,201,331717,5,10,3:0:0:0:
261,205,331792,1,0,3:0:0:0:
260,209,331867,1,0,3:0:0:0:
259,213,331942,1,0,3:0:0:0:
190,130,332017,5,10,3:0:0:0:
182,130,332092,1,0,3:0:0:0:
176,132,332167,1,0,3:0:0:0:
168,133,332242,1,0,3:0:0:0:
156,222,332317,6,0,B|192:236|192:236|234:214,1,75.0000028610231,6|0,3:0|3:0,3:0:0:0:
498,263,332467,2,0,B|457:235|457:235|350:291,1,150.000005722046,10|2,2:0|3:2,3:0:0:0:
387,374,332692,1,0,0:0:0:0:
296,363,332767,6,0,L|205:358,1,75.0000028610231,10|0,2:0|0:0,0:0:0:0:
149,244,332917,2,0,B|165:222|165:222|156:169,1,75.0000028610231,2|0,3:2|0:0,0:0:0:0:
309,190,333067,2,0,B|293:168|293:168|302:115,1,75.0000028610231,10|0,2:0|0:0,0:0:0:0:
65,69,333217,2,0,L|156:64,1,75.0000028610231,2|0,3:2|3:0,3:0:0:0:
365,54,333367,1,10,2:0:0:0:
285,271,333517,5,6,3:0:0:0:
262,43,333667,1,0,0:0:0:0:
116,276,333817,1,2,3:2:0:0:
151,288,333892,1,0,3:0:0:0:
186,276,333967,2,0,L|180:175,1,75.0000028610231,10|0,2:0|0:0,0:0:0:0:
58,19,334117,5,2,3:2:0:0:
22,57,334192,1,0,3:0:0:0:
22,109,334267,1,10,2:0:0:0:
62,142,334342,1,0,3:0:0:0:
134,135,334417,5,2,3:2:0:0:
191,98,334492,1,0,3:0:0:0:
258,100,334567,1,10,2:0:0:0:
309,143,334642,1,0,3:0:0:0:
281,229,334717,6,0,L|169:214,1,75.0000028610231,2|0,3:2|3:0,3:0:0:0:
396,350,334867,2,0,B|426:372|426:372|432:253,1,150.000005722046,10|2,2:0|3:2,3:0:0:0:
371,205,335092,1,0,3:0:0:0:
353,287,335167,2,0,P|394:288|429:265,1,75.0000028610231,10|0,2:0|0:0,0:0:0:0:
483,44,335317,6,0,B|449:27|449:27|398:40,1,75.0000028610231,2|0,3:2|0:0,0:0:0:0:
364,188,335467,2,0,B|328:197|328:197|294:180,1,75.0000028610231,10|0,2:0|0:0,0:0:0:0:
326,0,335617,2,0,L|321:112,1,75.0000028610231,2|0,3:2|3:0,3:0:0:0:
321,296,335767,1,10,2:0:0:0:
6,111,335917,6,0,B|48:136|48:136|153:82,1,150.000005722046,2|0,3:2|0:0,3:0:0:0:
185,301,336217,2,0,L|92:289,1,75.0000028610231,2|0,3:2|3:0,0:0:0:0:
0,284,336367,1,10,2:0:0:0:
203,48,336517,6,0,B|215:82|215:82|204:136,1,75.0000028610231,2|0,3:2|0:0,0:0:0:0:
296,274,336667,2,0,B|284:240|284:240|295:186,1,75.0000028610231,10|0,2:0|0:0,0:0:0:0:
401,21,336817,6,0,L|411:127,1,87.500000834465,2|0,3:2|0:0,0:0:0:0:
496,336,336967,2,0,L|506:230,1,87.500000834465,10|0,2:0|0:0,0:0:0:0:
433,116,337117,5,6,3:0:0:0:
375,80,337192,1,0,3:0:0:0:
309,94,337267,1,10,2:0:0:0:
287,158,337342,1,0,3:0:0:0:
216,191,337417,5,2,3:2:0:0:
189,176,337492,1,0,3:0:0:0:
162,190,337567,1,10,2:0:0:0:
135,175,337642,1,0,3:0:0:0:
113,254,337717,5,2,3:2:0:0:
160,302,337792,1,0,3:0:0:0:
227,299,337867,1,10,2:0:0:0:
266,244,337942,1,0,3:0:0:0:
248,178,338017,5,2,3:2:0:0:
203,238,338092,1,0,3:0:0:0:
217,311,338167,1,10,2:0:0:0:
285,340,338242,1,0,3:0:0:0:
368,302,338317,5,2,3:2:0:0:
306,258,338392,1,0,3:0:0:0:
240,272,338467,1,10,2:0:0:0:
210,324,338542,1,0,3:0:0:0:
289,380,338617,5,2,3:2:0:0:
293,327,338692,1,0,3:0:0:0:
298,274,338767,2,0,L|306:158,1,75.0000028610231,10|0,2:0|3:0,0:0:0:0:
203,48,338917,5,2,3:2:0:0:
147,98,338992,1,0,3:0:0:0:
162,171,339067,1,10,2:0:0:0:
216,196,339142,1,0,3:0:0:0:
257,178,339217,5,2,3:2:0:0:
236,146,339292,1,0,3:0:0:0:
179,125,339367,1,10,2:0:0:0:
112,159,339442,1,0,3:0:0:0:
134,253,339517,5,6,3:0:0:0:
177,263,339592,1,0,3:0:0:0:
219,246,339667,1,10,2:2:0:0:
246,210,339742,1,0,3:0:0:0:
206,148,339817,5,2,3:2:0:0:
167,102,339892,1,0,3:0:0:0:
174,42,339967,1,10,2:0:0:0:
221,5,340042,1,0,3:0:0:0:
325,15,340117,5,2,3:2:0:0:
363,70,340192,1,0,3:0:0:0:
351,136,340267,1,10,2:0:0:0:
307,187,340342,1,0,3:0:0:0:
221,184,340417,5,2,3:2:0:0:
174,124,340492,1,0,3:0:0:0:
99,127,340567,1,10,2:0:0:0:
57,189,340642,1,0,3:0:0:0:
102,292,340717,5,2,3:2:0:0:
156,230,340792,1,0,3:0:0:0:
74,214,340867,2,0,L|-5:204,1,75.0000028610231,10|0,2:0|3:0,0:0:0:0:
207,355,341017,6,0,L|286:345,1,75.0000028610231,2|0,3:2|3:0,3:0:0:0:
497,227,341167,2,0,B|459:232|459:232|405:187,1,75.0000028610231,10|0,2:0|3:0,3:0:0:0:
223,205,341317,5,2,3:2:0:0:
493,133,341467,1,10,2:0:0:0:
373,362,341617,6,0,L|363:283,1,75.0000028610231,2|0,3:2|0:0,3:0:0:0:
343,107,341767,1,10,2:0:0:0:
205,375,341917,6,0,L|312:355,1,75.0000028610231,6|0,3:0|0:0,0:0:0:0:
282,138,342067,2,0,B|295:239|295:239|279:262|279:262|295:377,1,225.000008583069,10|0,2:2|0:0,3:0:0:0:
393,374,342367,2,0,L|383:295,1,75.0000028610231,10|0,2:0|0:0,0:0:0:0:
270,123,342517,2,0,L|260:197,1,75.0000028610231,2|0,3:2|3:0,3:0:0:0:
187,324,342667,2,0,L|177:245,1,75.0000028610231,10|0,2:2|0:0,0:0:0:0:
129,156,342817,2,0,B|108:101|108:101|65:322,1,225.000008583069,2|0,3:2|0:0,3:0:0:0:
39,347,343117,6,0,B|66:358|66:358|134:341,1,75.0000028610231,6|0,0:0|3:0,3:0:0:0:
287,268,343267,2,0,B|260:279|260:279|192:262,1,75.0000028610231,10|0,2:0|3:0,3:0:0:0:
23,182,343417,2,0,B|51:165|51:165|115:170,1,75.0000028610231,2|0,3:2|3:0,3:0:0:0:
247,87,343567,2,0,B|219:70|219:70|155:75,1,75.0000028610231,10|0,2:0|3:0,3:0:0:0:
67,75,343717,5,2,3:2:0:0:
303,0,343867,1,10,2:0:0:0:
276,278,344017,6,0,L|241:196,1,75.0000028610231,2|0,0:2|0:0,0:0:0:0:
170,41,344167,1,10,2:0:0:0:
48,209,344317,5,6,3:0:0:0:
89,271,344392,1,0,3:0:0:0:
163,282,344467,1,10,2:0:0:0:
231,251,344542,1,0,3:0:0:0:
283,184,344617,5,2,3:2:0:0:
365,184,344692,1,0,3:0:0:0:
422,243,344767,1,10,2:0:0:0:
413,325,344842,1,0,3:0:0:0:
342,362,344917,5,2,3:2:0:0:
294,326,344992,1,0,3:0:0:0:
234,321,345067,1,10,2:0:0:0:
178,344,345142,1,0,3:0:0:0:
113,379,345217,5,2,3:2:0:0:
102,297,345292,1,0,3:0:0:0:
92,215,345367,1,10,2:0:0:0:
79,133,345442,1,0,3:0:0:0:
36,61,345517,6,0,B|70:43|70:43|144:51,1,87.500000834465,6|0,3:0|3:0,3:0:0:0:
284,205,345667,2,0,B|250:223|250:223|176:215,1,87.500000834465,10|0,2:0|3:0,3:0:0:0:
227,13,345817,2,0,L|236:98,1,62.5,2|0,3:2|3:0,3:0:0:0:
118,221,345967,6,0,L|106:127,1,87.500000834465,10|0,2:0|3:0,3:0:0:0:
380,55,346117,2,0,L|368:149,1,87.500000834465,2|0,3:2|3:0,3:0:0:0:
192,18,346267,2,0,L|268:7,1,62.5,10|0,2:0|3:0,3:0:0:0:
428,292,346417,6,0,L|314:278,1,87.500000834465,2|0,0:2|3:0,3:0:0:0:
99,131,346567,2,0,L|213:117,1,87.500000834465,10|0,2:0|3:0,3:0:0:0:
326,334,346717,5,6,3:0:0:0:
264,328,346792,1,0,3:0:0:0:
203,321,346867,1,10,2:0:0:0:
141,317,346942,1,0,3:0:0:0:
77,265,347017,5,2,3:2:0:0:
99,208,347092,1,0,3:0:0:0:
73,152,347167,1,10,2:0:0:0:
56,210,347242,1,0,3:0:0:0:
122,261,347317,5,2,3:2:0:0:
183,263,347392,1,0,3:0:0:0:
220,214,347467,1,10,2:0:0:0:
207,154,347542,1,0,3:0:0:0:
125,124,347617,5,2,3:2:0:0:
161,162,347692,1,0,3:0:0:0:
212,169,347767,1,10,2:0:0:0:
252,135,347842,1,0,3:0:0:0:
263,33,347917,5,2,3:2:0:0:
204,15,347992,1,0,3:0:0:0:
152,48,348067,1,10,2:0:0:0:
93,28,348142,1,0,3:0:0:0:
26,87,348217,5,2,3:2:0:0:
34,147,348292,1,0,3:0:0:0:
41,207,348367,1,10,2:0:0:0:
49,267,348442,1,0,3:0:0:0:
116,334,348517,5,2,3:2:0:0:
177,332,348592,1,0,3:0:0:0:
238,330,348667,2,0,L|337:324,1,87.500000834465,10|0,2:0|3:0,3:0:0:0:
495,129,348817,5,2,3:2:0:0:
434,127,348892,1,0,3:0:0:0:
373,125,348967,2,0,L|274:119,1,87.500000834465,10|0,2:0|3:0,3:0:0:0:
431,356,349117,5,8,2:0:0:0:
476,302,349192,1,0,3:0:0:0:
466,232,349267,1,0,3:0:0:0:
405,196,349342,1,0,3:0:0:0:
341,298,349417,5,8,2:0:0:0:
290,311,349492,1,0,3:0:0:0:
235,283,349567,1,0,3:0:0:0:
216,215,349642,1,0,3:0:0:0:
279,155,349717,5,0,3:0:0:0:
288,174,349792,1,0,3:0:0:0:
278,267,349867,5,8,2:0:0:0:
269,286,349942,1,0,3:0:0:0:
170,324,350017,6,0,B|154:284|154:284|173:225,1,87.500000834465,0|0,3:0|3:0,3:0:0:0:
362,24,350167,2,0,B|378:64|378:64|359:123,1,87.500000834465,8|0,2:0|3:0,3:0:0:0:
31,65,350317,5,0,3:0:0:0:
89,27,350392,1,0,3:0:0:0:
158,28,350467,1,8,2:0:0:0:
207,77,350542,1,0,3:0:0:0:
219,171,350617,5,8,2:0:0:0:
205,239,350692,1,0,3:0:0:0:
295,290,350767,5,0,3:0:0:0:
281,222,350842,1,0,3:0:0:0:
223,339,350917,5,8,2:0:0:0:
281,377,350992,1,0,3:0:0:0:
349,364,351067,1,0,3:0:0:0:
393,310,351142,1,0,3:0:0:0:
360,167,351217,5,0,3:0:0:0:
332,222,351292,1,0,3:0:0:0:
345,272,351367,1,0,3:0:0:0:
379,298,351442,1,0,3:0:0:0:
284,115,351517,5,14,2:3:0:0:
256,192,351592,12,0,355117,2:0:0:0:
380,368,361117,5,2,3:1:0:0:
333,113,361267,1,0,3:1:0:0:
60,330,362317,5,2,3:1:0:0:
342,271,362467,1,0,3:0:0:0:
184,158,362617,5,0,3:0:0:0:
182,175,362917,1,0,3:0:0:0:
198,179,363217,1,0,3:0:0:0:
202,162,363517,5,2,3:1:0:0:
339,378,363667,1,0,3:0:0:0:
351,208,363817,5,0,3:0:0:0:
368,188,364117,1,0,3:0:0:0:
375,218,364417,1,0,3:0:0:0:
67,58,364717,5,6,3:0:0:0:
142,123,365017,1,0,3:0:0:0:
63,202,365317,1,0,3:0:0:0:
2,142,365617,1,0,3:0:0:0:
318,0,365917,6,0,B|369:20|366:79|366:79|363:169|363:169|437:263|523:175|444:64|363:169|363:169|358:300,1,562.500021457673,6|0,3:0|0:0,3:0:0:0:
401,346,367117,5,0,3:0:0:0:
426,339,367192,1,0,3:0:0:0:
457,261,367267,5,8,2:0:0:0:
398,226,367342,1,8,2:0:0:0:
339,235,367417,1,0,3:0:0:0:
318,272,367492,1,0,3:0:0:0:
305,295,367567,5,0,3:0:0:0:
314,256,367642,1,0,3:0:0:0:
347,157,367717,5,8,2:0:0:0:
289,120,367792,1,8,2:0:0:0:
221,131,367867,1,0,3:0:0:0:
207,146,367942,1,0,3:0:0:0:
172,208,368017,5,8,2:0:0:0:
236,198,368092,1,8,2:0:0:0:
272,239,368167,1,0,3:0:0:0:
266,289,368242,1,0,3:0:0:0:
195,317,368317,5,0,3:0:0:0:
193,301,368392,1,0,3:0:0:0:
208,211,368467,5,8,2:0:0:0:
136,196,368542,1,8,2:0:0:0:
78,226,368617,1,0,3:0:0:0:
66,281,368692,1,0,3:0:0:0:
119,344,368767,5,0,3:0:0:0:
118,326,368842,1,0,3:0:0:0:
153,258,368917,5,8,2:0:0:0:
212,260,368992,1,8,2:0:0:0:
258,299,369067,1,0,3:0:0:0:
261,324,369142,1,0,3:0:0:0:
175,380,369217,5,0,3:0:0:0:
208,327,369292,1,0,3:0:0:0:
280,315,369367,1,0,3:0:0:0:
345,357,369442,1,0,3:0:0:0:
236,252,369517,6,0,B|232:198|232:198|231:160|268:147,2,100,8|0|0,0:0|0:0|0:0,0:0:0:0:
0,0,370417,5,0,0:0:0:0:
445,229,370717,5,14,3:0:0:0:
403,271,370792,1,0,3:0:0:0:
343,280,370867,1,0,3:0:0:0:
289,253,370942,1,0,3:0:0:0:
250,207,371017,1,10,3:0:0:0:
190,199,371092,1,0,3:0:0:0:
142,235,371167,1,0,3:0:0:0:
140,294,371242,1,0,3:0:0:0:
231,340,371317,5,10,3:0:0:0:
238,280,371392,1,0,3:0:0:0:
245,220,371467,1,0,3:0:0:0:
252,160,371542,1,0,3:0:0:0:
345,64,371617,5,10,3:0:0:0:
349,106,371692,1,0,3:0:0:0:
354,148,371767,1,0,3:0:0:0:
359,190,371842,1,0,3:0:0:0:
282,272,371917,5,10,3:0:0:0:
227,245,371992,1,0,3:0:0:0:
217,185,372067,1,0,3:0:0:0:
250,134,372142,1,0,3:0:0:0:
250,74,372217,1,10,3:0:0:0:
206,32,372292,1,0,3:0:0:0:
146,32,372367,1,0,3:0:0:0:
106,77,372442,1,0,3:0:0:0:
147,168,372517,5,10,3:0:0:0:
177,175,372592,1,0,3:0:0:0:
207,170,372667,1,0,3:0:0:0:
233,154,372742,1,0,3:0:0:0:
250,74,372817,2,0,P|226:117|225:176,1,75.0000028610231,10|0,3:0|3:0,3:0:0:0:
428,115,372967,2,0,P|402:72|352:42,1,75.0000028610231,2|0,3:0|3:0,3:0:0:0:
368,249,373117,5,14,3:0:0:0:
426,264,373192,1,0,3:0:0:0:
480,239,373267,5,0,3:0:0:0:
453,293,373342,1,0,3:0:0:0:
402,326,373417,1,10,3:0:0:0:
342,324,373492,1,0,3:0:0:0:
289,295,373567,1,0,3:0:0:0:
255,245,373642,1,0,3:0:0:0:
255,131,373717,5,10,3:0:0:0:
270,157,373792,1,0,3:0:0:0:
275,187,373867,1,0,3:0:0:0:
269,215,373942,1,0,3:0:0:0:
163,262,374017,5,10,3:0:0:0:
178,236,374092,1,0,3:0:0:0:
201,216,374167,1,0,3:0:0:0:
228,207,374242,1,0,3:0:0:0:
300,313,374317,5,14,3:0:0:0:
245,337,374392,1,0,3:0:0:0:
185,327,374467,1,0,3:0:0:0:
145,281,374542,1,0,3:0:0:0:
146,221,374617,1,10,3:0:0:0:
185,175,374692,1,0,3:0:0:0:
208,119,374767,1,0,3:0:0:0:
185,63,374842,1,0,3:0:0:0:
70,147,374917,6,0,P|115:165|156:155,1,75.0000028610231,10|0,3:0|3:0,3:0:0:0:
365,64,375067,2,0,P|320:46|279:56,1,75.0000028610231,2|0,3:0|3:0,3:0:0:0:
277,222,375217,2,0,P|295:177|285:136,3,75.0000028610231,10|0|0|0,3:0|3:0|3:0|3:0,3:0:0:0:
152,108,375517,5,10,3:0:0:0:
191,153,375592,1,0,3:0:0:0:
185,212,375667,1,0,3:0:0:0:
148,259,375742,1,0,3:0:0:0:
127,315,375817,1,10,3:0:0:0:
151,369,375892,1,0,3:0:0:0:
209,382,375967,1,0,3:0:0:0:
263,357,376042,1,0,3:0:0:0:
286,230,376117,5,10,3:0:0:0:
272,256,376192,1,0,3:0:0:0:
269,285,376267,1,0,3:0:0:0:
279,315,376342,1,0,3:0:0:0:
380,330,376417,5,10,3:0:0:0:
394,304,376492,1,0,3:0:0:0:
397,275,376567,1,0,3:0:0:0:
387,245,376642,1,0,3:0:0:0:
309,333,376717,5,10,3:0:0:0:
368,326,376792,1,0,3:0:0:0:
427,319,376867,1,0,3:0:0:0:
486,312,376942,1,0,3:0:0:0:
498,216,377017,5,10,3:0:0:0:
462,211,377092,1,0,3:0:0:0:
427,207,377167,1,0,3:0:0:0:
391,203,377242,1,0,3:0:0:0:
255,124,377317,5,10,3:0:0:0:
298,118,377392,1,0,3:0:0:0:
340,113,377467,1,0,3:0:0:0:
383,108,377542,1,0,3:0:0:0:
276,216,377617,5,10,3:0:0:0:
241,212,377692,1,0,3:0:0:0:
207,208,377767,1,0,3:0:0:0:
173,204,377842,1,0,3:0:0:0:
116,90,377917,5,8,2:0:0:0:
159,131,377992,1,0,0:0:0:0:
161,187,378067,1,0,0:0:0:0:
119,230,378142,1,0,0:0:0:0:
107,288,378217,1,0,0:0:0:0:
143,335,378292,1,0,0:0:0:0:
202,341,378367,1,8,2:0:0:0:
249,304,378442,1,0,0:0:0:0:
270,170,378517,5,0,0:0:0:0:
262,229,378592,1,0,0:0:0:0:
291,281,378667,1,0,0:0:0:0:
348,298,378742,1,0,0:0:0:0:
422,218,378817,5,8,2:0:0:0:
362,221,378892,1,0,0:0:0:0:
302,224,378967,1,0,0:0:0:0:
242,227,379042,1,0,0:0:0:0:
265,338,379117,5,8,2:0:0:0:
309,298,379192,1,0,0:0:0:0:
310,238,379267,1,8,2:0:0:0:
279,186,379342,1,0,0:0:0:0:
225,158,379417,1,8,2:0:0:0:
205,101,379492,1,0,0:0:0:0:
233,48,379567,1,8,3:0:0:0:
290,31,379642,1,0,0:0:0:0:
309,162,379717,5,8,2:0:0:0:
252,182,379792,1,0,0:0:0:0:
193,167,379867,1,0,0:0:0:0:
158,118,379942,1,0,0:0:0:0:
112,255,380017,5,0,0:0:0:0:
149,268,380092,1,0,0:0:0:0:
187,258,380167,1,0,0:0:0:0:
211,225,380242,1,0,0:0:0:0:
175,97,380317,6,0,B|161:137|161:137|174:185,1,75.0000028610231,6|0,0:0|0:0,0:0:0:0:
436,135,380467,2,0,B|458:99|458:99|312:104,1,150.000005722046,10|2,0:2|0:2,0:0:0:0:
289,184,380692,1,0,0:0:0:0:
349,243,380767,2,0,L|449:234,1,75.0000028610231,10|0,0:2|0:0,0:0:0:0:
248,106,380917,5,2,0:2:0:0:
246,375,381067,1,10,0:2:0:0:
61,249,381217,1,2,0:2:0:0:
120,246,381292,1,0,0:0:0:0:
179,241,381367,1,10,0:2:0:0:
99,11,381517,6,0,B|94:101|94:101|110:126|110:126|103:252,1,225.000008583069,2|0,0:0|0:0,0:0:0:0:
235,363,381817,2,0,L|230:272,1,75.0000028610231,2|0,0:2|0:0,0:0:0:0:
222,101,381967,1,10,0:2:0:0:
341,371,382117,5,2,0:2:0:0:
356,132,382267,1,10,0:2:0:0:
198,270,382417,6,0,B|233:264|233:264|239:270|239:270|311:262,1,75.0000028610231,2|0,0:2|0:0,0:0:0:0:
506,199,382567,2,0,B|471:193|471:193|465:199|465:199|393:191,1,75.0000028610231,10|0,0:2|0:0,0:0:0:0:
273,14,382717,6,0,L|279:102,1,75.0000028610231,6|0,0:0|0:0,0:0:0:0:
416,328,382867,2,0,L|427:156,1,150.000005722046,10|0,0:2|0:0,0:0:0:0:
360,101,383092,1,0,0:0:0:0:
290,172,383167,2,0,P|249:170|211:141,1,75.0000028610231,10|0,0:2|0:0,0:0:0:0:
123,19,383317,5,2,0:2:0:0:
372,0,383467,1,10,0:2:0:0:
149,241,383617,1,2,0:2:0:0:
209,248,383692,1,0,0:0:0:0:
269,254,383767,1,10,0:2:0:0:
12,71,383917,6,0,B|178:52|178:52|134:98,1,225.000008583069,6|0,0:0|0:0,0:0:0:0:
41,266,384217,2,0,L|136:255,1,75.0000028610231,2|0,0:2|0:0,0:0:0:0:
340,227,384367,1,10,0:2:0:0:
208,39,384517,5,2,0:2:0:0:
259,331,384667,1,10,0:2:0:0:
466,83,384817,1,8,2:0:0:0:
458,142,384892,1,8,2:0:0:0:
451,201,384967,1,0,0:0:0:0:
90,180,385117,5,14,0:2:0:0:
121,129,385192,1,0,0:0:0:0:
176,106,385267,1,0,0:0:0:0:
234,120,385342,1,0,0:0:0:0:
267,169,385417,2,0,L|277:255,1,75.0000028610231
139,358,385567,5,0,0:0:0:0:
74,339,385642,1,0,0:0:0:0:
51,275,385717,1,0,0:0:0:0:
82,215,385792,1,0,0:0:0:0:
148,202,385867,1,0,0:0:0:0:
202,241,385942,1,0,0:0:0:0:
232,301,386017,5,8,2:0:0:0:
298,313,386092,1,8,2:0:0:0:
343,263,386167,5,8,2:0:0:0:
191,266,386242,1,8,2:0:0:0:
463,354,386317,5,14,0:0:0:0:
256,192,386392,12,0,387442,0:0:0:0:
467,102,387517,6,0,L|345:81,1,75.0000028610231,6|0,0:0|0:0,0:0:0:0:
123,179,387667,1,10,0:2:0:0:
181,192,387742,1,0,0:0:0:0:
239,205,387817,1,2,0:2:0:0:
297,218,387892,1,0,0:0:0:0:
355,231,387967,2,0,L|449:254,1,75.0000028610231,10|0,0:2|0:0,0:0:0:0:
172,302,388117,6,0,P|162:351|139:384,1,75.0000028610231,2|0,0:2|0:0,0:0:0:0:
340,302,388267,2,0,P|350:351|373:384,1,75.0000028610231,10|0,0:2|0:0,0:0:0:0:
189,149,388417,2,0,P|163:135|108:132,1,75.0000028610231,2|0,0:2|0:0,0:0:0:0:
323,149,388567,2,0,P|349:135|404:132,1,75.0000028610231,10|0,0:2|0:0,0:0:0:0:
258,229,388717,5,2,0:2:0:0:
256,4,388867,2,0,L|258:249,1,225.000008583069,10|0,0:2|0:0,0:0:0:0:
259,253,389167,1,10,0:2:0:0:
57,165,389317,5,2,0:2:0:0:
109,121,389392,1,0,0:0:0:0:
148,175,389467,1,10,0:2:0:0:
95,217,389542,1,0,0:0:0:0:
37,167,389617,6,0,L|26:81,1,75.0000028610231,2|0,0:2|0:0,0:0:0:0:
189,262,389767,2,0,L|179:336,1,75.0000028610231,10|0,0:2|0:0,0:0:0:0:
178,105,389917,6,0,B|316:103|316:103|377:103|399:172,1,225.000008583069,6|0,0:0|0:0,0:0:0:0:
190,90,390217,2,0,B|328:88|328:88|389:88|411:157,1,225.000008583069,2|0,0:0|0:0,0:0:0:0:
427,204,390517,1,2,0:2:0:0:
312,364,390667,1,10,0:2:0:0:
106,291,390817,1,2,0:2:0:0:
112,85,390967,1,10,0:2:0:0:
53,347,391117,5,8,2:0:0:0:
14,300,391192,1,8,2:0:0:0:
28,273,391267,1,0,0:0:0:0:
75,249,391342,1,0,0:0:0:0:
141,261,391417,1,0,0:0:0:0:
196,311,391492,1,0,0:0:0:0:
270,321,391567,1,0,0:0:0:0:
348,294,391642,1,0,0:0:0:0:
394,226,391717,5,0,0:0:0:0:
382,144,391792,1,0,0:0:0:0:
317,92,391867,1,0,0:0:0:0:
234,86,391942,1,0,0:0:0:0:
159,133,392017,5,8,2:0:0:0:
234,180,392092,1,8,2:0:0:0:
279,105,392167,1,0,0:0:0:0:
205,59,392242,1,0,0:0:0:0:
138,140,392317,6,0,L|264:121,1,75.0000028610231,6|0,0:0|0:0,0:0:0:0:
420,55,392467,1,10,0:2:0:0:
413,114,392542,1,0,0:0:0:0:
406,173,392617,1,2,0:2:0:0:
399,232,392692,1,0,0:0:0:0:
392,291,392767,2,0,L|381:372,1,75.0000028610231,10|0,0:2|0:0,0:0:0:0:
103,266,392917,6,0,P|132:249|215:245,1,75.0000028610231,2|0,0:2|0:0,0:0:0:0:
409,266,393067,2,0,P|380:249|297:245,1,75.0000028610231,10|0,0:2|0:0,0:0:0:0:
110,89,393217,2,0,P|142:97|204:153,1,75.0000028610231,2|0,0:2|0:0,0:0:0:0:
402,89,393367,2,0,P|369:97|307:153,1,75.0000028610231,10|0,0:2|0:0,0:0:0:0:
255,299,393517,5,2,0:2:0:0:
71,167,393667,2,0,B|175:173|175:173|193:185|193:185|323:193,1,225.000008583069,10|0,0:2|0:0,0:0:0:0:
321,193,393967,1,10,0:2:0:0:
194,6,394117,1,2,0:2:0:0:
187,65,394192,1,0,0:0:0:0:
180,124,394267,1,10,0:2:0:0:
173,183,394342,1,0,0:0:0:0:
167,242,394417,6,0,L|156:334,1,75.0000028610231,2|0,0:2|0:0,0:0:0:0:
342,243,394567,2,0,L|333:168,1,75.0000028610231,10|0,0:2|0:0,0:0:0:0:
166,6,394717,5,0,0:0:0:0:
92,40,394792,5,8,2:0:0:0:
79,56,394867,1,8,2:0:0:0:
71,97,394942,1,8,2:0:0:0:
95,147,395017,1,8,2:0:0:0:
124,199,395092,1,0,0:0:0:0:
115,261,395167,1,0,0:0:0:0:
73,297,395242,1,0,0:0:0:0:
38,207,395317,5,8,2:0:0:0:
115,198,395392,1,0,0:0:0:0:
155,291,395467,1,0,0:0:0:0:
84,276,395542,1,0,0:0:0:0:
76,265,395617,1,0,0:0:0:0:
135,191,395692,5,8,2:0:0:0:
216,179,395767,1,8,2:0:0:0:
297,168,395842,1,8,2:0:0:0:
383,218,395917,5,8,0:2:0:0:
372,198,395992,1,0,0:0:0:0:
378,138,396067,1,8,2:0:0:0:
431,110,396142,1,8,2:0:0:0:
498,139,396217,1,0,0:0:0:0:
510,211,396292,1,0,0:0:0:0:
464,262,396367,1,0,0:0:0:0:
393,268,396442,1,0,0:0:0:0:
313,207,396517,5,0,0:0:0:0:
309,192,396592,1,0,0:0:0:0:
309,177,396667,1,0,0:0:0:0:
316,163,396742,1,0,0:0:0:0:
397,235,396817,5,0,0:0:0:0:
392,258,396892,1,0,0:0:0:0:
378,277,396967,1,0,0:0:0:0:
357,287,397042,1,0,0:0:0:0:
264,269,397117,5,0,0:0:0:0:
232,250,397192,1,0,0:0:0:0:
196,269,397267,1,0,0:0:0:0:
157,243,397342,1,0,0:0:0:0:
73,292,397417,5,8,2:0:0:0:
103,259,397492,1,0,0:0:0:0:
108,214,397567,1,0,0:0:0:0:
88,173,397642,1,0,0:0:0:0:
20,117,397717,5,8,2:0:0:0:
88,158,397792,1,0,0:0:0:0:
156,113,397867,1,0,0:0:0:0:
240,145,397942,1,0,0:0:0:0:
347,79,398017,5,0,0:0:0:0:
339,77,398092,1,0,0:0:0:0:
331,75,398167,1,0,0:0:0:0:
323,73,398242,1,0,0:0:0:0:
453,315,398317,5,10,0:0:0:0:
311,68,398617,2,0,L|314:117,4,37.5000014305115,0|0|0|0|0,2:0|2:0|2:0|2:0|2:0,2:0:0:0:
378,202,398917,5,10,2:3:0:0:
94,100,399067,2,0,P|107:135|107:89,1,125,10|0,2:3|0:0,0:0:0:0:
96,75,399517,5,10,2:3:0:0:
121,300,399667,1,10,2:3:0:0:
360,339,399817,2,0,L|364:298,1,37.5,10|0,2:3|0:0,0:0:0:0:
218,320,400117,6,0,P|279:338|362:279,1,150,2|0,2:3|2:0,0:0:0:0:
193,331,400417,1,0,0:0:0:0:
405,112,400717,5,0,3:0:0:0:
278,116,400817,1,0,3:0:0:0:
349,218,400917,1,0,3:0:0:0:
414,99,401017,1,0,3:0:0:0:
269,103,401317,5,0,0:0:0:0:
391,363,401542,5,0,0:0:0:0:
104,329,401767,5,0,0:0:0:0:
458,199,401917,5,14,0:0:0:0:
59,159,402067,2,0,B|111:158|111:158|112:158|112:158|215:153|209:11|51:47|110:159|110:159|140:185|140:185|319:192|319:192|394:193|396:120|396:120|433:19|282:-25|271:149|395:120|395:120|481:103|516:147,1,1050.00004005432,14|0,0:0|0:0,0:0:0:0:
