osu file format v14

[General]
AudioFilename: audio.mp3
AudioLeadIn: 0
PreviewTime: 39911
Countdown: 1
SampleSet: Normal
StackLeniency: 0.7
Mode: 0
LetterboxInBreaks: 0
WidescreenStoryboard: 0

[Editor]
DistanceSpacing: 1.9
BeatDivisor: 4
GridSize: 4
TimelineZoom: 1

[Metadata]
Title:Galactic Astro Domination
TitleUnicode:Galactic Astro Domination
Artist:DragonForce
ArtistUnicode:DragonForce
Creator:VezAgera
Version:Legend
Source:
Tags:
BeatmapID:1158227
BeatmapSetID:546825

[Difficulty]
HPDrainRate:5
CircleSize:4.5
OverallDifficulty:9
ApproachRate:9.7
SliderMultiplier:1.6
SliderTickRate:1

[Events]
//Background and Video events
0,0,"df bg but reverse.jpg",0,0
//Break Periods
//Storyboard Layer 0 (Background)
//Storyboard Layer 1 (Fail)
//Storyboard Layer 2 (Pass)
//Storyboard Layer 3 (Foreground)
//Storyboard Sound Samples

[TimingPoints]
461,300,4,1,0,30,1,0
20861,-100,4,1,0,30,0,0
28061,-100,4,1,0,30,0,1
30461,-100,4,1,0,30,0,0
57986,-100,4,1,0,5,0,0
58061,-100,4,1,0,30,0,0
83261,-100,4,1,0,30,0,1
86861,-100,4,1,0,30,0,0

[Colours]
Combo1 : 223,21,113
Combo2 : 255,255,0
Combo3 : 255,128,0
Combo4 : 255,68,68

[HitObjects]
384,288,461,6,0,P|352:288|320:256,1,80
256,160,761,5,0,0:0:0:0:
283,131,836,1,0,0:0:0:0:
319,116,911,1,0,0:0:0:0:
356,112,986,1,0,0:0:0:0:
392,120,1061,1,0,0:0:0:0:
340,224,1211,5,0,0:0:0:0:
256,160,1361,5,0,0:0:0:0:
261,120,1436,1,0,0:0:0:0:
278,84,1511,1,0,0:0:0:0:
306,55,1586,1,0,0:0:0:0:
341,36,1661,1,0,0:0:0:0:
344,168,1811,6,0,P|300:220|260:236,1,80
188,272,2111,5,0,0:0:0:0:
212,100,2261,1,0,0:0:0:0:
104,184,2411,1,0,0:0:0:0:
104,184,2486,1,0,0:0:0:0:
104,184,2561,1,0,0:0:0:0:
264,212,2711,1,0,0:0:0:0:
264,64,2861,6,0,P|248:104|204:120,2,80
120,224,3311,5,0,0:0:0:0:
60,20,3461,1,0,0:0:0:0:
196,68,3611,1,0,0:0:0:0:
44,160,3761,2,0,P|120:184|144:252,1,120
156,268,4061,5,0,0:0:0:0:
195,268,4136,1,0,0:0:0:0:
235,269,4211,1,0,0:0:0:0:
275,270,4286,1,0,0:0:0:0:
308,296,4361,5,0,0:0:0:0:
325,282,4436,1,0,0:0:0:0:
341,267,4511,1,0,0:0:0:0:
355,250,4586,1,0,0:0:0:0:
367,232,4661,1,0,0:0:0:0:
377,212,4736,1,0,0:0:0:0:
384,191,4811,1,0,0:0:0:0:
389,170,4886,1,0,0:0:0:0:
393,150,4961,2,0,L|417:190,3,40
424,212,5261,5,0,0:0:0:0:
421,243,5336,1,0,0:0:0:0:
404,270,5411,1,0,0:0:0:0:
375,282,5486,1,0,0:0:0:0:
345,275,5561,1,0,0:0:0:0:
323,252,5636,1,0,0:0:0:0:
308,228,5711,1,0,0:0:0:0:
300,192,5786,1,0,0:0:0:0:
308,156,5861,6,0,P|336:96|392:24,1,120
404,8,6161,5,0,0:0:0:0:
403,42,6236,1,0,0:0:0:0:
399,76,6311,1,0,0:0:0:0:
391,109,6386,1,0,0:0:0:0:
384,144,6461,5,0,0:0:0:0:
397,181,6536,1,0,0:0:0:0:
394,221,6611,1,0,0:0:0:0:
376,256,6686,1,0,0:0:0:0:
345,281,6761,1,0,0:0:0:0:
307,292,6836,1,0,0:0:0:0:
268,287,6911,1,0,0:0:0:0:
234,266,6986,1,0,0:0:0:0:
216,216,7061,6,0,L|144:188,1,40
164,108,7211,2,0,L|228:136,1,40
388,228,7361,6,0,L|320:204,1,40
332,128,7511,2,0,L|400:148,1,40
420,164,7661,5,0,0:0:0:0:
433,203,7736,1,0,0:0:0:0:
412,237,7811,1,0,0:0:0:0:
377,254,7886,1,0,0:0:0:0:
338,250,7961,1,0,0:0:0:0:
307,225,8036,1,0,0:0:0:0:
288,188,8111,1,0,0:0:0:0:
272,152,8186,1,0,0:0:0:0:
244,124,8261,5,0,0:0:0:0:
204,125,8336,1,0,0:0:0:0:
170,145,8411,1,0,0:0:0:0:
150,179,8486,1,0,0:0:0:0:
149,219,8561,1,0,0:0:0:0:
168,254,8636,1,0,0:0:0:0:
201,275,8711,1,0,0:0:0:0:
240,272,8786,1,0,0:0:0:0:
272,256,8861,6,0,L|312:228,2,40
180,224,9161,2,0,L|152:188,2,40
172,320,9461,2,0,L|132:348,2,40
248,272,9761,5,0,0:0:0:0:
276,120,9911,1,0,0:0:0:0:
184,164,10061,6,0,L|132:184,3,40
208,236,10361,2,0,L|160:260,3,40
164,316,10661,1,0,0:0:0:0:
240,136,10961,2,0,P|240:76|200:40,1,80
172,48,11261,5,0,0:0:0:0:
149,80,11336,1,0,0:0:0:0:
136,118,11411,1,0,0:0:0:0:
134,158,11486,1,0,0:0:0:0:
144,196,11561,1,0,0:0:0:0:
163,231,11636,1,0,0:0:0:0:
192,259,11711,1,0,0:0:0:0:
228,277,11786,1,0,0:0:0:0:
268,288,11861,2,0,L|268:240,1,40
272,136,12011,2,0,L|304:168,1,40
400,288,12161,5,0,0:0:0:0:
400,248,12236,1,0,0:0:0:0:
400,208,12311,1,0,0:0:0:0:
400,168,12386,1,0,0:0:0:0:
400,128,12461,6,0,L|352:168,1,40
288,144,12611,2,0,L|260:188,1,40
196,216,12761,5,0,0:0:0:0:
219,248,12836,1,0,0:0:0:0:
252,270,12911,1,0,0:0:0:0:
291,279,12986,1,0,0:0:0:0:
332,276,13061,5,0,0:0:0:0:
319,238,13136,1,0,0:0:0:0:
297,204,13211,1,0,0:0:0:0:
267,178,13286,1,0,0:0:0:0:
236,152,13361,5,0,0:0:0:0:
200,204,13436,1,0,0:0:0:0:
148,240,13511,1,0,0:0:0:0:
84,236,13586,1,0,0:0:0:0:
32,200,13661,5,0,0:0:0:0:
160,104,13811,1,0,0:0:0:0:
192,276,13961,1,0,0:0:0:0:
220,88,14111,1,0,0:0:0:0:
108,88,14261,5,0,0:0:0:0:
256,176,14411,1,0,0:0:0:0:
256,176,14486,1,0,0:0:0:0:
256,176,14561,1,0,0:0:0:0:
256,24,14711,1,0,0:0:0:0:
184,96,14861,6,0,P|224:164|240:176,1,80
144,208,15161,2,0,P|220:232|244:232,1,80
300,232,15461,5,0,0:0:0:0:
432,144,15611,1,0,0:0:0:0:
328,288,15761,1,0,0:0:0:0:
376,116,15911,1,0,0:0:0:0:
302,181,16061,6,0,L|270:145,3,40
276,152,16361,2,0,L|304:112,3,40
348,76,16661,5,0,0:0:0:0:
315,52,16736,1,0,0:0:0:0:
279,35,16811,1,0,0:0:0:0:
240,38,16886,1,0,0:0:0:0:
208,61,16961,1,0,0:0:0:0:
176,85,17036,1,0,0:0:0:0:
137,90,17111,1,0,0:0:0:0:
103,71,17186,1,0,0:0:0:0:
76,44,17261,6,0,L|116:96,1,40
92,152,17411,2,0,L|124:196,1,40
176,132,17561,6,0,L|220:180,1,40
188,240,17711,2,0,L|228:288,1,40
324,276,17861,6,0,L|368:244,3,40
468,180,18161,1,0,0:0:0:0:
276,176,18311,1,0,0:0:0:0:
116,160,18461,6,0,P|152:104|196:88,1,80
160,232,18761,1,0,0:0:0:0:
212,296,18911,2,0,P|268:292|304:268,1,80
160,232,19211,1,0,0:0:0:0:
176,152,19361,5,0,0:0:0:0:
208,188,19436,1,0,0:0:0:0:
248,196,19511,1,0,0:0:0:0:
284,180,19586,1,0,0:0:0:0:
316,152,19661,2,0,B|336:88|332:16|332:16|388:168|492:232|492:232|452:208|400:224|400:224,1,480
284,288,20861,6,0,P|220:216|208:128,1,160
248,36,21311,2,0,P|312:108|324:196,1,160
304,264,21761,5,0,0:0:0:0:
496,228,21911,1,0,0:0:0:0:
336,336,22061,1,0,0:0:0:0:
460,148,22211,1,0,0:0:0:0:
416,332,22361,1,0,0:0:0:0:
324,184,22511,2,0,P|364:156|376:108,1,80
232,116,22811,5,0,0:0:0:0:
260,260,22961,1,0,0:0:0:0:
144,200,23111,1,0,0:0:0:0:
120,104,23261,5,0,0:0:0:0:
130,66,23336,1,0,0:0:0:0:
166,50,23411,1,0,0:0:0:0:
201,65,23486,1,0,0:0:0:0:
213,102,23561,1,0,0:0:0:0:
193,135,23636,1,0,0:0:0:0:
168,160,23711,1,0,0:0:0:0:
153,196,23786,1,0,0:0:0:0:
168,232,23861,6,0,L|212:216,1,40
320,128,24011,2,0,L|296:172,1,40
232,352,24161,6,0,L|252:304,1,40
368,236,24311,2,0,L|320:260,1,40
216,304,24461,5,0,0:0:0:0:
201,294,24536,1,0,0:0:0:0:
189,283,24611,1,0,0:0:0:0:
178,270,24686,1,0,0:0:0:0:
170,255,24761,1,0,0:0:0:0:
164,240,24836,1,0,0:0:0:0:
161,223,24911,1,0,0:0:0:0:
160,207,24986,1,0,0:0:0:0:
161,190,25061,1,0,0:0:0:0:
166,174,25136,1,0,0:0:0:0:
172,158,25211,1,0,0:0:0:0:
181,144,25286,1,0,0:0:0:0:
192,132,25361,5,0,0:0:0:0:
240,172,25436,1,0,0:0:0:0:
300,188,25511,1,0,0:0:0:0:
360,172,25586,1,0,0:0:0:0:
412,136,25661,6,0,L|388:92,7,40
360,200,26261,6,0,L|396:260,1,40
256,168,26411,2,0,L|288:228,1,40
236,316,26561,6,0,L|208:260,1,40
104,160,26711,2,0,L|136:216,1,40
104,284,26861,5,0,0:0:0:0:
121,304,26936,1,0,0:0:0:0:
142,320,27011,1,0,0:0:0:0:
166,332,27086,1,0,0:0:0:0:
192,335,27161,1,0,0:0:0:0:
218,331,27236,1,0,0:0:0:0:
242,320,27311,1,0,0:0:0:0:
264,304,27386,1,0,0:0:0:0:
284,287,27461,1,0,0:0:0:0:
304,269,27536,1,0,0:0:0:0:
327,256,27611,1,0,0:0:0:0:
352,247,27686,1,0,0:0:0:0:
379,246,27761,1,0,0:0:0:0:
405,251,27836,1,0,0:0:0:0:
430,261,27911,1,0,0:0:0:0:
452,275,27986,1,0,0:0:0:0:
468,300,28061,5,0,0:0:0:0:
418,301,28136,1,0,0:0:0:0:
368,303,28211,1,0,0:0:0:0:
318,304,28286,1,0,0:0:0:0:
280,272,28361,1,0,0:0:0:0:
251,231,28436,1,0,0:0:0:0:
238,183,28511,1,0,0:0:0:0:
244,134,28586,1,0,0:0:0:0:
264,88,28661,2,0,L|292:124,1,40
376,236,28811,2,0,L|416:188,1,40
480,96,28961,5,0,0:0:0:0:
430,96,29036,1,0,0:0:0:0:
380,96,29111,1,0,0:0:0:0:
330,96,29186,1,0,0:0:0:0:
276,96,29261,5,0,0:0:0:0:
265,155,29336,1,0,0:0:0:0:
303,201,29411,1,0,0:0:0:0:
364,200,29486,1,0,0:0:0:0:
412,160,29561,5,0,0:0:0:0:
471,181,29636,1,0,0:0:0:0:
489,241,29711,1,0,0:0:0:0:
451,292,29786,1,0,0:0:0:0:
388,308,29861,5,0,0:0:0:0:
321,290,29936,1,0,0:0:0:0:
283,233,30011,1,0,0:0:0:0:
290,165,30086,1,0,0:0:0:0:
228,196,30161,5,0,0:0:0:0:
158,213,30236,1,0,0:0:0:0:
91,187,30311,1,0,0:0:0:0:
50,129,30386,1,0,0:0:0:0:
32,64,30461,5,0,0:0:0:0:
248,144,31661,1,0,0:0:0:0:
180,192,32861,5,0,0:0:0:0:
376,48,34061,1,0,0:0:0:0:
376,48,34136,1,0,0:0:0:0:
376,48,34211,1,0,0:0:0:0:
376,48,34286,1,0,0:0:0:0:
376,48,34361,1,0,0:0:0:0:
436,144,34661,6,0,P|400:168|356:176,1,80
264,136,34961,2,0,P|228:164|208:200,1,80
192,316,35261,1,0,0:0:0:0:
104,256,36461,5,0,0:0:0:0:
412,304,37661,1,0,0:0:0:0:
320,336,38861,6,0,P|280:260|288:248,1,80
428,228,39161,2,0,P|392:256|336:248,1,80
316,108,39461,2,0,P|308:193|294:199,1,80
165,139,39761,2,0,P|210:135|253:172,1,80
228,80,40061,6,0,P|272:124|312:124,1,80
380,128,40361,6,0,L|352:188,3,40
392,196,40661,2,0,L|368:244,3,40
392,260,40961,5,0,0:0:0:0:
376,296,41036,1,0,0:0:0:0:
348,324,41111,1,0,0:0:0:0:
311,338,41186,1,0,0:0:0:0:
272,348,41261,6,0,P|252:264|260:248,1,80
252,204,41561,6,0,L|284:176,3,40
332,136,41861,6,0,L|288:96,1,40
236,120,42011,2,0,L|212:72,1,40
184,20,42161,5,0,0:0:0:0:
144,24,42236,1,0,0:0:0:0:
107,39,42311,1,0,0:0:0:0:
77,66,42386,1,0,0:0:0:0:
64,104,42461,6,0,P|116:108|160:92,1,80
88,40,42761,6,0,L|156:40,3,40
216,40,43061,6,0,L|192:88,3,40
160,136,43361,5,0,0:0:0:0:
191,159,43436,1,0,0:0:0:0:
229,172,43511,1,0,0:0:0:0:
269,173,43586,1,0,0:0:0:0:
328,172,43661,5,0,0:0:0:0:
328,172,43736,1,0,0:0:0:0:
328,172,43811,1,0,0:0:0:0:
328,172,43886,1,0,0:0:0:0:
328,172,43961,2,0,L|296:120,3,40
176,188,44261,5,0,0:0:0:0:
176,188,44336,1,0,0:0:0:0:
176,188,44411,1,0,0:0:0:0:
176,188,44486,1,0,0:0:0:0:
176,188,44561,2,0,L|204:240,3,40
192,300,44861,6,0,P|264:276|292:248,1,80
332,212,45161,5,0,0:0:0:0:
309,178,45236,1,0,0:0:0:0:
287,145,45311,1,0,0:0:0:0:
264,112,45386,1,0,0:0:0:0:
276,80,45461,5,0,0:0:0:0:
236,73,45536,1,0,0:0:0:0:
197,66,45611,1,0,0:0:0:0:
157,60,45686,1,0,0:0:0:0:
120,56,45761,6,0,P|128:92|152:120,1,40
216,172,45911,2,0,P|208:148|196:124,1,40
308,36,46061,6,0,L|264:60,1,40
180,128,46211,2,0,L|240:144,1,40
336,180,46361,2,0,L|292:204,1,40
156,228,46511,2,0,L|212:252,1,40
384,252,46661,5,0,0:0:0:0:
400,216,46736,1,0,0:0:0:0:
408,176,46811,1,0,0:0:0:0:
400,136,46886,1,0,0:0:0:0:
384,96,46961,1,0,0:0:0:0:
363,62,47036,1,0,0:0:0:0:
329,41,47111,1,0,0:0:0:0:
288,28,47186,1,0,0:0:0:0:
248,24,47261,6,0,P|268:92|348:184,1,160
204,128,47711,2,0,P|164:96|48:96,1,160
200,204,48161,2,0,P|256:208|308:192,1,80
388,160,48461,5,0,0:0:0:0:
388,160,48536,1,0,0:0:0:0:
388,160,48611,1,0,0:0:0:0:
388,160,48686,1,0,0:0:0:0:
388,160,48761,1,0,0:0:0:0:
388,160,48836,1,0,0:0:0:0:
348,166,48911,1,0,0:0:0:0:
309,173,48986,1,0,0:0:0:0:
296,212,49061,1,0,0:0:0:0:
285,250,49136,1,0,0:0:0:0:
274,289,49211,1,0,0:0:0:0:
264,327,49286,1,0,0:0:0:0:
252,368,49361,2,0,L|224:316,1,40
120,328,49511,2,0,L|104:284,1,40
148,212,49661,5,0,0:0:0:0:
300,108,49811,1,0,0:0:0:0:
108,116,49961,1,0,0:0:0:0:
108,116,50036,1,0,0:0:0:0:
108,116,50111,2,0,P|132:132|168:184,1,80
216,192,50411,5,0,0:0:0:0:
320,48,50561,1,0,0:0:0:0:
340,208,50711,2,0,P|316:192|280:140,1,80
272,100,51011,5,0,0:0:0:0:
248,264,51161,1,0,0:0:0:0:
316,208,51311,2,0,B|244:148|180:208|180:208|108:272|4:208,1,320
128,164,52061,6,0,L|196:180,1,40
148,340,52211,2,0,L|200:328,1,40
272,168,52361,6,0,L|340:184,1,40
292,344,52511,2,0,L|344:332,1,40
440,284,52661,6,0,L|412:228,1,40
332,56,52811,2,0,L|348:108,1,40
316,272,52961,6,0,L|352:232,1,40
460,108,53111,2,0,L|412:160,1,40
304,216,53261,5,0,0:0:0:0:
432,264,53411,1,0,0:0:0:0:
344,124,53561,1,0,0:0:0:0:
192,208,53711,2,0,P|152:312|112:216,1,240
128,220,54461,6,0,L|160:192,3,40
192,204,54761,2,0,L|208:164,3,40
244,160,55061,2,0,L|220:96,3,40
248,88,55361,2,0,L|208:48,3,40
180,64,55661,5,0,0:0:0:0:
150,89,55736,1,0,0:0:0:0:
135,126,55811,1,0,0:0:0:0:
138,166,55886,1,0,0:0:0:0:
112,196,55961,5,0,0:0:0:0:
126,232,56036,1,0,0:0:0:0:
156,258,56111,1,0,0:0:0:0:
195,266,56186,1,0,0:0:0:0:
224,296,56261,5,0,0:0:0:0:
263,295,56336,1,0,0:0:0:0:
300,281,56411,1,0,0:0:0:0:
329,253,56486,1,0,0:0:0:0:
368,256,56561,5,0,0:0:0:0:
374,216,56636,1,0,0:0:0:0:
366,177,56711,1,0,0:0:0:0:
344,144,56786,1,0,0:0:0:0:
356,104,56861,6,0,B|288:96|192:60|204:0|204:0|240:76|168:232|168:232|228:200|228:200|240:240|304:268,1,600
312,288,58061,6,0,L|264:336,3,40
216,272,58361,2,0,L|168:248,3,40
212,356,58661,2,0,L|164:404,3,40
112,352,58961,2,0,L|64:328,3,40
48,316,59261,5,0,0:0:0:0:
28,281,59336,1,0,0:0:0:0:
23,241,59411,1,0,0:0:0:0:
32,203,59486,1,0,0:0:0:0:
56,171,59561,1,0,0:0:0:0:
89,150,59636,1,0,0:0:0:0:
128,142,59711,1,0,0:0:0:0:
167,150,59786,1,0,0:0:0:0:
201,172,59861,1,0,0:0:0:0:
223,204,59936,1,0,0:0:0:0:
233,243,60011,1,0,0:0:0:0:
227,282,60086,1,0,0:0:0:0:
207,317,60161,1,0,0:0:0:0:
175,341,60236,1,0,0:0:0:0:
137,352,60311,1,0,0:0:0:0:
97,348,60386,1,0,0:0:0:0:
56,324,60461,5,0,0:0:0:0:
86,298,60536,1,0,0:0:0:0:
122,281,60611,1,0,0:0:0:0:
162,278,60686,1,0,0:0:0:0:
200,290,60761,1,0,0:0:0:0:
234,310,60836,1,0,0:0:0:0:
267,333,60911,1,0,0:0:0:0:
303,349,60986,1,0,0:0:0:0:
343,355,61061,1,0,0:0:0:0:
382,350,61136,1,0,0:0:0:0:
420,337,61211,1,0,0:0:0:0:
455,317,61286,1,0,0:0:0:0:
484,292,61361,1,0,0:0:0:0:
264,320,61511,1,0,0:0:0:0:
156,84,61661,6,0,P|160:132|196:160,1,80
264,320,61961,2,0,P|264:272|244:240,1,80
136,192,62261,5,0,0:0:0:0:
136,192,62336,1,0,0:0:0:0:
136,192,62411,2,0,P|168:128|200:128,2,80
216,296,62861,5,0,0:0:0:0:
80,248,63011,1,0,0:0:0:0:
296,176,63161,1,0,0:0:0:0:
156,128,63311,1,0,0:0:0:0:
368,64,63461,6,0,L|304:112,1,80
320,224,63761,2,0,L|256:272,1,80
240,332,64061,6,0,L|296:332,1,40
448,288,64211,2,0,L|400:288,1,40
216,216,64361,2,0,L|272:216,1,40
436,176,64511,2,0,L|388:176,1,40
196,136,64661,6,0,L|156:104,1,40
180,140,64811,2,0,L|136:108,1,40
316,248,64961,6,0,L|356:280,1,40
332,244,65111,2,0,L|376:276,1,40
353,93,65261,6,0,L|315:131,1,40
157,289,65411,2,0,L|195:251,1,40
256,52,65561,6,0,L|256:106,1,40
256,331,65711,2,0,L|256:277,1,40
157,93,65861,6,0,L|195:131,1,40
353,289,66011,2,0,L|315:251,1,40
116,192,66161,6,0,L|170:192,1,40
395,192,66311,2,0,L|341:192,1,40
144,248,66461,6,0,P|220:236|240:224,1,80
328,140,66761,1,0,0:0:0:0:
328,140,66836,1,0,0:0:0:0:
328,140,66911,2,0,P|280:144|256:164,1,80
248,272,67211,1,0,0:0:0:0:
200,160,67361,2,0,L|144:128,2,40
292,124,67661,5,0,0:0:0:0:
328,139,67736,1,0,0:0:0:0:
358,165,67811,1,0,0:0:0:0:
379,199,67886,1,0,0:0:0:0:
387,238,67961,1,0,0:0:0:0:
382,277,68036,1,0,0:0:0:0:
365,313,68111,1,0,0:0:0:0:
337,342,68186,1,0,0:0:0:0:
304,364,68261,5,0,0:0:0:0:
290,326,68336,1,0,0:0:0:0:
266,295,68411,1,0,0:0:0:0:
233,273,68486,1,0,0:0:0:0:
195,263,68561,1,0,0:0:0:0:
155,265,68636,1,0,0:0:0:0:
118,280,68711,1,0,0:0:0:0:
81,303,68786,1,0,0:0:0:0:
44,332,68861,2,0,L|64:296,7,40
96,184,69461,6,0,L|76:224,7,40
64,264,70061,1,0,0:0:0:0:
103,268,70136,1,0,0:0:0:0:
143,268,70211,1,0,0:0:0:0:
182,258,70286,1,0,0:0:0:0:
216,238,70361,1,0,0:0:0:0:
243,208,70436,1,0,0:0:0:0:
265,175,70511,1,0,0:0:0:0:
288,142,70586,1,0,0:0:0:0:
316,113,70661,1,0,0:0:0:0:
350,93,70736,1,0,0:0:0:0:
387,80,70811,1,0,0:0:0:0:
427,74,70886,1,0,0:0:0:0:
464,76,70961,2,0,P|436:128|404:156,1,80
328,216,71261,6,0,L|296:168,2,40
206,182,71561,2,0,L|184:216,2,40
280,236,71861,6,0,L|292:276,2,40
240,104,72161,2,0,L|228:56,2,40
156,172,72461,6,0,L|104:164,2,40
356,196,72761,2,0,L|412:204,2,40
160,212,73061,6,0,L|112:232,2,40
344,140,73361,2,0,L|408:112,2,40
248,176,73661,5,0,0:0:0:0:
217,150,73736,1,0,0:0:0:0:
199,114,73811,1,0,0:0:0:0:
195,75,73886,1,0,0:0:0:0:
205,36,73961,1,0,0:0:0:0:
244,16,74036,1,0,0:0:0:0:
283,20,74111,1,0,0:0:0:0:
311,46,74186,1,0,0:0:0:0:
318,85,74261,5,0,0:0:0:0:
300,120,74336,1,0,0:0:0:0:
264,137,74411,1,0,0:0:0:0:
226,129,74486,1,0,0:0:0:0:
188,124,74561,1,0,0:0:0:0:
150,134,74636,1,0,0:0:0:0:
126,166,74711,1,0,0:0:0:0:
127,205,74786,1,0,0:0:0:0:
148,236,74861,5,0,0:0:0:0:
184,247,74936,1,0,0:0:0:0:
213,223,75011,1,0,0:0:0:0:
208,185,75086,1,0,0:0:0:0:
176,164,75161,1,0,0:0:0:0:
137,170,75236,1,0,0:0:0:0:
108,197,75311,1,0,0:0:0:0:
101,236,75386,1,0,0:0:0:0:
117,272,75461,5,0,0:0:0:0:
151,292,75536,1,0,0:0:0:0:
190,290,75611,1,0,0:0:0:0:
220,264,75686,1,0,0:0:0:0:
232,228,75761,2,0,P|232:200|224:176,3,40
216,148,76061,5,0,0:0:0:0:
194,114,76136,1,0,0:0:0:0:
195,75,76211,1,0,0:0:0:0:
219,43,76286,1,0,0:0:0:0:
256,31,76361,1,0,0:0:0:0:
294,42,76436,1,0,0:0:0:0:
319,72,76511,1,0,0:0:0:0:
321,112,76586,1,0,0:0:0:0:
316,148,76661,5,0,0:0:0:0:
292,180,76736,1,0,0:0:0:0:
257,199,76811,1,0,0:0:0:0:
218,204,76886,1,0,0:0:0:0:
179,195,76961,1,0,0:0:0:0:
147,171,77036,1,0,0:0:0:0:
126,138,77111,1,0,0:0:0:0:
116,100,77186,1,0,0:0:0:0:
116,60,77261,5,0,0:0:0:0:
131,96,77336,1,0,0:0:0:0:
139,135,77411,1,0,0:0:0:0:
139,175,77486,1,0,0:0:0:0:
129,214,77561,1,0,0:0:0:0:
111,250,77636,1,0,0:0:0:0:
87,277,77711,1,0,0:0:0:0:
56,296,77786,1,0,0:0:0:0:
20,304,77861,5,0,0:0:0:0:
38,263,77936,1,0,0:0:0:0:
65,227,78011,1,0,0:0:0:0:
99,198,78086,1,0,0:0:0:0:
130,178,78161,2,0,P|180:158|230:147,1,80
424,72,78461,2,0,P|346:59|277:97,1,160
348,256,78911,2,0,P|300:288|192:276,1,160
128,212,79361,6,0,P|176:188|216:200,1,80
188,312,79661,5,0,0:0:0:0:
400,220,79811,1,0,0:0:0:0:
240,132,79961,1,0,0:0:0:0:
240,132,80036,1,0,0:0:0:0:
240,132,80111,1,0,0:0:0:0:
348,288,80261,1,0,0:0:0:0:
348,288,80336,1,0,0:0:0:0:
348,288,80411,1,0,0:0:0:0:
212,272,80561,5,0,0:0:0:0:
316,168,80711,1,0,0:0:0:0:
480,236,80861,2,0,P|432:280|328:304,1,160
169,304,81311,2,0,P|92:287|32:236,1,160
80,80,81761,6,0,P|140:116|152:148,1,80
184,220,82061,5,0,0:0:0:0:
288,160,82211,1,0,0:0:0:0:
288,160,82361,1,0,0:0:0:0:
332,32,82511,1,0,0:0:0:0:
212,72,82661,1,0,0:0:0:0:
212,72,82811,1,0,0:0:0:0:
320,132,82961,1,0,0:0:0:0:
200,204,83111,1,0,0:0:0:0:
284,260,83261,5,0,0:0:0:0:
312,310,83336,1,0,0:0:0:0:
286,361,83411,1,0,0:0:0:0:
228,368,83486,1,0,0:0:0:0:
191,325,83561,1,0,0:0:0:0:
156,280,83636,1,0,0:0:0:0:
105,252,83711,1,0,0:0:0:0:
51,274,83786,1,0,0:0:0:0:
37,331,83861,5,0,0:0:0:0:
72,377,83936,1,0,0:0:0:0:
132,380,84011,1,0,0:0:0:0:
166,332,84086,1,0,0:0:0:0:
156,280,84161,1,0,0:0:0:0:
128,236,84236,1,0,0:0:0:0:
143,182,84311,1,0,0:0:0:0:
200,164,84386,1,0,0:0:0:0:
248,204,84461,5,0,0:0:0:0:
272,264,84536,1,0,0:0:0:0:
331,283,84611,1,0,0:0:0:0:
380,244,84686,1,0,0:0:0:0:
392,184,84761,2,0,L|408:124,1,40
255,120,84911,2,0,L|227:67,1,40
270,2,85061,5,0,0:0:0:0:
283,63,85136,1,0,0:0:0:0:
255,120,85211,1,0,0:0:0:0:
208,163,85286,1,0,0:0:0:0:
183,220,85361,1,0,0:0:0:0:
191,284,85436,1,0,0:0:0:0:
242,326,85511,1,0,0:0:0:0:
306,314,85586,1,0,0:0:0:0:
352,268,85661,5,0,0:0:0:0:
392,198,85736,1,0,0:0:0:0:
470,215,85811,1,0,0:0:0:0:
478,294,85886,1,0,0:0:0:0:
405,327,85961,1,0,0:0:0:0:
272,136,86261,5,0,0:0:0:0:
148,376,86461,1,0,0:0:0:0:
20,100,86661,1,0,0:0:0:0:
372,264,86861,1,0,0:0:0:0:
