osu file format v14

[General]
AudioFilename: DragonForce - Fury of the Storm.mp3
AudioLeadIn: 0
PreviewTime: 108538
Countdown: 1
SampleSet: Normal
StackLeniency: 0.7
Mode: 0
LetterboxInBreaks: 0
WidescreenStoryboard: 1

[Editor]
Bookmarks: 9838,27838,51838,61438,69838,80638,90238,108538,126238,145438,155038,164638,182938,201838,211438,230638,240238,259438,269038,278638,288238,297838,307438,317038,336238,341038,368263,369838,379438,398638
DistanceSpacing: 1
BeatDivisor: 4
GridSize: 8
TimelineZoom: 2.1

[Metadata]
Title:Fury of the Storm
TitleUnicode:Fury of the Storm
Artist:DragonForce
ArtistUnicode:DragonForce
Creator:-GN
Version:Legend
Source:
Tags:sonic firestorm fots deathstream lesjuh herman li sam totman
BeatmapID:1211507
BeatmapSetID:571679

[Difficulty]
HPDrainRate:5
CircleSize:5
OverallDifficulty:8
ApproachRate:8
SliderMultiplier:1.6
SliderTickRate:2

[Events]
//Background and Video events
0,0,"BG.jpg",0,0
//Break Periods
2,370049,376299
//Storyboard Layer 0 (Background)
//Storyboard Layer 1 (Fail)
//Storyboard Layer 2 (Pass)
//Storyboard Layer 3 (Foreground)
//Storyboard Sound Samples

[TimingPoints]
249,300,4,1,0,40,1,0
7449,-100,4,1,0,50,0,0
9849,-100,4,1,0,40,0,0
28449,-100,4,2,0,40,0,0
30174,-100,4,1,0,5,0,0
30249,-100,4,1,0,40,0,0
50574,-100,4,1,0,5,0,0
50649,-117.647058823529,4,1,0,40,0,0
51849,-100,4,1,0,40,0,0
70974,-100,4,1,0,5,0,0
71049,-100,4,1,0,40,0,0
109449,-100,4,1,0,40,0,1
126249,-100,4,1,0,40,0,0
145374,-100,4,1,0,5,0,0
145449,-100,4,1,0,40,0,0
183849,-100,4,1,0,40,0,1
200649,-142.857142857143,4,1,0,40,0,0
202149,-100,4,1,0,30,0,0
206574,-100,4,2,0,30,0,0
206649,-100,4,1,0,30,0,0
211449,-100,4,1,0,40,0,0
259449,-100,4,1,0,40,0,1
297849,-100,4,1,0,40,0,0
336249,-100,4,1,0,40,0,1
341049,-100,4,1,0,40,0,0
369249,-133.333333333333,4,1,0,40,0,0
369849,-100,4,1,0,40,0,0
379449,-100,4,1,0,40,0,1
398649,-100,4,1,0,40,0,0
398663,300,4,1,0,40,1,0

[Colours]
Combo1 : 228,228,228
Combo2 : 56,74,146
Combo3 : 64,147,208
Combo4 : 130,62,204

[HitObjects]
304,240,249,5,4,0:0:0:0:
144,344,549,1,0,0:0:0:0:
64,336,699,1,0,0:0:0:0:
48,256,849,1,0,0:0:0:0:
120,216,999,1,0,0:0:0:0:
176,272,1149,1,6,0:0:0:0:
0,136,1449,5,6,0:0:0:0:
208,40,1749,1,0,0:0:0:0:
288,24,1899,1,0,0:0:0:0:
328,96,2049,1,0,0:0:0:0:
272,152,2199,1,0,0:0:0:0:
200,120,2349,1,0,0:0:0:0:
384,160,2649,5,6,0:0:0:0:
208,248,2949,1,0,0:0:0:0:
168,320,3099,1,0,0:0:0:0:
224,376,3249,1,0,0:0:0:0:
296,344,3399,1,0,0:0:0:0:
288,264,3549,2,0,B|269:243|262:203|275:169,1,80
264,72,3849,6,0,B|288:64|304:64|304:64,3,40,2|0|0|0,0:0|0:0|0:0|0:0,0:0:0:0:
336,88,4149,2,0,B|360:88|384:96|384:96,3,40,2|0|0|0,0:0|0:0|0:0|0:0,0:0:0:0:
384,136,4449,2,0,B|408:144|424:160|424:160,3,40,2|0|0|0,0:0|0:0|0:0|0:0,0:0:0:0:
408,192,4749,1,2,0:0:0:0:
184,272,5049,5,6,0:0:0:0:
112,112,5349,1,0,0:0:0:0:
120,32,5499,1,0,0:0:0:0:
200,16,5649,1,0,0:0:0:0:
240,88,5799,1,0,0:0:0:0:
184,144,5949,1,0,0:0:0:0:
352,8,6249,5,6,0:0:0:0:
336,208,6549,1,0,0:0:0:0:
376,280,6699,1,0,0:0:0:0:
456,264,6849,1,0,0:0:0:0:
464,184,6999,1,0,0:0:0:0:
392,152,7149,1,0,0:0:0:0:
200,248,7449,5,6,0:0:0:0:
16,120,7749,1,2,0:0:0:0:
88,320,8049,1,2,0:0:0:0:
280,240,8349,1,2,0:0:0:0:
48,224,8649,1,2,0:0:0:0:
240,344,8949,1,2,0:0:0:0:
328,120,9249,1,2,0:0:0:0:
232,216,9399,1,0,0:0:0:0:
232,216,9474,1,0,0:0:0:0:
232,216,9549,1,6,0:0:0:0:
184,80,9849,5,6,0:0:0:0:
160,48,9924,1,0,0:0:0:0:
120,32,9999,1,0,0:0:0:0:
80,40,10074,1,0,0:0:0:0:
48,72,10149,1,0,0:0:0:0:
40,112,10224,1,0,0:0:0:0:
56,144,10299,1,0,0:0:0:0:
88,168,10374,1,0,0:0:0:0:
112,200,10449,5,2,0:0:0:0:
120,240,10524,1,0,0:0:0:0:
104,280,10599,1,0,0:0:0:0:
112,320,10674,1,0,0:0:0:0:
144,344,10749,2,0,B|176:352|192:352|192:352,3,40
216,368,11049,5,6,0:0:0:0:
248,344,11124,1,0,0:0:0:0:
288,336,11199,1,0,0:0:0:0:
328,352,11274,1,0,0:0:0:0:
368,360,11349,1,0,0:0:0:0:
408,344,11424,1,0,0:0:0:0:
424,304,11499,1,0,0:0:0:0:
416,264,11574,1,0,0:0:0:0:
384,240,11649,5,2,0:0:0:0:
344,232,11724,1,0,0:0:0:0:
304,248,11799,1,0,0:0:0:0:
264,256,11874,1,0,0:0:0:0:
224,240,11949,2,0,B|200:216|184:208|184:208,3,40
152,224,12249,5,6,0:0:0:0:
112,232,12324,1,0,0:0:0:0:
72,216,12399,1,0,0:0:0:0:
48,184,12474,1,0,0:0:0:0:
40,144,12549,1,0,0:0:0:0:
48,104,12624,1,0,0:0:0:0:
80,72,12699,1,0,0:0:0:0:
120,64,12774,1,0,0:0:0:0:
160,72,12849,5,2,0:0:0:0:
192,96,12924,1,0,0:0:0:0:
232,104,12999,1,0,0:0:0:0:
264,88,13074,1,0,0:0:0:0:
288,56,13149,1,0,0:0:0:0:
312,24,13224,1,0,0:0:0:0:
344,8,13299,1,0,0:0:0:0:
384,16,13374,1,0,0:0:0:0:
408,48,13449,6,0,B|416:72|416:88|416:88,3,40,6|0|0|0,0:0|0:0|0:0|0:0,0:0:0:0:
384,112,13749,2,0,B|376:144|376:160|376:160,3,40,2|0|0|0,0:0|0:0|0:0|0:0,0:0:0:0:
416,168,14049,2,0,B|432:192|432:224|432:224,3,40,2|0|0|0,0:0|0:0|0:0|0:0,0:0:0:0:
408,248,14349,2,2,B|416:304|376:336|376:336,1,80
280,328,14649,5,6,0:0:0:0:
256,296,14724,1,0,0:0:0:0:
216,280,14799,1,0,0:0:0:0:
176,296,14874,1,0,0:0:0:0:
152,328,14949,1,0,0:0:0:0:
120,352,15024,1,0,0:0:0:0:
80,352,15099,1,0,0:0:0:0:
48,328,15174,1,0,0:0:0:0:
40,288,15249,5,2,0:0:0:0:
56,256,15324,1,0,0:0:0:0:
88,232,15399,1,0,0:0:0:0:
128,224,15474,1,0,0:0:0:0:
152,192,15549,2,0,B|160:160|160:144|160:144,3,40
184,120,15849,5,6,0:0:0:0:
224,112,15924,1,0,0:0:0:0:
264,120,15999,1,0,0:0:0:0:
296,144,16074,1,0,0:0:0:0:
320,176,16149,1,0,0:0:0:0:
360,192,16224,1,0,0:0:0:0:
400,184,16299,1,0,0:0:0:0:
432,160,16374,1,0,0:0:0:0:
440,120,16449,5,2,0:0:0:0:
424,80,16524,1,0,0:0:0:0:
392,56,16599,1,0,0:0:0:0:
352,48,16674,1,0,0:0:0:0:
312,64,16749,2,0,B|288:56|264:64|264:64,3,40
240,88,17049,5,6,0:0:0:0:
200,80,17124,1,0,0:0:0:0:
168,56,17199,1,0,0:0:0:0:
128,40,17274,1,0,0:0:0:0:
88,48,17349,1,0,0:0:0:0:
64,80,17424,1,0,0:0:0:0:
64,120,17499,1,0,0:0:0:0:
88,152,17574,1,0,0:0:0:0:
128,168,17649,5,2,0:0:0:0:
168,168,17724,1,0,0:0:0:0:
208,184,17799,1,0,0:0:0:0:
232,216,17874,1,0,0:0:0:0:
232,256,17949,1,0,0:0:0:0:
240,296,18024,1,0,0:0:0:0:
264,328,18099,1,0,0:0:0:0:
304,336,18174,1,0,0:0:0:0:
344,328,18249,6,0,B|368:320|392:320|392:320,3,40,6|0|0|0,0:0|0:0|0:0|0:0,0:0:0:0:
392,280,18549,2,0,B|408:264|416:240|416:240,3,40,2|0|0|0,0:0|0:0|0:0|0:0,0:0:0:0:
424,208,18849,2,0,B|440:208|472:200|472:200,3,40,2|0|0|0,0:0|0:0|0:0|0:0,0:0:0:0:
488,160,19149,2,0,B|456:128|464:80|464:80,1,80,6|0,0:0|0:0,0:0:0:0:
344,24,19449,5,6,0:0:0:0:
320,56,19524,1,0,0:0:0:0:
280,72,19599,1,0,0:0:0:0:
240,64,19674,1,0,0:0:0:0:
208,40,19749,2,0,B|192:24|168:16|168:16,3,40
136,32,20049,5,2,0:0:0:0:
112,64,20124,1,0,0:0:0:0:
112,104,20199,1,0,0:0:0:0:
136,136,20274,1,0,0:0:0:0:
176,152,20349,2,0,B|240:136|280:176|280:176,1,80
336,232,20649,5,6,0:0:0:0:
312,264,20724,1,0,0:0:0:0:
280,280,20799,1,0,0:0:0:0:
240,272,20874,1,0,0:0:0:0:
208,248,20949,1,0,0:0:0:0:
168,240,21024,1,0,0:0:0:0:
136,256,21099,1,0,0:0:0:0:
96,261,21174,1,0,0:0:0:0:
64,240,21249,2,0,B|40:240|16:232|16:232,3,40,2|0|0|0,0:0|0:0|0:0|0:0,0:0:0:0:
16,192,21549,2,0,B|0:136|40:96|40:96,1,80
104,56,21849,5,6,0:0:0:0:
128,24,21924,1,0,0:0:0:0:
168,8,21999,1,0,0:0:0:0:
208,8,22074,1,0,0:0:0:0:
248,24,22149,1,0,0:0:0:0:
288,40,22224,1,0,0:0:0:0:
328,40,22299,1,0,0:0:0:0:
368,24,22374,1,0,0:0:0:0:
408,24,22449,5,2,0:0:0:0:
440,48,22524,1,0,0:0:0:0:
448,88,22599,1,0,0:0:0:0:
440,128,22674,1,0,0:0:0:0:
408,152,22749,1,0,0:0:0:0:
368,152,22824,1,0,0:0:0:0:
328,128,22899,1,0,0:0:0:0:
288,120,22974,1,0,0:0:0:0:
248,136,23049,6,0,B|240:144|208:152|208:152,3,40,6|0|0|0,0:0|0:0|0:0|0:0,0:0:0:0:
176,128,23349,2,0,B|160:120|144:104|144:104,3,40,2|0|0|0,0:0|0:0|0:0|0:0,0:0:0:0:
104,120,23649,2,0,B|80:128|48:128|48:128,3,40,2|0|0|0,0:0|0:0|0:0|0:0,0:0:0:0:
40,160,23949,2,2,B|8:208|24:256|24:256,1,80,2|0,0:0|0:0,0:0:0:0:
56,328,24249,5,6,0:0:0:0:
96,320,24324,1,0,0:0:0:0:
136,328,24399,1,0,0:0:0:0:
168,352,24474,1,0,0:0:0:0:
208,360,24549,1,0,0:0:0:0:
240,344,24624,1,0,0:0:0:0:
256,312,24699,1,0,0:0:0:0:
248,272,24774,1,0,0:0:0:0:
232,240,24849,5,2,0:0:0:0:
232,200,24924,1,0,0:0:0:0:
256,168,24999,1,0,0:0:0:0:
296,152,25074,1,0,0:0:0:0:
336,160,25149,2,0,B|368:168|376:176|376:176,3,40
400,200,25449,5,6,0:0:0:0:
400,240,25524,1,0,0:0:0:0:
432,264,25599,1,0,0:0:0:0:
472,264,25674,1,0,0:0:0:0:
504,288,25749,1,0,0:0:0:0:
504,328,25824,1,0,0:0:0:0:
480,360,25899,1,0,0:0:0:0:
440,360,25974,1,0,0:0:0:0:
408,336,26049,5,2,0:0:0:0:
376,320,26124,1,0,0:0:0:0:
336,320,26199,1,0,0:0:0:0:
296,336,26274,1,0,0:0:0:0:
256,320,26349,2,0,B|216:328|192:352|192:352,3,40
176,336,26649,5,6,0:0:0:0:
144,360,26724,1,0,0:0:0:0:
104,352,26799,1,0,0:0:0:0:
80,320,26874,1,0,0:0:0:0:
88,280,26949,1,0,0:0:0:0:
120,256,27024,1,0,0:0:0:0:
160,264,27099,1,6,0:0:0:0:
200,248,27174,1,0,0:0:0:0:
216,208,27249,5,0,0:0:0:0:
192,176,27324,1,0,0:0:0:0:
200,136,27399,1,0,0:0:0:0:
232,112,27474,1,0,0:0:0:0:
272,120,27549,1,6,0:0:0:0:
296,152,27624,1,0,0:0:0:0:
336,160,27699,1,0,0:0:0:0:
368,136,27774,1,0,0:0:0:0:
376,96,27849,1,6,0:0:0:0:
256,192,27886,12,0,28449,0:0:0:0:
256,192,28486,12,0,29049,0:0:0:0:
256,192,29086,12,0,30174,0:0:0:0:
232,112,30249,5,6,0:0:0:0:
192,120,30324,1,0,0:0:0:0:
152,104,30399,1,0,0:0:0:0:
120,80,30474,1,0,0:0:0:0:
80,72,30549,1,2,0:0:0:0:
48,88,30624,1,0,0:0:0:0:
24,120,30699,1,0,0:0:0:0:
32,160,30774,1,0,0:0:0:0:
56,192,30849,2,0,B|64:232|72:240|72:240,3,40,2|0|0|0,0:0|0:0|0:0|0:0,0:0:0:0:
56,272,31149,2,0,B|72:288|96:288|96:288,3,40,2|0|0|0,0:0|0:0|0:0|0:0,0:0:0:0:
120,312,31449,5,2,0:0:0:0:
152,296,31524,1,0,0:0:0:0:
192,288,31599,1,0,0:0:0:0:
224,304,31674,1,0,0:0:0:0:
248,336,31749,1,2,0:0:0:0:
288,352,31824,1,0,0:0:0:0:
328,344,31899,1,0,0:0:0:0:
360,320,31974,1,0,0:0:0:0:
384,288,32049,2,0,B|392:264|384:240|384:240,3,40,2|0|0|0,0:0|0:0|0:0|0:0,0:0:0:0:
352,232,32349,2,0,B|344:216|328:200|328:200,3,40,2|0|0|0,0:0|0:0|0:0|0:0,0:0:0:0:
336,160,32649,5,2,0:0:0:0:
319,123,32724,1,0,0:0:0:0:
328,80,32799,1,0,0:0:0:0:
320,40,32874,1,0,0:0:0:0:
288,16,32949,1,2,0:0:0:0:
248,24,33024,1,0,0:0:0:0:
224,56,33099,1,0,0:0:0:0:
232,96,33174,1,0,0:0:0:0:
224,136,33249,2,0,B|192:168|176:176|176:176,3,40,2|0|0|0,0:0|0:0|0:0|0:0,0:0:0:0:
160,160,33549,2,0,B|136:160|112:168|112:168,3,40,2|0|0|0,0:0|0:0|0:0|0:0,0:0:0:0:
80,176,33849,5,2,0:0:0:0:
96,208,33924,1,0,0:0:0:0:
88,248,33999,1,0,0:0:0:0:
56,272,34074,1,0,0:0:0:0:
32,304,34149,1,2,0:0:0:0:
32,344,34224,1,0,0:0:0:0:
56,376,34299,1,0,0:0:0:0:
96,384,34374,1,0,0:0:0:0:
128,360,34449,2,0,B|152:336|168:328|168:328,3,40,2|0|0|0,0:0|0:0|0:0|0:0,0:0:0:0:
200,344,34749,2,0,B|224:352|256:352|256:352,3,40,2|0|0|0,0:0|0:0|0:0|0:0,0:0:0:0:
280,336,35049,5,6,0:0:0:0:
320,320,35124,1,0,0:0:0:0:
360,320,35199,1,0,0:0:0:0:
392,344,35274,1,0,0:0:0:0:
432,352,35349,1,2,0:0:0:0:
472,336,35424,1,0,0:0:0:0:
488,296,35499,1,0,0:0:0:0:
480,256,35574,1,0,0:0:0:0:
456,224,35649,2,0,B|448:216|432:192|432:192,3,40,2|0|0|0,0:0|0:0|0:0|0:0,0:0:0:0:
448,152,35949,2,0,B|448:136|440:112|440:112,3,40,2|0|0|0,0:0|0:0|0:0|0:0,0:0:0:0:
472,88,36249,5,2,0:0:0:0:
456,48,36324,1,0,0:0:0:0:
424,24,36399,1,0,0:0:0:0:
384,24,36474,1,0,0:0:0:0:
352,48,36549,1,2,0:0:0:0:
344,88,36624,1,0,0:0:0:0:
360,128,36699,1,0,0:0:0:0:
352,168,36774,1,0,0:0:0:0:
320,192,36849,2,0,B|288:192|264:176|264:176,3,40,2|0|0|0,0:0|0:0|0:0|0:0,0:0:0:0:
240,200,37149,2,0,B|224:184|200:184|200:184,3,40,2|0|0|0,0:0|0:0|0:0|0:0,0:0:0:0:
168,168,37449,5,2,0:0:0:0:
128,176,37524,1,0,0:0:0:0:
96,200,37599,1,0,0:0:0:0:
56,200,37674,1,0,0:0:0:0:
24,176,37749,1,2,0:0:0:0:
8,136,37824,1,0,0:0:0:0:
24,96,37899,1,0,0:0:0:0:
56,72,37974,1,0,0:0:0:0:
96,72,38049,2,0,B|120:56|144:56|144:56,3,40,2|0|0|0,0:0|0:0|0:0|0:0,0:0:0:0:
160,48,38349,2,0,B|176:48|200:40|200:40,3,40,2|0|0|0,0:0|0:0|0:0|0:0,0:0:0:0:
240,48,38649,5,6,0:0:0:0:
272,72,38724,1,0,0:0:0:0:
288,112,38799,1,0,0:0:0:0:
280,152,38874,1,0,0:0:0:0:
272,192,38949,1,2,0:0:0:0:
288,232,39024,1,0,0:0:0:0:
328,248,39099,1,0,0:0:0:0:
368,232,39174,1,0,0:0:0:0:
384,192,39249,5,6,0:0:0:0:
384,152,39324,1,0,0:0:0:0:
408,120,39399,1,0,0:0:0:0:
448,120,39474,1,0,0:0:0:0:
480,144,39549,2,0,B|488:168|480:200|480:200,3,40,2|0|0|0,0:0|0:0|0:0|0:0,0:0:0:0:
464,224,39849,5,6,0:0:0:0:
448,264,39924,1,0,0:0:0:0:
464,304,39999,1,0,0:0:0:0:
456,344,40074,1,0,0:0:0:0:
416,360,40149,1,2,0:0:0:0:
376,352,40224,1,0,0:0:0:0:
352,320,40299,1,0,0:0:0:0:
312,312,40374,1,0,0:0:0:0:
280,336,40449,2,0,B|248:344|232:344|232:344,3,40,2|0|0|0,0:0|0:0|0:0|0:0,0:0:0:0:
200,328,40749,2,0,B|184:320|159:320|159:320,3,40,2|0|0|0,0:0|0:0|0:0|0:0,0:0:0:0:
120,328,41049,5,2,0:0:0:0:
88,352,41124,1,0,0:0:0:0:
48,360,41199,1,0,0:0:0:0:
16,344,41274,1,0,0:0:0:0:
0,304,41349,1,2,0:0:0:0:
8,264,41424,1,0,0:0:0:0:
40,240,41499,1,0,0:0:0:0:
80,240,41574,1,0,0:0:0:0:
120,224,41649,2,0,B|136:216|152:200|152:200,3,40,2|0|0|0,0:0|0:0|0:0|0:0,0:0:0:0:
144,160,41949,2,0,B|144:136|152:112|152:112,3,40,2|0|0|0,0:0|0:0|0:0|0:0,0:0:0:0:
152,80,42249,5,2,0:0:0:0:
176,48,42324,1,0,0:0:0:0:
216,40,42399,1,0,0:0:0:0:
248,56,42474,1,0,0:0:0:0:
288,72,42549,1,2,0:0:0:0:
328,64,42624,1,0,0:0:0:0:
368,56,42699,1,0,0:0:0:0:
408,72,42774,1,0,0:0:0:0:
424,104,42849,2,0,B|440:128|440:144|440:144,3,40,2|0|0|0,0:0|0:0|0:0|0:0,0:0:0:0:
440,184,43149,2,0,B|424:200|416:224|416:224,3,40,2|0|0|0,0:0|0:0|0:0|0:0,0:0:0:0:
432,256,43449,5,6,0:0:0:0:
432,296,43524,1,0,0:0:0:0:
400,320,43599,2,0,B|368:328|336:320|336:320,3,40,6|0|0|0,0:0|0:0|0:0|0:0,0:0:0:0:
336,288,43899,1,6,0:0:0:0:
336,248,43974,1,0,0:0:0:0:
312,216,44049,2,0,B|296:200|272:192|272:192,3,40,6|0|0|0,0:0|0:0|0:0|0:0,0:0:0:0:
256,160,44349,2,0,B|240:168|208:160|208:160,3,40,6|0|0|0,0:0|0:0|0:0|0:0,0:0:0:0:
184,184,44649,5,6,0:0:0:0:
176,224,44724,1,0,0:0:0:0:
144,248,44799,1,0,0:0:0:0:
104,248,44874,1,0,0:0:0:0:
72,224,44949,1,2,0:0:0:0:
64,184,45024,1,0,0:0:0:0:
80,144,45099,1,0,0:0:0:0:
112,120,45174,1,0,0:0:0:0:
120,80,45249,2,0,B|128:48|144:32|144:32,3,40,2|0|0|0,0:0|0:0|0:0|0:0,0:0:0:0:
168,16,45549,2,0,B|192:8|224:8|224:8,3,40,2|0|0|0,0:0|0:0|0:0|0:0,0:0:0:0:
240,24,45849,5,2,0:0:0:0:
256,64,45924,1,0,0:0:0:0:
288,88,45999,1,0,0:0:0:0:
328,88,46074,1,0,0:0:0:0:
368,104,46149,1,2,0:0:0:0:
384,144,46224,1,0,0:0:0:0:
376,184,46299,1,0,0:0:0:0:
344,208,46374,1,0,0:0:0:0:
304,208,46449,2,0,B|272:200|256:200|256:200,3,40,2|0|0|0,0:0|0:0|0:0|0:0,0:0:0:0:
232,176,46749,2,0,B|207:183|192:200|192:200,3,40,2|0|0|0,0:0|0:0|0:0|0:0,0:0:0:0:
176,232,47049,5,6,0:0:0:0:
136,248,47124,1,0,0:0:0:0:
112,280,47199,1,0,0:0:0:0:
112,320,47274,1,0,0:0:0:0:
136,352,47349,2,0,B|168:368|192:368|192:368,3,40,2|0|0|0,0:0|0:0|0:0|0:0,0:0:0:0:
216,360,47649,5,6,0:0:0:0:
240,328,47724,1,0,0:0:0:0:
280,312,47799,1,0,0:0:0:0:
320,320,47874,1,0,0:0:0:0:
352,344,47949,2,0,B|376:360|408:352|408:352,3,40,2|0|0|0,0:0|0:0|0:0|0:0,0:0:0:0:
424,328,48249,5,6,0:0:0:0:
440,288,48324,1,0,0:0:0:0:
440,248,48399,1,0,0:0:0:0:
416,216,48474,1,0,0:0:0:0:
376,216,48549,1,0,0:0:0:0:
344,240,48624,1,0,0:0:0:0:
304,256,48699,1,0,0:0:0:0:
264,240,48774,1,0,0:0:0:0:
256,200,48849,5,0,0:0:0:0:
272,160,48924,1,0,0:0:0:0:
272,120,48999,1,0,0:0:0:0:
248,88,49074,1,0,0:0:0:0:
208,88,49149,1,0,0:0:0:0:
176,112,49224,1,0,0:0:0:0:
136,128,49299,1,0,0:0:0:0:
96,112,49374,1,0,0:0:0:0:
88,72,49449,1,6,0:0:0:0:
256,192,49524,12,0,50574,0:0:0:0:
456,344,50649,5,6,0:0:0:0:
376,88,50949,1,6,0:0:0:0:
312,304,51249,2,0,B|224:360|192:264|192:264,1,136.000002593994,2|2,0:0|0:0,0:0:0:0:
152,152,51849,6,0,B|96:152|56:184|56:184,1,80,6|2,0:0|0:0,0:0:0:0:
40,264,52149,1,2,0:0:0:0:
96,336,52299,1,0,0:0:0:0:
184,312,52449,2,0,B|232:320|264:368|264:368,1,80,2|0,0:0|0:0,0:0:0:0:
336,304,52749,1,2,0:0:0:0:
408,336,52899,1,0,0:0:0:0:
472,232,53049,6,0,B|474:228|513:140|429:94,1,160,6|0,0:0|0:3,0:3:0:0:
325,126,53500,2,2,B|285:214|370:260,1,160,6|2,0:0|0:0,0:0:0:0:
408,336,53949,1,0,0:0:0:0:
336,376,54099,1,0,0:0:0:0:
224,336,54249,6,0,B|176:320|128:352|128:352,1,80,6|2,0:0|0:0,0:0:0:0:
96,272,54549,1,2,0:0:0:0:
8,240,54699,1,0,0:0:0:0:
0,152,54849,2,0,B|56:160|96:192|96:192,1,80,2|0,0:0|0:0,0:0:0:0:
136,104,55149,1,2,0:0:0:0:
216,88,55299,1,0,0:0:0:0:
248,192,55449,6,0,B|344:256|400:152|400:152,1,160,6|0,0:0|0:0,0:0:0:0:
456,80,55899,2,0,B|376:136|432:232|432:232,1,160,6|0,0:0|0:0,0:0:0:0:
360,296,56349,1,6,0:0:0:0:
360,296,56424,1,0,0:0:0:0:
360,296,56499,1,0,0:0:0:0:
248,304,56649,6,0,B|256:352|208:392|208:392,1,80,6|2,0:0|0:0,0:0:0:0:
136,336,56949,1,2,0:0:0:0:
48,344,57099,1,0,0:0:0:0:
8,264,57249,2,0,B|56:224|56:184|56:184,1,80,2|0,0:0|0:0,0:0:0:0:
72,104,57549,1,2,0:0:0:0:
40,32,57699,1,0,0:0:0:0:
160,24,57849,6,0,B|140:32|236:-23|308:48,1,160,6|0,0:0|0:0,0:0:0:0:
288,160,58299,2,0,B|307:151|211:207|139:135,1,160,6|0,0:0|0:0,0:0:0:0:
64,168,58749,1,0,0:0:0:0:
80,248,58899,1,0,0:0:0:0:
216,272,59049,6,0,B|240:312|296:320|296:320,1,80,6|2,0:0|0:0,0:0:0:0:
352,256,59349,1,2,0:0:0:0:
440,264,59499,1,0,0:0:0:0:
472,176,59649,2,0,B|480:104|448:64|448:64,1,80,2|0,0:0|0:0,0:0:0:0:
352,88,59949,1,2,0:0:0:0:
296,32,60099,1,2,0:0:0:0:
184,32,60249,5,6,0:0:0:0:
144,24,60324,1,0,0:0:0:0:
104,40,60399,1,0,0:0:0:0:
80,72,60474,1,0,0:0:0:0:
80,112,60549,2,0,B|80:144|104:168|104:168,3,40
72,184,60849,5,6,0:0:0:0:
88,224,60924,1,0,0:0:0:0:
120,240,60999,1,0,0:0:0:0:
160,240,61074,1,0,0:0:0:0:
192,216,61149,2,0,B|216:200|216:168|216:168,3,40
248,168,61449,5,6,0:0:0:0:
264,128,61524,1,0,0:0:0:0:
248,88,61599,1,0,0:0:0:0:
256,48,61674,1,0,0:0:0:0:
288,16,61749,1,2,0:0:0:0:
328,16,61824,1,0,0:0:0:0:
360,40,61899,1,0,0:0:0:0:
368,80,61974,1,0,0:0:0:0:
392,112,62049,2,0,B|408:128|440:136|440:136,3,40,2|0|0|0,0:0|0:0|0:0|0:0,0:0:0:0:
456,160,62349,2,0,B|464:192|456:216|456:216,3,40,2|0|0|0,0:0|0:0|0:0|0:0,0:0:0:0:
432,232,62649,5,2,0:0:0:0:
448,272,62724,1,0,0:0:0:0:
448,312,62799,1,0,0:0:0:0:
424,344,62874,1,0,0:0:0:0:
384,352,62949,1,2,0:0:0:0:
344,336,63024,1,0,0:0:0:0:
320,304,63099,1,0,0:0:0:0:
288,280,63174,1,0,0:0:0:0:
248,280,63249,2,0,B|224:280|192:304|192:304,3,40,2|0|0|0,0:0|0:0|0:0|0:0,0:0:0:0:
192,328,63549,2,0,B|160:336|136:320|136:320,3,40,2|0|0|0,0:0|0:0|0:0|0:0,0:0:0:0:
112,328,63849,5,2,0:0:0:0:
80,352,63924,1,0,0:0:0:0:
40,352,63999,1,0,0:0:0:0:
8,328,64074,1,0,0:0:0:0:
8,288,64149,1,2,0:0:0:0:
32,256,64224,1,0,0:0:0:0:
56,224,64299,1,0,0:0:0:0:
56,184,64374,1,0,0:0:0:0:
32,152,64449,2,0,B|24:128|32:104|32:104,3,40,2|0|0|0,0:0|0:0|0:0|0:0,0:0:0:0:
64,88,64749,2,0,B|96:80|104:56|104:56,3,40,2|0|0|0,0:0|0:0|0:0|0:0,0:0:0:0:
136,48,65049,5,2,0:0:0:0:
152,88,65124,1,0,0:0:0:0:
184,112,65199,1,0,0:0:0:0:
224,112,65274,1,0,0:0:0:0:
256,96,65349,1,2,0:0:0:0:
296,80,65424,1,0,0:0:0:0:
336,88,65499,1,0,0:0:0:0:
352,128,65574,1,0,0:0:0:0:
352,168,65649,5,6,0:0:0:0:
360,208,65724,1,0,0:0:0:0:
392,232,65799,1,0,0:0:0:0:
432,232,65874,1,0,0:0:0:0:
464,216,65949,2,0,B|480:192|472:144|472:144,3,40,2|0|0|0,0:0|0:0|0:0|0:0,0:0:0:0:
472,136,66249,5,6,0:0:0:0:
488,96,66324,1,0,0:0:0:0:
472,56,66399,1,0,0:0:0:0:
432,40,66474,1,0,0:0:0:0:
392,48,66549,1,2,0:0:0:0:
368,80,66624,1,0,0:0:0:0:
328,96,66699,1,0,0:0:0:0:
288,80,66774,1,0,0:0:0:0:
256,64,66849,2,0,B|216:80|192:64|192:64,3,40,2|0|0|0,0:0|0:0|0:0|0:0,0:0:0:0:
184,40,67149,2,0,B|160:24|112:24|112:24,3,40,2|0|0|0,0:0|0:0|0:0|0:0,0:0:0:0:
104,32,67449,5,2,0:0:0:0:
64,48,67524,1,0,0:0:0:0:
40,80,67599,1,0,0:0:0:0:
48,120,67674,1,0,0:0:0:0:
72,152,67749,1,2,0:0:0:0:
104,176,67824,1,0,0:0:0:0:
120,216,67899,1,0,0:0:0:0:
104,256,67974,1,0,0:0:0:0:
72,280,68049,2,0,B|56:304|48:336|48:336,3,40,2|0|0|0,0:0|0:0|0:0|0:0,0:0:0:0:
88,344,68349,2,0,B|112:352|120:384|120:384,3,40,2|0|0|0,0:0|0:0|0:0|0:0,0:0:0:0:
152,376,68649,5,2,0:0:0:0:
192,384,68724,1,0,0:0:0:0:
232,376,68799,1,0,0:0:0:0:
264,352,68874,1,0,0:0:0:0:
272,312,68949,1,2,0:0:0:0:
264,272,69024,1,0,0:0:0:0:
240,240,69099,1,0,0:0:0:0:
224,200,69174,1,0,0:0:0:0:
232,160,69249,2,0,B|240:133|256:117|256:117,3,40,2|0|0|0,0:0|0:0|0:0|0:0,0:0:0:0:
288,104,69549,2,0,B|272:64|280:32|280:32,3,40,2|0|0|0,0:0|0:0|0:0|0:0,0:0:0:0:
256,192,69849,12,0,70974,0:0:0:0:
320,288,71049,6,0,B|272:272|224:304|224:304,1,80,6|2,0:0|0:0,0:0:0:0:
152,288,71349,1,2,0:0:0:0:
88,352,71499,1,0,0:0:0:0:
16,296,71649,2,0,B|24:248|0:208|0:208,1,80,2|0,0:0|0:0,0:0:0:0:
72,160,71949,1,2,0:0:0:0:
72,80,72099,1,2,0:0:0:0:
208,96,72249,6,0,B|320:56|360:152|360:152,1,160,6|0,0:0|0:0,0:0:0:0:
440,88,72699,2,0,B|352:128|386:230|386:230,1,160,6|0,0:0|0:0,0:0:0:0:
384,304,73149,1,0,0:0:0:0:
312,336,73299,1,0,0:0:0:0:
256,184,73449,6,0,B|192:208|152:168|152:168,1,80,6|2,0:0|0:0,0:0:0:0:
88,136,73749,1,2,0:0:0:0:
24,192,73899,1,0,0:0:0:0:
64,264,74049,2,0,B|120:272|144:320|144:320,1,80,2|0,0:0|0:0,0:0:0:0:
208,352,74349,1,2,0:0:0:0:
280,320,74499,1,2,0:0:0:0:
400,344,74649,6,0,B|456:264|392:192|392:192,1,160,6|0,0:0|0:0,0:0:0:0:
472,120,75099,2,0,B|400:192|320:144|320:144,1,160,6|0,0:0|0:0,0:0:0:0:
248,88,75549,1,4,0:0:0:0:
248,88,75624,1,0,0:0:0:0:
248,88,75699,1,0,0:0:0:0:
136,32,75849,6,0,B|88:16|40:64|40:64,1,80,6|2,0:0|0:0,0:0:0:0:
56,136,76149,1,2,0:0:0:0:
104,216,76299,1,0,0:0:0:0:
192,248,76449,2,0,B|216:296|176:336|176:336,1,80,2|0,0:0|0:0,0:0:0:0:
112,360,76749,1,2,0:0:0:0:
40,328,76899,1,2,0:0:0:0:
32,192,77049,6,0,B|16:80|120:56|120:56,1,160,6|0,0:0|0:0,0:0:0:0:
208,112,77499,2,0,B|224:224|120:248|120:248,1,160,6|0,0:0|0:0,0:0:0:0:
160,320,77949,1,0,0:0:0:0:
240,344,78099,1,0,0:0:0:0:
312,296,78249,6,0,B|360:264|408:272|408:272,1,80,6|2,0:0|0:0,0:0:0:0:
464,200,78549,1,2,0:0:0:0:
432,120,78699,1,0,0:0:0:0:
344,112,78849,2,0,B|312:160|240:160|240:160,1,80,2|0,0:0|0:0,0:0:0:0:
216,56,79149,1,2,0:0:0:0:
136,32,79299,1,2,0:0:0:0:
48,88,79449,5,6,0:0:0:0:
24,120,79524,1,0,0:0:0:0:
24,160,79599,1,0,0:0:0:0:
48,192,79674,1,0,0:0:0:0:
88,200,79749,2,0,B|128:192|136:168|136:168,3,40,2|0|0|0,0:0|0:0|0:0|0:0,0:0:0:0:
168,184,80049,5,6,0:0:0:0:
192,152,80124,1,0,0:0:0:0:
192,112,80199,1,0,0:0:0:0:
168,80,80274,1,0,0:0:0:0:
168,40,80349,1,0,0:0:0:0:
200,16,80424,1,0,0:0:0:0:
240,16,80499,1,0,0:0:0:0:
288,88,80649,5,6,0:0:0:0:
368,112,80799,2,0,L|472:160,1,80
376,208,81099,1,2,0:0:0:0:
376,208,81249,2,0,L|448:288,1,80
280,176,81549,1,2,0:0:0:0:
280,176,81699,1,0,0:0:0:0:
120,184,81849,5,6,0:0:0:0:
120,184,81999,2,0,L|40:256,1,80
144,280,82299,1,2,0:0:0:0:
144,280,82449,2,0,L|112:376,1,80
224,224,82749,1,2,0:0:0:0:
224,224,82899,1,0,0:0:0:0:
392,264,83049,5,6,0:0:0:0:
392,264,83199,2,0,L|440:200,1,80
360,168,83499,1,2,0:0:0:0:
360,168,83649,2,0,L|379:90,1,80
272,216,83949,1,2,0:0:0:0:
272,216,84099,1,0,0:0:0:0:
168,328,84249,5,6,0:0:0:0:
136,344,84324,1,0,0:0:0:0:
96,336,84399,2,0,B|73:327|56:304|56:304,3,40
40,280,84699,5,4,0:0:0:0:
32,240,84774,1,0,0:0:0:0:
48,200,84849,2,0,B|64:176|88:168|88:168,3,40
120,168,85149,5,4,0:0:0:0:
160,184,85224,1,0,0:0:0:0:
200,176,85299,2,0,B|224:160|232:144|232:144,1,40
232,72,85449,5,6,0:0:0:0:
304,32,85599,2,0,B|352:64|408:56|408:56,1,80
440,112,85899,1,2,0:0:0:0:
384,168,86049,2,0,B|384:224|424:264|424:264,1,80
424,320,86349,1,2,0:0:0:0:
344,344,86499,1,2,0:0:0:0:
240,296,86649,5,6,0:0:0:0:
160,272,86799,2,0,B|120:288|72:288,1,80
56,360,87099,2,0,B|88:264|0:216,1,160,2|0,0:0|0:0,0:0:0:0:
48,136,87549,2,0,B|88:112|144:112|144:112,1,80,2|0,0:0|0:0,0:0:0:0:
224,56,87849,5,2,0:0:0:0:
299,32,87999,2,0,B|344:40|384:16|374:20,1,80
453,72,88299,2,0,B|360:72|336:160,1,160,2|0,0:0|0:0,0:0:0:0:
392,232,88749,2,0,B|352:232|312:256|312:256,1,80,2|0,0:0|0:0,0:0:0:0:
152,200,89049,5,6,0:0:0:0:
128,232,89124,1,0,0:0:0:0:
128,272,89199,2,0,B|128:304|160:320|160:320,3,40
176,328,89499,5,4,0:0:0:0:
216,336,89574,1,0,0:0:0:0:
256,320,89649,1,0,0:0:0:0:
280,288,89724,1,0,0:0:0:0:
288,248,89799,1,0,0:0:0:0:
280,208,89874,1,0,0:0:0:0:
296,168,89949,1,4,0:0:0:0:
328,144,90024,1,0,0:0:0:0:
368,144,90099,1,4,0:0:0:0:
400,168,90174,1,0,0:0:0:0:
416,208,90249,6,0,B|336:152|384:56|384:56,1,160,6|0,0:0|0:0,0:0:0:0:
328,8,90699,1,2,0:0:0:0:
272,64,90849,2,0,B|232:72|184:48|184:48,1,80
120,8,91149,1,0,0:0:0:0:
0,0,91299,6,0,B|80:56|48:152|48:152,1,160,2|0,0:0|0:0,0:0:0:0:
112,216,91749,1,2,0:0:0:0:
64,280,91899,1,0,0:0:0:0:
152,320,92049,2,0,B|192:336|216:368|216:368,1,80,2|0,0:0|0:0,0:0:0:0:
248,256,92349,1,2,0:0:0:0:
248,256,92424,1,0,0:0:0:0:
248,256,92499,1,0,0:0:0:0:
152,192,92649,6,0,B|152:96|232:64|232:64,1,160,6|0,0:0|0:0,0:0:0:0:
336,96,93099,2,0,B|416:176|512:112|512:112,1,160,2|0,0:0|0:0,0:0:0:0:
400,40,93549,2,0,L|312:24,1,80,2|0,0:0|0:0,0:0:0:0:
208,72,93849,6,0,B|232:176|336:184|336:184,1,160,6|0,0:0|0:0,0:0:0:0:
408,136,94299,2,0,B|304:184|352:280|352:280,1,160,6|0,0:0|0:0,0:0:0:0:
408,344,94749,1,4,0:0:0:0:
408,344,94824,1,0,0:0:0:0:
408,344,94899,1,0,0:0:0:0:
288,352,95049,6,0,B|240:272|240:272,1,80,6|0,0:0|0:0,0:0:0:0:
168,296,95349,1,0,0:0:0:0:
88,280,95499,2,0,B|8:232|24:144|24:144,1,160,2|0,0:0|0:0,0:0:0:0:
104,120,95949,1,2,0:0:0:0:
152,56,96099,1,0,0:0:0:0:
296,48,96249,6,0,B|249:82|252:142|252:142,1,80,2|0,0:0|0:0,0:0:0:0:
288,248,96549,1,2,0:0:0:0:
304,288,96624,1,0,0:0:0:0:
336,320,96699,1,0,0:0:0:0:
320,176,96849,2,0,B|352:144|368:96|368:96,1,80,2|0,0:0|0:0,0:0:0:0:
248,184,97149,2,0,B|200:168|152:176|152:176,1,80,2|0,0:0|0:0,0:0:0:0:
80,240,97449,6,0,B|176:312|104:408|104:408,1,160,6|0,0:0|0:0,0:0:0:0:
184,272,97899,2,0,B|232:192|336:216|336:216,1,160,2|0,0:0|0:0,0:0:0:0:
400,240,98349,1,2,0:0:0:0:
464,288,98499,1,0,0:0:0:0:
328,320,98649,5,6,0:0:0:0:
288,312,98724,1,0,0:0:0:0:
256,288,98799,2,0,B|240:256|256:224|256:224,3,40
272,216,99099,5,6,0:0:0:0:
264,176,99174,1,0,0:0:0:0:
232,144,99249,2,0,B|208:128|168:128|168:128,3,40
160,144,99549,5,6,0:0:0:0:
128,168,99624,1,0,0:0:0:0:
88,168,99699,1,0,0:0:0:0:
56,144,99774,1,0,0:0:0:0:
48,104,99849,6,0,B|72:72|72:32|72:32,1,80,6|0,0:0|0:0,0:0:0:0:
160,32,100149,2,2,B|248:0|312:56|312:56,1,160
328,136,100599,1,0,0:0:0:0:
400,176,100749,2,0,B|456:176|480:128|480:128,1,80,2|0,0:0|0:0,0:0:0:0:
448,32,101049,6,4,B|408:120|408:120,1,80,6|0,0:0|0:0,0:0:0:0:
464,168,101349,1,2,0:0:0:0:
440,240,101499,2,0,B|392:328|296:304|296:304,1,160,6|0,0:0|0:0,0:0:0:0:
224,288,101949,1,6,0:0:0:0:
152,328,102099,1,0,0:0:0:0:
112,216,102249,6,0,B|128:128|48:80|48:80,1,160,6|0,0:0|0:0,0:0:0:0:
136,136,102699,2,0,B|224:184|296:96|296:96,1,160,6|0,0:0|0:0,0:0:0:0:
312,24,103149,1,2,0:0:0:0:
312,24,103224,1,0,0:0:0:0:
312,24,103299,1,0,0:0:0:0:
408,16,103449,5,6,0:0:0:0:
408,16,103599,1,0,0:0:0:0:
440,112,103749,1,4,0:0:0:0:
440,112,103824,1,0,0:0:0:0:
440,112,103899,1,0,0:0:0:0:
360,168,104049,2,0,B|336:216|360:272|360:272,1,80,2|0,0:0|0:0,0:0:0:0:
256,192,104349,2,0,L|168:184,1,80,2|0,0:0|0:0,0:0:0:0:
48,120,104649,6,0,B|120:200|88:280|88:280,1,160,6|0,0:0|0:0,0:0:0:0:
128,368,105099,2,0,B|184:344|192:296|192:296,1,80,2|0,0:0|0:0,0:0:0:0:
200,240,105399,1,0,0:0:0:0:
168,168,105549,2,0,B|144:120|168:72|168:72,1,80,2|0,0:0|0:0,0:0:0:0:
248,16,105849,5,6,0:0:0:0:
264,56,105924,1,0,0:0:0:0:
296,80,105999,1,0,0:0:0:0:
336,88,106074,1,0,0:0:0:0:
376,72,106149,1,0,0:0:0:0:
416,80,106224,1,0,0:0:0:0:
448,104,106299,1,2,0:0:0:0:
464,144,106374,1,0,0:0:0:0:
456,184,106449,5,4,0:0:0:0:
432,216,106524,1,0,0:0:0:0:
392,232,106599,1,0,0:0:0:0:
352,224,106674,1,0,0:0:0:0:
320,192,106749,2,0,B|304:176|304:152|304:152,3,40,2|0|0|0,0:0|0:0|0:0|0:0,0:0:0:0:
272,128,107049,5,6,0:0:0:0:
232,136,107124,1,0,0:0:0:0:
192,128,107199,1,0,0:0:0:0:
160,104,107274,1,0,0:0:0:0:
144,64,107349,1,4,0:0:0:0:
112,40,107424,1,0,0:0:0:0:
72,40,107499,1,0,0:0:0:0:
40,64,107574,1,0,0:0:0:0:
32,104,107649,5,6,0:0:0:0:
48,144,107724,1,0,0:0:0:0:
80,160,107799,1,0,0:0:0:0:
104,200,107874,1,0,0:0:0:0:
112,240,107949,1,6,0:0:0:0:
104,280,108024,1,0,0:0:0:0:
112,320,108099,1,0,0:0:0:0:
144,344,108174,1,0,0:0:0:0:
184,344,108249,1,6,0:0:0:0:
368,376,108549,5,0,0:0:0:0:
0,224,108849,1,2,0:0:0:0:
480,64,109149,1,0,0:0:0:0:
192,256,109449,6,0,B|128:320|44:276,1,160,6|0,0:0|0:0,0:0:0:0:
24,160,109900,2,0,B|88:96|176:136,1,160,6|0,0:0|0:0,0:0:0:0:
256,120,110349,1,2,0:0:0:0:
304,48,110499,1,0,0:0:0:0:
432,96,110649,5,6,0:0:0:0:
408,176,110799,2,0,B|456:200|472:256|472:256,1,80,2|0,0:0|0:0,0:0:0:0:
416,312,111099,1,0,0:0:0:0:
328,328,111249,2,0,B|288:344|240:352|240:352,1,80,2|0,0:0|0:0,0:0:0:0:
96,288,111549,2,0,B|136:272|184:264|184:264,1,80,2|0,0:0|0:0,0:0:0:0:
280,184,111849,6,0,B|377:131|328:32|328:32,1,160,6|0,0:0|0:0,0:0:0:0:
224,8,112299,2,0,B|126:57|176:160|176:160,1,160,6|0,0:0|0:0,0:0:0:0:
184,224,112749,1,2,0:0:0:0:
104,264,112899,1,0,0:0:0:0:
16,136,113049,5,6,0:0:0:0:
96,96,113199,2,0,B|152:96|184:48|184:48,1,80,2|0,0:0|0:0,0:0:0:0:
248,120,113499,1,0,0:0:0:0:
336,120,113649,2,0,B|360:208|360:208,1,80,2|0,0:0|0:0,0:0:0:0:
416,264,113949,2,0,B|368:264|328:280|328:280,1,80,2|0,0:0|0:0,0:0:0:0:
240,344,114249,5,6,0:0:0:0:
208,368,114324,1,0,0:0:0:0:
168,376,114399,1,0,0:0:0:0:
128,360,114474,1,0,0:0:0:0:
104,328,114549,1,0,0:0:0:0:
104,288,114624,1,0,0:0:0:0:
128,256,114699,1,0,0:0:0:0:
168,240,114774,1,0,0:0:0:0:
208,240,114849,2,0,B|232:232|256:208|256:208,3,40,2|0|0|0,0:0|0:0|0:0|0:0,0:0:0:0:
272,192,115149,2,0,B|296:192|320:208|320:208,3,40,2|0|0|0,0:0|0:0|0:0|0:0,0:0:0:0:
344,224,115449,5,6,0:0:0:0:
376,248,115524,1,0,0:0:0:0:
416,256,115599,1,0,0:0:0:0:
456,240,115674,1,0,0:0:0:0:
480,208,115749,1,0,0:0:0:0:
480,168,115824,1,0,0:0:0:0:
456,136,115899,1,0,0:0:0:0:
416,120,115974,1,0,0:0:0:0:
376,112,116049,2,0,B|352:96|336:64|336:64,3,40,2|0|0|0,0:0|0:0|0:0|0:0,0:0:0:0:
312,64,116349,2,0,B|296:56|264:56|264:56,3,40,2|0|0|0,0:0|0:0|0:0|0:0,0:0:0:0:
240,32,116649,6,0,B|168:-16|56:40|80:152,1,240,6|0,0:0|0:0,0:0:0:0:
96,232,117249,2,0,B|88:256|96:280|96:280,3,40,2|0|2|0,0:0|0:0|0:0|0:0,0:0:0:0:
112,304,117548,2,0,B|136:320|143:335|143:335,3,40,2|0|2|0,0:0|0:0|0:0|0:0,0:0:0:0:
184,328,117849,5,6,0:0:0:0:
216,304,117924,1,0,0:0:0:0:
256,296,117999,1,0,0:0:0:0:
288,312,118074,1,0,0:0:0:0:
320,336,118149,1,0,0:0:0:0:
360,344,118224,1,0,0:0:0:0:
400,328,118299,1,0,0:0:0:0:
416,288,118374,1,0,0:0:0:0:
400,248,118449,5,2,0:0:0:0:
368,224,118524,1,0,0:0:0:0:
328,224,118599,1,0,0:0:0:0:
288,208,118674,1,0,0:0:0:0:
272,176,118749,2,0,B|272:152|288:128|288:128,3,40,2|0|0|0,0:0|0:0|0:0|0:0,0:0:0:0:
264,104,119049,6,0,B|216:24|120:64|120:64,1,160,6|0,0:0|0:0,0:0:0:0:
40,8,119499,2,0,B|120:56|80:152|80:152,1,160,6|0,0:0|0:0,0:0:0:0:
120,216,119949,1,2,0:0:0:0:
96,288,120099,1,0,0:0:0:0:
184,352,120249,5,6,0:0:0:0:
256,312,120399,2,0,B|304:328|336:296|336:296,1,80,2|0,0:0|0:0,0:0:0:0:
352,224,120699,1,0,0:0:0:0:
416,176,120849,2,0,B|464:200|504:200|504:200,1,80,2|0,0:0|0:0,0:0:0:0:
352,224,121149,2,0,B|312:192|264:176|264:176,1,80,2|0,0:0|0:0,0:0:0:0:
200,216,121449,6,0,B|152:288|48:272|48:272,1,160,6|0,0:0|0:0,0:0:0:0:
24,368,121899,2,0,B|72:296|0:216|0:216,1,160,6|0,0:0|0:0,0:0:0:0:
8,128,122349,1,2,0:0:0:0:
96,104,122499,1,0,0:0:0:0:
120,192,122649,1,6,0:0:0:0:
208,216,122799,1,2,0:0:0:0:
248,128,122949,5,0,0:0:0:0:
272,96,123024,1,0,0:0:0:0:
312,88,123099,1,0,0:0:0:0:
352,104,123174,1,0,0:0:0:0:
368,136,123249,1,0,0:0:0:0:
360,176,123324,1,0,0:0:0:0:
328,200,123399,1,0,0:0:0:0:
312,232,123474,1,0,0:0:0:0:
320,272,123549,2,0,B|336:304|352:312|352:312,3,40,2|0|0|0,0:0|0:0|0:0|0:0,0:0:0:0:
384,312,123849,5,6,0:0:0:0:
8,208,125049,1,6,0:0:0:0:
480,120,126249,6,0,B|390:164|312:88|312:88,1,160,6|0,0:0|0:0,0:0:0:0:
224,56,126699,2,0,B|128:8|56:88|56:88,1,160,2|0,0:0|0:0,0:0:0:0:
16,152,127149,1,2,0:0:0:0:
80,200,127299,1,0,0:0:0:0:
184,184,127449,6,0,B|248:104|360:160|360:160,1,160,6|0,0:0|0:0,0:0:0:0:
392,72,127899,2,0,B|472:136|416:248|416:248,1,160,2|0,0:0|0:0,0:0:0:0:
360,256,128349,1,2,0:0:0:0:
280,232,128499,1,0,0:0:0:0:
240,104,128649,6,0,B|136:96|120:192|120:192,1,160,6|0,0:0|0:0,0:0:0:0:
32,160,129099,2,0,B|-16:248|48:312|48:312,1,160,2|0,0:0|0:0,0:0:0:0:
104,368,129549,1,2,0:0:0:0:
184,360,129699,1,0,0:0:0:0:
280,280,129849,6,0,B|352:216|280:128|280:128,1,160,6|0,0:0|0:0,0:0:0:0:
168,96,130299,2,2,B|216:-8|320:24|320:24,1,160,2|0,0:0|0:0,0:0:0:0:
376,72,130749,1,2,0:0:0:0:
456,64,130899,1,0,0:0:0:0:
456,168,131049,6,0,B|528:240|480:336|480:336,1,160,6|0,0:0|0:0,0:0:0:0:
376,336,131499,2,0,B|304:264|352:168|352:168,1,160,2|0,0:0|0:0,0:0:0:0:
272,160,131949,1,2,0:0:0:0:
224,96,132099,1,0,0:0:0:0:
200,232,132249,6,0,B|96:256|112:360|112:360,1,160,6|0,0:0|0:0,0:0:0:0:
72,240,132699,2,2,B|128:144|16:88|16:88,1,160
88,16,133149,1,0,0:0:0:0:
168,32,133299,1,0,0:0:0:0:
208,112,133449,6,0,B|280:112|320:72|320:72,2,120,2|0|2,0:0|0:0|0:0,0:0:0:0:
72,256,134199,1,0,0:0:0:0:
120,320,134349,1,2,0:0:0:0:
192,288,134499,1,0,0:0:0:0:
272,312,134649,6,0,B|344:312|384:352|384:352,2,120,6|0|4,0:0|0:0|0:0,0:0:0:0:
224,120,135399,1,0,0:0:0:0:
304,88,135549,1,6,0:0:0:0:
360,160,135699,1,0,0:0:0:0:
304,232,135849,6,0,B|240:272|168:232|168:232,1,120,6|0,0:0|0:0,0:0:0:0:
112,352,136299,2,2,B|184:280|120:208|120:208,1,160,0|0,0:0|0:0,0:0:0:0:
48,144,136749,1,2,0:0:0:0:
88,72,136899,1,0,0:0:0:0:
208,88,137049,5,6,0:0:0:0:
240,112,137124,1,0,0:0:0:0:
280,120,137199,1,2,0:0:0:0:
320,104,137274,1,0,0:0:0:0:
352,88,137349,1,0,0:0:0:0:
392,88,137424,1,0,0:0:0:0:
424,112,137499,2,0,B|448:136|448:232|352:224|328:200|328:200,1,160,2|0,0:0|0:0,0:0:0:0:
264,184,137949,1,2,0:0:0:0:
216,248,138099,1,0,0:0:0:0:
120,264,138249,5,6,0:0:0:0:
128,304,138324,1,0,0:0:0:0:
120,344,138399,1,0,0:0:0:0:
88,368,138474,1,0,0:0:0:0:
48,368,138549,1,2,0:0:0:0:
16,344,138624,1,0,0:0:0:0:
8,304,138699,2,0,B|8:280|16:248|16:248,3,40,2|0|0|0,0:0|0:0|0:0|0:0,0:0:0:0:
0,224,138999,1,2,0:0:0:0:
72,184,139149,1,0,0:0:0:0:
56,104,139299,1,0,0:0:0:0:
152,40,139449,6,0,L|200:32,3,40,6|0|0|0,0:0|0:0|0:0|0:0,0:0:0:0:
224,56,139749,1,0,0:0:0:0:
263,63,139824,1,0,0:0:0:0:
304,48,139899,2,2,B|408:56|408:160|408:160,1,160
368,232,140349,1,4,0:0:0:0:
280,208,140499,1,0,0:0:0:0:
208,280,140649,6,0,B|152:344|72:320|72:320,2,120,6|0|0,0:0|0:0|0:0,0:0:0:0:
136,96,141399,1,0,0:0:0:0:
192,32,141549,1,2,0:0:0:0:
272,64,141699,1,0,0:0:0:0:
272,152,141849,5,6,0:0:0:0:
272,192,141924,1,0,0:0:0:0:
296,224,141999,1,0,0:0:0:0:
336,240,142074,1,0,0:0:0:0:
376,232,142149,1,0,0:0:0:0:
416,248,142224,1,0,0:0:0:0:
440,280,142299,1,2,0:0:0:0:
440,320,142374,1,0,0:0:0:0:
416,352,142449,2,0,B|384:368|360:360|360:360,3,40
336,352,142749,2,0,B|296:312|248:328|248:328,1,80,2|0,0:0|0:0,0:0:0:0:
160,328,143049,5,6,0:0:0:0:
80,352,143199,1,0,0:0:0:0:
32,288,143349,1,2,0:0:0:0:
80,224,143499,1,0,0:0:0:0:
160,248,143649,1,6,0:0:0:0:
224,176,143799,1,0,0:0:0:0:
168,96,143949,1,0,0:0:0:0:
72,120,144099,1,0,0:0:0:0:
72,216,144249,5,6,0:0:0:0:
256,192,144324,12,0,145374,0:0:0:0:
384,320,145449,6,0,B|448:320|456:256|456:256,1,80,6|2,0:0|0:0,0:0:0:0:
464,184,145749,1,2,0:0:0:0:
376,168,145899,1,0,0:0:0:0:
344,88,146049,2,0,B|256:104|256:104,1,80,2|0,0:0|0:0,0:0:0:0:
160,120,146349,1,2,0:0:0:0:
136,200,146499,1,2,0:0:0:0:
232,280,146649,6,0,B|320:352|392:272|392:272,1,160,6|0,0:0|0:0,0:0:0:0:
384,176,147099,2,0,B|296:104|224:184|224:184,1,160,6|0,0:0|0:0,0:0:0:0:
168,128,147549,1,2,0:0:0:0:
152,48,147699,1,0,0:0:0:0:
40,96,147849,6,0,B|64:144|32:192|32:192,1,80,6|2,0:0|0:0,0:0:0:0:
104,240,148149,1,2,0:0:0:0:
72,320,148299,1,0,0:0:0:0:
144,368,148449,2,0,B|248:400|296:312|296:312,1,160,2|2,0:0|0:0,0:0:0:0:
376,328,148899,1,2,0:0:0:0:
432,256,149049,6,0,B|392:144|488:96|488:96,1,160,6|0,0:0|0:0,0:0:0:0:
392,184,149499,2,0,B|288:224|248:120,1,160,6|0,0:0|0:0,0:0:0:0:
184,40,149949,1,2,0:0:0:0:
176,80,150024,1,0,0:0:0:0:
152,112,150099,1,0,0:0:0:0:
112,112,150174,1,0,0:0:0:0:
72,96,150249,6,0,B|112:144|80:192|80:192,1,80,6|2,0:0|0:0,0:0:0:0:
144,248,150549,1,2,0:0:0:0:
232,256,150699,1,0,0:0:0:0:
288,192,150849,2,0,B|312:160|304:112|304:112,1,80,2|0,0:0|0:0,0:0:0:0:
400,72,151149,1,2,0:0:0:0:
464,120,151299,1,0,0:0:0:0:
400,208,151449,6,0,B|448:288|376:360,1,160,4|0,0:0|0:0,0:0:0:0:
272,304,151899,2,0,B|168:272|120:376,1,160,6|2,0:0|0:0,0:0:0:0:
56,360,152349,1,0,0:0:0:0:
32,288,152499,1,0,0:0:0:0:
144,312,152649,6,0,B|184:272|168:224|168:224,1,80,6|0,0:0|0:0,0:0:0:0:
248,200,152949,1,2,0:0:0:0:
224,120,153099,1,2,0:0:0:0:
144,96,153249,2,0,B|176:48|224:32|224:32,1,80,2|0,0:0|0:0,0:0:0:0:
304,48,153549,1,2,0:0:0:0:
376,16,153699,1,0,0:0:0:0:
456,88,153849,5,6,0:0:0:0:
472,128,153924,1,0,0:0:0:0:
464,168,153999,1,0,0:0:0:0:
432,192,154074,1,0,0:0:0:0:
424,232,154149,2,0,B|424:264|416:296|416:296,3,40,2|0|0|0,0:0|0:0|0:0|0:0,0:0:0:0:
392,304,154449,5,6,0:0:0:0:
352,288,154524,1,0,0:0:0:0:
312,296,154599,1,0,0:0:0:0:
288,328,154674,1,0,0:0:0:0:
264,360,154749,1,0,0:0:0:0:
224,376,154824,1,0,0:0:0:0:
184,360,154899,1,0,0:0:0:0:
160,280,155049,5,6,0:0:0:0:
120,208,155199,2,0,L|88:96,1,80
187,139,155499,1,2,0:0:0:0:
187,139,155649,2,0,L|200:40,1,80
225,233,155949,1,2,0:0:0:0:
225,233,156099,1,0,0:0:0:0:
360,328,156249,5,6,0:0:0:0:
360,328,156399,2,0,L|472:360,1,80
429,261,156699,1,2,0:0:0:0:
429,261,156849,2,0,L|528:248,1,80
335,223,157149,1,2,0:0:0:0:
335,223,157299,1,0,0:0:0:0:
168,224,157449,5,6,0:0:0:0:
168,224,157599,2,0,L|56:256,1,80
99,156,157899,1,2,0:0:0:0:
99,156,158049,2,0,L|0:143,1,80
176,96,158349,1,2,0:0:0:0:
176,96,158499,1,0,0:0:0:0:
328,48,158649,5,6,0:0:0:0:
368,48,158724,1,0,0:0:0:0:
408,64,158799,2,0,B|431:73|448:96|448:96,3,40
440,128,159099,5,4,0:0:0:0:
432,168,159174,1,0,0:0:0:0:
440,208,159249,2,0,B|456:240|480:248|480:248,3,40
464,280,159549,5,4,0:0:0:0:
440,312,159624,1,0,0:0:0:0:
408,328,159699,1,0,0:0:0:0:
368,328,159774,1,0,0:0:0:0:
328,312,159849,5,6,0:0:0:0:
264,264,159999,2,0,B|224:240|168:248|168:248,1,80,0|2,0:0|0:0,0:0:0:0:
96,296,160299,1,0,0:0:0:0:
32,248,160449,2,0,B|32:184|72:152|72:152,1,80,2|0,0:0|0:0,0:0:0:0:
56,96,160749,1,2,0:0:0:0:
120,56,160899,1,0,0:0:0:0:
208,112,161049,6,0,B|248:128|296:128,1,80,6|0,0:0|0:0,0:0:0:0:
360,104,161349,1,2,0:0:0:0:
408,40,161499,2,0,B|376:136|464:184,1,160,2|2,0:0|0:0,0:0:0:0:
416,248,161949,1,2,0:0:0:0:
448,320,162099,1,0,0:0:0:0:
336,368,162249,6,0,B|296:344|240:352|240:352,1,80,6|0,0:0|0:0,0:0:0:0:
200,296,162549,1,0,0:0:0:0:
208,216,162699,2,0,B|184:320|72:296|72:296,1,160,2|0,0:0|0:0,0:0:0:0:
40,232,163149,1,2,0:0:0:0:
88,168,163299,1,0,0:0:0:0:
64,88,163449,6,0,B|192:104|208:0|208:0,1,160,6|0,0:0|0:0,0:0:0:0:
248,88,163899,1,0,0:0:0:0:
224,160,164049,1,4,0:0:0:0:
192,184,164124,1,0,0:0:0:0:
184,224,164199,1,0,0:0:0:0:
208,256,164274,1,0,0:0:0:0:
248,264,164349,1,4,0:0:0:0:
280,240,164424,1,0,0:0:0:0:
320,232,164499,1,0,0:0:0:0:
360,248,164574,1,0,0:0:0:0:
384,280,164649,6,0,B|288:232|336:136|336:136,1,160,6|0,0:0|0:0,0:0:0:0:
416,136,165099,1,0,0:0:0:0:
480,88,165249,2,0,B|496:48|488:8|488:8,2,80,2|0|2,0:0|0:0|0:0,0:0:0:0:
400,104,165699,2,0,B|312:168|232:96|232:96,1,160,2|0,0:0|0:0,0:0:0:0:
184,48,166149,5,2,0:0:0:0:
112,88,166299,1,0,0:0:0:0:
32,96,166449,2,0,B|0:136|0:192|0:192,1,80,2|0,0:0|0:0,0:0:0:0:
24,248,166749,1,2,0:0:0:0:
24,248,166824,1,0,0:0:0:0:
24,248,166899,1,0,0:0:0:0:
184,208,167049,6,0,B|232:120|144:48,1,160,6|2,0:0|0:0,0:0:0:0:
80,80,167499,2,2,B|144:16|232:48,1,160
320,16,167949,2,2,B|344:104,1,80,2|0,0:0|0:0,0:0:0:0:
432,144,168249,6,0,B|480:240|408:312|408:312,1,160,6|0,0:0|0:0,0:0:0:0:
504,336,168699,2,0,B|408:288|336:360|336:360,1,160,6|0,0:0|0:0,0:0:0:0:
256,312,169149,1,4,0:0:0:0:
256,312,169224,1,0,0:0:0:0:
256,312,169299,1,0,0:0:0:0:
272,216,169449,6,0,B|200:136|104:184|104:184,1,160,6|0,0:0|0:0,0:0:0:0:
64,104,169899,2,0,B|-16:176|32:272|32:272,1,160,2|0,0:0|0:0,0:0:0:0:
96,328,170349,1,2,0:0:0:0:
168,296,170499,1,0,0:0:0:0:
272,344,170649,6,0,B|248:288|264:240|264:240,1,80,6|0,0:0|0:0,0:0:0:0:
184,192,170949,1,2,0:0:0:0:
216,168,171024,1,0,0:0:0:0:
256,160,171099,1,0,0:0:0:0:
400,240,171249,2,0,B|352:224|328:176|328:176,1,80,2|0,0:0|0:0,0:0:0:0:
328,32,171549,2,0,B|344:80|312:128|312:128,1,80,2|0,0:0|0:0,0:0:0:0:
176,104,171849,6,0,B|112:24|16:72|16:72,1,160,6|0,0:0|0:0,0:0:0:0:
0,168,172299,2,0,B|64:248|160:200|160:200,1,160,6|0,0:0|0:0,0:0:0:0:
224,232,172749,2,0,B|224:176|256:128|256:128,1,80,2|0,0:0|0:0,0:0:0:0:
360,232,173049,6,0,B|424:152|520:200|520:200,1,160,6|0,0:0|0:0,0:0:0:0:
512,288,173499,1,2,0:0:0:0:
440,328,173649,1,2,0:0:0:0:
400,336,173724,1,0,0:0:0:0:
360,320,173799,1,0,0:0:0:0:
320,312,173874,1,0,0:0:0:0:
280,328,173949,2,0,L|232:352,3,40,4|0|0|0,0:0|0:0|0:0|0:0,0:0:0:0:
208,336,174249,5,6,0:0:0:0:
152,280,174399,1,0,0:0:0:0:
72,288,174549,2,0,B|88:240|120:208|120:208,1,80,2|0,0:0|0:0,0:0:0:0:
96,104,174849,2,0,B|160:120|192:144|192:144,1,80,2|0,0:0|0:0,0:0:0:0:
264,56,175149,2,0,B|280:120|264:160|264:160,1,80,2|0,0:0|0:0,0:0:0:0:
344,224,175449,5,6,0:0:0:0:
376,296,175599,1,0,0:0:0:0:
320,352,175749,1,2,0:0:0:0:
248,320,175899,2,0,B|152:296|88:360|88:360,1,160,2|0,0:0|0:0,0:0:0:0:
88,272,176349,1,2,0:0:0:0:
24,224,176499,1,0,0:0:0:0:
128,192,176649,6,0,B|184:192|224:136|224:136,1,80,6|0,0:0|0:0,0:0:0:0:
256,104,176949,1,2,0:0:0:0:
320,56,177099,2,0,B|424:32|464:112|464:112,1,160
408,168,177549,1,2,0:0:0:0:
432,248,177699,1,0,0:0:0:0:
360,336,177849,6,0,B|280:416|184:352|184:352,1,160,6|0,0:0|0:0,0:0:0:0:
136,352,178299,1,0,0:0:0:0:
128,272,178449,2,0,B|112:224|72:208|72:208,1,80,2|0,0:0|0:0,0:0:0:0:
32,112,178749,2,0,B|80:144|136:136|136:136,1,80,2|0,0:0|0:0,0:0:0:0:
200,24,179049,6,0,B|304:8|336:104|336:104,1,160,6|0,0:0|0:0,0:0:0:0:
424,56,179499,2,0,B|338:83|354:187,1,160,6|0,0:0|0:0,0:0:0:0:
328,256,179949,1,2,0:0:0:0:
248,272,180099,1,0,0:0:0:0:
144,216,180249,6,0,B|64:264|96:360|96:360,1,160,6|0,0:0|0:0,0:0:0:0:
64,256,180699,2,0,B|96:160|8:104|8:104,1,160,6|0,0:0|0:0,0:0:0:0:
24,32,181149,1,2,0:0:0:0:
104,16,181299,1,0,0:0:0:0:
184,80,181449,5,6,0:0:0:0:
208,112,181524,1,0,0:0:0:0:
248,120,181599,1,0,0:0:0:0:
288,104,181674,1,0,0:0:0:0:
312,72,181749,1,4,0:0:0:0:
336,40,181824,1,0,0:0:0:0:
376,32,181899,1,0,0:0:0:0:
416,48,181974,1,0,0:0:0:0:
432,88,182049,5,6,0:0:0:0:
416,128,182124,1,0,0:0:0:0:
384,152,182199,1,0,0:0:0:0:
368,192,182274,1,0,0:0:0:0:
384,232,182349,1,6,0:0:0:0:
400,272,182424,1,0,0:0:0:0:
392,312,182499,1,0,0:0:0:0:
360,336,182574,1,0,0:0:0:0:
320,336,182649,1,6,0:0:0:0:
80,320,182949,5,0,0:0:0:0:
504,256,183249,1,2,0:0:0:0:
8,168,183549,1,0,0:0:0:0:
376,80,183849,6,0,B|312:0|224:56|224:56,1,160,6|0,0:0|0:0,0:0:0:0:
208,160,184299,2,0,B|272:240|360:184|360:184,1,160,6|0,0:0|0:0,0:0:0:0:
432,184,184749,1,2,0:0:0:0:
472,248,184899,1,0,0:0:0:0:
400,344,185049,5,6,0:0:0:0:
320,336,185199,2,0,B|288:304|240:296|240:296,1,80,2|0,0:0|0:0,0:0:0:0:
168,320,185499,1,0,0:0:0:0:
96,280,185649,2,0,B|80:176|80:176,1,80,2|0,0:0|0:0,0:0:0:0:
32,96,185949,2,0,B|80:88|144:120|144:120,1,80,2|0,0:0|0:0,0:0:0:0:
256,160,186249,6,0,B|352:200|416:120|416:120,1,160,6|0,0:0|0:0,0:0:0:0:
384,24,186699,2,0,B|288:-16|224:64|224:64,1,160,6|0,0:0|0:0,0:0:0:0:
168,96,187149,1,2,0:0:0:0:
88,72,187299,1,0,0:0:0:0:
16,224,187449,5,6,0:0:0:0:
96,248,187599,2,0,B|128:280|144:312|144:312,1,80,2|0,0:0|0:0,0:0:0:0:
232,336,187899,1,0,0:0:0:0:
304,304,188049,2,0,B|336:272|336:232|336:232,1,80,2|0,0:0|0:0,0:0:0:0:
312,96,188349,2,0,B|280:128|280:168|280:168,1,80,2|0,0:0|0:0,0:0:0:0:
208,256,188649,5,6,0:0:0:0:
216,296,188724,1,0,0:0:0:0:
200,336,188799,1,0,0:0:0:0:
160,352,188874,1,0,0:0:0:0:
120,344,188949,1,0,0:0:0:0:
96,312,189024,1,0,0:0:0:0:
96,272,189099,1,0,0:0:0:0:
120,240,189174,1,0,0:0:0:0:
120,200,189249,2,0,B|120:176|112:152|112:152,3,40,2|0|0|0,0:0|0:0|0:0|0:0,0:0:0:0:
80,136,189549,2,0,B|112:120|144:96|144:96,3,40,2|0|0|0,0:0|0:0|0:0|0:0,0:0:0:0:
136,80,189849,5,6,0:0:0:0:
168,104,189924,1,0,0:0:0:0:
208,120,189999,1,0,0:0:0:0:
248,112,190074,1,0,0:0:0:0:
280,88,190149,1,0,0:0:0:0:
312,64,190224,1,0,0:0:0:0:
352,56,190299,1,0,0:0:0:0:
392,72,190374,1,0,0:0:0:0:
408,112,190449,2,0,B|408:136|400:160|400:160,3,40,2|0|0|0,0:0|0:0|0:0|0:0,0:0:0:0:
368,176,190749,2,0,B|336:192|328:216|328:216,3,40,2|0|0|0,0:0|0:0|0:0|0:0,0:0:0:0:
344,248,191049,6,0,B|312:416|160:360|160:360,1,240,6|0,0:0|0:0,0:0:0:0:
88,288,191649,2,0,B|80:264|56:240|56:240,3,40,6|0|2|0,0:0|0:0|0:0|0:0,0:0:0:0:
56,216,191949,2,0,B|80:200|88:168|88:168,3,40,6|0|2|0,0:0|0:0|0:0|0:0,0:0:0:0:
88,144,192249,5,6,0:0:0:0:
128,152,192324,1,0,0:0:0:0:
168,136,192399,1,0,0:0:0:0:
184,96,192474,1,0,0:0:0:0:
176,56,192549,1,0,0:0:0:0:
192,16,192624,1,0,0:0:0:0:
232,0,192699,1,0,0:0:0:0:
264,16,192774,1,0,0:0:0:0:
280,56,192849,5,6,0:0:0:0:
280,96,192924,1,0,0:0:0:0:
304,128,192999,1,0,0:0:0:0:
344,128,193074,1,0,0:0:0:0:
376,104,193149,1,2,0:0:0:0:
416,96,193224,1,0,0:0:0:0:
448,112,193299,1,0,0:0:0:0:
464,152,193374,1,0,0:0:0:0:
448,192,193449,6,0,B|384:264|448:344|444:339,1,160,6|0,0:0|0:0,0:0:0:0:
384,248,193899,2,0,B|312:184|232:232|234:230,1,160,6|0,0:0|0:0,0:0:0:0:
176,288,194349,1,2,0:0:0:0:
96,304,194499,1,0,0:0:0:0:
24,176,194649,5,6,0:0:0:0:
80,112,194799,2,0,B|120:120|160:120|160:120,1,80,2|0,0:0|0:0,0:0:0:0:
240,64,195099,1,0,0:0:0:0:
320,40,195249,2,0,B|360:72|376:112|376:112,1,80,2|0,0:0|0:0,0:0:0:0:
464,192,195549,2,0,B|416:192|384:168|384:168,1,80,2|0,0:0|0:0,0:0:0:0:
240,168,195849,6,0,B|144:160|112:272|112:272,1,160,6|0,0:0|0:0,0:0:0:0:
56,368,196299,2,0,B|96:264|16:208|16:208,1,160,6|0,0:0|0:0,0:0:0:0:
0,136,196749,1,2,0:0:0:0:
80,88,196899,1,0,0:0:0:0:
136,176,197049,1,6,0:0:0:0:
232,176,197199,1,0,0:0:0:0:
304,272,197349,5,2,0:0:0:0:
304,272,197424,1,0,0:0:0:0:
304,272,197499,1,0,0:0:0:0:
400,264,197649,1,0,0:0:0:0:
392,168,197799,1,0,0:0:0:0:
456,96,197949,1,2,0:0:0:0:
456,96,198024,1,0,0:0:0:0:
456,96,198099,1,0,0:0:0:0:
304,16,198249,5,6,0:0:0:0:
0,240,199449,1,6,0:0:0:0:
496,176,200649,2,4,B|560:288|440:456|264:344|280:216,1,447.999986328125,6|4,0:0|0:0,0:0:0:0:
352,72,202149,5,0,0:0:0:0:
312,8,202299,1,0,0:0:0:0:
232,32,202449,1,0,0:0:0:0:
216,112,202599,1,0,0:0:0:0:
144,136,202749,1,0,0:0:0:0:
80,88,202899,1,0,0:0:0:0:
8,128,203049,6,0,B|16:176|48:216|48:216,1,80,2|0,0:0|0:0,0:0:0:0:
16,296,203349,2,0,L|104:280,1,80,2|0,0:0|0:0,0:0:0:0:
176,312,203649,1,2,0:0:0:0:
296,296,203799,1,0,0:0:0:0:
168,328,203949,1,2,0:0:0:0:
304,280,204099,1,0,0:0:0:0:
384,296,204249,6,0,B|472:256|432:160|432:160,1,160,2|0,0:0|0:0,0:0:0:0:
432,160,204699,1,0,0:0:0:0:
352,168,204849,1,0,0:0:0:0:
320,96,204999,1,0,0:0:0:0:
248,56,205149,1,0,0:0:0:0:
200,120,205299,1,0,0:0:0:0:
112,104,205449,6,0,B|104:56|72:16|72:16,1,80,2|0,0:0|0:0,0:0:0:0:
88,184,205749,2,0,B|96:240|120:272|120:272,1,80,2|0,0:0|0:0,0:0:0:0:
160,328,206049,1,2,0:0:0:0:
256,360,206199,1,0,0:0:0:0:
320,280,206349,2,2,B|392:264|440:320|440:320,1,120,2|0,0:0|0:0,0:0:0:0:
480,352,206649,6,0,B|400:280|472:184|472:184,1,160,2|0,0:0|0:0,0:0:0:0:
458,205,207099,1,0,0:0:0:0:
496,136,207249,1,0,0:0:0:0:
440,80,207399,1,0,0:0:0:0:
368,112,207549,1,0,0:0:0:0:
376,192,207699,1,0,0:0:0:0:
320,272,207849,6,0,B|288:296|240:296|240:296,1,80,2|0,0:0|0:0,0:0:0:0:
160,336,208149,2,0,B|128:240|128:240,1,80,2|0,0:0|0:0,0:0:0:0:
64,200,208449,1,2,0:0:0:0:
128,120,208599,1,0,0:0:0:0:
40,208,208749,1,2,0:0:0:0:
152,112,208899,1,0,0:0:0:0:
232,72,209049,6,0,B|312:120|384:64|384:64,1,160,2|0,0:0|0:0,0:0:0:0:
382,64,209499,1,0,0:0:0:0:
456,104,209649,1,0,0:0:0:0:
448,184,209799,1,0,0:0:0:0:
504,240,209949,1,4,0:0:0:0:
456,304,210099,1,0,0:0:0:0:
344,272,210249,6,0,B|296:264|256:224|256:224,1,80,6|0,0:0|0:0,0:0:0:0:
232,312,210549,2,0,B|200:344|152:344|152:344,1,80,6|0,0:0|0:0,0:0:0:0:
40,344,210849,5,6,0:0:0:0:
8,272,210999,1,0,0:0:0:0:
80,232,211149,1,2,0:0:0:0:
96,152,211299,1,0,0:0:0:0:
24,80,211449,5,4,0:0:0:0:
88,24,211599,1,0,0:0:0:0:
168,48,211749,2,0,B|256:32,1,80,2|0,0:0|0:0,0:0:0:0:
280,128,212049,2,0,B|368:152,1,80,2|0,0:0|0:0,0:0:0:0:
472,136,212349,1,0,0:0:0:0:
504,208,212499,1,0,0:0:0:0:
424,264,212649,5,0,0:0:0:0:
408,344,212799,1,0,0:0:0:0:
328,368,212949,2,0,B|272:360|240:312|240:312,1,80,2|0,0:0|0:0,0:0:0:0:
152,304,213249,2,0,L|56:328,1,80,2|0,0:0|0:0,0:0:0:0:
0,256,213549,1,0,0:0:0:0:
56,200,213699,1,0,0:0:0:0:
64,104,213849,5,4,0:0:0:0:
144,96,213999,1,0,0:0:0:0:
208,152,214149,2,0,B|264:160|304:96|304:96,1,80,2|0,0:0|0:0,0:0:0:0:
400,24,214449,2,0,B|384:104,1,80,2|0,0:0|0:0,0:0:0:0:
472,256,214749,2,2,B|456:177,1,80,2|0,0:0|0:0,0:0:0:0:
368,80,215049,5,2,0:0:0:0:
272,32,215199,1,2,0:0:0:0:
168,56,215349,1,0,0:0:0:0:
104,136,215499,2,2,B|16:224|168:288|72:376|-16:344|-56:264|24:192|144:240,1,400,2|4,0:0|0:0,0:0:0:0:
232,272,216399,5,0,0:0:0:0:
288,336,216549,2,0,B|336:376|392:352|392:352,1,80,2|0,0:0|0:0,0:0:0:0:
440,272,216849,2,0,B|496:272|528:208|528:208,1,80,2|0,0:0|0:0,0:0:0:0:
480,120,217149,2,0,B|504:64|464:16|464:16,1,80,2|0,0:0|0:0,0:0:0:0:
360,16,217449,6,0,B|320:32|264:24|264:24,2,80,2|0|2,0:0|0:0|0:0,0:0:0:0:
464,72,217899,2,0,B|448:152|448:152,1,80,2|0,0:0|0:0,0:0:0:0:
512,232,218199,2,2,B|408:248|416:344|416:344,1,160,2|0,0:0|0:0,0:0:0:0:
312,352,218649,5,2,0:0:0:0:
224,328,218799,1,2,0:0:0:0:
104,368,218949,1,0,0:0:0:0:
208,312,219099,2,0,B|304:264|272:160|272:160,1,160,2|0,0:0|0:0,0:0:0:0:
240,104,219549,1,2,0:0:0:0:
160,104,219699,1,0,0:0:0:0:
72,168,219849,5,2,0:0:0:0:
72,88,219999,1,2,0:0:0:0:
0,8,220149,1,0,0:0:0:0:
88,80,220299,2,0,B|192:96|232:24|232:24,1,160,2|0,0:0|0:0,0:0:0:0:
304,0,220749,1,2,0:0:0:0:
352,64,220899,1,0,0:0:0:0:
488,112,221049,5,6,0:0:0:0:
464,192,221199,2,0,L|488:280,1,80
392,352,221499,1,2,0:0:0:0:
328,304,221649,2,0,L|352:208,1,80
256,152,221949,1,2,0:0:0:0:
192,208,222099,1,0,0:0:0:0:
72,176,222249,5,6,0:0:0:0:
72,176,222324,1,0,0:0:0:0:
72,176,222399,1,0,0:0:0:0:
0,112,222549,1,6,0:0:0:0:
40,24,222699,1,0,0:0:0:0:
144,32,222849,1,6,0:0:0:0:
144,32,222924,1,0,0:0:0:0:
144,32,222999,1,0,0:0:0:0:
160,128,223149,2,0,B|200:160|248:168|248:168,1,80,6|0,0:0|0:0,0:0:0:0:
400,112,223449,5,6,0:0:0:0:
448,176,223599,2,0,L|424:264,1,80
336,328,223899,1,2,0:0:0:0:
256,312,224049,2,0,L|224:216,1,80
128,160,224349,2,0,L|105:236,1,80,2|0,0:0|0:0,0:0:0:0:
8,320,224649,5,6,0:0:0:0:
8,320,224724,1,0,0:0:0:0:
8,320,224799,1,0,0:0:0:0:
72,376,224949,1,6,0:0:0:0:
152,336,225099,1,0,0:0:0:0:
136,248,225249,1,6,0:0:0:0:
136,208,225324,1,0,0:0:0:0:
160,176,225399,1,0,0:0:0:0:
200,176,225474,1,0,0:0:0:0:
232,192,225549,2,0,B|280:208|312:184|312:184,1,80,6|0,0:0|0:0,0:0:0:0:
352,80,225849,5,4,0:0:0:0:
424,48,225999,1,0,0:0:0:0:
480,104,226149,2,0,B|504:144|496:184|496:184,1,80
432,216,226449,2,0,B|392:304|392:304,1,80,2|0,0:0|0:0,0:0:0:0:
224,360,226749,2,0,B|256:320|256:264|256:264,1,80,2|0,0:0|0:0,0:0:0:0:
320,208,227049,6,0,B|304:104|304:104,1,80,2|0,0:0|0:0,0:0:0:0:
264,16,227349,2,0,B|216:32|192:96|192:96,1,80,2|0,0:0|0:0,0:0:0:0:
184,176,227649,2,0,B|120:248|120:248,1,80
16,336,227949,2,0,B|0:296|16:248|16:248,1,80,2|0,0:0|0:0,0:0:0:0:
16,152,228249,6,2,B|64:112|120:112|120:112,2,80
112,232,228699,2,0,L|208:240,1,80,2|0,0:0|0:0,0:0:0:0:
240,312,228999,2,0,B|336:248|408:328|408:328,1,160,2|0,0:0|0:0,0:0:0:0:
480,272,229449,1,6,0:0:0:0:
504,240,229524,1,0,0:0:0:0:
504,200,229599,1,0,0:0:0:0:
480,168,229674,1,0,0:0:0:0:
448,152,229749,1,2,0:0:0:0:
344,184,229899,2,0,L|312:88,1,80,2|0,0:0|0:0,0:0:0:0:
352,32,230199,2,2,B|288:136|192:64|192:64,1,160,2|0,0:0|0:0,0:0:0:0:
56,112,230649,5,6,0:0:0:0:
36,144,230724,1,0,0:0:0:0:
64,176,230799,1,0,0:0:0:0:
100,160,230874,1,0,0:0:0:0:
96,120,230949,1,2,0:0:0:0:
128,312,231249,5,6,0:0:0:0:
108,280,231324,1,0,0:0:0:0:
136,248,231399,1,0,0:0:0:0:
172,264,231474,1,0,0:0:0:0:
168,304,231549,1,2,0:0:0:0:
240,128,231849,5,6,0:0:0:0:
224,168,231924,1,0,0:0:0:0:
240,208,231999,1,0,0:0:0:0:
272,224,232074,1,0,0:0:0:0:
312,208,232149,1,0,0:0:0:0:
328,168,232224,1,0,0:0:0:0:
312,128,232299,1,0,0:0:0:0:
296,88,232374,1,0,0:0:0:0:
312,48,232449,1,0,0:0:0:0:
352,32,232524,1,0,0:0:0:0:
384,48,232599,1,0,0:0:0:0:
400,80,232674,1,0,0:0:0:0:
392,120,232749,1,2,0:0:0:0:
496,256,233049,5,6,0:0:0:0:
464,276,233124,1,0,0:0:0:0:
432,248,233199,1,0,0:0:0:0:
448,212,233274,1,0,0:0:0:0:
488,216,233349,1,2,0:0:0:0:
352,336,233649,5,6,0:0:0:0:
320,316,233724,1,0,0:0:0:0:
288,344,233799,1,0,0:0:0:0:
304,380,233874,1,0,0:0:0:0:
344,376,233949,1,2,0:0:0:0:
224,232,234249,5,6,0:0:0:0:
208,272,234324,1,0,0:0:0:0:
168,288,234399,1,0,0:0:0:0:
128,272,234474,1,0,0:0:0:0:
112,232,234549,1,0,0:0:0:0:
128,192,234624,1,0,0:0:0:0:
160,168,234699,1,0,0:0:0:0:
192,144,234774,1,0,0:0:0:0:
208,104,234849,1,0,0:0:0:0:
200,64,234924,1,0,0:0:0:0:
168,40,234999,1,0,0:0:0:0:
128,48,235074,1,0,0:0:0:0:
104,80,235149,2,2,B|96:136|48:144|48:144,1,80
40,272,235449,5,6,0:0:0:0:
72,292,235524,1,0,0:0:0:0:
104,264,235599,1,0,0:0:0:0:
88,228,235674,1,0,0:0:0:0:
48,232,235749,1,2,0:0:0:0:
232,160,236049,5,6,0:0:0:0:
200,188,236124,1,0,0:0:0:0:
216,224,236199,1,0,0:0:0:0:
256,220,236274,1,0,0:0:0:0:
264,184,236349,1,2,0:0:0:0:
368,344,236649,5,6,0:0:0:0:
336,320,236724,1,0,0:0:0:0:
296,312,236799,1,0,0:0:0:0:
256,328,236874,1,0,0:0:0:0:
240,360,236949,1,0,0:0:0:0:
200,376,237024,1,0,0:0:0:0:
160,360,237099,1,0,0:0:0:0:
144,320,237174,1,0,0:0:0:0:
160,280,237249,2,0,B|160:232|128:208|128:208,2,80,2|0|2,0:0|0:0|0:0,0:0:0:0:
0,160,237849,5,6,0:0:0:0:
28,192,237924,1,0,0:0:0:0:
64,176,237999,1,0,0:0:0:0:
60,136,238074,1,0,0:0:0:0:
24,128,238149,1,2,0:0:0:0:
192,32,238449,5,6,0:0:0:0:
152,36,238524,1,0,0:0:0:0:
144,72,238599,1,0,0:0:0:0:
176,96,238674,1,0,0:0:0:0:
208,68,238749,1,2,0:0:0:0:
376,64,239049,6,0,B|376:88|392:104|392:104,3,40,6|0|0|0,0:0|0:0|0:0|0:0,0:0:0:0:
392,144,239349,2,0,B|360:160|352:184|352:184,3,40,2|0|0|0,0:0|0:0|0:0|0:0,0:0:0:0:
328,192,239649,2,0,B|320:216|320:232|320:232,3,40,2|0|0|0,0:0|0:0|0:0|0:0,0:0:0:0:
344,264,239949,2,2,B|288:320|312:384|312:384,1,120
272,312,240249,5,6,0:0:0:0:
248,280,240324,1,0,0:0:0:0:
208,272,240399,1,0,0:0:0:0:
168,288,240474,1,0,0:0:0:0:
144,320,240549,1,0,0:0:0:0:
104,336,240624,1,0,0:0:0:0:
64,320,240699,1,0,0:0:0:0:
48,280,240774,1,0,0:0:0:0:
64,240,240849,5,2,0:0:0:0:
96,216,240924,1,0,0:0:0:0:
112,176,240999,1,0,0:0:0:0:
104,136,241074,1,0,0:0:0:0:
80,104,241149,2,0,B|72:88|72:56|72:56,3,40,2|0|0|0,0:0|0:0|0:0|0:0,0:0:0:0:
112,48,241449,5,2,0:0:0:0:
152,56,241524,1,0,0:0:0:0:
192,40,241599,1,0,0:0:0:0:
232,32,241674,1,0,0:0:0:0:
264,56,241749,1,0,0:0:0:0:
264,96,241824,1,0,0:0:0:0:
254,133,241899,1,0,0:0:0:0:
270,173,241974,1,0,0:0:0:0:
310,189,242049,5,0,0:0:0:0:
350,173,242124,1,0,0:0:0:0:
366,133,242199,1,0,0:0:0:0:
350,93,242274,1,0,0:0:0:0:
368,56,242349,2,0,B|400:8|456:16|456:16,1,80,2|0,0:0|0:0,0:0:0:0:
512,144,242649,6,0,B|456:160|448:224|448:224,1,80,2|0,0:0|0:0,0:0:0:0:
416,208,242874,2,0,L|440:240,1,40,0|2,0:0|0:0,0:0:0:0:
480,320,243099,1,0,0:0:0:0:
472,360,243174,1,0,0:0:0:0:
440,384,243249,1,2,0:0:0:0:
400,376,243324,1,0,0:0:0:0:
368,344,243399,1,0,0:0:0:0:
360,304,243474,1,0,0:0:0:0:
336,272,243549,1,2,0:0:0:0:
296,256,243624,1,0,0:0:0:0:
256,272,243699,2,0,B|248:296|248:328|248:328,1,40,2|0,0:0|0:0,0:0:0:0:
168,320,243849,5,2,0:0:0:0:
144,352,243924,1,0,0:0:0:0:
104,360,243999,1,2,0:0:0:0:
64,344,244074,1,0,0:0:0:0:
40,312,244149,1,2,0:0:0:0:
40,272,244224,1,0,0:0:0:0:
64,240,244299,1,0,0:0:0:0:
168,224,244449,2,2,B|272:224|288:128|288:128,1,160,0|0,0:0|0:0,0:0:0:0:
424,16,245049,6,0,B|456:104|456:104,1,80,2|0,0:0|0:0,0:0:0:0:
392,152,245349,1,2,0:0:0:0:
424,224,245499,1,0,0:0:0:0:
360,272,245649,1,2,0:0:0:0:
288,232,245799,1,2,0:0:0:0:
200,224,245949,1,0,0:0:0:0:
136,288,246099,1,0,0:0:0:0:
64,352,246249,6,0,B|48:312|16:280|16:280,1,80,2|0,0:0|0:0,0:0:0:0:
96,216,246549,1,2,0:0:0:0:
112,120,246699,1,2,0:0:0:0:
32,64,246849,2,0,B|40:184|152:176|152:176,1,160,2|0,0:0|0:0,0:0:0:0:
304,160,247449,5,2,0:0:0:0:
280,128,247524,1,0,0:0:0:0:
288,88,247599,1,0,0:0:0:0:
320,64,247674,1,0,0:0:0:0:
360,64,247749,1,0,0:0:0:0:
392,88,247824,1,0,0:0:0:0:
432,104,247899,1,0,0:0:0:0:
472,96,247974,1,0,0:0:0:0:
504,120,248049,5,2,0:0:0:0:
512,160,248124,1,0,0:0:0:0:
488,192,248199,1,2,0:0:0:0:
448,200,248274,1,0,0:0:0:0:
408,192,248349,2,0,B|376:192|352:200|352:200,3,40,2|0|0|0,0:0|0:0|0:0|0:0,0:0:0:0:
336,224,248649,5,6,0:0:0:0:
320,264,248724,1,0,0:0:0:0:
336,304,248799,1,0,0:0:0:0:
336,344,248874,1,0,0:0:0:0:
304,368,248949,1,4,0:0:0:0:
264,368,249024,1,0,0:0:0:0:
240,336,249099,1,0,0:0:0:0:
240,296,249174,1,0,0:0:0:0:
216,264,249249,5,6,0:0:0:0:
176,256,249324,1,0,0:0:0:0:
136,272,249399,1,0,0:0:0:0:
96,264,249474,1,0,0:0:0:0:
72,232,249549,1,4,0:0:0:0:
80,192,249624,1,0,0:0:0:0:
112,168,249699,1,0,0:0:0:0:
152,168,249774,1,0,0:0:0:0:
184,144,249849,6,0,L|272:112,1,80,6|0,0:0|0:0,0:0:0:0:
280,232,250149,2,0,L|336:176,1,80,2|0,0:0|0:0,0:0:0:0:
416,280,250449,2,0,L|448:200,1,80,2|0,0:0|0:0,0:0:0:0:
496,96,250749,1,2,0:0:0:0:
424,24,250899,1,0,0:0:0:0:
312,32,251049,6,0,B|264:56|208:48|208:48,1,80,2|0,0:0|0:0,0:0:0:0:
208,128,251349,1,0,0:0:0:0:
128,112,251499,2,2,B|144:224|40:248|40:248,1,160
24,224,251874,2,0,L|16:264,1,40,2|0,0:0|0:0,0:0:0:0:
24,384,252099,6,0,B|72:304|168:344|168:344,1,160,2|0,0:0|0:0,0:0:0:0:
248,280,252549,2,0,B|320:280|344:264|344:264,1,80,2|0,0:0|0:0,0:0:0:0:
416,336,252849,2,0,B|440:280|432:248|432:248,1,80,2|0,0:0|0:0,0:0:0:0:
512,192,253149,2,0,B|456:144|424:144|424:144,1,80,2|0,0:0|0:0,0:0:0:0:
408,56,253449,6,0,B|360:72|320:72|320:72,1,80,2|0,0:0|0:0,0:0:0:0:
240,72,253749,1,2,0:0:0:0:
168,16,253899,2,0,B|56:24|56:136|56:136,1,160,2|0,0:0|0:0,0:0:0:0:
80,200,254349,1,2,0:0:0:0:
160,248,254499,1,0,0:0:0:0:
104,352,254649,5,6,0:0:0:0:
88,264,254799,1,0,0:0:0:0:
0,216,254949,1,0,0:0:0:0:
48,128,255099,2,0,B|144:160|216:72|216:72,1,160,2|0,0:0|0:0,0:0:0:0:
264,40,255549,1,2,0:0:0:0:
320,96,255699,1,0,0:0:0:0:
440,88,255849,5,6,0:0:0:0:
480,160,255999,1,2,0:0:0:0:
496,200,256074,1,0,0:0:0:0:
488,240,256149,1,0,0:0:0:0:
464,272,256224,1,0,0:0:0:0:
464,312,256299,1,2,0:0:0:0:
392,368,256449,1,2,0:0:0:0:
312,320,256599,1,0,0:0:0:0:
344,232,256749,6,2,B|416:144|328:56|328:56,1,160,0|0,0:0|0:0,0:0:0:0:
272,56,257199,1,0,0:0:0:0:
192,72,257349,1,0,0:0:0:0:
128,24,257499,1,0,0:0:0:0:
56,56,257649,1,0,0:0:0:0:
48,136,257799,1,0,0:0:0:0:
8,208,257949,1,0,0:0:0:0:
64,264,258099,1,0,0:0:0:0:
168,224,258249,6,0,B|195:205|230:209|230:209,3,40,4|0|0|0,0:0|0:0|0:0|0:0,0:0:0:0:
240,233,258549,2,0,B|273:235|297:252|297:252,3,40,4|0|0|0,0:0|0:0|0:0|0:0,0:0:0:0:
289,285,258849,2,0,B|294:313|322:346|322:346,3,40,4|0|0|0,0:0|0:0|0:0|0:0,0:0:0:0:
349,332,259149,2,0,B|383:349|416:345|416:345,3,40,4|0|0|0,0:0|0:0|0:0|0:0,0:0:0:0:
416,320,259449,5,6,0:0:0:0:
448,336,259524,1,0,0:0:0:0:
488,328,259599,1,0,0:0:0:0:
512,296,259674,1,0,0:0:0:0:
504,256,259749,1,0,0:0:0:0:
472,232,259824,1,0,0:0:0:0:
432,224,259899,1,0,0:0:0:0:
408,192,259974,1,0,0:0:0:0:
424,152,260049,2,0,B|440:128|448:104|448:104,3,40
440,80,260349,2,0,B|408:48|384:40|384:40,3,40
376,40,260649,5,6,0:0:0:0:
336,48,260724,1,0,0:0:0:0:
312,80,260799,1,0,0:0:0:0:
320,120,260874,1,0,0:0:0:0:
328,160,260949,1,0,0:0:0:0:
304,192,261024,1,0,0:0:0:0:
264,200,261099,1,0,0:0:0:0:
232,176,261174,1,0,0:0:0:0:
224,136,261249,2,0,B|240:104|224:64|224:64,3,40
200,72,261549,2,0,B|176:72|152:56|152:56,3,40
128,40,261849,5,6,0:0:0:0:
88,32,261924,1,0,0:0:0:0:
56,48,261999,1,0,0:0:0:0:
40,88,262074,1,0,0:0:0:0:
56,120,262149,1,0,0:0:0:0:
88,144,262224,1,0,0:0:0:0:
104,184,262299,1,0,0:0:0:0:
95,224,262374,1,0,0:0:0:0:
64,248,262449,2,0,B|32:256|16:280|16:280,3,40
40,304,262749,2,0,B|40:352|16:368|16:368,3,40
64,368,263049,5,6,0:0:0:0:
104,384,263124,1,0,0:0:0:0:
144,376,263199,1,0,0:0:0:0:
160,336,263274,1,0,0:0:0:0:
152,296,263349,1,0,0:0:0:0:
176,264,263424,1,0,0:0:0:0:
216,256,263499,1,0,0:0:0:0:
248,280,263574,1,0,0:0:0:0:
264,320,263649,2,0,B|296:344|320:352|320:352,3,40
328,368,263949,2,0,B|360:352|392:360|392:360,3,40
400,336,264249,5,6,0:0:0:0:
432,360,264324,1,0,0:0:0:0:
472,344,264399,1,0,0:0:0:0:
488,304,264474,1,0,0:0:0:0:
472,272,264549,1,0,0:0:0:0:
448,240,264624,1,0,0:0:0:0:
464,200,264699,1,0,0:0:0:0:
480,168,264774,1,0,0:0:0:0:
464,136,264849,2,0,B|448:112|440:88|440:88,3,40
432,64,265149,2,0,B|408:56|376:56|376:56,3,40
352,72,265449,5,6,0:0:0:0:
320,96,265524,1,0,0:0:0:0:
304,136,265599,1,0,0:0:0:0:
320,176,265674,1,0,0:0:0:0:
312,216,265749,1,0,0:0:0:0:
272,232,265824,1,0,0:0:0:0:
232,216,265899,1,0,0:0:0:0:
216,176,265974,1,0,0:0:0:0:
232,136,266049,2,0,B|224:112|224:96|224:96,3,40
200,64,266349,2,0,B|168:56|144:56|144:56,3,40
136,24,266649,5,6,0:0:0:0:
104,0,266724,1,0,0:0:0:0:
64,0,266799,1,0,0:0:0:0:
32,24,266874,1,0,0:0:0:0:
16,64,266949,1,0,0:0:0:0:
40,96,267024,1,0,0:0:0:0:
72,120,267099,1,0,0:0:0:0:
72,160,267174,1,0,0:0:0:0:
96,192,267249,2,0,B|112:224|128:240|128:240,3,40
160,224,267549,2,0,B|184:224|224:240|224:240,3,40
208,272,267849,5,6,0:0:0:0:
248,288,267924,1,0,0:0:0:0:
288,280,267999,1,0,0:0:0:0:
320,256,268074,1,0,0:0:0:0:
336,216,268149,1,0,0:0:0:0:
328,176,268224,1,0,0:0:0:0:
304,144,268299,1,0,0:0:0:0:
264,128,268374,1,0,0:0:0:0:
224,136,268449,2,0,B|192:144|176:168|176:168,3,40
184,192,268749,2,0,B|176:216|152:224|152:224,3,40
128,248,269049,5,6,0:0:0:0:
96,264,269124,1,0,0:0:0:0:
56,256,269199,1,0,0:0:0:0:
32,224,269274,1,0,0:0:0:0:
32,184,269349,1,0,0:0:0:0:
56,152,269424,1,0,0:0:0:0:
72,120,269499,1,0,0:0:0:0:
64,80,269574,1,0,0:0:0:0:
72,40,269649,2,0,L|112:16,1,40,2|0,0:0|0:0,0:0:0:0:
248,16,269799,2,0,L|192:32,1,40,2|0,0:0|0:0,0:0:0:0:
168,112,269949,2,0,B|224:120,3,40,2|0|0|0,0:0|0:0|0:0|0:0,0:0:0:0:
240,128,270249,5,6,0:0:0:0:
280,144,270324,1,0,0:0:0:0:
320,128,270399,1,0,0:0:0:0:
344,96,270474,1,0,0:0:0:0:
384,80,270549,1,0,0:0:0:0:
416,96,270624,1,0,0:0:0:0:
440,128,270699,1,0,0:0:0:0:
432,168,270774,1,0,0:0:0:0:
400,192,270849,2,0,L|386:235,1,40,2|0,0:0|0:0,0:0:0:0:
328,352,270999,2,0,L|320:296,1,40,2|0,0:0|0:0,0:0:0:0:
264,208,271149,2,0,B|256:256,3,40,2|0|0|0,0:0|0:0|0:0|0:0,0:0:0:0:
232,280,271449,5,6,0:0:0:0:
192,288,271524,1,0,0:0:0:0:
152,272,271599,1,0,0:0:0:0:
136,232,271674,1,0,0:0:0:0:
120,192,271749,1,0,0:0:0:0:
80,176,271824,1,0,0:0:0:0:
40,192,271899,1,0,0:0:0:0:
24,224,271974,1,0,0:0:0:0:
32,264,272049,2,0,L|88:280,1,40
136,352,272199,2,0,L|80:336,1,40,2|0,0:0|0:0,0:0:0:0:
208,304,272349,2,0,B|248:296|248:296,3,40,2|0|0|0,0:0|0:0|0:0|0:0,0:0:0:0:
280,272,272649,5,6,0:0:0:0:
320,272,272724,1,0,0:0:0:0:
352,296,272799,1,0,0:0:0:0:
360,336,272874,1,0,0:0:0:0:
392,360,272949,1,0,0:0:0:0:
432,360,273024,1,0,0:0:0:0:
464,336,273099,1,0,0:0:0:0:
472,296,273174,1,0,0:0:0:0:
456,264,273249,2,0,L|448:224,1,40,2|0,0:0|0:0,0:0:0:0:
352,152,273399,2,0,L|360:192,1,40,2|0,0:0|0:0,0:0:0:0:
416,96,273549,2,0,B|424:48,3,40,2|0|0|0,0:0|0:0|0:0|0:0,0:0:0:0:
440,16,273849,5,6,0:0:0:0:
400,32,273924,1,0,0:0:0:0:
360,40,273999,1,0,0:0:0:0:
320,32,274074,1,0,0:0:0:0:
280,16,274149,1,0,0:0:0:0:
240,24,274224,1,0,0:0:0:0:
216,56,274299,1,0,0:0:0:0:
224,96,274374,1,0,0:0:0:0:
256,120,274449,2,0,L|312:136,1,40,2|0,0:0|0:0,0:0:0:0:
416,200,274599,2,0,L|368:184,1,40,2|0,0:0|0:0,0:0:0:0:
256,200,274749,2,0,B|240:248|240:248,3,40,2|0|0|0,0:0|0:0|0:0|0:0,0:0:0:0:
272,272,275049,5,6,0:0:0:0:
264,312,275124,1,0,0:0:0:0:
240,344,275199,1,0,0:0:0:0:
200,360,275274,1,0,0:0:0:0:
160,352,275349,1,0,0:0:0:0:
128,328,275424,1,0,0:0:0:0:
88,320,275499,1,0,0:0:0:0:
48,328,275574,1,0,0:0:0:0:
16,312,275649,2,0,L|0:272,1,40,2|0,0:0|0:0,0:0:0:0:
40,152,275799,2,0,L|40:192,1,40,2|0,0:0|0:0,0:0:0:0:
120,256,275949,2,0,B|152:208,3,40,2|0|0|0,0:0|0:0|0:0|0:0,0:0:0:0:
152,184,276249,5,6,0:0:0:0:
184,200,276324,1,0,0:0:0:0:
224,200,276399,1,0,0:0:0:0:
256,184,276474,1,0,0:0:0:0:
272,144,276549,1,0,0:0:0:0:
304,120,276624,1,0,0:0:0:0:
344,120,276699,1,0,0:0:0:0:
376,144,276774,1,0,0:0:0:0:
384,184,276849,2,0,L|376:240,1,40,2|0,0:0|0:0,0:0:0:0:
392,352,276999,2,0,L|400:304,1,40,2|0,0:0|0:0,0:0:0:0:
272,256,277149,2,0,B|264:304,3,40,2|0|0|0,0:0|0:0|0:0|0:0,0:0:0:0:
224,264,277449,5,6,0:0:0:0:
208,224,277524,1,0,0:0:0:0:
216,184,277599,1,0,0:0:0:0:
248,160,277674,1,0,0:0:0:0:
280,136,277749,1,0,0:0:0:0:
288,96,277824,1,0,0:0:0:0:
272,64,277899,1,0,0:0:0:0:
240,48,277974,1,0,0:0:0:0:
200,56,278049,2,0,L|160:64,1,40,2|0,0:0|0:0,0:0:0:0:
24,56,278199,2,0,L|64:48,1,40,2|0,0:0|0:0,0:0:0:0:
152,136,278349,2,0,B|104:144,3,40,2|0|0|0,0:0|0:0|0:0|0:0,0:0:0:0:
80,168,278649,5,6,0:0:0:0:
96,208,278724,1,0,0:0:0:0:
88,248,278799,1,0,0:0:0:0:
56,272,278874,1,0,0:0:0:0:
32,304,278949,1,0,0:0:0:0:
40,344,279024,1,0,0:0:0:0:
72,360,279099,1,0,0:0:0:0:
112,352,279174,1,0,0:0:0:0:
136,320,279249,5,2,0:0:0:0:
176,304,279324,1,0,0:0:0:0:
216,320,279399,1,0,0:0:0:0:
240,352,279474,1,0,0:0:0:0:
280,352,279549,2,0,B|304:352|328:344|328:344,3,40,2|0|0|0,0:0|0:0|0:0|0:0,0:0:0:0:
336,312,279849,5,6,0:0:0:0:
368,280,279924,1,0,0:0:0:0:
368,240,279999,1,0,0:0:0:0:
344,208,280074,1,0,0:0:0:0:
304,200,280149,1,0,0:0:0:0:
264,224,280224,1,0,0:0:0:0:
224,224,280299,1,0,0:0:0:0:
192,200,280374,1,0,0:0:0:0:
184,160,280449,5,2,0:0:0:0:
200,120,280524,1,0,0:0:0:0:
232,104,280599,1,0,0:0:0:0:
272,104,280674,1,0,0:0:0:0:
304,128,280749,2,0,B|328:136|352:136|352:136,3,40,2|0|0|0,0:0|0:0|0:0|0:0,0:0:0:0:
376,112,281049,5,6,0:0:0:0:
416,120,281124,1,0,0:0:0:0:
456,104,281199,1,0,0:0:0:0:
472,64,281274,1,0,0:0:0:0:
456,24,281349,1,0,0:0:0:0:
416,8,281424,1,0,0:0:0:0:
376,16,281499,1,0,0:0:0:0:
344,40,281574,1,0,0:0:0:0:
304,48,281649,5,2,0:0:0:0:
264,40,281724,1,0,0:0:0:0:
232,16,281799,1,0,0:0:0:0:
192,8,281874,1,0,0:0:0:0:
160,32,281949,2,0,L|112:48,1,40,2|0,0:0|0:0,0:0:0:0:
24,88,282099,2,0,L|72:96,1,40,2|0,0:0|0:0,0:0:0:0:
144,120,282249,5,6,0:0:0:0:
184,136,282324,1,0,0:0:0:0:
224,128,282399,1,0,0:0:0:0:
256,112,282474,1,0,0:0:0:0:
296,120,282549,1,0,0:0:0:0:
320,152,282624,1,0,0:0:0:0:
312,192,282699,1,0,0:0:0:0:
280,216,282774,1,0,0:0:0:0:
240,216,282849,5,2,0:0:0:0:
200,200,282924,1,0,0:0:0:0:
160,208,282999,1,0,0:0:0:0:
136,240,283074,1,0,0:0:0:0:
96,256,283149,2,0,L|48:264,1,40,6|0,0:0|0:0,0:0:0:0:
0,352,283299,2,0,L|72:344,1,40,2|0,0:0|0:0,0:0:0:0:
144,352,283449,5,6,0:0:0:0:
184,368,283524,1,0,0:0:0:0:
224,360,283599,1,0,0:0:0:0:
256,336,283674,1,0,0:0:0:0:
264,296,283749,1,0,0:0:0:0:
256,256,283824,1,0,0:0:0:0:
272,224,283899,1,0,0:0:0:0:
312,208,283974,1,0,0:0:0:0:
352,216,284049,5,2,0:0:0:0:
376,248,284124,1,0,0:0:0:0:
376,288,284199,1,0,0:0:0:0:
352,320,284274,1,0,0:0:0:0:
312,328,284349,2,0,B|288:328|256:304|256:304,3,40,2|0|0|0,0:0|0:0|0:0|0:0,0:0:0:0:
248,280,284649,5,6,0:0:0:0:
232,248,284724,1,0,0:0:0:0:
200,224,284799,1,0,0:0:0:0:
160,224,284874,1,0,0:0:0:0:
128,248,284949,1,0,0:0:0:0:
112,288,285024,1,0,0:0:0:0:
120,328,285099,1,0,0:0:0:0:
104,368,285174,1,0,0:0:0:0:
64,384,285249,5,2,0:0:0:0:
24,368,285324,1,0,0:0:0:0:
8,328,285399,1,0,0:0:0:0:
24,288,285474,1,0,0:0:0:0:
32,248,285549,2,0,B|24:208|8:192|8:192,3,40,2|0|0|0,0:0|0:0|0:0|0:0,0:0:0:0:
48,176,285849,5,6,0:0:0:0:
88,176,285924,1,0,0:0:0:0:
120,200,285999,1,0,0:0:0:0:
160,192,286074,1,0,0:0:0:0:
184,160,286149,1,0,0:0:0:0:
184,120,286224,1,0,0:0:0:0:
152,88,286299,1,0,0:0:0:0:
144,48,286374,1,0,0:0:0:0:
168,16,286449,5,2,0:0:0:0:
208,16,286524,1,0,0:0:0:0:
240,40,286599,1,0,0:0:0:0:
248,80,286674,1,0,0:0:0:0:
272,112,286749,2,0,L|320:136,1,40,2|0,0:0|0:0,0:0:0:0:
400,64,286899,2,0,L|360:80,1,40,2|0,0:0|0:0,0:0:0:0:
448,136,287049,5,6,0:0:0:0:
416,160,287124,1,0,0:0:0:0:
408,200,287199,1,0,0:0:0:0:
432,232,287274,1,0,0:0:0:0:
464,256,287349,1,0,0:0:0:0:
480,296,287424,1,0,0:0:0:0:
464,336,287499,1,0,0:0:0:0:
432,352,287574,1,0,0:0:0:0:
392,344,287649,5,2,0:0:0:0:
368,312,287724,1,0,0:0:0:0:
336,296,287799,1,0,0:0:0:0:
296,304,287874,1,0,0:0:0:0:
264,280,287949,2,0,L|232:256,1,40,2|0,0:0|0:0,0:0:0:0:
112,272,288099,2,0,L|160:264,1,40,2|0,0:0|0:0,0:0:0:0:
216,176,288249,5,6,0:0:0:0:
256,192,288324,1,0,0:0:0:0:
296,184,288399,1,0,0:0:0:0:
320,152,288474,1,0,0:0:0:0:
320,112,288549,1,0,0:0:0:0:
344,80,288624,1,0,0:0:0:0:
376,64,288699,1,0,0:0:0:0:
416,72,288774,1,0,0:0:0:0:
448,96,288849,2,0,L|464:136,1,40,2|0,0:0|0:0,0:0:0:0:
488,264,288999,2,0,L|464:232,1,40,2|0,0:0|0:0,0:0:0:0:
384,176,289149,2,0,B|376:216,3,40,2|0|0|0,0:0|0:0|0:0|0:0,0:0:0:0:
400,248,289449,5,6,0:0:0:0:
360,248,289524,1,0,0:0:0:0:
328,264,289599,1,0,0:0:0:0:
312,296,289674,1,0,0:0:0:0:
312,336,289749,1,0,0:0:0:0:
288,368,289824,1,0,0:0:0:0:
248,376,289899,1,0,0:0:0:0:
208,360,289974,1,0,0:0:0:0:
192,320,290049,2,0,L|200:264,1,40,2|0,0:0|0:0,0:0:0:0:
192,144,290199,2,0,L|168:200,1,40,2|0,0:0|0:0,0:0:0:0:
112,264,290349,2,0,B|91:221,3,40,2|0|0|0,0:0|0:0|0:0|0:0,0:0:0:0:
64,200,290649,5,6,0:0:0:0:
96,176,290724,1,0,0:0:0:0:
104,136,290799,1,0,0:0:0:0:
80,104,290874,1,0,0:0:0:0:
48,80,290949,1,0,0:0:0:0:
40,40,291024,1,0,0:0:0:0:
64,8,291099,1,0,0:0:0:0:
104,0,291174,1,0,0:0:0:0:
136,16,291249,2,0,L|184:40,1,40,2|0,0:0|0:0,0:0:0:0:
224,128,291399,2,0,L|264:120,1,40,2|0,0:0|0:0,0:0:0:0:
328,40,291549,2,0,B|288:48,3,40,2|0|0|0,0:0|0:0|0:0|0:0,0:0:0:0:
256,24,291849,5,6,0:0:0:0:
216,40,291924,1,0,0:0:0:0:
171,33,291999,1,0,0:0:0:0:
128,32,292074,1,0,0:0:0:0:
96,56,292149,1,0,0:0:0:0:
88,96,292224,1,0,0:0:0:0:
112,128,292299,1,0,0:0:0:0:
152,144,292374,1,0,0:0:0:0:
192,136,292449,2,0,L|240:152,1,40,2|0,0:0|0:0,0:0:0:0:
320,80,292599,2,0,L|328:128,1,40,2|0,0:0|0:0,0:0:0:0:
368,208,292749,2,0,B|328:240,3,40,2|0|0|0,0:0|0:0|0:0|0:0,0:0:0:0:
368,264,293049,5,6,0:0:0:0:
368,304,293124,1,0,0:0:0:0:
344,336,293199,1,0,0:0:0:0:
304,344,293274,1,0,0:0:0:0:
272,328,293349,1,0,0:0:0:0:
232,320,293424,1,0,0:0:0:0:
192,336,293499,1,0,0:0:0:0:
168,368,293574,1,0,0:0:0:0:
128,376,293649,2,0,L|88:368,1,40,2|0,0:0|0:0,0:0:0:0:
0,288,293799,2,0,L|40:296,1,40,2|0,0:0|0:0,0:0:0:0:
192,272,293949,2,0,B|144:264,3,40,2|0|0|0,0:0|0:0|0:0|0:0,0:0:0:0:
128,232,294249,5,6,0:0:0:0:
88,240,294324,1,0,0:0:0:0:
56,216,294399,1,0,0:0:0:0:
56,176,294474,1,0,0:0:0:0:
80,144,294549,1,0,0:0:0:0:
120,144,294624,1,0,0:0:0:0:
160,160,294699,1,0,0:0:0:0:
200,152,294774,1,0,0:0:0:0:
216,112,294849,2,0,L|208:64,1,40,2|0,0:0|0:0,0:0:0:0:
296,0,294999,2,0,L|304:48,1,40,2|0,0:0|0:0,0:0:0:0:
304,184,295149,2,0,B|296:136,3,40,2|0|0|0,0:0|0:0|0:0|0:0,0:0:0:0:
320,112,295449,6,0,L|368:104,1,40,6|0,0:0|0:0,0:0:0:0:
448,48,295599,2,0,L|384:64,1,40
336,184,295749,2,0,L|384:176,1,40,6|0,0:0|0:0,0:0:0:0:
464,120,295899,2,0,L|400:136,1,40
352,256,296049,2,0,L|400:248,1,40,6|0,0:0|0:0,0:0:0:0:
488,192,296199,2,0,L|424:208,1,40
368,328,296349,2,0,L|416:320,1,40,6|0,0:0|0:0,0:0:0:0:
504,264,296499,2,0,L|440:280,1,40
312,200,296649,6,0,L|320:248,1,40,6|0,0:0|0:0,0:0:0:0:
384,328,296799,2,0,L|368:264,1,40
240,208,296949,2,0,L|248:256,1,40,6|0,0:0|0:0,0:0:0:0:
312,344,297099,2,0,L|296:280,1,40
168,216,297249,2,0,L|176:264,1,40,6|0,0:0|0:0,0:0:0:0:
240,360,297399,2,0,L|224:296,1,40
96,224,297549,2,0,L|104:272,1,40,6|0,0:0|0:0,0:0:0:0:
168,376,297699,2,0,L|152:312,1,40
24,232,297849,6,0,B|16:208|16:184|16:184,3,40,4|0|0|0,0:0|0:0|0:0|0:0,0:0:0:0:
48,160,298149,2,0,B|72:144|80:112|80:112,3,40
112,112,298449,2,0,B|136:104|160:120|160:120,3,40
184,96,298749,2,0,B|208:80|216:48|216:48,3,40
216,24,299049,5,2,0:0:0:0:
288,72,299199,2,0,B|352:96|392:80|392:80,1,80,2|0,0:0|0:0,0:0:0:0:
456,24,299499,1,2,0:0:0:0:
504,88,299649,1,2,0:0:0:0:
496,128,299724,1,0,0:0:0:0:
464,152,299799,1,0,0:0:0:0:
456,192,299874,1,0,0:0:0:0:
464,232,299949,2,2,B|432:336|496:360|496:360,1,120
416,296,300249,5,4,0:0:0:0:
392,264,300324,1,0,0:0:0:0:
360,248,300399,1,0,0:0:0:0:
328,264,300474,1,0,0:0:0:0:
304,296,300549,1,0,0:0:0:0:
280,328,300624,1,0,0:0:0:0:
240,344,300699,1,0,0:0:0:0:
208,328,300774,1,0,0:0:0:0:
192,288,300849,2,0,B|192:256|200:240|200:240,1,40,2|0,0:0|0:0,0:0:0:0:
88,256,300999,5,0,0:0:0:0:
112,224,301074,1,0,0:0:0:0:
112,184,301149,1,0,0:0:0:0:
88,152,301224,1,0,0:0:0:0:
48,136,301299,1,0,0:0:0:0:
32,24,301449,6,0,L|80:32,1,40,6|0,0:0|0:0,0:0:0:0:
208,32,301599,2,0,L|152:48,1,40,2|0,0:0|0:0,0:0:0:0:
152,128,301749,2,0,B|200:160|248:136|248:136,1,80
400,176,302049,6,0,L|360:184,1,40,6|0,0:0|0:0,0:0:0:0:
232,224,302199,2,0,L|280:240,1,40,2|0,0:0|0:0,0:0:0:0:
352,280,302349,2,0,B|368:320|344:360|344:360,1,80
216,376,302649,6,0,B|176:304|88:352|88:352,1,120,6|0,0:0|0:0,0:0:0:0:
64,368,302949,1,0,0:0:0:0:
80,328,303024,1,0,0:0:0:0:
64,288,303099,1,0,0:0:0:0:
24,272,303174,1,0,0:0:0:0:
0,240,303249,1,2,0:0:0:0:
0,200,303324,1,0,0:0:0:0:
24,168,303399,1,2,0:0:0:0:
64,160,303474,1,0,0:0:0:0:
104,176,303549,2,0,B|136:176|160:160|160:160,1,40,2|0,0:0|0:0,0:0:0:0:
160,64,303699,2,0,B|136:64|112:80|112:80,1,40,2|0,0:0|0:0,0:0:0:0:
272,80,303849,5,6,0:0:0:0:
360,48,303999,1,2,0:0:0:0:
352,88,304074,1,0,0:0:0:0:
368,128,304149,1,0,0:0:0:0:
408,144,304224,1,0,0:0:0:0:
448,144,304299,1,2,0:0:0:0:
488,160,304374,1,0,0:0:0:0:
504,200,304449,1,2,0:0:0:0:
488,240,304524,1,0,0:0:0:0:
448,256,304599,1,0,0:0:0:0:
408,248,304674,1,0,0:0:0:0:
376,224,304749,2,2,B|328:224|296:240|296:240,1,80
168,168,305049,5,4,0:0:0:0:
168,168,305124,1,0,0:0:0:0:
168,168,305199,1,0,0:0:0:0:
168,168,305274,1,0,0:0:0:0:
168,168,305349,1,2,0:0:0:0:
104,208,305499,1,0,0:0:0:0:
136,280,305649,1,0,0:0:0:0:
80,336,305799,2,0,B|120:360|176:352|176:352,2,80,2|0|2,0:0|0:0|0:0,0:0:0:0:
32,200,306249,6,2,B|24:184|24:160|24:160,2,40
72,16,306549,1,0,0:0:0:0:
120,96,306699,1,2,0:0:0:0:
120,96,306849,2,2,B|120:128|128:152|128:152,2,40
248,224,307149,1,0,0:0:0:0:
232,144,307299,1,2,0:0:0:0:
320,64,307449,6,0,B|344:40|368:40|368:40,3,40,6|0|0|0,0:0|0:0|0:0|0:0,0:0:0:0:
384,16,307749,2,0,B|416:16|440:40|440:40,3,40,2|0|0|0,0:0|0:0|0:0|0:0,0:0:0:0:
464,32,308049,2,0,B|472:56|472:80|472:80,3,40,2|0|0|0,0:0|0:0|0:0|0:0,0:0:0:0:
496,104,308349,1,2,0:0:0:0:
480,144,308424,1,0,0:0:0:0:
496,176,308499,1,0,0:0:0:0:
496,216,308574,1,0,0:0:0:0:
464,240,308649,6,0,B|440:280|400:304,1,80,2|0,0:0|0:0,0:0:0:0:
432,376,308949,2,2,B|352:368,1,80,2|0,0:0|0:0,0:0:0:0:
240,384,309249,6,2,B|216:344|176:320,1,80,2|0,0:0|0:0,0:0:0:0:
104,336,309549,2,0,B|136:264,1,80,2|0,0:0|0:0,0:0:0:0:
56,200,309849,5,6,0:0:0:0:
72,160,309924,1,0,0:0:0:0:
64,120,309999,1,0,0:0:0:0:
32,96,310074,1,0,0:0:0:0:
16,56,310149,1,0,0:0:0:0:
32,16,310224,1,0,0:0:0:0:
64,0,310299,1,0,0:0:0:0:
104,8,310374,1,0,0:0:0:0:
128,40,310449,5,2,0:0:0:0:
168,56,310524,1,0,0:0:0:0:
208,40,310599,1,0,0:0:0:0:
248,56,310674,1,0,0:0:0:0:
264,96,310749,2,0,B|240:136|264:184|264:184,1,80
392,248,311049,6,2,B|480:152|376:-160|72:24|104:152,1,560,6|0,0:0|0:0,0:0:0:0:
184,208,312249,6,0,B|224:248|232:280|232:280,2,80,4|0|0,0:0|0:0|0:0,0:0:0:0:
72,240,312699,1,0,0:0:0:0:
48,208,312774,1,0,0:0:0:0:
40,168,312849,2,0,B|64:120|48:72|48:72,1,80,2|0,0:0|0:0,0:0:0:0:
152,80,313149,5,2,0:0:0:0:
144,40,313224,1,0,0:0:0:0:
168,8,313299,1,2,0:0:0:0:
208,0,313374,1,0,0:0:0:0:
240,24,313449,2,0,B|280:32|312:8|312:8,3,40,4|0|0|0,0:0|0:0|0:0|0:0,0:0:0:0:
304,56,313749,5,2,0:0:0:0:
344,72,313824,1,0,0:0:0:0:
384,56,313899,1,2,0:0:0:0:
408,24,313974,1,0,0:0:0:0:
448,16,314049,1,0,0:0:0:0:
480,40,314124,1,0,0:0:0:0:
488,80,314199,1,0,0:0:0:0:
464,112,314274,1,0,0:0:0:0:
464,152,314349,2,0,B|448:208|384:208|384:208,1,80,2|0,0:0|0:0,0:0:0:0:
288,192,314649,6,0,B|232:240|248:320|248:320,2,120,6|0|0,0:0|0:0|0:0,0:0:0:0:
304,112,315249,1,0,0:0:0:0:
232,72,315399,1,0,0:0:0:0:
176,128,315549,1,0,0:0:0:0:
352,344,315849,5,6,0:0:0:0:
384,368,315924,1,0,0:0:0:0:
424,368,315999,1,0,0:0:0:0:
456,344,316074,1,0,0:0:0:0:
464,304,316149,1,0,0:0:0:0:
448,272,316224,1,0,0:0:0:0:
424,240,316299,1,0,0:0:0:0:
424,200,316374,1,0,0:0:0:0:
448,168,316449,2,0,B|480:168|496:152|496:152,3,40
504,120,316749,2,0,B|496:88|504:56|504:56,3,40
480,48,317049,5,6,0:0:0:0:
448,72,317124,1,0,0:0:0:0:
408,72,317199,1,0,0:0:0:0:
376,56,317274,1,0,0:0:0:0:
344,32,317349,1,2,0:0:0:0:
304,32,317424,1,0,0:0:0:0:
272,48,317499,1,0,0:0:0:0:
256,88,317574,1,0,0:0:0:0:
272,128,317649,2,0,B|304:160|336:160|336:160,3,40,2|0|0|0,0:0|0:0|0:0|0:0,0:0:0:0:
344,152,317949,2,0,B|368:184|360:232|360:232,1,80,2|0,0:0|0:0,0:0:0:0:
240,232,318249,5,6,0:0:0:0:
216,264,318324,1,0,0:0:0:0:
176,272,318399,1,0,0:0:0:0:
136,256,318474,1,0,0:0:0:0:
120,216,318549,1,2,0:0:0:0:
128,176,318624,1,0,0:0:0:0:
160,152,318699,1,0,0:0:0:0:
184,120,318774,1,0,0:0:0:0:
184,80,318849,2,0,B|176:48|144:32|144:32,3,40,2|0|0|0,0:0|0:0|0:0|0:0,0:0:0:0:
144,16,319149,2,2,B|104:56|40:48|40:48,1,80
24,144,319449,5,4,0:0:0:0:
48,176,319524,1,0,0:0:0:0:
56,216,319599,1,0,0:0:0:0:
40,256,319674,1,0,0:0:0:0:
24,296,319749,1,0,0:0:0:0:
32,336,319824,1,0,0:0:0:0:
64,360,319899,1,0,0:0:0:0:
104,360,319974,1,0,0:0:0:0:
136,336,320049,5,2,0:0:0:0:
168,320,320124,1,0,0:0:0:0:
208,328,320199,1,0,0:0:0:0:
240,352,320274,1,0,0:0:0:0:
280,352,320349,2,0,B|312:344|328:328|328:328,3,40,2|0|0|0,0:0|0:0|0:0|0:0,0:0:0:0:
320,296,320649,5,4,0:0:0:0:
344,264,320724,1,0,0:0:0:0:
384,248,320799,2,0,B|416:248|440:256|440:256,1,40,2|0,0:0|0:0,0:0:0:0:
480,352,320949,2,2,B|456:336|448:320|448:320,1,40
440,176,321099,1,2,0:0:0:0:
304,200,321249,5,4,0:0:0:0:
272,184,321324,1,0,0:0:0:0:
248,152,321399,2,0,B|240:136|240:112|240:112,1,40,2|0,0:0|0:0,0:0:0:0:
344,56,321549,2,2,B|328:88|296:96|296:96,1,40
160,104,321699,1,2,0:0:0:0:
40,80,321849,5,6,0:0:0:0:
48,160,321999,2,0,B|80:208|72:256|72:256,1,80,2|0,0:0|0:0,0:0:0:0:
56,328,322299,2,0,B|72:208|192:232|192:232,1,160,2|0,0:0|0:0,0:0:0:0:
256,264,322749,1,2,0:0:0:0:
312,208,322899,1,0,0:0:0:0:
256,112,323049,5,6,0:0:0:0:
256,32,323199,1,2,0:0:0:0:
336,8,323349,1,0,0:0:0:0:
384,72,323499,2,2,B|344:160|416:216|416:216,1,160,2|0,0:0|0:0,0:0:0:0:
512,256,323949,2,2,B|416:208|368:304|368:304,1,160,2|6,0:0|0:0,0:0:0:0:
296,336,324399,5,0,0:0:0:0:
216,328,324549,1,2,0:0:0:0:
216,248,324699,2,0,B|272:160|184:96|184:96,1,160,2|0,0:0|0:0,0:0:0:0:
128,48,325149,1,2,0:0:0:0:
64,88,325299,1,0,0:0:0:0:
96,200,325449,6,2,B|88:240|48:272|48:272,1,80,6|2,0:0|0:0,0:0:0:0:
256,368,325899,1,2,0:0:0:0:
328,336,326049,1,0,0:0:0:0:
336,296,326124,1,0,0:0:0:0:
320,256,326199,1,0,0:0:0:0:
296,224,326274,1,0,0:0:0:0:
296,184,326349,2,2,B|344:128|416:152|416:152,1,120,6|2,0:0|0:0,0:0:0:0:
464,176,326649,6,2,B|424:136|448:72|448:72,1,80,6|2,0:0|0:0,0:0:0:0:
392,16,326949,1,0,0:0:0:0:
312,0,327099,2,0,B|272:48|272:88|272:88,1,80
280,176,327399,1,0,0:0:0:0:
208,216,327549,1,2,0:0:0:0:
144,160,327699,1,2,0:0:0:0:
72,80,327849,5,4,0:0:0:0:
32,152,327999,1,0,0:0:0:0:
56,232,328149,2,0,L|64:280,1,40,2|0,0:0|0:0,0:0:0:0:
104,256,328299,2,0,B|216:216|240:344|240:344,1,160,2|0,0:0|0:0,0:0:0:0:
304,368,328749,1,2,0:0:0:0:
296,328,328824,1,0,0:0:0:0:
304,288,328899,1,0,0:0:0:0:
336,256,328974,1,0,0:0:0:0:
376,248,329049,6,0,B|432:240|456:192|456:192,1,80,6|0,0:0|0:0,0:0:0:0:
392,112,329349,1,0,0:0:0:0:
400,32,329499,2,0,L|320:0,1,80,2|0,0:0|0:0,0:0:0:0:
256,112,329799,1,0,0:0:0:0:
200,56,329949,2,0,L|96:40,1,80,2|0,0:0|0:0,0:0:0:0:
40,120,330249,5,6,0:0:0:0:
0,192,330399,1,0,0:0:0:0:
64,248,330549,1,0,0:0:0:0:
152,208,330699,2,0,B|200:200|240:232|240:232,2,80,2|0|0,0:0|0:0|0:0,0:0:0:0:
136,288,331149,2,0,B|144:344|128:368|128:368,1,80,2|0,0:0|0:0,0:0:0:0:
240,360,331449,5,6,0:0:0:0:
272,336,331524,1,0,0:0:0:0:
312,328,331599,1,0,0:0:0:0:
352,336,331674,1,0,0:0:0:0:
384,360,331749,1,2,0:0:0:0:
424,368,331824,1,0,0:0:0:0:
456,344,331899,1,0,0:0:0:0:
472,312,331974,1,0,0:0:0:0:
456,280,332049,2,0,B|440:248|424:232|424:232,3,40,2|0|0|0,0:0|0:0|0:0|0:0,0:0:0:0:
392,248,332349,2,0,B|360:248|336:216|336:216,2,40
320,152,332649,5,6,0:0:0:0:
288,176,332724,1,0,0:0:0:0:
248,176,332799,1,0,0:0:0:0:
216,152,332874,1,0,0:0:0:0:
200,120,332949,1,2,0:0:0:0:
192,80,333024,1,0,0:0:0:0:
160,56,333099,1,0,0:0:0:0:
120,56,333174,1,0,0:0:0:0:
88,80,333249,2,0,B|72:104|64:128|64:128,3,40,2|0|0|0,0:0|0:0|0:0|0:0,0:0:0:0:
88,152,333549,2,0,B|104:176|104:200|104:200,2,40
16,240,333849,5,6,0:0:0:0:
0,280,333924,1,0,0:0:0:0:
16,320,333999,1,0,0:0:0:0:
56,336,334074,1,0,0:0:0:0:
96,328,334149,1,0,0:0:0:0:
112,288,334224,1,0,0:0:0:0:
152,272,334299,1,0,0:0:0:0:
192,288,334374,1,0,0:0:0:0:
216,320,334449,5,6,0:0:0:0:
256,336,334524,1,0,0:0:0:0:
296,320,334599,1,0,0:0:0:0:
312,288,334674,1,0,0:0:0:0:
312,248,334749,2,0,B|288:216|288:184|288:184,3,40,2|0|0|0,0:0|0:0|0:0|0:0,0:0:0:0:
256,192,335049,5,6,0:0:0:0:
264,152,335124,1,0,0:0:0:0:
240,120,335199,1,0,0:0:0:0:
216,88,335274,1,0,0:0:0:0:
216,48,335349,1,2,0:0:0:0:
240,16,335424,1,0,0:0:0:0:
280,0,335499,1,0,0:0:0:0:
312,24,335574,1,0,0:0:0:0:
328,64,335649,5,6,0:0:0:0:
368,80,335724,1,0,0:0:0:0:
408,72,335799,1,0,0:0:0:0:
440,56,335874,1,0,0:0:0:0:
480,64,335949,1,2,0:0:0:0:
504,96,336024,1,0,0:0:0:0:
504,136,336099,1,0,0:0:0:0:
480,168,336174,1,0,0:0:0:0:
440,176,336249,5,6,0:0:0:0:
400,168,336324,1,0,0:0:0:0:
360,176,336399,1,0,0:0:0:0:
336,208,336474,1,0,0:0:0:0:
328,248,336549,1,2,0:0:0:0:
344,288,336624,1,0,0:0:0:0:
376,312,336699,2,0,B|408:320|432:320|432:320,1,40,2|0,0:0|0:0,0:0:0:0:
400,240,336849,5,6,0:0:0:0:
360,224,336924,1,0,0:0:0:0:
320,232,336999,1,0,0:0:0:0:
288,264,337074,1,0,0:0:0:0:
264,296,337149,1,2,0:0:0:0:
224,312,337224,1,0,0:0:0:0:
184,304,337299,2,0,B|160:280|152:256|152:256,1,40,2|0,0:0|0:0,0:0:0:0:
248,264,337449,5,6,0:0:0:0:
256,304,337524,1,0,0:0:0:0:
248,344,337599,1,0,0:0:0:0:
216,368,337674,1,0,0:0:0:0:
176,376,337749,1,2,0:0:0:0:
136,360,337824,1,0,0:0:0:0:
112,328,337899,2,0,B|104:296|104:272|104:272,1,40,2|0,0:0|0:0,0:0:0:0:
184,304,338049,5,6,0:0:0:0:
208,272,338124,1,0,0:0:0:0:
208,232,338199,1,0,0:0:0:0:
184,200,338274,1,0,0:0:0:0:
152,176,338349,1,2,0:0:0:0:
136,136,338424,1,0,0:0:0:0:
152,96,338499,2,0,B|184:80|216:80|216:80,1,40,2|0,0:0|0:0,0:0:0:0:
160,16,338649,5,6,0:0:0:0:
120,24,338724,1,0,0:0:0:0:
88,48,338799,1,2,0:0:0:0:
72,88,338874,1,0,0:0:0:0:
80,128,338949,2,0,B|94:160|129:169|129:169,3,40,2|0|0|0,0:0|0:0|0:0|0:0,0:0:0:0:
144,168,339249,5,6,0:0:0:0:
184,152,339324,1,0,0:0:0:0:
224,160,339399,1,2,0:0:0:0:
248,192,339474,1,0,0:0:0:0:
256,232,339549,2,0,B|256:256|240:272|240:272,3,40,2|0|0|0,0:0|0:0|0:0|0:0,0:0:0:0:
208,288,339849,5,6,0:0:0:0:
208,328,339924,1,0,0:0:0:0:
232,360,339999,1,2,0:0:0:0:
272,376,340074,1,0,0:0:0:0:
312,368,340149,2,0,B|336:352|344:328|344:328,3,40,2|0|0|0,0:0|0:0|0:0|0:0,0:0:0:0:
360,304,340449,5,6,0:0:0:0:
400,296,340524,1,0,0:0:0:0:
440,312,340599,1,2,0:0:0:0:
480,312,340674,1,0,0:0:0:0:
504,280,340749,2,0,B|512:248|504:216|504:216,3,40,2|0|0|0,0:0|0:0|0:0|0:0,0:0:0:0:
480,208,341049,5,6,0:0:0:0:
448,184,341124,1,0,0:0:0:0:
432,144,341199,1,0,0:0:0:0:
440,104,341274,1,0,0:0:0:0:
456,64,341349,1,2,0:0:0:0:
440,24,341424,1,0,0:0:0:0:
400,8,341499,1,0,0:0:0:0:
360,24,341574,1,0,0:0:0:0:
344,56,341649,2,0,B|336:80|344:96|344:96,1,40
328,168,341799,5,2,0:0:0:0:
352,200,341874,1,0,0:0:0:0:
368,240,341949,1,2,0:0:0:0:
352,272,342024,1,0,0:0:0:0:
320,296,342099,2,0,B|288:304|256:288|256:288,1,40
240,368,342249,5,6,0:0:0:0:
208,344,342324,1,0,0:0:0:0:
192,304,342399,1,0,0:0:0:0:
200,264,342474,1,0,0:0:0:0:
232,232,342549,2,0,B|264:208|272:184|272:184,3,40,2|0|0|0,0:0|0:0|0:0|0:0,0:0:0:0:
264,168,342849,5,2,0:0:0:0:
248,136,342924,1,0,0:0:0:0:
216,112,342999,1,0,0:0:0:0:
176,112,343074,1,0,0:0:0:0:
144,128,343149,2,2,B|96:128|64:80|64:80,1,80
80,0,343449,5,6,0:0:0:0:
120,8,343524,1,0,0:0:0:0:
152,48,343599,1,0,0:0:0:0:
152,88,343674,1,0,0:0:0:0:
136,120,343749,1,2,0:0:0:0:
136,160,343824,1,0,0:0:0:0:
160,192,343899,1,0,0:0:0:0:
200,200,343974,1,0,0:0:0:0:
232,184,344049,2,0,B|256:168|264:152|264:152,1,40,2|0,0:0|0:0,0:0:0:0:
320,96,344199,5,0,0:0:0:0:
344,128,344274,1,0,0:0:0:0:
384,136,344349,2,0,B|416:128|432:112|432:112,3,40,2|0|0|0,0:0|0:0|0:0|0:0,0:0:0:0:
456,128,344649,6,0,B|464:176|504:216|504:216,1,80,4|0,0:0|0:0,0:0:0:0:
376,248,344949,2,0,B|376:288|352:336|352:336,1,80
224,312,345249,2,2,B|168:392|64:328|104:216|184:240,1,240
304,200,345849,6,0,B|352:216|384:264|384:264,2,80,6|0|2,0:0|0:0|0:0,0:0:0:0:
384,144,346299,1,0,0:0:0:0:
344,56,346449,1,2,0:0:0:0:
312,40,346524,1,0,0:0:0:0:
272,40,346599,1,0,0:0:0:0:
240,64,346674,1,0,0:0:0:0:
200,64,346749,5,2,0:0:0:0:
96,112,346899,1,2,0:0:0:0:
96,112,346974,1,0,0:0:0:0:
96,112,347049,2,0,B|40:120|16:168|16:168,2,80,4|0|0,0:0|0:0|0:0,0:0:0:0:
168,144,347499,1,2,0:0:0:0:
152,224,347649,2,2,B|256:320|264:184|376:288,1,240
488,256,348249,5,6,0:0:0:0:
512,224,348324,1,0,0:0:0:0:
504,184,348399,1,0,0:0:0:0:
472,160,348474,1,0,0:0:0:0:
432,168,348549,1,0,0:0:0:0:
392,152,348624,1,0,0:0:0:0:
376,112,348699,1,6,0:0:0:0:
392,72,348774,1,0,0:0:0:0:
376,32,348849,5,0,0:0:0:0:
336,24,348924,1,0,0:0:0:0:
304,48,348999,1,0,0:0:0:0:
272,72,349074,1,0,0:0:0:0:
232,56,349149,1,6,0:0:0:0:
192,48,349224,1,0,0:0:0:0:
160,72,349299,1,0,0:0:0:0:
152,112,349374,1,0,0:0:0:0:
176,144,349449,5,6,0:0:0:0:
216,152,349524,1,0,0:0:0:0:
240,184,349599,1,0,0:0:0:0:
240,224,349674,1,0,0:0:0:0:
216,256,349749,1,0,0:0:0:0:
256,344,349899,1,0,0:0:0:0:
376,328,350049,2,0,B|416:296|464:296|464:296,2,80,2|0|2,0:0|0:0|0:0,0:0:0:0:
392,144,350649,6,0,B|360:48|256:88|256:88,1,160,6|0,0:0|0:0,0:0:0:0:
262,85,351099,1,0,0:0:0:0:
224,16,351249,1,2,0:0:0:0:
144,24,351399,1,0,0:0:0:0:
128,104,351549,1,2,0:0:0:0:
48,128,351699,1,2,0:0:0:0:
0,240,351849,6,0,B|64:248|112:216|112:216,1,80,6|0,0:0|0:0,0:0:0:0:
176,280,352149,1,2,0:0:0:0:
224,344,352299,1,2,0:0:0:0:
296,312,352449,2,0,B|360:272|360:224|360:224,1,80,2|0,0:0|0:0,0:0:0:0:
432,256,352749,2,0,B|320:240|328:120|328:120,1,160,2|4,0:0|0:0,0:0:0:0:
232,96,353199,5,2,0:0:0:0:
264,24,353349,1,0,0:0:0:0:
344,24,353499,2,0,B|352:64|400:112|400:112,1,80
496,144,353799,1,2,0:0:0:0:
448,208,353949,2,0,B|464:256|456:288|456:288,1,80,2|0,0:0|0:0,0:0:0:0:
376,344,354249,5,6,0:0:0:0:
304,312,354399,1,2,0:0:0:0:
304,232,354549,2,0,L|280:144,1,80
320,56,354849,2,2,B|192:8|216:144|80:104,1,240
24,176,355449,6,0,B|24:232|8:256|8:256,1,80,6|0,0:0|0:0,0:0:0:0:
96,280,355749,2,0,B|112:312|112:360|112:360,1,80,2|0,0:0|0:0,0:0:0:0:
216,304,356049,2,0,B|264:328|288:360|288:360,1,80,2|0,0:0|0:0,0:0:0:0:
376,328,356349,1,0,0:0:0:0:
376,248,356499,1,0,0:0:0:0:
432,160,356649,6,0,B|480:160|528:112,2,80,2|0|2,0:0|0:0|0:0,0:0:0:0:
400,104,357099,2,2,B|384:208|272:200,1,160,2|0,0:0|0:0,0:0:0:0:
208,200,357549,1,2,0:0:0:0:
160,136,357699,1,2,0:0:0:0:
48,128,357849,5,6,0:0:0:0:
24,160,357924,1,0,0:0:0:0:
24,200,357999,1,0,0:0:0:0:
56,224,358074,1,0,0:0:0:0:
96,224,358149,1,2,0:0:0:0:
136,216,358224,1,0,0:0:0:0:
176,216,358299,1,0,0:0:0:0:
208,240,358374,1,0,0:0:0:0:
216,280,358449,2,0,B|208:320|224:328|224:328,3,40,2|0|0|0,0:0|0:0|0:0|0:0,0:0:0:0:
248,344,358749,2,0,B|272:352|296:344|296:344,3,40,2|0|0|0,0:0|0:0|0:0|0:0,0:0:0:0:
320,320,359049,5,6,0:0:0:0:
352,296,359124,1,0,0:0:0:0:
392,296,359199,1,0,0:0:0:0:
432,312,359274,1,0,0:0:0:0:
472,304,359349,1,4,0:0:0:0:
496,272,359424,1,0,0:0:0:0:
496,232,359499,1,0,0:0:0:0:
472,200,359574,1,0,0:0:0:0:
432,192,359649,2,2,B|352:240|304:112|208:184,1,240,2|0,0:0|0:0,0:0:0:0:
72,128,360249,6,0,B|48:136|16:128|16:128,2,53.3333333333333
88,56,360549,2,0,B|64:48|40:24|40:24,2,53.3333333333333
152,32,360849,2,0,B|168:32|200:16|200:16,3,40,2|0|0|0,0:0|0:0|0:0|0:0,0:0:0:0:
224,40,361149,2,0,B|248:40|272:56|272:56,3,40,2|0|0|0,0:0|0:0|0:0|0:0,0:0:0:0:
288,80,361449,5,6,0:0:0:0:
328,96,361524,1,0,0:0:0:0:
368,80,361599,1,0,0:0:0:0:
384,40,361674,1,0,0:0:0:0:
424,24,361749,1,2,0:0:0:0:
464,40,361824,1,0,0:0:0:0:
480,80,361899,1,0,0:0:0:0:
464,120,361974,1,0,0:0:0:0:
424,136,362049,2,0,B|408:152|400:176|400:176,3,40,2|0|2|0,0:0|0:0|0:0|0:0,0:0:0:0:
416,208,362349,2,0,B|448:240|432:288|432:288,1,80,2|0,0:0|0:0,0:0:0:0:
320,288,362649,5,6,0:0:0:0:
272,352,362799,1,2,0:0:0:0:
192,336,362949,1,2,0:0:0:0:
112,360,363099,1,0,0:0:0:0:
16,304,363249,5,2,0:0:0:0:
32,216,363399,1,2,0:0:0:0:
128,192,363549,1,2,0:0:0:0:
200,120,363699,1,0,0:0:0:0:
304,208,363849,5,6,0:0:0:0:
384,184,363999,2,0,B|416:152|416:104|416:104,1,80,2|0,0:0|0:0,0:0:0:0:
336,48,364299,1,2,0:0:0:0:
256,32,364449,2,0,B|192:56|144:48|144:48,2,80,2|0|2,0:0|0:0|0:0,0:0:0:0:
240,184,365049,5,6,0:0:0:0:
216,216,365124,1,0,0:0:0:0:
176,224,365199,1,0,0:0:0:0:
136,208,365274,1,0,0:0:0:0:
96,208,365349,1,2,0:0:0:0:
64,232,365424,1,0,0:0:0:0:
48,272,365499,1,0,0:0:0:0:
64,312,365574,1,0,0:0:0:0:
96,328,365649,5,2,0:0:0:0:
136,328,365724,1,0,0:0:0:0:
168,344,365799,1,0,0:0:0:0:
192,376,365874,1,0,0:0:0:0:
232,384,365949,2,0,B|264:376|288:352|288:352,3,40,2|0|0|0,0:0|0:0|0:0|0:0,0:0:0:0:
280,328,366249,5,6,0:0:0:0:
272,288,366324,1,0,0:0:0:0:
240,264,366399,1,0,0:0:0:0:
200,256,366474,1,0,0:0:0:0:
176,224,366549,1,2,0:0:0:0:
176,184,366624,1,0,0:0:0:0:
200,152,366699,1,0,0:0:0:0:
240,144,366774,1,0,0:0:0:0:
280,160,366849,5,2,0:0:0:0:
320,152,366924,1,0,0:0:0:0:
344,120,366999,1,0,0:0:0:0:
344,80,367074,1,0,0:0:0:0:
376,56,367149,2,0,B|400:40|432:48|432:48,3,40,2|0|0|0,0:0|0:0|0:0|0:0,0:0:0:0:
448,80,367449,5,6,0:0:0:0:
448,104,367524,1,0,0:0:0:0:
432,128,367599,1,2,0:0:0:0:
416,144,367674,1,0,0:0:0:0:
392,152,367749,1,2,0:0:0:0:
368,152,367824,1,0,0:0:0:0:
352,144,367899,1,0,0:0:0:0:
328,136,367974,1,0,0:0:0:0:
304,128,368049,5,6,0:0:0:0:
280,128,368124,1,0,0:0:0:0:
256,136,368199,1,2,0:0:0:0:
240,152,368274,1,0,0:0:0:0:
232,176,368349,1,2,0:0:0:0:
224,200,368424,1,0,0:0:0:0:
208,216,368499,1,0,0:0:0:0:
184,224,368574,1,0,0:0:0:0:
160,224,368649,5,6,0:0:0:0:
136,216,368724,1,0,0:0:0:0:
112,208,368799,1,0,0:0:0:0:
88,200,368874,1,2,0:0:0:0:
64,200,368949,1,0,0:0:0:0:
40,208,369024,1,2,0:0:0:0:
24,224,369099,1,0,0:0:0:0:
16,248,369174,1,0,0:0:0:0:
24,272,369249,6,0,B|32:288|64:304|64:304,3,30.0000011444092,6|0|2|0,0:0|0:0|0:0|0:0,0:0:0:0:
64,296,369549,2,0,B|80:296|112:288|112:288,3,30.0000011444092,6|0|2|0,0:0|0:0|0:0|0:0,0:0:0:0:
120,304,369849,5,6,0:0:0:0:
24,256,377049,5,6,0:0:0:0:
376,40,377499,1,6,0:0:0:0:
480,344,377949,1,6,0:0:0:0:
176,216,378249,1,6,0:0:0:0:
264,152,378399,1,6,0:0:0:0:
304,256,378549,2,0,B|288:280|288:304|288:304,3,40
304,336,378849,5,6,0:0:0:0:
280,368,378924,1,0,0:0:0:0:
240,376,378999,1,0,0:0:0:0:
200,360,379074,1,0,0:0:0:0:
184,320,379149,1,6,0:0:0:0:
200,280,379224,1,0,0:0:0:0:
200,240,379299,1,0,0:0:0:0:
176,208,379374,1,0,0:0:0:0:
136,192,379449,6,0,B|16:208|8:80|8:80,1,160,6|0,0:0|0:0,0:0:0:0:
72,24,379899,2,0,B|192:8|200:136|200:136,1,160,6|0,0:0|0:0,0:0:0:0:
256,160,380349,1,6,0:0:0:0:
336,152,380499,1,0,0:0:0:0:
400,280,380649,5,6,0:0:0:0:
344,336,380799,2,0,B|288:360|240:336|240:336,1,80,2|0,0:0|0:0,0:0:0:0:
160,368,381099,1,0,0:0:0:0:
104,312,381249,2,0,L|16:320,1,80,2|0,0:0|0:0,0:0:0:0:
152,208,381549,2,0,L|232:224,1,80,2|0,0:0|0:0,0:0:0:0:
312,304,381849,6,0,B|368:392|488:328|488:328,1,160,6|0,0:0|0:0,0:0:0:0:
480,240,382299,2,0,B|408:152|304:216|304:216,1,160,6|0,0:0|0:0,0:0:0:0:
256,208,382749,1,6,0:0:0:0:
216,280,382899,1,0,0:0:0:0:
64,264,383049,5,6,0:0:0:0:
48,184,383199,2,0,B|48:136|72:104|72:104,1,80,2|0,0:0|0:0,0:0:0:0:
192,112,383499,1,0,0:0:0:0:
264,80,383649,2,0,B|288:40|344:16|344:16,1,80,2|0,0:0|0:0,0:0:0:0:
376,144,383949,2,0,L|456:192,1,80,2|0,0:0|0:0,0:0:0:0:
448,296,384249,5,6,0:0:0:0:
424,328,384324,1,0,0:0:0:0:
384,344,384399,1,0,0:0:0:0:
344,336,384474,1,0,0:0:0:0:
312,312,384549,1,2,0:0:0:0:
272,304,384624,1,0,0:0:0:0:
232,320,384699,1,0,0:0:0:0:
208,352,384774,1,0,0:0:0:0:
168,368,384849,2,0,B|136:376|104:360|104:360,3,40,2|0|0|0,0:0|0:0|0:0|0:0,0:0:0:0:
96,344,385149,2,0,B|80:328|80:304|80:304,3,40,2|0|0|0,0:0|0:0|0:0|0:0,0:0:0:0:
88,264,385449,5,6,0:0:0:0:
112,232,385524,1,0,0:0:0:0:
152,216,385599,1,0,0:0:0:0:
184,184,385674,1,0,0:0:0:0:
184,144,385749,1,2,0:0:0:0:
160,112,385824,1,0,0:0:0:0:
120,112,385899,1,0,0:0:0:0:
88,136,385974,1,0,0:0:0:0:
48,136,386049,2,0,B|24:128|0:104|0:104,3,40,2|0|0|0,0:0|0:0|0:0|0:0,0:0:0:0:
8,80,386349,2,0,B|8:48|24:16|24:16,3,40,2|0|0|0,0:0|0:0|0:0|0:0,0:0:0:0:
48,24,386649,6,0,B|200:-40|248:112|248:112,1,240,6|0,0:0|0:0,0:0:0:0:
336,152,387249,2,0,B|360:168|392:168|392:168,3,40,2|0|2|0,0:0|0:0|0:0|0:0,0:0:0:0:
416,160,387549,2,0,B|440:144|456:112|456:112,3,40,2|0|2|0,0:0|0:0|0:0|0:0,0:0:0:0:
448,88,387849,5,6,0:0:0:0:
424,56,387924,1,0,0:0:0:0:
384,40,387999,1,2,0:0:0:0:
344,56,388074,1,0,0:0:0:0:
320,88,388149,1,0,0:0:0:0:
320,128,388224,1,0,0:0:0:0:
296,160,388299,1,0,0:0:0:0:
256,176,388374,1,0,0:0:0:0:
216,160,388449,5,2,0:0:0:0:
192,128,388524,1,0,0:0:0:0:
152,112,388599,1,0,0:0:0:0:
112,128,388674,1,0,0:0:0:0:
96,168,388749,1,2,0:0:0:0:
112,208,388824,1,0,0:0:0:0:
152,224,388899,1,0,0:0:0:0:
176,256,388974,1,0,0:0:0:0:
184,296,389049,6,0,B|181:294|152:184|264:136,1,160,6|0,0:0|0:0,0:0:0:0:
192,64,389499,2,0,B|232:160|336:128|336:128,1,160,6|0,0:0|0:0,0:0:0:0:
416,80,389949,1,6,0:0:0:0:
496,96,390099,1,0,0:0:0:0:
488,264,390249,5,6,0:0:0:0:
408,280,390399,2,0,B|368:272|320:256|320:256,1,80,2|0,0:0|0:0,0:0:0:0:
312,144,390699,1,0,0:0:0:0:
264,80,390849,2,0,B|224:56|168:56|168:56,1,80,2|0,0:0|0:0,0:0:0:0:
112,128,391149,2,0,L|16:152,1,80,2|0,0:0|0:0,0:0:0:0:
0,272,391449,6,0,B|104:224|152:320|152:320,1,160,6|0,0:0|0:0,0:0:0:0:
192,384,391899,2,0,B|144:280|240:232|240:232,1,160,6|0,0:0|0:0,0:0:0:0:
312,200,392349,1,6,0:0:0:0:
392,224,392499,1,0,0:0:0:0:
472,120,392649,5,6,0:0:0:0:
392,96,392799,1,2,0:0:0:0:
344,32,392949,1,4,0:0:0:0:
344,32,393024,1,0,0:0:0:0:
344,32,393099,1,0,0:0:0:0:
280,88,393249,2,0,B|240:64|184:80|184:80,1,80
128,144,393549,1,6,0:0:0:0:
128,144,393624,1,0,0:0:0:0:
128,144,393699,1,0,0:0:0:0:
24,128,393849,6,0,B|0:224|88:272|88:272,1,160,6|0,0:0|0:0,0:0:0:0:
104,360,394299,2,0,B|152:264|272:296|272:296,1,160,6|0,0:0|0:0,0:0:0:0:
272,216,394749,1,2,0:0:0:0:
352,224,394899,1,0,0:0:0:0:
416,128,395049,6,0,B|416:80|352:40|352:40,1,80,6|0,0:0|0:0,0:0:0:0:
280,64,395349,1,4,0:0:0:0:
280,64,395424,1,0,0:0:0:0:
280,64,395499,1,0,0:0:0:0:
208,16,395649,2,0,B|200:72|176:112|176:112,1,80,2|0,0:0|0:0,0:0:0:0:
88,112,395949,1,6,0:0:0:0:
88,112,396024,1,0,0:0:0:0:
88,112,396099,1,0,0:0:0:0:
152,216,396249,6,0,B|224:296|144:368|144:368,1,160,6|0,0:0|0:0,0:0:0:0:
80,288,396699,2,0,B|8:208|88:136|88:136,1,160,6|0,0:0|0:0,0:0:0:0:
168,104,397149,1,2,0:0:0:0:
232,152,397299,1,0,0:0:0:0:
320,88,397449,5,6,0:0:0:0:
352,64,397524,1,0,0:0:0:0:
392,64,397599,1,0,0:0:0:0:
424,88,397674,1,0,0:0:0:0:
440,128,397749,2,0,B|448:152|424:184|424:184,3,40,4|0|0|0,0:0|0:0|0:0|0:0,0:0:0:0:
400,192,398049,5,6,0:0:0:0:
384,232,398124,1,0,0:0:0:0:
400,272,398199,1,0,0:0:0:0:
408,312,398274,1,0,0:0:0:0:
392,344,398349,2,0,B|368:376|328:368|328:368,3,40,4|0|0|0,0:0|0:0|0:0|0:0,0:0:0:0:
304,352,398663,5,6,0:0:0:0:
16,160,399863,1,6,0:0:0:0:
376,32,401063,5,6,0:0:0:0:
416,24,401138,1,0,0:0:0:0:
456,40,401213,1,0,0:0:0:0:
472,80,401288,1,0,0:0:0:0:
456,120,401363,1,4,0:0:0:0:
440,160,401438,1,0,0:0:0:0:
448,200,401513,1,0,0:0:0:0:
472,232,401588,1,0,0:0:0:0:
472,272,401663,5,6,0:0:0:0:
440,304,401738,1,0,0:0:0:0:
400,304,401813,1,0,0:0:0:0:
368,280,401888,1,0,0:0:0:0:
328,272,401963,2,0,B|296:272|272:304|272:304,3,40,4|0|0|0,0:0|0:0|0:0|0:0,0:0:0:0:
264,312,402263,5,6,0:0:0:0:
160,208,402488,1,0,0:0:0:0:
296,96,402713,1,0,0:0:0:0:
184,56,402938,1,0,0:0:0:0:
