osu file format v14

[General]
AudioFilename: audio.mp3
AudioLeadIn: 0
PreviewTime: 108815
Countdown: 0
SampleSet: Normal
StackLeniency: 0.7
Mode: 3
LetterboxInBreaks: 0
SpecialStyle: 0
WidescreenStoryboard: 0

[Editor]
Bookmarks: 77315,94340,94940,317315
DistanceSpacing: 1
BeatDivisor: 4
GridSize: 4
TimelineZoom: 1.900001

[Metadata]
Title:Fury Of The Storm
TitleUnicode:Fury Of The Storm
Artist:DragonForce
ArtistUnicode:DragonForce
Creator:Emperor of Time
Version:Powerful
Source:
Tags:dragon force herman li inhuman rampage speed power metal stream deathstream marathon
BeatmapID:1221267
BeatmapSetID:576934

[Difficulty]
HPDrainRate:8.3
CircleSize:4
OverallDifficulty:8
ApproachRate:5
SliderMultiplier:1.4
SliderTickRate:1

[Events]
//Background and Video events
0,0,"112133.jpg",0,0
//Break Periods
//Storyboard Layer 0 (Background)
//Storyboard Layer 1 (Fail)
//Storyboard Layer 2 (Pass)
//Storyboard Layer 3 (Foreground)
//Storyboard Layer 4 (Overlay)
//Storyboard Sound Samples

[TimingPoints]
515,300,4,1,1,30,1,0
109715,-100,4,1,1,30,0,1
124115,-100,4,1,1,30,0,0
184115,-100,4,1,1,30,0,1
198515,-100,4,1,1,30,0,0
379715,-100,4,1,1,30,0,1
398915,-100,4,1,1,30,0,0

[HitObjects]
448,192,515,5,0,0:0:0:0:
64,192,515,1,0,0:0:0:0:
192,192,815,1,0,0:0:0:0:
320,192,965,1,0,0:0:0:0:
448,192,1115,1,0,0:0:0:0:
64,192,1265,1,0,0:0:0:0:
448,192,1415,1,0,0:0:0:0:
320,192,1415,1,0,0:0:0:0:
448,192,1565,1,0,0:0:0:0:
192,192,1565,1,0,0:0:0:0:
448,192,1715,1,0,0:0:0:0:
64,192,1715,1,0,0:0:0:0:
192,192,2015,1,0,0:0:0:0:
320,192,2165,1,0,0:0:0:0:
64,192,2315,1,0,0:0:0:0:
448,192,2465,1,0,0:0:0:0:
192,192,2615,1,0,0:0:0:0:
192,192,2915,1,0,0:0:0:0:
448,192,2915,1,0,0:0:0:0:
64,192,2915,128,0,3965:0:0:0:0:
192,192,3140,1,0,0:0:0:0:
320,192,3215,1,0,0:0:0:0:
448,192,3290,1,0,0:0:0:0:
192,192,3365,1,0,0:0:0:0:
320,192,3515,1,0,0:0:0:0:
448,192,3665,1,0,0:0:0:0:
192,192,3815,1,0,0:0:0:0:
320,192,3965,1,0,0:0:0:0:
192,192,4115,1,0,0:0:0:0:
64,192,4190,1,0,0:0:0:0:
448,192,4265,1,0,0:0:0:0:
320,192,4340,1,0,0:0:0:0:
192,192,4415,1,0,0:0:0:0:
64,192,4490,1,0,0:0:0:0:
192,192,4565,1,0,0:0:0:0:
320,192,4640,1,0,0:0:0:0:
448,192,4715,1,0,0:0:0:0:
320,192,4790,1,0,0:0:0:0:
64,192,4865,1,0,0:0:0:0:
192,192,4940,1,0,0:0:0:0:
448,192,5015,128,0,5315:0:0:0:0:
64,192,5315,1,0,0:0:0:0:
192,192,5315,1,0,0:0:0:0:
320,192,5615,1,0,0:0:0:0:
64,192,5765,1,0,0:0:0:0:
192,192,5915,1,0,0:0:0:0:
448,192,6065,1,0,0:0:0:0:
192,192,6215,1,0,0:0:0:0:
448,192,6515,1,0,0:0:0:0:
320,192,6515,1,0,0:0:0:0:
64,192,6515,128,0,7715:0:0:0:0:
448,192,6815,1,0,0:0:0:0:
320,192,6965,1,0,0:0:0:0:
448,192,7115,1,0,0:0:0:0:
192,192,7265,1,0,0:0:0:0:
320,192,7415,1,0,0:0:0:0:
192,192,7715,128,0,7865:0:0:0:0:
320,192,7715,128,0,7865:0:0:0:0:
448,192,7715,128,0,7865:0:0:0:0:
64,192,8015,128,0,8165:0:0:0:0:
320,192,8015,128,0,8165:0:0:0:0:
448,192,8015,128,0,8165:0:0:0:0:
64,192,8315,128,0,8465:0:0:0:0:
192,192,8315,128,0,8465:0:0:0:0:
320,192,8315,128,0,8465:0:0:0:0:
192,192,8615,128,0,8765:0:0:0:0:
320,192,8615,128,0,8765:0:0:0:0:
448,192,8615,128,0,8765:0:0:0:0:
64,192,8915,128,0,9065:0:0:0:0:
320,192,8915,128,0,9065:0:0:0:0:
448,192,8915,128,0,9065:0:0:0:0:
64,192,9215,128,0,9365:0:0:0:0:
192,192,9215,128,0,9365:0:0:0:0:
320,192,9215,128,0,9365:0:0:0:0:
192,192,9515,1,0,0:0:0:0:
448,192,9515,1,0,0:0:0:0:
64,192,9515,1,0,0:0:0:0:
320,192,9665,1,0,0:0:0:0:
64,192,9665,1,0,0:0:0:0:
192,192,9715,1,0,0:0:0:0:
320,192,9765,1,0,0:0:0:0:
64,192,9815,1,0,0:0:0:0:
448,192,9815,1,0,0:0:0:0:
64,192,10115,1,0,0:0:0:0:
448,192,10115,1,0,0:0:0:0:
192,192,10115,1,0,0:0:0:0:
320,192,10190,1,0,0:0:0:0:
192,192,10265,1,0,0:0:0:0:
64,192,10265,1,0,0:0:0:0:
448,192,10340,1,0,0:0:0:0:
320,192,10415,1,0,0:0:0:0:
192,192,10415,1,0,0:0:0:0:
64,192,10490,1,0,0:0:0:0:
320,192,10565,1,0,0:0:0:0:
448,192,10565,1,0,0:0:0:0:
192,192,10640,1,0,0:0:0:0:
64,192,10715,1,0,0:0:0:0:
448,192,10715,1,0,0:0:0:0:
320,192,10790,1,0,0:0:0:0:
192,192,10865,1,0,0:0:0:0:
64,192,10865,1,0,0:0:0:0:
448,192,10940,1,0,0:0:0:0:
320,192,11015,1,0,0:0:0:0:
192,192,11015,1,0,0:0:0:0:
64,192,11090,1,0,0:0:0:0:
448,192,11165,1,0,0:0:0:0:
320,192,11165,1,0,0:0:0:0:
192,192,11240,1,0,0:0:0:0:
64,192,11315,1,0,0:0:0:0:
448,192,11315,1,0,0:0:0:0:
320,192,11390,1,0,0:0:0:0:
192,192,11465,1,0,0:0:0:0:
64,192,11465,1,0,0:0:0:0:
448,192,11540,1,0,0:0:0:0:
320,192,11615,1,0,0:0:0:0:
192,192,11615,1,0,0:0:0:0:
64,192,11690,1,0,0:0:0:0:
320,192,11765,1,0,0:0:0:0:
448,192,11765,1,0,0:0:0:0:
192,192,11840,1,0,0:0:0:0:
64,192,11915,1,0,0:0:0:0:
448,192,11915,1,0,0:0:0:0:
320,192,11990,1,0,0:0:0:0:
192,192,12065,1,0,0:0:0:0:
64,192,12065,1,0,0:0:0:0:
320,192,12140,1,0,0:0:0:0:
448,192,12215,1,0,0:0:0:0:
64,192,12215,1,0,0:0:0:0:
192,192,12290,1,0,0:0:0:0:
320,192,12365,1,0,0:0:0:0:
448,192,12365,1,0,0:0:0:0:
64,192,12440,1,0,0:0:0:0:
192,192,12515,1,0,0:0:0:0:
320,192,12515,1,0,0:0:0:0:
448,192,12590,1,0,0:0:0:0:
64,192,12665,1,0,0:0:0:0:
192,192,12665,1,0,0:0:0:0:
448,192,12740,1,0,0:0:0:0:
320,192,12815,1,0,0:0:0:0:
64,192,12815,1,0,0:0:0:0:
192,192,12890,1,0,0:0:0:0:
320,192,12965,1,0,0:0:0:0:
448,192,12965,1,0,0:0:0:0:
64,192,13040,1,0,0:0:0:0:
192,192,13115,1,0,0:0:0:0:
320,192,13115,1,0,0:0:0:0:
448,192,13190,1,0,0:0:0:0:
64,192,13265,1,0,0:0:0:0:
192,192,13265,1,0,0:0:0:0:
448,192,13340,1,0,0:0:0:0:
320,192,13415,1,0,0:0:0:0:
64,192,13415,1,0,0:0:0:0:
192,192,13490,1,0,0:0:0:0:
448,192,13565,1,0,0:0:0:0:
320,192,13565,1,0,0:0:0:0:
192,192,13640,1,0,0:0:0:0:
64,192,13715,1,0,0:0:0:0:
448,192,13715,1,0,0:0:0:0:
320,192,13790,1,0,0:0:0:0:
192,192,13865,1,0,0:0:0:0:
64,192,13865,1,0,0:0:0:0:
448,192,13940,1,0,0:0:0:0:
320,192,14015,1,0,0:0:0:0:
192,192,14015,1,0,0:0:0:0:
64,192,14090,1,0,0:0:0:0:
448,192,14165,1,0,0:0:0:0:
320,192,14165,1,0,0:0:0:0:
192,192,14240,1,0,0:0:0:0:
64,192,14315,1,0,0:0:0:0:
448,192,14315,1,0,0:0:0:0:
320,192,14390,1,0,0:0:0:0:
192,192,14465,1,0,0:0:0:0:
64,192,14465,1,0,0:0:0:0:
320,192,14540,1,0,0:0:0:0:
448,192,14615,1,0,0:0:0:0:
192,192,14690,1,0,0:0:0:0:
320,192,14765,1,0,0:0:0:0:
64,192,14765,1,0,0:0:0:0:
192,192,14840,1,0,0:0:0:0:
320,192,14915,1,0,0:0:0:0:
448,192,14915,1,0,0:0:0:0:
192,192,14990,1,0,0:0:0:0:
64,192,15065,1,0,0:0:0:0:
320,192,15065,1,0,0:0:0:0:
448,192,15140,1,0,0:0:0:0:
64,192,15215,1,0,0:0:0:0:
192,192,15215,1,0,0:0:0:0:
320,192,15290,1,0,0:0:0:0:
448,192,15365,1,0,0:0:0:0:
64,192,15365,1,0,0:0:0:0:
192,192,15440,1,0,0:0:0:0:
320,192,15515,1,0,0:0:0:0:
448,192,15515,1,0,0:0:0:0:
64,192,15590,1,0,0:0:0:0:
192,192,15665,1,0,0:0:0:0:
320,192,15665,1,0,0:0:0:0:
448,192,15740,1,0,0:0:0:0:
64,192,15815,1,0,0:0:0:0:
192,192,15815,1,0,0:0:0:0:
320,192,15890,1,0,0:0:0:0:
448,192,15965,1,0,0:0:0:0:
64,192,15965,1,0,0:0:0:0:
192,192,16040,1,0,0:0:0:0:
320,192,16115,1,0,0:0:0:0:
448,192,16115,1,0,0:0:0:0:
64,192,16190,1,0,0:0:0:0:
192,192,16265,1,0,0:0:0:0:
320,192,16265,1,0,0:0:0:0:
448,192,16340,1,0,0:0:0:0:
64,192,16415,1,0,0:0:0:0:
192,192,16415,1,0,0:0:0:0:
320,192,16490,1,0,0:0:0:0:
448,192,16565,1,0,0:0:0:0:
64,192,16565,1,0,0:0:0:0:
192,192,16640,1,0,0:0:0:0:
320,192,16715,1,0,0:0:0:0:
448,192,16715,1,0,0:0:0:0:
64,192,16790,1,0,0:0:0:0:
192,192,16865,1,0,0:0:0:0:
320,192,16865,1,0,0:0:0:0:
448,192,16940,1,0,0:0:0:0:
64,192,17015,1,0,0:0:0:0:
320,192,17015,1,0,0:0:0:0:
192,192,17090,1,0,0:0:0:0:
448,192,17165,1,0,0:0:0:0:
64,192,17165,1,0,0:0:0:0:
320,192,17240,1,0,0:0:0:0:
192,192,17315,1,0,0:0:0:0:
64,192,17315,1,0,0:0:0:0:
320,192,17390,1,0,0:0:0:0:
448,192,17465,1,0,0:0:0:0:
192,192,17465,1,0,0:0:0:0:
64,192,17540,1,0,0:0:0:0:
320,192,17615,1,0,0:0:0:0:
448,192,17615,1,0,0:0:0:0:
192,192,17690,1,0,0:0:0:0:
64,192,17765,1,0,0:0:0:0:
448,192,17765,1,0,0:0:0:0:
320,192,17840,1,0,0:0:0:0:
192,192,17915,1,0,0:0:0:0:
64,192,17915,1,0,0:0:0:0:
448,192,17990,1,0,0:0:0:0:
320,192,18065,1,0,0:0:0:0:
192,192,18065,1,0,0:0:0:0:
64,192,18140,1,0,0:0:0:0:
320,192,18215,1,0,0:0:0:0:
448,192,18215,1,0,0:0:0:0:
192,192,18290,1,0,0:0:0:0:
64,192,18365,1,0,0:0:0:0:
320,192,18365,1,0,0:0:0:0:
448,192,18440,1,0,0:0:0:0:
64,192,18515,1,0,0:0:0:0:
192,192,18515,1,0,0:0:0:0:
320,192,18590,1,0,0:0:0:0:
448,192,18665,1,0,0:0:0:0:
64,192,18665,1,0,0:0:0:0:
192,192,18740,1,0,0:0:0:0:
320,192,18815,1,0,0:0:0:0:
448,192,18815,1,0,0:0:0:0:
192,192,18890,1,0,0:0:0:0:
64,192,18965,1,0,0:0:0:0:
320,192,18965,1,0,0:0:0:0:
448,192,19040,1,0,0:0:0:0:
64,192,19115,1,0,0:0:0:0:
192,192,19115,1,0,0:0:0:0:
320,192,19190,1,0,0:0:0:0:
448,192,19265,1,0,0:0:0:0:
64,192,19265,1,0,0:0:0:0:
192,192,19340,1,0,0:0:0:0:
320,192,19415,1,0,0:0:0:0:
448,192,19415,1,0,0:0:0:0:
64,192,19490,1,0,0:0:0:0:
320,192,19565,1,0,0:0:0:0:
192,192,19565,1,0,0:0:0:0:
64,192,19640,1,0,0:0:0:0:
320,192,19715,1,0,0:0:0:0:
448,192,19715,1,0,0:0:0:0:
192,192,19790,1,0,0:0:0:0:
448,192,19865,1,0,0:0:0:0:
64,192,19865,1,0,0:0:0:0:
320,192,19940,1,0,0:0:0:0:
192,192,20015,1,0,0:0:0:0:
448,192,20015,1,0,0:0:0:0:
64,192,20090,1,0,0:0:0:0:
320,192,20165,1,0,0:0:0:0:
192,192,20165,1,0,0:0:0:0:
448,192,20240,1,0,0:0:0:0:
64,192,20315,1,0,0:0:0:0:
192,192,20315,1,0,0:0:0:0:
320,192,20390,1,0,0:0:0:0:
448,192,20465,1,0,0:0:0:0:
64,192,20465,1,0,0:0:0:0:
192,192,20540,1,0,0:0:0:0:
320,192,20615,1,0,0:0:0:0:
448,192,20615,1,0,0:0:0:0:
64,192,20690,1,0,0:0:0:0:
192,192,20765,1,0,0:0:0:0:
320,192,20765,1,0,0:0:0:0:
448,192,20840,1,0,0:0:0:0:
64,192,20915,1,0,0:0:0:0:
192,192,20915,1,0,0:0:0:0:
320,192,20990,1,0,0:0:0:0:
448,192,21065,1,0,0:0:0:0:
64,192,21065,1,0,0:0:0:0:
192,192,21140,1,0,0:0:0:0:
320,192,21215,1,0,0:0:0:0:
448,192,21215,1,0,0:0:0:0:
64,192,21290,1,0,0:0:0:0:
192,192,21365,1,0,0:0:0:0:
320,192,21365,1,0,0:0:0:0:
448,192,21440,1,0,0:0:0:0:
64,192,21515,1,0,0:0:0:0:
192,192,21515,1,0,0:0:0:0:
320,192,21590,1,0,0:0:0:0:
448,192,21665,1,0,0:0:0:0:
64,192,21665,1,0,0:0:0:0:
192,192,21740,1,0,0:0:0:0:
320,192,21815,1,0,0:0:0:0:
448,192,21815,1,0,0:0:0:0:
192,192,21890,1,0,0:0:0:0:
64,192,21965,1,0,0:0:0:0:
448,192,21965,1,0,0:0:0:0:
320,192,22040,1,0,0:0:0:0:
192,192,22115,1,0,0:0:0:0:
64,192,22115,1,0,0:0:0:0:
448,192,22190,1,0,0:0:0:0:
320,192,22265,1,0,0:0:0:0:
192,192,22265,1,0,0:0:0:0:
64,192,22340,1,0,0:0:0:0:
448,192,22415,1,0,0:0:0:0:
320,192,22415,1,0,0:0:0:0:
192,192,22490,1,0,0:0:0:0:
64,192,22565,1,0,0:0:0:0:
448,192,22565,1,0,0:0:0:0:
320,192,22640,1,0,0:0:0:0:
192,192,22715,1,0,0:0:0:0:
64,192,22715,1,0,0:0:0:0:
448,192,22790,1,0,0:0:0:0:
320,192,22865,1,0,0:0:0:0:
192,192,22865,1,0,0:0:0:0:
64,192,22940,1,0,0:0:0:0:
448,192,23015,1,0,0:0:0:0:
320,192,23015,1,0,0:0:0:0:
192,192,23090,1,0,0:0:0:0:
64,192,23165,1,0,0:0:0:0:
448,192,23165,1,0,0:0:0:0:
320,192,23240,1,0,0:0:0:0:
192,192,23315,1,0,0:0:0:0:
64,192,23315,1,0,0:0:0:0:
320,192,23390,1,0,0:0:0:0:
448,192,23465,1,0,0:0:0:0:
64,192,23465,1,0,0:0:0:0:
192,192,23540,1,0,0:0:0:0:
320,192,23615,1,0,0:0:0:0:
448,192,23615,1,0,0:0:0:0:
192,192,23690,1,0,0:0:0:0:
64,192,23765,1,0,0:0:0:0:
448,192,23765,1,0,0:0:0:0:
320,192,23840,1,0,0:0:0:0:
192,192,23915,1,0,0:0:0:0:
64,192,23915,1,0,0:0:0:0:
320,192,23990,1,0,0:0:0:0:
64,192,24065,1,0,0:0:0:0:
448,192,24065,1,0,0:0:0:0:
192,192,24140,1,0,0:0:0:0:
320,192,24215,1,0,0:0:0:0:
448,192,24215,1,0,0:0:0:0:
192,192,24290,1,0,0:0:0:0:
64,192,24365,1,0,0:0:0:0:
448,192,24365,1,0,0:0:0:0:
320,192,24440,1,0,0:0:0:0:
192,192,24515,1,0,0:0:0:0:
64,192,24515,1,0,0:0:0:0:
448,192,24590,1,0,0:0:0:0:
320,192,24665,1,0,0:0:0:0:
192,192,24665,1,0,0:0:0:0:
64,192,24740,1,0,0:0:0:0:
448,192,24815,1,0,0:0:0:0:
320,192,24815,1,0,0:0:0:0:
192,192,24890,1,0,0:0:0:0:
448,192,24965,1,0,0:0:0:0:
64,192,24965,1,0,0:0:0:0:
192,192,25040,1,0,0:0:0:0:
64,192,25115,1,0,0:0:0:0:
320,192,25115,1,0,0:0:0:0:
448,192,25190,1,0,0:0:0:0:
64,192,25265,1,0,0:0:0:0:
192,192,25265,1,0,0:0:0:0:
320,192,25340,1,0,0:0:0:0:
448,192,25415,1,0,0:0:0:0:
64,192,25415,1,0,0:0:0:0:
192,192,25490,1,0,0:0:0:0:
320,192,25565,1,0,0:0:0:0:
448,192,25565,1,0,0:0:0:0:
64,192,25640,1,0,0:0:0:0:
192,192,25715,1,0,0:0:0:0:
448,192,25715,1,0,0:0:0:0:
320,192,25790,1,0,0:0:0:0:
192,192,25865,1,0,0:0:0:0:
64,192,25865,1,0,0:0:0:0:
320,192,25940,1,0,0:0:0:0:
448,192,26015,1,0,0:0:0:0:
64,192,26015,1,0,0:0:0:0:
192,192,26090,1,0,0:0:0:0:
320,192,26165,1,0,0:0:0:0:
448,192,26165,1,0,0:0:0:0:
64,192,26240,1,0,0:0:0:0:
192,192,26315,1,0,0:0:0:0:
320,192,26315,1,0,0:0:0:0:
448,192,26390,1,0,0:0:0:0:
64,192,26465,1,0,0:0:0:0:
192,192,26465,1,0,0:0:0:0:
320,192,26540,1,0,0:0:0:0:
448,192,26615,1,0,0:0:0:0:
64,192,26615,1,0,0:0:0:0:
192,192,26690,1,0,0:0:0:0:
448,192,26765,1,0,0:0:0:0:
320,192,26765,1,0,0:0:0:0:
192,192,26840,1,0,0:0:0:0:
448,192,26915,1,0,0:0:0:0:
320,192,26915,1,0,0:0:0:0:
64,192,26965,1,0,0:0:0:0:
192,192,26965,1,0,0:0:0:0:
320,192,27015,1,0,0:0:0:0:
448,192,27015,1,0,0:0:0:0:
64,192,27065,1,0,0:0:0:0:
192,192,27065,1,0,0:0:0:0:
192,192,27215,1,0,0:0:0:0:
320,192,27265,1,0,0:0:0:0:
448,192,27315,1,0,0:0:0:0:
64,192,27365,1,0,0:0:0:0:
192,192,27365,1,0,0:0:0:0:
320,192,27440,1,0,0:0:0:0:
448,192,27440,1,0,0:0:0:0:
192,192,27515,1,0,0:0:0:0:
64,192,27515,1,0,0:0:0:0:
448,192,27615,1,0,0:0:0:0:
320,192,27665,1,0,0:0:0:0:
192,192,27715,1,0,0:0:0:0:
64,192,27765,1,0,0:0:0:0:
320,192,27815,1,0,0:0:0:0:
448,192,27815,1,0,0:0:0:0:
64,192,27965,1,0,0:0:0:0:
448,192,27965,1,0,0:0:0:0:
192,192,28040,1,0,0:0:0:0:
448,192,28115,128,0,30365:0:0:0:0:
320,192,28115,128,0,30365:0:0:0:0:
192,192,28715,128,0,30365:0:0:0:0:
64,192,29315,128,0,30365:0:0:0:0:
192,192,30515,128,0,30815:0:0:0:0:
64,192,30515,1,0,0:0:0:0:
448,192,30515,1,0,0:0:0:0:
320,192,30590,1,0,0:0:0:0:
448,192,30665,1,0,0:0:0:0:
320,192,30815,128,0,31115:0:0:0:0:
64,192,30815,1,0,0:0:0:0:
192,192,30890,1,0,0:0:0:0:
448,192,30965,1,0,0:0:0:0:
64,192,31115,128,0,31415:0:0:0:0:
192,192,31115,1,0,0:0:0:0:
320,192,31190,1,0,0:0:0:0:
448,192,31265,1,0,0:0:0:0:
448,192,31415,128,0,31715:0:0:0:0:
320,192,31415,1,0,0:0:0:0:
192,192,31490,1,0,0:0:0:0:
64,192,31565,1,0,0:0:0:0:
320,192,31715,128,0,32015:0:0:0:0:
64,192,31715,1,0,0:0:0:0:
192,192,31790,1,0,0:0:0:0:
448,192,31865,1,0,0:0:0:0:
64,192,32015,128,0,32315:0:0:0:0:
448,192,32015,1,0,0:0:0:0:
320,192,32090,1,0,0:0:0:0:
192,192,32165,1,0,0:0:0:0:
448,192,32315,128,0,32615:0:0:0:0:
320,192,32315,1,0,0:0:0:0:
192,192,32390,1,0,0:0:0:0:
64,192,32465,1,0,0:0:0:0:
192,192,32615,128,0,32915:0:0:0:0:
64,192,32615,1,0,0:0:0:0:
320,192,32690,1,0,0:0:0:0:
448,192,32765,1,0,0:0:0:0:
320,192,32915,128,0,33215:0:0:0:0:
64,192,32915,1,0,0:0:0:0:
192,192,32990,1,0,0:0:0:0:
448,192,33065,1,0,0:0:0:0:
64,192,33215,128,0,33515:0:0:0:0:
192,192,33215,1,0,0:0:0:0:
320,192,33290,1,0,0:0:0:0:
448,192,33365,1,0,0:0:0:0:
448,192,33515,128,0,33815:0:0:0:0:
320,192,33515,1,0,0:0:0:0:
192,192,33590,1,0,0:0:0:0:
64,192,33665,1,0,0:0:0:0:
320,192,33815,128,0,34115:0:0:0:0:
192,192,33815,1,0,0:0:0:0:
64,192,33890,1,0,0:0:0:0:
448,192,33965,1,0,0:0:0:0:
192,192,34115,128,0,34415:0:0:0:0:
64,192,34115,1,0,0:0:0:0:
448,192,34190,1,0,0:0:0:0:
320,192,34265,1,0,0:0:0:0:
320,192,34415,128,0,34715:0:0:0:0:
64,192,34415,1,0,0:0:0:0:
192,192,34490,1,0,0:0:0:0:
448,192,34565,1,0,0:0:0:0:
64,192,34715,128,0,35015:0:0:0:0:
192,192,34715,1,0,0:0:0:0:
320,192,34790,1,0,0:0:0:0:
448,192,34865,1,0,0:0:0:0:
192,192,35015,128,0,35315:0:0:0:0:
448,192,35015,1,0,0:0:0:0:
320,192,35090,1,0,0:0:0:0:
64,192,35165,1,0,0:0:0:0:
64,192,35315,128,0,35615:0:0:0:0:
320,192,35315,1,0,0:0:0:0:
448,192,35315,1,0,0:0:0:0:
192,192,35465,1,0,0:0:0:0:
448,192,35615,128,0,35915:0:0:0:0:
320,192,35615,1,0,0:0:0:0:
192,192,35690,1,0,0:0:0:0:
64,192,35765,1,0,0:0:0:0:
320,192,35915,128,0,36215:0:0:0:0:
64,192,35915,1,0,0:0:0:0:
192,192,35990,1,0,0:0:0:0:
448,192,36065,1,0,0:0:0:0:
448,192,36215,128,0,36515:0:0:0:0:
64,192,36215,1,0,0:0:0:0:
192,192,36290,1,0,0:0:0:0:
320,192,36365,1,0,0:0:0:0:
192,192,36515,128,0,36815:0:0:0:0:
64,192,36515,1,0,0:0:0:0:
320,192,36590,1,0,0:0:0:0:
448,192,36665,1,0,0:0:0:0:
64,192,36815,128,0,37115:0:0:0:0:
448,192,36815,1,0,0:0:0:0:
320,192,36890,1,0,0:0:0:0:
192,192,36965,1,0,0:0:0:0:
320,192,37115,128,0,37415:0:0:0:0:
448,192,37115,1,0,0:0:0:0:
192,192,37190,1,0,0:0:0:0:
64,192,37265,1,0,0:0:0:0:
64,192,37415,128,0,37715:0:0:0:0:
192,192,37415,1,0,0:0:0:0:
320,192,37490,1,0,0:0:0:0:
448,192,37565,1,0,0:0:0:0:
448,192,37715,128,0,38015:0:0:0:0:
320,192,37715,1,0,0:0:0:0:
192,192,37790,1,0,0:0:0:0:
64,192,37865,1,0,0:0:0:0:
64,192,38015,128,0,38315:0:0:0:0:
192,192,38015,1,0,0:0:0:0:
320,192,38090,1,0,0:0:0:0:
448,192,38165,1,0,0:0:0:0:
320,192,38315,128,0,38615:0:0:0:0:
192,192,38315,1,0,0:0:0:0:
448,192,38390,1,0,0:0:0:0:
64,192,38465,1,0,0:0:0:0:
64,192,38615,128,0,38915:0:0:0:0:
192,192,38615,1,0,0:0:0:0:
320,192,38690,1,0,0:0:0:0:
448,192,38765,1,0,0:0:0:0:
320,192,38915,1,0,0:0:0:0:
448,192,38915,1,0,0:0:0:0:
64,192,38990,1,0,0:0:0:0:
192,192,38990,1,0,0:0:0:0:
320,192,39065,1,0,0:0:0:0:
448,192,39065,1,0,0:0:0:0:
64,192,39140,1,0,0:0:0:0:
192,192,39140,1,0,0:0:0:0:
320,192,39215,1,0,0:0:0:0:
448,192,39215,1,0,0:0:0:0:
64,192,39290,1,0,0:0:0:0:
192,192,39290,1,0,0:0:0:0:
320,192,39365,1,0,0:0:0:0:
448,192,39365,1,0,0:0:0:0:
64,192,39440,1,0,0:0:0:0:
192,192,39440,1,0,0:0:0:0:
320,192,39515,1,0,0:0:0:0:
448,192,39515,1,0,0:0:0:0:
192,192,39590,1,0,0:0:0:0:
64,192,39665,1,0,0:0:0:0:
448,192,39740,1,0,0:0:0:0:
320,192,39815,1,0,0:0:0:0:
192,192,39815,1,0,0:0:0:0:
64,192,39890,1,0,0:0:0:0:
448,192,39965,1,0,0:0:0:0:
320,192,40040,1,0,0:0:0:0:
192,192,40115,128,0,40415:0:0:0:0:
64,192,40115,1,0,0:0:0:0:
448,192,40115,1,0,0:0:0:0:
320,192,40190,1,0,0:0:0:0:
448,192,40265,1,0,0:0:0:0:
320,192,40415,128,0,40715:0:0:0:0:
64,192,40415,1,0,0:0:0:0:
192,192,40490,1,0,0:0:0:0:
448,192,40565,1,0,0:0:0:0:
64,192,40715,128,0,41015:0:0:0:0:
192,192,40715,1,0,0:0:0:0:
320,192,40790,1,0,0:0:0:0:
448,192,40865,1,0,0:0:0:0:
448,192,41015,128,0,41315:0:0:0:0:
320,192,41015,1,0,0:0:0:0:
192,192,41090,1,0,0:0:0:0:
64,192,41165,1,0,0:0:0:0:
320,192,41315,128,0,41615:0:0:0:0:
192,192,41315,1,0,0:0:0:0:
64,192,41390,1,0,0:0:0:0:
448,192,41465,1,0,0:0:0:0:
64,192,41615,128,0,41915:0:0:0:0:
448,192,41615,1,0,0:0:0:0:
320,192,41690,1,0,0:0:0:0:
192,192,41765,1,0,0:0:0:0:
448,192,41915,128,0,42215:0:0:0:0:
320,192,41915,1,0,0:0:0:0:
192,192,41990,1,0,0:0:0:0:
64,192,42065,1,0,0:0:0:0:
192,192,42215,128,0,42515:0:0:0:0:
320,192,42215,1,0,0:0:0:0:
64,192,42290,1,0,0:0:0:0:
448,192,42365,1,0,0:0:0:0:
64,192,42515,128,0,42815:0:0:0:0:
320,192,42515,1,0,0:0:0:0:
448,192,42590,1,0,0:0:0:0:
192,192,42665,1,0,0:0:0:0:
320,192,42815,128,0,43115:0:0:0:0:
448,192,42815,1,0,0:0:0:0:
192,192,42890,1,0,0:0:0:0:
64,192,42965,1,0,0:0:0:0:
448,192,43115,128,0,43415:0:0:0:0:
64,192,43115,1,0,0:0:0:0:
192,192,43190,1,0,0:0:0:0:
320,192,43265,1,0,0:0:0:0:
320,192,43415,128,0,43715:0:0:0:0:
64,192,43415,1,0,0:0:0:0:
192,192,43490,1,0,0:0:0:0:
448,192,43565,1,0,0:0:0:0:
64,192,43715,1,0,0:0:0:0:
448,192,43715,1,0,0:0:0:0:
192,192,43865,1,0,0:0:0:0:
64,192,43865,1,0,0:0:0:0:
448,192,43865,1,0,0:0:0:0:
320,192,43940,1,0,0:0:0:0:
192,192,44015,1,0,0:0:0:0:
64,192,44165,1,0,0:0:0:0:
320,192,44165,1,0,0:0:0:0:
448,192,44165,1,0,0:0:0:0:
64,192,44315,1,0,0:0:0:0:
192,192,44315,1,0,0:0:0:0:
448,192,44315,1,0,0:0:0:0:
320,192,44390,1,0,0:0:0:0:
192,192,44465,1,0,0:0:0:0:
64,192,44615,1,0,0:0:0:0:
320,192,44615,1,0,0:0:0:0:
448,192,44615,1,0,0:0:0:0:
192,192,44765,128,0,44915:0:0:0:0:
448,192,44915,1,0,0:0:0:0:
64,192,44915,128,0,45215:0:0:0:0:
320,192,44990,1,0,0:0:0:0:
192,192,45065,1,0,0:0:0:0:
448,192,45215,128,0,45515:0:0:0:0:
320,192,45215,1,0,0:0:0:0:
192,192,45290,1,0,0:0:0:0:
64,192,45365,1,0,0:0:0:0:
320,192,45515,128,0,45815:0:0:0:0:
64,192,45515,1,0,0:0:0:0:
192,192,45590,1,0,0:0:0:0:
448,192,45665,1,0,0:0:0:0:
448,192,45815,128,0,46115:0:0:0:0:
64,192,45815,1,0,0:0:0:0:
192,192,45890,1,0,0:0:0:0:
320,192,45965,1,0,0:0:0:0:
192,192,46115,128,0,46415:0:0:0:0:
64,192,46115,1,0,0:0:0:0:
320,192,46190,1,0,0:0:0:0:
448,192,46265,1,0,0:0:0:0:
64,192,46415,128,0,46715:0:0:0:0:
448,192,46415,1,0,0:0:0:0:
320,192,46490,1,0,0:0:0:0:
192,192,46565,1,0,0:0:0:0:
320,192,46715,128,0,47015:0:0:0:0:
448,192,46715,1,0,0:0:0:0:
192,192,46790,1,0,0:0:0:0:
64,192,46865,1,0,0:0:0:0:
64,192,47015,128,0,47315:0:0:0:0:
448,192,47015,1,0,0:0:0:0:
320,192,47090,1,0,0:0:0:0:
192,192,47165,1,0,0:0:0:0:
320,192,47315,1,0,0:0:0:0:
448,192,47315,1,0,0:0:0:0:
192,192,47390,1,0,0:0:0:0:
64,192,47390,1,0,0:0:0:0:
320,192,47465,1,0,0:0:0:0:
448,192,47465,1,0,0:0:0:0:
192,192,47540,1,0,0:0:0:0:
64,192,47540,1,0,0:0:0:0:
320,192,47615,1,0,0:0:0:0:
448,192,47615,1,0,0:0:0:0:
64,192,47690,1,0,0:0:0:0:
192,192,47765,1,0,0:0:0:0:
320,192,47840,1,0,0:0:0:0:
64,192,47915,1,0,0:0:0:0:
448,192,47915,1,0,0:0:0:0:
192,192,47990,1,0,0:0:0:0:
320,192,48065,1,0,0:0:0:0:
448,192,48140,1,0,0:0:0:0:
64,192,48215,1,0,0:0:0:0:
192,192,48215,1,0,0:0:0:0:
320,192,48290,1,0,0:0:0:0:
192,192,48365,1,0,0:0:0:0:
320,192,48440,1,0,0:0:0:0:
64,192,48515,1,0,0:0:0:0:
192,192,48515,1,0,0:0:0:0:
448,192,48515,128,0,48665:0:0:0:0:
320,192,48590,128,0,48740:0:0:0:0:
192,192,48665,128,0,48815:0:0:0:0:
64,192,48740,128,0,48815:0:0:0:0:
448,192,48815,128,0,48965:0:0:0:0:
320,192,48890,128,0,49040:0:0:0:0:
64,192,48965,128,0,49115:0:0:0:0:
192,192,49040,128,0,49115:0:0:0:0:
448,192,49115,128,0,49265:0:0:0:0:
64,192,49190,128,0,49340:0:0:0:0:
320,192,49265,128,0,49415:0:0:0:0:
448,192,49340,128,0,49415:0:0:0:0:
64,192,49415,128,0,49565:0:0:0:0:
192,192,49490,128,0,49640:0:0:0:0:
320,192,49565,128,0,49715:0:0:0:0:
448,192,49640,128,0,49715:0:0:0:0:
64,192,49715,1,0,0:0:0:0:
192,192,49715,1,0,0:0:0:0:
320,192,49790,1,0,0:0:0:0:
192,192,49865,1,0,0:0:0:0:
64,192,49940,1,0,0:0:0:0:
448,192,50015,1,0,0:0:0:0:
320,192,50090,1,0,0:0:0:0:
192,192,50165,1,0,0:0:0:0:
64,192,50240,1,0,0:0:0:0:
320,192,50315,1,0,0:0:0:0:
192,192,50390,1,0,0:0:0:0:
64,192,50465,1,0,0:0:0:0:
448,192,50540,1,0,0:0:0:0:
320,192,50615,1,0,0:0:0:0:
192,192,50690,1,0,0:0:0:0:
64,192,50765,1,0,0:0:0:0:
192,192,50840,1,0,0:0:0:0:
448,192,50915,5,0,0:0:0:0:
320,192,50915,128,0,51140:0:0:0:0:
64,192,50915,1,0,0:0:0:0:
64,192,51215,1,0,0:0:0:0:
448,192,51215,1,0,0:0:0:0:
192,192,51215,128,0,51440:0:0:0:0:
448,192,52115,1,0,0:0:0:0:
64,192,52115,1,0,0:0:0:0:
192,192,52115,1,0,0:0:0:0:
448,192,52265,1,0,0:0:0:0:
320,192,52265,1,0,0:0:0:0:
320,192,52415,1,0,0:0:0:0:
64,192,52415,1,0,0:0:0:0:
192,192,52490,1,0,0:0:0:0:
64,192,52565,1,0,0:0:0:0:
448,192,52565,1,0,0:0:0:0:
192,192,52715,1,0,0:0:0:0:
320,192,52715,1,0,0:0:0:0:
64,192,52865,1,0,0:0:0:0:
448,192,52865,1,0,0:0:0:0:
320,192,53015,1,0,0:0:0:0:
64,192,53015,1,0,0:0:0:0:
192,192,53090,1,0,0:0:0:0:
448,192,53165,1,0,0:0:0:0:
320,192,53165,1,0,0:0:0:0:
192,192,53315,1,0,0:0:0:0:
64,192,53315,1,0,0:0:0:0:
192,192,53465,1,0,0:0:0:0:
448,192,53465,1,0,0:0:0:0:
320,192,53615,1,0,0:0:0:0:
448,192,53615,1,0,0:0:0:0:
192,192,53690,1,0,0:0:0:0:
448,192,53765,1,0,0:0:0:0:
64,192,53765,1,0,0:0:0:0:
320,192,53915,1,0,0:0:0:0:
192,192,53915,1,0,0:0:0:0:
192,192,54065,1,0,0:0:0:0:
64,192,54065,1,0,0:0:0:0:
448,192,54215,1,0,0:0:0:0:
320,192,54215,1,0,0:0:0:0:
192,192,54290,1,0,0:0:0:0:
448,192,54365,1,0,0:0:0:0:
64,192,54365,1,0,0:0:0:0:
192,192,54515,1,0,0:0:0:0:
64,192,54515,1,0,0:0:0:0:
192,192,54665,1,0,0:0:0:0:
448,192,54665,1,0,0:0:0:0:
320,192,54815,1,0,0:0:0:0:
64,192,54815,1,0,0:0:0:0:
192,192,54890,1,0,0:0:0:0:
448,192,54965,1,0,0:0:0:0:
320,192,54965,1,0,0:0:0:0:
192,192,55115,1,0,0:0:0:0:
64,192,55115,1,0,0:0:0:0:
64,192,55265,1,0,0:0:0:0:
448,192,55265,1,0,0:0:0:0:
448,192,55415,1,0,0:0:0:0:
320,192,55415,1,0,0:0:0:0:
192,192,55490,1,0,0:0:0:0:
64,192,55565,1,0,0:0:0:0:
448,192,55565,1,0,0:0:0:0:
192,192,55715,1,0,0:0:0:0:
64,192,55715,1,0,0:0:0:0:
448,192,55865,1,0,0:0:0:0:
320,192,55865,1,0,0:0:0:0:
192,192,56015,1,0,0:0:0:0:
64,192,56015,1,0,0:0:0:0:
320,192,56090,1,0,0:0:0:0:
448,192,56165,1,0,0:0:0:0:
64,192,56165,1,0,0:0:0:0:
320,192,56315,1,0,0:0:0:0:
448,192,56315,1,0,0:0:0:0:
192,192,56465,1,0,0:0:0:0:
64,192,56465,1,0,0:0:0:0:
320,192,56615,1,0,0:0:0:0:
448,192,56615,1,0,0:0:0:0:
192,192,56665,1,0,0:0:0:0:
64,192,56665,1,0,0:0:0:0:
320,192,56715,1,0,0:0:0:0:
448,192,56715,1,0,0:0:0:0:
192,192,56765,128,0,56915:0:0:0:0:
64,192,56765,128,0,56915:0:0:0:0:
448,192,56915,1,0,0:0:0:0:
320,192,56915,1,0,0:0:0:0:
320,192,57065,1,0,0:0:0:0:
192,192,57065,1,0,0:0:0:0:
448,192,57215,1,0,0:0:0:0:
64,192,57215,1,0,0:0:0:0:
320,192,57290,1,0,0:0:0:0:
64,192,57365,1,0,0:0:0:0:
192,192,57365,1,0,0:0:0:0:
320,192,57515,1,0,0:0:0:0:
448,192,57515,1,0,0:0:0:0:
320,192,57665,1,0,0:0:0:0:
64,192,57665,1,0,0:0:0:0:
192,192,57815,1,0,0:0:0:0:
64,192,57815,1,0,0:0:0:0:
320,192,57890,1,0,0:0:0:0:
64,192,57965,1,0,0:0:0:0:
448,192,57965,1,0,0:0:0:0:
320,192,58115,1,0,0:0:0:0:
192,192,58115,1,0,0:0:0:0:
448,192,58265,1,0,0:0:0:0:
192,192,58265,1,0,0:0:0:0:
64,192,58415,1,0,0:0:0:0:
320,192,58415,1,0,0:0:0:0:
192,192,58490,1,0,0:0:0:0:
448,192,58565,1,0,0:0:0:0:
320,192,58565,1,0,0:0:0:0:
192,192,58715,1,0,0:0:0:0:
64,192,58715,1,0,0:0:0:0:
64,192,58865,1,0,0:0:0:0:
448,192,58865,1,0,0:0:0:0:
448,192,59015,1,0,0:0:0:0:
192,192,59015,1,0,0:0:0:0:
320,192,59090,1,0,0:0:0:0:
64,192,59165,1,0,0:0:0:0:
192,192,59165,1,0,0:0:0:0:
448,192,59315,1,0,0:0:0:0:
64,192,59315,1,0,0:0:0:0:
448,192,59465,5,0,0:0:0:0:
320,192,59465,1,0,0:0:0:0:
192,192,59615,1,0,0:0:0:0:
64,192,59615,1,0,0:0:0:0:
320,192,59690,1,0,0:0:0:0:
64,192,59765,1,0,0:0:0:0:
448,192,59765,1,0,0:0:0:0:
320,192,59915,1,0,0:0:0:0:
192,192,59915,1,0,0:0:0:0:
192,192,60065,1,0,0:0:0:0:
64,192,60065,1,0,0:0:0:0:
448,192,60215,1,0,0:0:0:0:
320,192,60215,1,0,0:0:0:0:
192,192,60290,1,0,0:0:0:0:
448,192,60365,1,0,0:0:0:0:
64,192,60365,1,0,0:0:0:0:
320,192,60515,5,0,0:0:0:0:
448,192,60515,1,0,0:0:0:0:
64,192,60590,1,0,0:0:0:0:
192,192,60590,1,0,0:0:0:0:
320,192,60665,1,0,0:0:0:0:
448,192,60665,1,0,0:0:0:0:
64,192,60740,1,0,0:0:0:0:
192,192,60740,1,0,0:0:0:0:
320,192,60815,1,0,0:0:0:0:
448,192,60815,1,0,0:0:0:0:
64,192,60890,1,0,0:0:0:0:
192,192,60965,1,0,0:0:0:0:
320,192,60965,1,0,0:0:0:0:
448,192,61040,1,0,0:0:0:0:
192,192,61115,1,0,0:0:0:0:
64,192,61115,1,0,0:0:0:0:
320,192,61190,1,0,0:0:0:0:
448,192,61265,1,0,0:0:0:0:
64,192,61265,1,0,0:0:0:0:
192,192,61340,1,0,0:0:0:0:
320,192,61415,1,0,0:0:0:0:
448,192,61415,1,0,0:0:0:0:
192,192,61490,1,0,0:0:0:0:
64,192,61565,1,0,0:0:0:0:
448,192,61565,1,0,0:0:0:0:
320,192,61640,1,0,0:0:0:0:
192,192,61715,128,0,62015:0:0:0:0:
64,192,61715,1,0,0:0:0:0:
320,192,61790,1,0,0:0:0:0:
448,192,61865,1,0,0:0:0:0:
320,192,62015,128,0,62315:0:0:0:0:
64,192,62015,1,0,0:0:0:0:
192,192,62090,1,0,0:0:0:0:
448,192,62165,1,0,0:0:0:0:
64,192,62315,128,0,62615:0:0:0:0:
192,192,62315,1,0,0:0:0:0:
320,192,62390,1,0,0:0:0:0:
448,192,62465,1,0,0:0:0:0:
448,192,62615,128,0,62915:0:0:0:0:
320,192,62615,1,0,0:0:0:0:
192,192,62690,1,0,0:0:0:0:
64,192,62765,1,0,0:0:0:0:
320,192,62915,128,0,63215:0:0:0:0:
192,192,62915,1,0,0:0:0:0:
64,192,62990,1,0,0:0:0:0:
448,192,63065,1,0,0:0:0:0:
64,192,63215,128,0,63515:0:0:0:0:
192,192,63215,1,0,0:0:0:0:
320,192,63290,1,0,0:0:0:0:
448,192,63365,1,0,0:0:0:0:
448,192,63515,128,0,63815:0:0:0:0:
320,192,63515,1,0,0:0:0:0:
192,192,63590,1,0,0:0:0:0:
64,192,63665,1,0,0:0:0:0:
192,192,63815,128,0,64115:0:0:0:0:
320,192,63815,1,0,0:0:0:0:
448,192,63890,1,0,0:0:0:0:
64,192,63965,1,0,0:0:0:0:
320,192,64115,128,0,64415:0:0:0:0:
448,192,64115,1,0,0:0:0:0:
192,192,64190,1,0,0:0:0:0:
64,192,64265,1,0,0:0:0:0:
64,192,64415,128,0,64715:0:0:0:0:
448,192,64415,1,0,0:0:0:0:
320,192,64490,1,0,0:0:0:0:
192,192,64565,1,0,0:0:0:0:
448,192,64715,128,0,65015:0:0:0:0:
320,192,64715,1,0,0:0:0:0:
192,192,64790,1,0,0:0:0:0:
64,192,64865,1,0,0:0:0:0:
320,192,65015,128,0,65315:0:0:0:0:
64,192,65015,1,0,0:0:0:0:
192,192,65090,1,0,0:0:0:0:
448,192,65165,1,0,0:0:0:0:
192,192,65315,128,0,65615:0:0:0:0:
64,192,65315,1,0,0:0:0:0:
320,192,65390,1,0,0:0:0:0:
448,192,65465,1,0,0:0:0:0:
320,192,65615,128,0,65915:0:0:0:0:
64,192,65615,1,0,0:0:0:0:
192,192,65690,1,0,0:0:0:0:
448,192,65765,1,0,0:0:0:0:
64,192,65915,1,0,0:0:0:0:
192,192,65915,1,0,0:0:0:0:
448,192,65990,1,0,0:0:0:0:
320,192,65990,1,0,0:0:0:0:
192,192,66065,1,0,0:0:0:0:
64,192,66065,1,0,0:0:0:0:
320,192,66140,1,0,0:0:0:0:
448,192,66140,1,0,0:0:0:0:
192,192,66215,1,0,0:0:0:0:
64,192,66290,1,0,0:0:0:0:
448,192,66365,1,0,0:0:0:0:
320,192,66440,1,0,0:0:0:0:
64,192,66515,128,0,66815:0:0:0:0:
448,192,66515,1,0,0:0:0:0:
192,192,66515,1,0,0:0:0:0:
192,192,66665,1,0,0:0:0:0:
448,192,66815,128,0,67115:0:0:0:0:
320,192,66815,1,0,0:0:0:0:
192,192,66890,1,0,0:0:0:0:
64,192,66965,1,0,0:0:0:0:
320,192,67115,128,0,67415:0:0:0:0:
64,192,67115,1,0,0:0:0:0:
192,192,67190,1,0,0:0:0:0:
448,192,67265,1,0,0:0:0:0:
448,192,67415,128,0,67715:0:0:0:0:
64,192,67415,1,0,0:0:0:0:
192,192,67490,1,0,0:0:0:0:
320,192,67565,1,0,0:0:0:0:
192,192,67715,128,0,68015:0:0:0:0:
64,192,67715,1,0,0:0:0:0:
320,192,67790,1,0,0:0:0:0:
448,192,67865,1,0,0:0:0:0:
64,192,68015,128,0,68315:0:0:0:0:
448,192,68015,1,0,0:0:0:0:
320,192,68090,1,0,0:0:0:0:
192,192,68165,1,0,0:0:0:0:
320,192,68315,128,0,68615:0:0:0:0:
448,192,68315,1,0,0:0:0:0:
192,192,68390,1,0,0:0:0:0:
64,192,68465,1,0,0:0:0:0:
64,192,68615,128,0,68915:0:0:0:0:
448,192,68615,1,0,0:0:0:0:
320,192,68690,1,0,0:0:0:0:
192,192,68765,1,0,0:0:0:0:
448,192,68915,128,0,69215:0:0:0:0:
320,192,68915,1,0,0:0:0:0:
192,192,68990,1,0,0:0:0:0:
64,192,69065,1,0,0:0:0:0:
64,192,69215,128,0,69515:0:0:0:0:
192,192,69215,1,0,0:0:0:0:
320,192,69290,1,0,0:0:0:0:
448,192,69365,1,0,0:0:0:0:
320,192,69515,128,0,69815:0:0:0:0:
192,192,69515,1,0,0:0:0:0:
448,192,69590,1,0,0:0:0:0:
192,192,69665,1,0,0:0:0:0:
64,192,69815,128,0,70115:0:0:0:0:
448,192,69815,1,0,0:0:0:0:
320,192,69890,1,0,0:0:0:0:
192,192,69965,1,0,0:0:0:0:
448,192,70115,1,0,0:0:0:0:
320,192,70115,1,0,0:0:0:0:
192,192,70190,1,0,0:0:0:0:
64,192,70190,1,0,0:0:0:0:
320,192,70265,1,0,0:0:0:0:
448,192,70340,1,0,0:0:0:0:
64,192,70415,1,0,0:0:0:0:
192,192,70490,1,0,0:0:0:0:
448,192,70565,1,0,0:0:0:0:
320,192,70565,1,0,0:0:0:0:
64,192,70640,1,0,0:0:0:0:
192,192,70640,1,0,0:0:0:0:
320,192,70715,1,0,0:0:0:0:
192,192,70790,1,0,0:0:0:0:
448,192,70865,1,0,0:0:0:0:
320,192,70940,1,0,0:0:0:0:
192,192,71015,1,0,0:0:0:0:
64,192,71015,1,0,0:0:0:0:
448,192,71090,1,0,0:0:0:0:
320,192,71090,1,0,0:0:0:0:
192,192,71165,1,0,0:0:0:0:
64,192,71165,1,0,0:0:0:0:
320,192,71240,1,0,0:0:0:0:
192,192,71315,1,0,0:0:0:0:
64,192,71315,1,0,0:0:0:0:
448,192,71315,1,0,0:0:0:0:
320,192,71465,1,0,0:0:0:0:
448,192,71465,1,0,0:0:0:0:
64,192,71615,1,0,0:0:0:0:
192,192,71615,1,0,0:0:0:0:
320,192,71690,1,0,0:0:0:0:
448,192,71765,1,0,0:0:0:0:
64,192,71765,1,0,0:0:0:0:
448,192,71915,1,0,0:0:0:0:
192,192,71915,1,0,0:0:0:0:
320,192,72065,1,0,0:0:0:0:
64,192,72065,1,0,0:0:0:0:
448,192,72215,1,0,0:0:0:0:
320,192,72215,1,0,0:0:0:0:
192,192,72290,1,0,0:0:0:0:
64,192,72365,1,0,0:0:0:0:
448,192,72365,1,0,0:0:0:0:
64,192,72515,1,0,0:0:0:0:
320,192,72515,1,0,0:0:0:0:
448,192,72665,1,0,0:0:0:0:
192,192,72665,1,0,0:0:0:0:
448,192,72815,1,0,0:0:0:0:
320,192,72815,1,0,0:0:0:0:
192,192,72890,1,0,0:0:0:0:
64,192,72965,1,0,0:0:0:0:
448,192,72965,1,0,0:0:0:0:
192,192,73115,1,0,0:0:0:0:
320,192,73115,1,0,0:0:0:0:
64,192,73265,1,0,0:0:0:0:
192,192,73265,1,0,0:0:0:0:
320,192,73415,1,0,0:0:0:0:
448,192,73415,1,0,0:0:0:0:
192,192,73490,1,0,0:0:0:0:
64,192,73565,1,0,0:0:0:0:
448,192,73565,1,0,0:0:0:0:
64,192,73715,1,0,0:0:0:0:
192,192,73715,1,0,0:0:0:0:
448,192,73865,1,0,0:0:0:0:
192,192,73865,1,0,0:0:0:0:
64,192,74015,1,0,0:0:0:0:
320,192,74015,1,0,0:0:0:0:
192,192,74090,1,0,0:0:0:0:
320,192,74165,1,0,0:0:0:0:
448,192,74165,1,0,0:0:0:0:
64,192,74315,1,0,0:0:0:0:
192,192,74315,1,0,0:0:0:0:
448,192,74465,1,0,0:0:0:0:
64,192,74465,1,0,0:0:0:0:
320,192,74615,1,0,0:0:0:0:
448,192,74615,1,0,0:0:0:0:
192,192,74690,1,0,0:0:0:0:
64,192,74765,1,0,0:0:0:0:
448,192,74765,1,0,0:0:0:0:
64,192,74915,1,0,0:0:0:0:
192,192,74915,1,0,0:0:0:0:
320,192,75065,1,0,0:0:0:0:
448,192,75065,1,0,0:0:0:0:
320,192,75215,1,0,0:0:0:0:
448,192,75215,1,0,0:0:0:0:
64,192,75365,1,0,0:0:0:0:
192,192,75402,1,0,0:0:0:0:
320,192,75440,1,0,0:0:0:0:
448,192,75477,1,0,0:0:0:0:
64,192,75515,1,0,0:0:0:0:
192,192,75515,1,0,0:0:0:0:
64,192,75665,1,0,0:0:0:0:
192,192,75665,1,0,0:0:0:0:
448,192,75815,1,0,0:0:0:0:
320,192,75865,1,0,0:0:0:0:
192,192,75915,1,0,0:0:0:0:
64,192,75965,1,0,0:0:0:0:
448,192,75965,128,0,76115:0:0:0:0:
192,192,76115,1,0,0:0:0:0:
64,192,76265,1,0,0:0:0:0:
320,192,76265,1,0,0:0:0:0:
448,192,76415,1,0,0:0:0:0:
192,192,76415,1,0,0:0:0:0:
320,192,76490,1,0,0:0:0:0:
192,192,76565,1,0,0:0:0:0:
64,192,76565,1,0,0:0:0:0:
448,192,76715,1,0,0:0:0:0:
320,192,76715,1,0,0:0:0:0:
64,192,76865,1,0,0:0:0:0:
320,192,76865,1,0,0:0:0:0:
64,192,77015,1,0,0:0:0:0:
192,192,77015,1,0,0:0:0:0:
320,192,77090,1,0,0:0:0:0:
448,192,77165,1,0,0:0:0:0:
64,192,77165,1,0,0:0:0:0:
192,192,77315,1,0,0:0:0:0:
320,192,77315,1,0,0:0:0:0:
192,192,77465,1,0,0:0:0:0:
448,192,77465,1,0,0:0:0:0:
320,192,77615,1,0,0:0:0:0:
64,192,77615,1,0,0:0:0:0:
192,192,77690,1,0,0:0:0:0:
320,192,77765,1,0,0:0:0:0:
448,192,77765,1,0,0:0:0:0:
64,192,77915,1,0,0:0:0:0:
192,192,77915,1,0,0:0:0:0:
448,192,78065,1,0,0:0:0:0:
64,192,78065,1,0,0:0:0:0:
192,192,78215,1,0,0:0:0:0:
448,192,78215,1,0,0:0:0:0:
320,192,78290,1,0,0:0:0:0:
192,192,78365,1,0,0:0:0:0:
64,192,78365,1,0,0:0:0:0:
64,192,78515,1,0,0:0:0:0:
448,192,78515,1,0,0:0:0:0:
320,192,78665,1,0,0:0:0:0:
448,192,78665,1,0,0:0:0:0:
64,192,78815,1,0,0:0:0:0:
192,192,78815,1,0,0:0:0:0:
320,192,78890,1,0,0:0:0:0:
448,192,78965,1,0,0:0:0:0:
64,192,78965,1,0,0:0:0:0:
192,192,79115,1,0,0:0:0:0:
320,192,79115,1,0,0:0:0:0:
64,192,79265,1,0,0:0:0:0:
192,192,79265,1,0,0:0:0:0:
320,192,79415,1,0,0:0:0:0:
448,192,79415,1,0,0:0:0:0:
192,192,79490,1,0,0:0:0:0:
64,192,79565,1,0,0:0:0:0:
448,192,79565,1,0,0:0:0:0:
320,192,79715,1,0,0:0:0:0:
448,192,79715,1,0,0:0:0:0:
64,192,79790,5,0,0:0:0:0:
192,192,79790,1,0,0:0:0:0:
320,192,79865,1,0,0:0:0:0:
448,192,79865,1,0,0:0:0:0:
192,192,79940,1,0,0:0:0:0:
64,192,79940,1,0,0:0:0:0:
320,192,80015,1,0,0:0:0:0:
448,192,80015,1,0,0:0:0:0:
192,192,80090,1,0,0:0:0:0:
64,192,80090,1,0,0:0:0:0:
320,192,80165,1,0,0:0:0:0:
448,192,80165,1,0,0:0:0:0:
192,192,80240,1,0,0:0:0:0:
64,192,80240,1,0,0:0:0:0:
320,192,80315,1,0,0:0:0:0:
448,192,80315,1,0,0:0:0:0:
192,192,80390,1,0,0:0:0:0:
64,192,80390,1,0,0:0:0:0:
320,192,80465,1,0,0:0:0:0:
448,192,80465,1,0,0:0:0:0:
192,192,80540,1,0,0:0:0:0:
64,192,80540,1,0,0:0:0:0:
448,192,80615,1,0,0:0:0:0:
320,192,80690,1,0,0:0:0:0:
192,192,80765,1,0,0:0:0:0:
320,192,80840,1,0,0:0:0:0:
192,192,80915,5,0,0:0:0:0:
64,192,80915,1,0,0:0:0:0:
448,192,80915,1,0,0:0:0:0:
320,192,81065,5,0,0:0:0:0:
192,192,81215,1,0,0:0:0:0:
64,192,81215,1,0,0:0:0:0:
448,192,81215,1,0,0:0:0:0:
192,192,81365,1,0,0:0:0:0:
64,192,81440,1,0,0:0:0:0:
448,192,81515,1,0,0:0:0:0:
320,192,81515,1,0,0:0:0:0:
192,192,81515,1,0,0:0:0:0:
320,192,81665,1,0,0:0:0:0:
64,192,81815,1,0,0:0:0:0:
192,192,81815,1,0,0:0:0:0:
448,192,81815,1,0,0:0:0:0:
320,192,81965,1,0,0:0:0:0:
448,192,82040,1,0,0:0:0:0:
192,192,82115,1,0,0:0:0:0:
320,192,82115,1,0,0:0:0:0:
64,192,82115,1,0,0:0:0:0:
192,192,82265,1,0,0:0:0:0:
448,192,82415,1,0,0:0:0:0:
320,192,82415,1,0,0:0:0:0:
64,192,82415,1,0,0:0:0:0:
448,192,82565,1,0,0:0:0:0:
320,192,82640,1,0,0:0:0:0:
64,192,82715,1,0,0:0:0:0:
192,192,82715,1,0,0:0:0:0:
448,192,82715,1,0,0:0:0:0:
320,192,82865,1,0,0:0:0:0:
192,192,83015,1,0,0:0:0:0:
448,192,83015,1,0,0:0:0:0:
64,192,83015,1,0,0:0:0:0:
64,192,83165,1,0,0:0:0:0:
192,192,83240,1,0,0:0:0:0:
64,192,83315,1,0,0:0:0:0:
320,192,83315,1,0,0:0:0:0:
448,192,83315,1,0,0:0:0:0:
192,192,83465,1,0,0:0:0:0:
448,192,83615,1,0,0:0:0:0:
192,192,83615,1,0,0:0:0:0:
64,192,83615,1,0,0:0:0:0:
320,192,83765,1,0,0:0:0:0:
192,192,83840,1,0,0:0:0:0:
448,192,83915,1,0,0:0:0:0:
320,192,83915,1,0,0:0:0:0:
64,192,83915,1,0,0:0:0:0:
320,192,84065,1,0,0:0:0:0:
64,192,84215,1,0,0:0:0:0:
448,192,84215,1,0,0:0:0:0:
192,192,84215,1,0,0:0:0:0:
192,192,84365,1,0,0:0:0:0:
320,192,84440,1,0,0:0:0:0:
64,192,84515,1,0,0:0:0:0:
448,192,84515,1,0,0:0:0:0:
192,192,84515,1,0,0:0:0:0:
320,192,84590,1,0,0:0:0:0:
448,192,84665,1,0,0:0:0:0:
192,192,84740,1,0,0:0:0:0:
64,192,84815,1,0,0:0:0:0:
448,192,84890,1,0,0:0:0:0:
192,192,84965,1,0,0:0:0:0:
320,192,84965,1,0,0:0:0:0:
64,192,85040,1,0,0:0:0:0:
448,192,85115,1,0,0:0:0:0:
320,192,85190,1,0,0:0:0:0:
192,192,85265,1,0,0:0:0:0:
64,192,85340,1,0,0:0:0:0:
320,192,85415,1,0,0:0:0:0:
448,192,85415,1,0,0:0:0:0:
192,192,85715,1,0,0:0:0:0:
448,192,85715,1,0,0:0:0:0:
64,192,85715,1,0,0:0:0:0:
64,192,85865,1,0,0:0:0:0:
192,192,85940,1,0,0:0:0:0:
320,192,86015,1,0,0:0:0:0:
448,192,86015,1,0,0:0:0:0:
192,192,86165,1,0,0:0:0:0:
64,192,86315,1,0,0:0:0:0:
320,192,86315,1,0,0:0:0:0:
448,192,86465,1,0,0:0:0:0:
320,192,86540,1,0,0:0:0:0:
192,192,86615,1,0,0:0:0:0:
64,192,86615,1,0,0:0:0:0:
320,192,86765,1,0,0:0:0:0:
448,192,86915,1,0,0:0:0:0:
64,192,86915,1,0,0:0:0:0:
192,192,87065,1,0,0:0:0:0:
320,192,87140,1,0,0:0:0:0:
64,192,87215,1,0,0:0:0:0:
448,192,87215,1,0,0:0:0:0:
320,192,87365,1,0,0:0:0:0:
448,192,87515,1,0,0:0:0:0:
192,192,87515,1,0,0:0:0:0:
64,192,87665,1,0,0:0:0:0:
192,192,87740,1,0,0:0:0:0:
320,192,87815,1,0,0:0:0:0:
64,192,87815,1,0,0:0:0:0:
448,192,87815,1,0,0:0:0:0:
192,192,87965,1,0,0:0:0:0:
64,192,88115,1,0,0:0:0:0:
320,192,88115,1,0,0:0:0:0:
64,192,88265,1,0,0:0:0:0:
192,192,88340,1,0,0:0:0:0:
320,192,88415,1,0,0:0:0:0:
448,192,88415,1,0,0:0:0:0:
64,192,88565,1,0,0:0:0:0:
192,192,88715,1,0,0:0:0:0:
448,192,88715,1,0,0:0:0:0:
64,192,88865,1,0,0:0:0:0:
192,192,88940,1,0,0:0:0:0:
448,192,89015,1,0,0:0:0:0:
320,192,89015,1,0,0:0:0:0:
64,192,89165,1,0,0:0:0:0:
192,192,89240,1,0,0:0:0:0:
448,192,89315,1,0,0:0:0:0:
320,192,89315,1,0,0:0:0:0:
64,192,89390,1,0,0:0:0:0:
192,192,89465,1,0,0:0:0:0:
320,192,89540,1,0,0:0:0:0:
448,192,89615,1,0,0:0:0:0:
192,192,89690,1,0,0:0:0:0:
64,192,89765,1,0,0:0:0:0:
320,192,89765,1,0,0:0:0:0:
448,192,89840,1,0,0:0:0:0:
192,192,89915,1,0,0:0:0:0:
320,192,89990,1,0,0:0:0:0:
64,192,90065,1,0,0:0:0:0:
192,192,90140,1,0,0:0:0:0:
320,192,90215,1,0,0:0:0:0:
448,192,90290,1,0,0:0:0:0:
320,192,90365,1,0,0:0:0:0:
192,192,90440,1,0,0:0:0:0:
64,192,90515,1,0,0:0:0:0:
320,192,90515,1,0,0:0:0:0:
448,192,90515,1,0,0:0:0:0:
64,192,90665,1,0,0:0:0:0:
192,192,90665,1,0,0:0:0:0:
320,192,90815,1,0,0:0:0:0:
448,192,90815,1,0,0:0:0:0:
192,192,90890,1,0,0:0:0:0:
64,192,90965,1,0,0:0:0:0:
448,192,90965,1,0,0:0:0:0:
192,192,91115,1,0,0:0:0:0:
320,192,91115,1,0,0:0:0:0:
64,192,91265,1,0,0:0:0:0:
192,192,91265,1,0,0:0:0:0:
448,192,91415,1,0,0:0:0:0:
320,192,91415,1,0,0:0:0:0:
64,192,91490,1,0,0:0:0:0:
192,192,91565,1,0,0:0:0:0:
320,192,91565,1,0,0:0:0:0:
448,192,91715,1,0,0:0:0:0:
192,192,91715,1,0,0:0:0:0:
64,192,91865,1,0,0:0:0:0:
320,192,91865,1,0,0:0:0:0:
64,192,92015,1,0,0:0:0:0:
192,192,92015,1,0,0:0:0:0:
320,192,92090,1,0,0:0:0:0:
448,192,92165,1,0,0:0:0:0:
192,192,92165,1,0,0:0:0:0:
64,192,92315,1,0,0:0:0:0:
320,192,92315,1,0,0:0:0:0:
192,192,92465,1,0,0:0:0:0:
448,192,92465,1,0,0:0:0:0:
320,192,92615,1,0,0:0:0:0:
448,192,92615,1,0,0:0:0:0:
64,192,92690,1,0,0:0:0:0:
192,192,92765,1,0,0:0:0:0:
320,192,92765,1,0,0:0:0:0:
448,192,92915,1,0,0:0:0:0:
64,192,92915,1,0,0:0:0:0:
192,192,93065,1,0,0:0:0:0:
448,192,93065,1,0,0:0:0:0:
320,192,93215,1,0,0:0:0:0:
64,192,93215,1,0,0:0:0:0:
192,192,93290,1,0,0:0:0:0:
320,192,93365,1,0,0:0:0:0:
448,192,93365,1,0,0:0:0:0:
64,192,93515,1,0,0:0:0:0:
192,192,93515,1,0,0:0:0:0:
448,192,93665,1,0,0:0:0:0:
192,192,93665,1,0,0:0:0:0:
320,192,93815,1,0,0:0:0:0:
448,192,93815,1,0,0:0:0:0:
192,192,93890,1,0,0:0:0:0:
64,192,93965,1,0,0:0:0:0:
320,192,93965,1,0,0:0:0:0:
192,192,94115,1,0,0:0:0:0:
448,192,94115,1,0,0:0:0:0:
320,192,94265,1,0,0:0:0:0:
192,192,94265,1,0,0:0:0:0:
64,192,94415,1,0,0:0:0:0:
448,192,94415,1,0,0:0:0:0:
320,192,94490,1,0,0:0:0:0:
192,192,94565,1,0,0:0:0:0:
64,192,94565,1,0,0:0:0:0:
320,192,94715,1,0,0:0:0:0:
448,192,94715,1,0,0:0:0:0:
64,192,94865,1,0,0:0:0:0:
192,192,94865,1,0,0:0:0:0:
64,192,95015,1,0,0:0:0:0:
192,192,95015,1,0,0:0:0:0:
320,192,95090,1,0,0:0:0:0:
448,192,95090,1,0,0:0:0:0:
192,192,95165,128,0,95315:0:0:0:0:
64,192,95165,128,0,95315:0:0:0:0:
448,192,95315,1,0,0:0:0:0:
320,192,95315,1,0,0:0:0:0:
64,192,95465,1,0,0:0:0:0:
192,192,95465,1,0,0:0:0:0:
448,192,95615,1,0,0:0:0:0:
320,192,95615,1,0,0:0:0:0:
64,192,95690,1,0,0:0:0:0:
192,192,95765,1,0,0:0:0:0:
320,192,95765,1,0,0:0:0:0:
448,192,95915,1,0,0:0:0:0:
192,192,95915,1,0,0:0:0:0:
64,192,96065,1,0,0:0:0:0:
448,192,96065,1,0,0:0:0:0:
64,192,96215,1,0,0:0:0:0:
192,192,96215,1,0,0:0:0:0:
320,192,96290,1,0,0:0:0:0:
448,192,96365,1,0,0:0:0:0:
192,192,96365,1,0,0:0:0:0:
64,192,96515,1,0,0:0:0:0:
320,192,96515,1,0,0:0:0:0:
192,192,96665,1,0,0:0:0:0:
64,192,96665,1,0,0:0:0:0:
320,192,96815,1,0,0:0:0:0:
448,192,96815,1,0,0:0:0:0:
192,192,96890,1,0,0:0:0:0:
64,192,96965,1,0,0:0:0:0:
448,192,96965,1,0,0:0:0:0:
64,192,97115,1,0,0:0:0:0:
192,192,97115,1,0,0:0:0:0:
448,192,97265,1,0,0:0:0:0:
192,192,97265,1,0,0:0:0:0:
320,192,97415,1,0,0:0:0:0:
448,192,97415,1,0,0:0:0:0:
64,192,97490,1,0,0:0:0:0:
192,192,97565,1,0,0:0:0:0:
320,192,97565,1,0,0:0:0:0:
448,192,97715,1,0,0:0:0:0:
192,192,97715,1,0,0:0:0:0:
64,192,97865,1,0,0:0:0:0:
320,192,97865,1,0,0:0:0:0:
64,192,98015,1,0,0:0:0:0:
192,192,98015,1,0,0:0:0:0:
448,192,98090,1,0,0:0:0:0:
320,192,98165,1,0,0:0:0:0:
192,192,98165,1,0,0:0:0:0:
64,192,98315,1,0,0:0:0:0:
192,192,98315,1,0,0:0:0:0:
448,192,98465,1,0,0:0:0:0:
64,192,98465,1,0,0:0:0:0:
320,192,98615,1,0,0:0:0:0:
448,192,98615,1,0,0:0:0:0:
192,192,98690,1,0,0:0:0:0:
64,192,98765,1,0,0:0:0:0:
320,192,98765,1,0,0:0:0:0:
448,192,98915,1,0,0:0:0:0:
320,192,98915,1,0,0:0:0:0:
192,192,98990,1,0,0:0:0:0:
64,192,98990,1,0,0:0:0:0:
448,192,99065,1,0,0:0:0:0:
192,192,99140,1,0,0:0:0:0:
320,192,99215,1,0,0:0:0:0:
448,192,99290,1,0,0:0:0:0:
192,192,99365,1,0,0:0:0:0:
64,192,99365,1,0,0:0:0:0:
320,192,99440,1,0,0:0:0:0:
448,192,99440,1,0,0:0:0:0:
64,192,99515,1,0,0:0:0:0:
192,192,99590,1,0,0:0:0:0:
320,192,99665,1,0,0:0:0:0:
448,192,99740,1,0,0:0:0:0:
192,192,99815,1,0,0:0:0:0:
64,192,99815,1,0,0:0:0:0:
320,192,99890,1,0,0:0:0:0:
448,192,99890,1,0,0:0:0:0:
192,192,99965,1,0,0:0:0:0:
64,192,99965,1,0,0:0:0:0:
448,192,100040,1,0,0:0:0:0:
320,192,100115,1,0,0:0:0:0:
64,192,100115,1,0,0:0:0:0:
320,192,100265,1,0,0:0:0:0:
448,192,100265,1,0,0:0:0:0:
64,192,100415,1,0,0:0:0:0:
192,192,100415,1,0,0:0:0:0:
320,192,100490,1,0,0:0:0:0:
448,192,100565,1,0,0:0:0:0:
64,192,100565,1,0,0:0:0:0:
192,192,100715,1,0,0:0:0:0:
320,192,100715,1,0,0:0:0:0:
448,192,100865,1,0,0:0:0:0:
320,192,100865,1,0,0:0:0:0:
64,192,101015,1,0,0:0:0:0:
192,192,101015,1,0,0:0:0:0:
448,192,101090,1,0,0:0:0:0:
320,192,101165,1,0,0:0:0:0:
192,192,101165,1,0,0:0:0:0:
64,192,101315,1,0,0:0:0:0:
320,192,101315,1,0,0:0:0:0:
192,192,101465,1,0,0:0:0:0:
64,192,101465,1,0,0:0:0:0:
192,192,101615,1,0,0:0:0:0:
448,192,101615,1,0,0:0:0:0:
320,192,101690,1,0,0:0:0:0:
64,192,101765,1,0,0:0:0:0:
448,192,101765,1,0,0:0:0:0:
64,192,101915,1,0,0:0:0:0:
192,192,101915,1,0,0:0:0:0:
448,192,102065,1,0,0:0:0:0:
320,192,102065,1,0,0:0:0:0:
64,192,102215,1,0,0:0:0:0:
192,192,102290,1,0,0:0:0:0:
320,192,102365,1,0,0:0:0:0:
192,192,102440,1,0,0:0:0:0:
320,192,102515,1,0,0:0:0:0:
448,192,102515,1,0,0:0:0:0:
64,192,102515,1,0,0:0:0:0:
64,192,102665,1,0,0:0:0:0:
192,192,102665,1,0,0:0:0:0:
320,192,102815,1,0,0:0:0:0:
448,192,102815,1,0,0:0:0:0:
192,192,102890,1,0,0:0:0:0:
64,192,102965,1,0,0:0:0:0:
448,192,102965,1,0,0:0:0:0:
192,192,103115,1,0,0:0:0:0:
320,192,103115,1,0,0:0:0:0:
64,192,103265,1,0,0:0:0:0:
448,192,103265,1,0,0:0:0:0:
448,192,103415,1,0,0:0:0:0:
320,192,103415,1,0,0:0:0:0:
192,192,103490,1,0,0:0:0:0:
64,192,103565,1,0,0:0:0:0:
320,192,103565,1,0,0:0:0:0:
64,192,103715,1,0,0:0:0:0:
192,192,103715,1,0,0:0:0:0:
448,192,103865,1,0,0:0:0:0:
192,192,103865,1,0,0:0:0:0:
320,192,104015,1,0,0:0:0:0:
448,192,104015,1,0,0:0:0:0:
64,192,104090,1,0,0:0:0:0:
192,192,104165,1,0,0:0:0:0:
320,192,104165,1,0,0:0:0:0:
192,192,104315,1,0,0:0:0:0:
448,192,104315,1,0,0:0:0:0:
64,192,104465,1,0,0:0:0:0:
320,192,104465,1,0,0:0:0:0:
64,192,104615,1,0,0:0:0:0:
192,192,104615,1,0,0:0:0:0:
320,192,104690,1,0,0:0:0:0:
448,192,104765,1,0,0:0:0:0:
64,192,104765,1,0,0:0:0:0:
192,192,104915,1,0,0:0:0:0:
448,192,104915,1,0,0:0:0:0:
64,192,105065,5,0,0:0:0:0:
192,192,105065,1,0,0:0:0:0:
448,192,105215,1,0,0:0:0:0:
320,192,105215,1,0,0:0:0:0:
192,192,105290,1,0,0:0:0:0:
64,192,105365,1,0,0:0:0:0:
448,192,105365,1,0,0:0:0:0:
192,192,105515,1,0,0:0:0:0:
320,192,105515,1,0,0:0:0:0:
64,192,105665,1,0,0:0:0:0:
192,192,105665,1,0,0:0:0:0:
448,192,105815,1,0,0:0:0:0:
320,192,105815,1,0,0:0:0:0:
192,192,105890,1,0,0:0:0:0:
64,192,105965,1,0,0:0:0:0:
448,192,105965,1,0,0:0:0:0:
64,192,106115,5,0,0:0:0:0:
192,192,106115,1,0,0:0:0:0:
448,192,106190,1,0,0:0:0:0:
320,192,106190,1,0,0:0:0:0:
192,192,106265,1,0,0:0:0:0:
64,192,106340,1,0,0:0:0:0:
320,192,106415,1,0,0:0:0:0:
448,192,106415,1,0,0:0:0:0:
192,192,106490,1,0,0:0:0:0:
64,192,106565,1,0,0:0:0:0:
320,192,106640,1,0,0:0:0:0:
192,192,106715,1,0,0:0:0:0:
448,192,106715,1,0,0:0:0:0:
64,192,106790,1,0,0:0:0:0:
320,192,106865,1,0,0:0:0:0:
448,192,106940,1,0,0:0:0:0:
64,192,107015,1,0,0:0:0:0:
192,192,107090,1,0,0:0:0:0:
320,192,107165,1,0,0:0:0:0:
448,192,107240,1,0,0:0:0:0:
64,192,107315,1,0,0:0:0:0:
192,192,107315,1,0,0:0:0:0:
320,192,107390,5,0,0:0:0:0:
448,192,107390,1,0,0:0:0:0:
192,192,107465,1,0,0:0:0:0:
64,192,107465,1,0,0:0:0:0:
320,192,107540,1,0,0:0:0:0:
448,192,107540,1,0,0:0:0:0:
192,192,107615,1,0,0:0:0:0:
64,192,107615,1,0,0:0:0:0:
320,192,107690,1,0,0:0:0:0:
448,192,107690,1,0,0:0:0:0:
192,192,107765,1,0,0:0:0:0:
64,192,107765,1,0,0:0:0:0:
320,192,107840,1,0,0:0:0:0:
448,192,107840,1,0,0:0:0:0:
192,192,107915,1,0,0:0:0:0:
64,192,107915,1,0,0:0:0:0:
320,192,107990,1,0,0:0:0:0:
448,192,107990,1,0,0:0:0:0:
192,192,108065,1,0,0:0:0:0:
64,192,108065,1,0,0:0:0:0:
320,192,108140,1,0,0:0:0:0:
448,192,108140,1,0,0:0:0:0:
192,192,108215,1,0,0:0:0:0:
64,192,108215,1,0,0:0:0:0:
320,192,108290,1,0,0:0:0:0:
448,192,108290,1,0,0:0:0:0:
192,192,108365,1,0,0:0:0:0:
64,192,108365,1,0,0:0:0:0:
320,192,108440,1,0,0:0:0:0:
64,192,108515,5,0,0:0:0:0:
448,192,108515,1,0,0:0:0:0:
192,192,108515,1,0,0:0:0:0:
64,192,109715,1,0,0:0:0:0:
320,192,109715,1,0,0:0:0:0:
448,192,109715,1,0,0:0:0:0:
192,192,109790,1,0,0:0:0:0:
320,192,109865,1,0,0:0:0:0:
448,192,109865,1,0,0:0:0:0:
64,192,109940,1,0,0:0:0:0:
192,192,110015,1,0,0:0:0:0:
320,192,110015,1,0,0:0:0:0:
448,192,110090,1,0,0:0:0:0:
64,192,110165,1,0,0:0:0:0:
192,192,110165,1,0,0:0:0:0:
448,192,110240,1,0,0:0:0:0:
320,192,110315,1,0,0:0:0:0:
192,192,110315,1,0,0:0:0:0:
64,192,110390,1,0,0:0:0:0:
448,192,110465,1,0,0:0:0:0:
320,192,110465,1,0,0:0:0:0:
192,192,110540,1,0,0:0:0:0:
64,192,110615,1,0,0:0:0:0:
448,192,110615,1,0,0:0:0:0:
320,192,110690,1,0,0:0:0:0:
192,192,110765,1,0,0:0:0:0:
64,192,110765,1,0,0:0:0:0:
448,192,110840,1,0,0:0:0:0:
320,192,110915,1,0,0:0:0:0:
192,192,110915,1,0,0:0:0:0:
64,192,110990,1,0,0:0:0:0:
320,192,111065,1,0,0:0:0:0:
448,192,111065,1,0,0:0:0:0:
64,192,111140,1,0,0:0:0:0:
192,192,111215,1,0,0:0:0:0:
320,192,111215,1,0,0:0:0:0:
448,192,111290,1,0,0:0:0:0:
64,192,111365,1,0,0:0:0:0:
192,192,111365,1,0,0:0:0:0:
320,192,111440,1,0,0:0:0:0:
448,192,111515,1,0,0:0:0:0:
192,192,111515,1,0,0:0:0:0:
64,192,111590,1,0,0:0:0:0:
320,192,111665,1,0,0:0:0:0:
448,192,111665,1,0,0:0:0:0:
64,192,111740,1,0,0:0:0:0:
192,192,111815,1,0,0:0:0:0:
320,192,111815,1,0,0:0:0:0:
448,192,111890,1,0,0:0:0:0:
64,192,111965,1,0,0:0:0:0:
192,192,111965,1,0,0:0:0:0:
448,192,112040,1,0,0:0:0:0:
320,192,112115,1,0,0:0:0:0:
192,192,112115,1,0,0:0:0:0:
64,192,112190,1,0,0:0:0:0:
448,192,112265,1,0,0:0:0:0:
320,192,112265,1,0,0:0:0:0:
192,192,112340,1,0,0:0:0:0:
64,192,112415,1,0,0:0:0:0:
448,192,112415,1,0,0:0:0:0:
320,192,112490,1,0,0:0:0:0:
192,192,112565,1,0,0:0:0:0:
64,192,112565,1,0,0:0:0:0:
448,192,112640,1,0,0:0:0:0:
320,192,112715,1,0,0:0:0:0:
192,192,112715,1,0,0:0:0:0:
64,192,112790,1,0,0:0:0:0:
320,192,112865,1,0,0:0:0:0:
448,192,112865,1,0,0:0:0:0:
64,192,112940,1,0,0:0:0:0:
192,192,113015,1,0,0:0:0:0:
320,192,113015,1,0,0:0:0:0:
448,192,113090,1,0,0:0:0:0:
64,192,113165,1,0,0:0:0:0:
192,192,113165,1,0,0:0:0:0:
320,192,113240,1,0,0:0:0:0:
448,192,113315,1,0,0:0:0:0:
192,192,113315,1,0,0:0:0:0:
64,192,113390,1,0,0:0:0:0:
448,192,113465,1,0,0:0:0:0:
320,192,113465,1,0,0:0:0:0:
64,192,113540,1,0,0:0:0:0:
320,192,113615,1,0,0:0:0:0:
192,192,113615,1,0,0:0:0:0:
448,192,113690,1,0,0:0:0:0:
192,192,113765,1,0,0:0:0:0:
64,192,113765,1,0,0:0:0:0:
448,192,113840,1,0,0:0:0:0:
192,192,113915,1,0,0:0:0:0:
320,192,113915,1,0,0:0:0:0:
64,192,113990,1,0,0:0:0:0:
320,192,114065,1,0,0:0:0:0:
448,192,114065,1,0,0:0:0:0:
192,192,114140,1,0,0:0:0:0:
448,192,114215,1,0,0:0:0:0:
64,192,114215,1,0,0:0:0:0:
320,192,114290,1,0,0:0:0:0:
64,192,114365,1,0,0:0:0:0:
192,192,114365,1,0,0:0:0:0:
448,192,114440,1,0,0:0:0:0:
192,192,114515,1,0,0:0:0:0:
320,192,114515,1,0,0:0:0:0:
64,192,114590,1,0,0:0:0:0:
448,192,114665,1,0,0:0:0:0:
320,192,114665,1,0,0:0:0:0:
64,192,114740,1,0,0:0:0:0:
320,192,114815,1,0,0:0:0:0:
192,192,114815,1,0,0:0:0:0:
448,192,114890,1,0,0:0:0:0:
192,192,114965,1,0,0:0:0:0:
64,192,114965,1,0,0:0:0:0:
320,192,115040,1,0,0:0:0:0:
192,192,115115,1,0,0:0:0:0:
448,192,115115,1,0,0:0:0:0:
64,192,115190,1,0,0:0:0:0:
320,192,115265,1,0,0:0:0:0:
448,192,115265,1,0,0:0:0:0:
64,192,115340,1,0,0:0:0:0:
192,192,115415,1,0,0:0:0:0:
320,192,115415,1,0,0:0:0:0:
448,192,115490,1,0,0:0:0:0:
64,192,115565,1,0,0:0:0:0:
192,192,115565,1,0,0:0:0:0:
448,192,115640,1,0,0:0:0:0:
320,192,115715,1,0,0:0:0:0:
192,192,115715,1,0,0:0:0:0:
64,192,115790,1,0,0:0:0:0:
448,192,115865,1,0,0:0:0:0:
320,192,115865,1,0,0:0:0:0:
192,192,115940,1,0,0:0:0:0:
64,192,116015,1,0,0:0:0:0:
448,192,116015,1,0,0:0:0:0:
320,192,116090,1,0,0:0:0:0:
192,192,116165,1,0,0:0:0:0:
64,192,116165,1,0,0:0:0:0:
448,192,116240,1,0,0:0:0:0:
320,192,116315,1,0,0:0:0:0:
192,192,116315,1,0,0:0:0:0:
64,192,116390,1,0,0:0:0:0:
320,192,116465,1,0,0:0:0:0:
448,192,116465,1,0,0:0:0:0:
64,192,116540,1,0,0:0:0:0:
192,192,116615,1,0,0:0:0:0:
320,192,116615,1,0,0:0:0:0:
448,192,116690,1,0,0:0:0:0:
64,192,116765,1,0,0:0:0:0:
192,192,116765,1,0,0:0:0:0:
320,192,116840,1,0,0:0:0:0:
448,192,116915,1,0,0:0:0:0:
192,192,116915,1,0,0:0:0:0:
64,192,116990,1,0,0:0:0:0:
320,192,117065,1,0,0:0:0:0:
448,192,117065,1,0,0:0:0:0:
192,192,117140,1,0,0:0:0:0:
64,192,117215,1,0,0:0:0:0:
448,192,117215,1,0,0:0:0:0:
320,192,117290,1,0,0:0:0:0:
192,192,117365,1,0,0:0:0:0:
64,192,117365,1,0,0:0:0:0:
320,192,117440,1,0,0:0:0:0:
192,192,117515,1,0,0:0:0:0:
64,192,117515,1,0,0:0:0:0:
320,192,117590,1,0,0:0:0:0:
448,192,117590,1,0,0:0:0:0:
192,192,117665,1,0,0:0:0:0:
64,192,117665,1,0,0:0:0:0:
320,192,117740,1,0,0:0:0:0:
448,192,117740,1,0,0:0:0:0:
192,192,117815,1,0,0:0:0:0:
64,192,117815,1,0,0:0:0:0:
320,192,117890,1,0,0:0:0:0:
448,192,117890,1,0,0:0:0:0:
192,192,117965,1,0,0:0:0:0:
64,192,117965,1,0,0:0:0:0:
320,192,118040,1,0,0:0:0:0:
448,192,118040,1,0,0:0:0:0:
192,192,118115,1,0,0:0:0:0:
64,192,118190,1,0,0:0:0:0:
448,192,118265,1,0,0:0:0:0:
320,192,118340,1,0,0:0:0:0:
192,192,118415,1,0,0:0:0:0:
64,192,118415,1,0,0:0:0:0:
320,192,118490,1,0,0:0:0:0:
448,192,118490,1,0,0:0:0:0:
192,192,118565,1,0,0:0:0:0:
64,192,118565,1,0,0:0:0:0:
320,192,118640,1,0,0:0:0:0:
448,192,118715,1,0,0:0:0:0:
64,192,118790,1,0,0:0:0:0:
192,192,118865,1,0,0:0:0:0:
320,192,118940,1,0,0:0:0:0:
448,192,119015,1,0,0:0:0:0:
64,192,119090,1,0,0:0:0:0:
192,192,119165,1,0,0:0:0:0:
320,192,119240,1,0,0:0:0:0:
448,192,119315,5,0,0:0:0:0:
192,192,119315,1,0,0:0:0:0:
64,192,119315,1,0,0:0:0:0:
64,192,119465,1,0,0:0:0:0:
320,192,119465,1,0,0:0:0:0:
448,192,119465,1,0,0:0:0:0:
192,192,119615,1,0,0:0:0:0:
320,192,119690,1,0,0:0:0:0:
448,192,119765,1,0,0:0:0:0:
64,192,119765,1,0,0:0:0:0:
192,192,119765,1,0,0:0:0:0:
320,192,119915,1,0,0:0:0:0:
64,192,120065,1,0,0:0:0:0:
448,192,120065,1,0,0:0:0:0:
192,192,120065,1,0,0:0:0:0:
320,192,120215,1,0,0:0:0:0:
192,192,120290,1,0,0:0:0:0:
64,192,120365,1,0,0:0:0:0:
320,192,120365,1,0,0:0:0:0:
448,192,120365,1,0,0:0:0:0:
192,192,120515,1,0,0:0:0:0:
192,192,120665,1,0,0:0:0:0:
448,192,120665,1,0,0:0:0:0:
64,192,120665,1,0,0:0:0:0:
448,192,120815,1,0,0:0:0:0:
320,192,120890,1,0,0:0:0:0:
192,192,120965,1,0,0:0:0:0:
64,192,120965,1,0,0:0:0:0:
448,192,120965,1,0,0:0:0:0:
64,192,121115,1,0,0:0:0:0:
192,192,121265,1,0,0:0:0:0:
320,192,121265,1,0,0:0:0:0:
448,192,121265,1,0,0:0:0:0:
320,192,121415,1,0,0:0:0:0:
192,192,121490,1,0,0:0:0:0:
64,192,121565,1,0,0:0:0:0:
320,192,121565,1,0,0:0:0:0:
448,192,121565,1,0,0:0:0:0:
192,192,121715,1,0,0:0:0:0:
320,192,121865,1,0,0:0:0:0:
448,192,121865,1,0,0:0:0:0:
64,192,121865,1,0,0:0:0:0:
192,192,122015,1,0,0:0:0:0:
320,192,122090,1,0,0:0:0:0:
192,192,122165,1,0,0:0:0:0:
64,192,122165,1,0,0:0:0:0:
448,192,122165,1,0,0:0:0:0:
320,192,122315,1,0,0:0:0:0:
192,192,122465,1,0,0:0:0:0:
448,192,122465,1,0,0:0:0:0:
64,192,122465,1,0,0:0:0:0:
192,192,122615,1,0,0:0:0:0:
320,192,122690,1,0,0:0:0:0:
192,192,122765,1,0,0:0:0:0:
64,192,122765,1,0,0:0:0:0:
448,192,122765,1,0,0:0:0:0:
320,192,122915,1,0,0:0:0:0:
192,192,123065,5,0,0:0:0:0:
448,192,123065,1,0,0:0:0:0:
64,192,123065,1,0,0:0:0:0:
320,192,123215,1,0,0:0:0:0:
448,192,123215,1,0,0:0:0:0:
192,192,123290,1,0,0:0:0:0:
64,192,123290,1,0,0:0:0:0:
320,192,123365,1,0,0:0:0:0:
448,192,123365,1,0,0:0:0:0:
192,192,123440,1,0,0:0:0:0:
64,192,123440,1,0,0:0:0:0:
320,192,123515,1,0,0:0:0:0:
448,192,123590,1,0,0:0:0:0:
64,192,123590,1,0,0:0:0:0:
192,192,123665,1,0,0:0:0:0:
320,192,123740,1,0,0:0:0:0:
64,192,123815,1,0,0:0:0:0:
448,192,123890,1,0,0:0:0:0:
320,192,123965,1,0,0:0:0:0:
192,192,124040,1,0,0:0:0:0:
64,192,124115,5,0,0:0:0:0:
320,192,124115,1,0,0:0:0:0:
448,192,124115,1,0,0:0:0:0:
64,192,125315,1,0,0:0:0:0:
192,192,125315,1,0,0:0:0:0:
320,192,125315,1,0,0:0:0:0:
448,192,125315,1,0,0:0:0:0:
64,192,126515,1,0,0:0:0:0:
192,192,126515,1,0,0:0:0:0:
448,192,126515,1,0,0:0:0:0:
448,192,126665,1,0,0:0:0:0:
320,192,126665,1,0,0:0:0:0:
192,192,126815,1,0,0:0:0:0:
64,192,126815,1,0,0:0:0:0:
320,192,126890,1,0,0:0:0:0:
448,192,126965,1,0,0:0:0:0:
64,192,126965,1,0,0:0:0:0:
192,192,127115,1,0,0:0:0:0:
320,192,127115,1,0,0:0:0:0:
448,192,127265,1,0,0:0:0:0:
192,192,127265,1,0,0:0:0:0:
320,192,127415,1,0,0:0:0:0:
64,192,127415,1,0,0:0:0:0:
192,192,127490,1,0,0:0:0:0:
320,192,127565,1,0,0:0:0:0:
448,192,127565,1,0,0:0:0:0:
192,192,127715,1,0,0:0:0:0:
448,192,127715,1,0,0:0:0:0:
64,192,127865,1,0,0:0:0:0:
192,192,127865,1,0,0:0:0:0:
448,192,128015,1,0,0:0:0:0:
192,192,128015,1,0,0:0:0:0:
320,192,128090,1,0,0:0:0:0:
64,192,128165,1,0,0:0:0:0:
448,192,128165,1,0,0:0:0:0:
64,192,128315,1,0,0:0:0:0:
192,192,128315,1,0,0:0:0:0:
448,192,128465,1,0,0:0:0:0:
320,192,128465,1,0,0:0:0:0:
64,192,128615,1,0,0:0:0:0:
192,192,128615,1,0,0:0:0:0:
320,192,128665,1,0,0:0:0:0:
448,192,128665,1,0,0:0:0:0:
192,192,128715,1,0,0:0:0:0:
64,192,128715,1,0,0:0:0:0:
320,192,128765,128,0,128915:0:0:0:0:
448,192,128765,128,0,128915:0:0:0:0:
64,192,128915,1,0,0:0:0:0:
192,192,128915,1,0,0:0:0:0:
64,192,129065,1,0,0:0:0:0:
192,192,129065,1,0,0:0:0:0:
320,192,129215,1,0,0:0:0:0:
192,192,129215,1,0,0:0:0:0:
64,192,129290,1,0,0:0:0:0:
320,192,129365,1,0,0:0:0:0:
448,192,129365,1,0,0:0:0:0:
192,192,129515,1,0,0:0:0:0:
64,192,129515,1,0,0:0:0:0:
448,192,129665,1,0,0:0:0:0:
192,192,129665,1,0,0:0:0:0:
64,192,129815,1,0,0:0:0:0:
192,192,129815,1,0,0:0:0:0:
320,192,129890,1,0,0:0:0:0:
448,192,129965,1,0,0:0:0:0:
64,192,129965,1,0,0:0:0:0:
320,192,130115,1,0,0:0:0:0:
192,192,130115,1,0,0:0:0:0:
64,192,130265,1,0,0:0:0:0:
192,192,130265,1,0,0:0:0:0:
448,192,130415,1,0,0:0:0:0:
64,192,130415,1,0,0:0:0:0:
192,192,130490,1,0,0:0:0:0:
320,192,130565,1,0,0:0:0:0:
448,192,130565,1,0,0:0:0:0:
192,192,130715,1,0,0:0:0:0:
64,192,130715,1,0,0:0:0:0:
64,192,130865,1,0,0:0:0:0:
192,192,130865,1,0,0:0:0:0:
448,192,131015,1,0,0:0:0:0:
320,192,131015,1,0,0:0:0:0:
64,192,131090,1,0,0:0:0:0:
192,192,131165,1,0,0:0:0:0:
320,192,131240,1,0,0:0:0:0:
448,192,131315,1,0,0:0:0:0:
192,192,131315,1,0,0:0:0:0:
64,192,131315,1,0,0:0:0:0:
192,192,131465,1,0,0:0:0:0:
320,192,131465,1,0,0:0:0:0:
64,192,131615,1,0,0:0:0:0:
448,192,131615,1,0,0:0:0:0:
320,192,131690,1,0,0:0:0:0:
64,192,131765,1,0,0:0:0:0:
192,192,131765,1,0,0:0:0:0:
320,192,131915,1,0,0:0:0:0:
448,192,131915,1,0,0:0:0:0:
448,192,132065,1,0,0:0:0:0:
192,192,132065,1,0,0:0:0:0:
64,192,132215,1,0,0:0:0:0:
192,192,132215,1,0,0:0:0:0:
320,192,132290,1,0,0:0:0:0:
448,192,132365,1,0,0:0:0:0:
64,192,132365,1,0,0:0:0:0:
192,192,132515,1,0,0:0:0:0:
64,192,132515,1,0,0:0:0:0:
448,192,132665,1,0,0:0:0:0:
192,192,132665,1,0,0:0:0:0:
320,192,132815,1,0,0:0:0:0:
448,192,132815,1,0,0:0:0:0:
192,192,132890,1,0,0:0:0:0:
64,192,132965,1,0,0:0:0:0:
320,192,132965,1,0,0:0:0:0:
64,192,133115,1,0,0:0:0:0:
192,192,133115,1,0,0:0:0:0:
448,192,133265,1,0,0:0:0:0:
192,192,133265,1,0,0:0:0:0:
64,192,133415,1,0,0:0:0:0:
320,192,133415,1,0,0:0:0:0:
192,192,133490,1,0,0:0:0:0:
448,192,133565,1,0,0:0:0:0:
64,192,133565,1,0,0:0:0:0:
192,192,133715,1,0,0:0:0:0:
320,192,133715,1,0,0:0:0:0:
448,192,133865,1,0,0:0:0:0:
192,192,133865,1,0,0:0:0:0:
64,192,134015,1,0,0:0:0:0:
320,192,134015,1,0,0:0:0:0:
192,192,134090,1,0,0:0:0:0:
448,192,134165,1,0,0:0:0:0:
320,192,134165,1,0,0:0:0:0:
64,192,134315,1,0,0:0:0:0:
192,192,134315,1,0,0:0:0:0:
192,192,134465,1,0,0:0:0:0:
448,192,134465,1,0,0:0:0:0:
64,192,134615,1,0,0:0:0:0:
192,192,134690,1,0,0:0:0:0:
320,192,134765,1,0,0:0:0:0:
192,192,134840,1,0,0:0:0:0:
64,192,134915,1,0,0:0:0:0:
448,192,134915,1,0,0:0:0:0:
320,192,135065,1,0,0:0:0:0:
448,192,135065,1,0,0:0:0:0:
64,192,135215,1,0,0:0:0:0:
192,192,135265,1,0,0:0:0:0:
320,192,135315,1,0,0:0:0:0:
448,192,135365,1,0,0:0:0:0:
64,192,135365,1,0,0:0:0:0:
320,192,135515,1,0,0:0:0:0:
448,192,135515,1,0,0:0:0:0:
448,192,135665,1,0,0:0:0:0:
320,192,135715,1,0,0:0:0:0:
192,192,135765,1,0,0:0:0:0:
64,192,135815,1,0,0:0:0:0:
448,192,135815,1,0,0:0:0:0:
192,192,135965,1,0,0:0:0:0:
320,192,135965,1,0,0:0:0:0:
64,192,136115,1,0,0:0:0:0:
320,192,136115,1,0,0:0:0:0:
448,192,136115,1,0,0:0:0:0:
64,192,136265,1,0,0:0:0:0:
192,192,136265,1,0,0:0:0:0:
320,192,136415,1,0,0:0:0:0:
448,192,136415,1,0,0:0:0:0:
192,192,136490,1,0,0:0:0:0:
64,192,136565,1,0,0:0:0:0:
448,192,136565,1,0,0:0:0:0:
64,192,136715,1,0,0:0:0:0:
192,192,136715,1,0,0:0:0:0:
448,192,136865,1,0,0:0:0:0:
320,192,136865,1,0,0:0:0:0:
64,192,137015,1,0,0:0:0:0:
192,192,137065,1,0,0:0:0:0:
320,192,137215,1,0,0:0:0:0:
64,192,137315,1,0,0:0:0:0:
192,192,137315,1,0,0:0:0:0:
448,192,137315,1,0,0:0:0:0:
320,192,137465,1,0,0:0:0:0:
448,192,137465,1,0,0:0:0:0:
64,192,137615,1,0,0:0:0:0:
192,192,137615,1,0,0:0:0:0:
320,192,137690,1,0,0:0:0:0:
448,192,137765,1,0,0:0:0:0:
64,192,137765,1,0,0:0:0:0:
192,192,137915,1,0,0:0:0:0:
320,192,137915,1,0,0:0:0:0:
64,192,138065,1,0,0:0:0:0:
448,192,138065,1,0,0:0:0:0:
192,192,138215,1,0,0:0:0:0:
64,192,138215,1,0,0:0:0:0:
320,192,138290,1,0,0:0:0:0:
192,192,138415,1,0,0:0:0:0:
320,192,138515,1,0,0:0:0:0:
448,192,138515,1,0,0:0:0:0:
64,192,138515,1,0,0:0:0:0:
448,192,138665,1,0,0:0:0:0:
320,192,138665,1,0,0:0:0:0:
64,192,138815,1,0,0:0:0:0:
192,192,138815,1,0,0:0:0:0:
320,192,138890,1,0,0:0:0:0:
448,192,138965,1,0,0:0:0:0:
192,192,138965,1,0,0:0:0:0:
64,192,139115,1,0,0:0:0:0:
320,192,139115,1,0,0:0:0:0:
192,192,139265,1,0,0:0:0:0:
448,192,139265,1,0,0:0:0:0:
320,192,139415,1,0,0:0:0:0:
448,192,139415,1,0,0:0:0:0:
192,192,139490,1,0,0:0:0:0:
64,192,139565,1,0,0:0:0:0:
448,192,139565,1,0,0:0:0:0:
64,192,139715,1,0,0:0:0:0:
192,192,139715,1,0,0:0:0:0:
320,192,139790,1,0,0:0:0:0:
448,192,139790,1,0,0:0:0:0:
192,192,139865,1,0,0:0:0:0:
64,192,139865,1,0,0:0:0:0:
320,192,139940,1,0,0:0:0:0:
448,192,139940,1,0,0:0:0:0:
192,192,140015,1,0,0:0:0:0:
64,192,140015,1,0,0:0:0:0:
320,192,140090,1,0,0:0:0:0:
448,192,140090,1,0,0:0:0:0:
192,192,140165,1,0,0:0:0:0:
64,192,140165,1,0,0:0:0:0:
320,192,140240,1,0,0:0:0:0:
448,192,140240,1,0,0:0:0:0:
64,192,140315,1,0,0:0:0:0:
192,192,140315,1,0,0:0:0:0:
448,192,140390,1,0,0:0:0:0:
320,192,140465,1,0,0:0:0:0:
192,192,140540,1,0,0:0:0:0:
64,192,140615,1,0,0:0:0:0:
448,192,140690,1,0,0:0:0:0:
320,192,140765,1,0,0:0:0:0:
192,192,140840,1,0,0:0:0:0:
64,192,140915,1,0,0:0:0:0:
448,192,140915,1,0,0:0:0:0:
320,192,140915,1,0,0:0:0:0:
64,192,141065,1,0,0:0:0:0:
192,192,141065,1,0,0:0:0:0:
448,192,141215,1,0,0:0:0:0:
320,192,141215,1,0,0:0:0:0:
192,192,141290,1,0,0:0:0:0:
64,192,141365,1,0,0:0:0:0:
448,192,141365,1,0,0:0:0:0:
192,192,141515,1,0,0:0:0:0:
320,192,141515,1,0,0:0:0:0:
64,192,141665,1,0,0:0:0:0:
320,192,141665,1,0,0:0:0:0:
64,192,141815,1,0,0:0:0:0:
192,192,141815,1,0,0:0:0:0:
320,192,141890,1,0,0:0:0:0:
448,192,141965,1,0,0:0:0:0:
64,192,141965,1,0,0:0:0:0:
192,192,142115,1,0,0:0:0:0:
320,192,142115,1,0,0:0:0:0:
448,192,142265,1,0,0:0:0:0:
64,192,142265,1,0,0:0:0:0:
64,192,142415,1,0,0:0:0:0:
192,192,142415,1,0,0:0:0:0:
320,192,142490,1,0,0:0:0:0:
448,192,142565,1,0,0:0:0:0:
192,192,142565,1,0,0:0:0:0:
64,192,142715,1,0,0:0:0:0:
320,192,142715,1,0,0:0:0:0:
192,192,142865,1,0,0:0:0:0:
64,192,142865,1,0,0:0:0:0:
448,192,143015,1,0,0:0:0:0:
320,192,143015,1,0,0:0:0:0:
192,192,143090,1,0,0:0:0:0:
64,192,143165,1,0,0:0:0:0:
448,192,143165,1,0,0:0:0:0:
192,192,143315,128,0,143465:0:0:0:0:
64,192,143315,128,0,143465:0:0:0:0:
320,192,143465,128,0,143615:0:0:0:0:
448,192,143465,128,0,143615:0:0:0:0:
64,192,143615,1,0,0:0:0:0:
192,192,143615,1,0,0:0:0:0:
320,192,143765,5,0,0:0:0:0:
448,192,143765,1,0,0:0:0:0:
192,192,143840,1,0,0:0:0:0:
64,192,143840,1,0,0:0:0:0:
448,192,143915,1,0,0:0:0:0:
320,192,143915,1,0,0:0:0:0:
192,192,143990,1,0,0:0:0:0:
64,192,143990,1,0,0:0:0:0:
320,192,144065,1,0,0:0:0:0:
448,192,144065,1,0,0:0:0:0:
64,192,144215,1,0,0:0:0:0:
192,192,144215,1,0,0:0:0:0:
448,192,144290,1,0,0:0:0:0:
320,192,144365,1,0,0:0:0:0:
192,192,144440,1,0,0:0:0:0:
448,192,144515,1,0,0:0:0:0:
64,192,144515,128,0,144815:0:0:0:0:
320,192,144515,1,0,0:0:0:0:
448,192,144815,128,0,145715:0:0:0:0:
192,192,144815,1,0,0:0:0:0:
64,192,145715,1,0,0:0:0:0:
320,192,145715,1,0,0:0:0:0:
64,192,145865,1,0,0:0:0:0:
192,192,145865,1,0,0:0:0:0:
192,192,146015,1,0,0:0:0:0:
448,192,146015,1,0,0:0:0:0:
320,192,146090,1,0,0:0:0:0:
448,192,146165,1,0,0:0:0:0:
64,192,146165,1,0,0:0:0:0:
320,192,146315,1,0,0:0:0:0:
192,192,146315,1,0,0:0:0:0:
448,192,146465,1,0,0:0:0:0:
64,192,146465,1,0,0:0:0:0:
192,192,146615,1,0,0:0:0:0:
448,192,146615,1,0,0:0:0:0:
320,192,146690,1,0,0:0:0:0:
64,192,146765,1,0,0:0:0:0:
192,192,146765,1,0,0:0:0:0:
320,192,146915,1,0,0:0:0:0:
448,192,146915,1,0,0:0:0:0:
320,192,147065,1,0,0:0:0:0:
64,192,147065,1,0,0:0:0:0:
192,192,147215,1,0,0:0:0:0:
64,192,147215,1,0,0:0:0:0:
320,192,147290,1,0,0:0:0:0:
64,192,147365,1,0,0:0:0:0:
448,192,147365,1,0,0:0:0:0:
192,192,147515,1,0,0:0:0:0:
320,192,147515,1,0,0:0:0:0:
320,192,147665,1,0,0:0:0:0:
448,192,147665,1,0,0:0:0:0:
64,192,147815,1,0,0:0:0:0:
192,192,147815,1,0,0:0:0:0:
320,192,147890,1,0,0:0:0:0:
64,192,147965,1,0,0:0:0:0:
448,192,147965,1,0,0:0:0:0:
320,192,148115,1,0,0:0:0:0:
448,192,148115,1,0,0:0:0:0:
320,192,148265,1,0,0:0:0:0:
64,192,148265,1,0,0:0:0:0:
192,192,148415,1,0,0:0:0:0:
448,192,148415,1,0,0:0:0:0:
320,192,148490,1,0,0:0:0:0:
64,192,148565,1,0,0:0:0:0:
192,192,148565,1,0,0:0:0:0:
320,192,148715,1,0,0:0:0:0:
448,192,148715,1,0,0:0:0:0:
448,192,148865,1,0,0:0:0:0:
64,192,148865,1,0,0:0:0:0:
64,192,149015,1,0,0:0:0:0:
192,192,149015,1,0,0:0:0:0:
320,192,149090,1,0,0:0:0:0:
448,192,149165,1,0,0:0:0:0:
64,192,149165,1,0,0:0:0:0:
320,192,149315,1,0,0:0:0:0:
448,192,149315,1,0,0:0:0:0:
64,192,149465,1,0,0:0:0:0:
192,192,149465,1,0,0:0:0:0:
320,192,149615,1,0,0:0:0:0:
448,192,149615,1,0,0:0:0:0:
192,192,149690,1,0,0:0:0:0:
64,192,149765,1,0,0:0:0:0:
448,192,149765,1,0,0:0:0:0:
192,192,149915,1,0,0:0:0:0:
64,192,149915,1,0,0:0:0:0:
320,192,150065,1,0,0:0:0:0:
448,192,150065,1,0,0:0:0:0:
192,192,150215,1,0,0:0:0:0:
64,192,150215,1,0,0:0:0:0:
320,192,150265,1,0,0:0:0:0:
448,192,150265,1,0,0:0:0:0:
192,192,150315,1,0,0:0:0:0:
64,192,150315,1,0,0:0:0:0:
320,192,150365,128,0,150515:0:0:0:0:
448,192,150365,128,0,150515:0:0:0:0:
64,192,150515,1,0,0:0:0:0:
192,192,150515,1,0,0:0:0:0:
192,192,150665,1,0,0:0:0:0:
320,192,150665,1,0,0:0:0:0:
64,192,150815,1,0,0:0:0:0:
448,192,150815,1,0,0:0:0:0:
192,192,150890,1,0,0:0:0:0:
448,192,150965,1,0,0:0:0:0:
320,192,150965,1,0,0:0:0:0:
192,192,151115,1,0,0:0:0:0:
64,192,151115,1,0,0:0:0:0:
192,192,151265,1,0,0:0:0:0:
448,192,151265,1,0,0:0:0:0:
320,192,151415,1,0,0:0:0:0:
448,192,151415,1,0,0:0:0:0:
192,192,151490,1,0,0:0:0:0:
448,192,151565,1,0,0:0:0:0:
64,192,151565,1,0,0:0:0:0:
192,192,151715,1,0,0:0:0:0:
320,192,151715,1,0,0:0:0:0:
64,192,151865,1,0,0:0:0:0:
320,192,151865,1,0,0:0:0:0:
448,192,152015,1,0,0:0:0:0:
192,192,152015,1,0,0:0:0:0:
320,192,152090,1,0,0:0:0:0:
64,192,152165,1,0,0:0:0:0:
192,192,152165,1,0,0:0:0:0:
320,192,152315,1,0,0:0:0:0:
448,192,152315,1,0,0:0:0:0:
448,192,152465,1,0,0:0:0:0:
64,192,152465,1,0,0:0:0:0:
64,192,152615,1,0,0:0:0:0:
320,192,152615,1,0,0:0:0:0:
192,192,152690,1,0,0:0:0:0:
448,192,152765,1,0,0:0:0:0:
320,192,152765,1,0,0:0:0:0:
64,192,152915,1,0,0:0:0:0:
448,192,152915,1,0,0:0:0:0:
64,192,153065,5,0,0:0:0:0:
192,192,153065,1,0,0:0:0:0:
320,192,153215,1,0,0:0:0:0:
448,192,153215,1,0,0:0:0:0:
192,192,153290,1,0,0:0:0:0:
448,192,153365,1,0,0:0:0:0:
64,192,153365,1,0,0:0:0:0:
192,192,153515,1,0,0:0:0:0:
320,192,153515,1,0,0:0:0:0:
64,192,153665,1,0,0:0:0:0:
192,192,153665,1,0,0:0:0:0:
320,192,153815,1,0,0:0:0:0:
448,192,153815,1,0,0:0:0:0:
192,192,153890,1,0,0:0:0:0:
320,192,153965,1,0,0:0:0:0:
448,192,153965,1,0,0:0:0:0:
64,192,154115,1,0,0:0:0:0:
192,192,154115,1,0,0:0:0:0:
320,192,154190,1,0,0:0:0:0:
448,192,154190,1,0,0:0:0:0:
192,192,154265,1,0,0:0:0:0:
64,192,154265,1,0,0:0:0:0:
448,192,154340,1,0,0:0:0:0:
320,192,154415,1,0,0:0:0:0:
192,192,154490,1,0,0:0:0:0:
448,192,154565,1,0,0:0:0:0:
64,192,154565,1,0,0:0:0:0:
320,192,154640,1,0,0:0:0:0:
192,192,154715,1,0,0:0:0:0:
64,192,154790,1,0,0:0:0:0:
448,192,154865,1,0,0:0:0:0:
320,192,154940,1,0,0:0:0:0:
64,192,155015,1,0,0:0:0:0:
192,192,155015,1,0,0:0:0:0:
320,192,155090,1,0,0:0:0:0:
448,192,155090,1,0,0:0:0:0:
192,192,155165,1,0,0:0:0:0:
64,192,155165,1,0,0:0:0:0:
64,192,155315,5,0,0:0:0:0:
192,192,155315,1,0,0:0:0:0:
448,192,155315,1,0,0:0:0:0:
320,192,155390,1,0,0:0:0:0:
448,192,155465,1,0,0:0:0:0:
64,192,155540,1,0,0:0:0:0:
192,192,155615,1,0,0:0:0:0:
320,192,155615,1,0,0:0:0:0:
448,192,155690,1,0,0:0:0:0:
64,192,155765,1,0,0:0:0:0:
192,192,155840,1,0,0:0:0:0:
448,192,155915,1,0,0:0:0:0:
320,192,155915,1,0,0:0:0:0:
64,192,155990,1,0,0:0:0:0:
192,192,156065,1,0,0:0:0:0:
320,192,156140,1,0,0:0:0:0:
448,192,156215,1,0,0:0:0:0:
64,192,156215,1,0,0:0:0:0:
192,192,156290,1,0,0:0:0:0:
320,192,156365,1,0,0:0:0:0:
448,192,156440,1,0,0:0:0:0:
192,192,156515,1,0,0:0:0:0:
64,192,156515,1,0,0:0:0:0:
448,192,156590,1,0,0:0:0:0:
320,192,156665,1,0,0:0:0:0:
192,192,156740,1,0,0:0:0:0:
64,192,156815,1,0,0:0:0:0:
448,192,156815,1,0,0:0:0:0:
320,192,156890,1,0,0:0:0:0:
192,192,156965,1,0,0:0:0:0:
64,192,157040,1,0,0:0:0:0:
320,192,157115,1,0,0:0:0:0:
448,192,157115,1,0,0:0:0:0:
192,192,157190,1,0,0:0:0:0:
64,192,157265,1,0,0:0:0:0:
320,192,157340,1,0,0:0:0:0:
192,192,157415,1,0,0:0:0:0:
448,192,157415,1,0,0:0:0:0:
64,192,157490,1,0,0:0:0:0:
320,192,157565,1,0,0:0:0:0:
192,192,157640,1,0,0:0:0:0:
64,192,157715,1,0,0:0:0:0:
448,192,157715,1,0,0:0:0:0:
320,192,157790,1,0,0:0:0:0:
192,192,157865,1,0,0:0:0:0:
448,192,157940,1,0,0:0:0:0:
64,192,158015,1,0,0:0:0:0:
320,192,158015,1,0,0:0:0:0:
192,192,158090,1,0,0:0:0:0:
320,192,158165,1,0,0:0:0:0:
448,192,158240,1,0,0:0:0:0:
64,192,158315,1,0,0:0:0:0:
192,192,158315,1,0,0:0:0:0:
320,192,158390,1,0,0:0:0:0:
448,192,158465,1,0,0:0:0:0:
64,192,158465,1,0,0:0:0:0:
192,192,158540,1,0,0:0:0:0:
320,192,158615,1,0,0:0:0:0:
448,192,158615,1,0,0:0:0:0:
64,192,158690,1,0,0:0:0:0:
192,192,158765,1,0,0:0:0:0:
320,192,158840,1,0,0:0:0:0:
64,192,158915,1,0,0:0:0:0:
192,192,158915,1,0,0:0:0:0:
448,192,158990,1,0,0:0:0:0:
320,192,158990,1,0,0:0:0:0:
64,192,159065,1,0,0:0:0:0:
192,192,159065,1,0,0:0:0:0:
320,192,159140,1,0,0:0:0:0:
448,192,159140,1,0,0:0:0:0:
64,192,159215,1,0,0:0:0:0:
192,192,159215,1,0,0:0:0:0:
320,192,159290,1,0,0:0:0:0:
448,192,159290,1,0,0:0:0:0:
192,192,159365,1,0,0:0:0:0:
64,192,159440,1,0,0:0:0:0:
320,192,159515,1,0,0:0:0:0:
192,192,159590,1,0,0:0:0:0:
448,192,159665,1,0,0:0:0:0:
320,192,159740,1,0,0:0:0:0:
64,192,159815,1,0,0:0:0:0:
192,192,159890,1,0,0:0:0:0:
448,192,159965,1,0,0:0:0:0:
320,192,160040,1,0,0:0:0:0:
64,192,160115,1,0,0:0:0:0:
192,192,160115,1,0,0:0:0:0:
320,192,160190,1,0,0:0:0:0:
192,192,160265,1,0,0:0:0:0:
64,192,160340,1,0,0:0:0:0:
320,192,160415,1,0,0:0:0:0:
448,192,160415,1,0,0:0:0:0:
192,192,160490,1,0,0:0:0:0:
64,192,160565,1,0,0:0:0:0:
320,192,160640,1,0,0:0:0:0:
192,192,160715,1,0,0:0:0:0:
448,192,160715,1,0,0:0:0:0:
64,192,160790,1,0,0:0:0:0:
320,192,160865,1,0,0:0:0:0:
448,192,160940,1,0,0:0:0:0:
64,192,161015,1,0,0:0:0:0:
192,192,161015,1,0,0:0:0:0:
320,192,161090,1,0,0:0:0:0:
448,192,161165,1,0,0:0:0:0:
192,192,161240,1,0,0:0:0:0:
320,192,161315,1,0,0:0:0:0:
64,192,161315,1,0,0:0:0:0:
448,192,161390,1,0,0:0:0:0:
192,192,161465,1,0,0:0:0:0:
320,192,161540,1,0,0:0:0:0:
448,192,161615,1,0,0:0:0:0:
64,192,161615,1,0,0:0:0:0:
192,192,161690,1,0,0:0:0:0:
320,192,161765,1,0,0:0:0:0:
448,192,161840,1,0,0:0:0:0:
64,192,161915,1,0,0:0:0:0:
192,192,161915,1,0,0:0:0:0:
448,192,161990,1,0,0:0:0:0:
320,192,162065,1,0,0:0:0:0:
192,192,162140,1,0,0:0:0:0:
64,192,162215,1,0,0:0:0:0:
448,192,162215,1,0,0:0:0:0:
320,192,162290,1,0,0:0:0:0:
192,192,162365,1,0,0:0:0:0:
320,192,162440,1,0,0:0:0:0:
64,192,162515,1,0,0:0:0:0:
448,192,162515,1,0,0:0:0:0:
192,192,162590,1,0,0:0:0:0:
320,192,162665,1,0,0:0:0:0:
448,192,162740,1,0,0:0:0:0:
64,192,162815,1,0,0:0:0:0:
192,192,162815,1,0,0:0:0:0:
320,192,162890,1,0,0:0:0:0:
192,192,162965,1,0,0:0:0:0:
64,192,163040,1,0,0:0:0:0:
320,192,163115,1,0,0:0:0:0:
448,192,163115,1,0,0:0:0:0:
64,192,163190,1,0,0:0:0:0:
192,192,163265,1,0,0:0:0:0:
320,192,163340,1,0,0:0:0:0:
448,192,163415,1,0,0:0:0:0:
64,192,163415,1,0,0:0:0:0:
192,192,163490,1,0,0:0:0:0:
320,192,163565,1,0,0:0:0:0:
448,192,163640,1,0,0:0:0:0:
64,192,163715,1,0,0:0:0:0:
192,192,163715,1,0,0:0:0:0:
320,192,163790,1,0,0:0:0:0:
448,192,163865,1,0,0:0:0:0:
192,192,163940,1,0,0:0:0:0:
320,192,164015,1,0,0:0:0:0:
64,192,164015,1,0,0:0:0:0:
448,192,164090,1,0,0:0:0:0:
64,192,164165,1,0,0:0:0:0:
192,192,164240,1,0,0:0:0:0:
448,192,164315,1,0,0:0:0:0:
320,192,164315,1,0,0:0:0:0:
192,192,164390,1,0,0:0:0:0:
64,192,164390,1,0,0:0:0:0:
320,192,164465,1,0,0:0:0:0:
448,192,164465,1,0,0:0:0:0:
64,192,164540,1,0,0:0:0:0:
192,192,164540,1,0,0:0:0:0:
320,192,164615,1,0,0:0:0:0:
448,192,164615,1,0,0:0:0:0:
64,192,164690,1,0,0:0:0:0:
192,192,164765,1,0,0:0:0:0:
320,192,164840,1,0,0:0:0:0:
64,192,164915,1,0,0:0:0:0:
448,192,164915,1,0,0:0:0:0:
192,192,164915,1,0,0:0:0:0:
320,192,165065,1,0,0:0:0:0:
448,192,165065,1,0,0:0:0:0:
64,192,165215,1,0,0:0:0:0:
192,192,165215,1,0,0:0:0:0:
320,192,165290,1,0,0:0:0:0:
64,192,165365,1,0,0:0:0:0:
448,192,165365,1,0,0:0:0:0:
192,192,165515,1,0,0:0:0:0:
320,192,165515,1,0,0:0:0:0:
320,192,165665,1,0,0:0:0:0:
448,192,165665,1,0,0:0:0:0:
192,192,165815,1,0,0:0:0:0:
64,192,165815,1,0,0:0:0:0:
448,192,165890,1,0,0:0:0:0:
192,192,165965,1,0,0:0:0:0:
320,192,165965,1,0,0:0:0:0:
320,192,166115,1,0,0:0:0:0:
64,192,166115,1,0,0:0:0:0:
192,192,166265,1,0,0:0:0:0:
448,192,166265,1,0,0:0:0:0:
320,192,166415,1,0,0:0:0:0:
448,192,166415,1,0,0:0:0:0:
192,192,166490,1,0,0:0:0:0:
320,192,166565,1,0,0:0:0:0:
64,192,166565,1,0,0:0:0:0:
192,192,166715,1,0,0:0:0:0:
448,192,166715,1,0,0:0:0:0:
64,192,166865,1,0,0:0:0:0:
320,192,166865,1,0,0:0:0:0:
64,192,167015,1,0,0:0:0:0:
192,192,167015,1,0,0:0:0:0:
448,192,167090,1,0,0:0:0:0:
192,192,167165,1,0,0:0:0:0:
320,192,167165,1,0,0:0:0:0:
448,192,167315,1,0,0:0:0:0:
64,192,167315,1,0,0:0:0:0:
64,192,167465,1,0,0:0:0:0:
320,192,167465,1,0,0:0:0:0:
448,192,167615,1,0,0:0:0:0:
192,192,167615,1,0,0:0:0:0:
320,192,167690,1,0,0:0:0:0:
64,192,167765,1,0,0:0:0:0:
192,192,167765,1,0,0:0:0:0:
320,192,167915,1,0,0:0:0:0:
448,192,167915,1,0,0:0:0:0:
320,192,168065,1,0,0:0:0:0:
64,192,168065,1,0,0:0:0:0:
64,192,168215,1,0,0:0:0:0:
192,192,168215,1,0,0:0:0:0:
320,192,168290,1,0,0:0:0:0:
192,192,168365,1,0,0:0:0:0:
448,192,168365,1,0,0:0:0:0:
64,192,168515,1,0,0:0:0:0:
320,192,168515,1,0,0:0:0:0:
320,192,168665,1,0,0:0:0:0:
192,192,168665,1,0,0:0:0:0:
64,192,168815,1,0,0:0:0:0:
448,192,168815,1,0,0:0:0:0:
192,192,168890,1,0,0:0:0:0:
448,192,168965,1,0,0:0:0:0:
320,192,168965,1,0,0:0:0:0:
64,192,169115,1,0,0:0:0:0:
192,192,169115,1,0,0:0:0:0:
320,192,169265,1,0,0:0:0:0:
448,192,169265,1,0,0:0:0:0:
320,192,169415,1,0,0:0:0:0:
448,192,169415,1,0,0:0:0:0:
64,192,169490,1,0,0:0:0:0:
192,192,169490,1,0,0:0:0:0:
448,192,169565,128,0,169715:0:0:0:0:
320,192,169565,128,0,169715:0:0:0:0:
192,192,169715,1,0,0:0:0:0:
64,192,169715,1,0,0:0:0:0:
320,192,169865,1,0,0:0:0:0:
448,192,169865,1,0,0:0:0:0:
192,192,170015,1,0,0:0:0:0:
64,192,170015,1,0,0:0:0:0:
448,192,170090,1,0,0:0:0:0:
192,192,170165,1,0,0:0:0:0:
320,192,170165,1,0,0:0:0:0:
320,192,170315,1,0,0:0:0:0:
64,192,170315,1,0,0:0:0:0:
64,192,170465,1,0,0:0:0:0:
448,192,170465,1,0,0:0:0:0:
320,192,170615,1,0,0:0:0:0:
448,192,170615,1,0,0:0:0:0:
192,192,170690,1,0,0:0:0:0:
320,192,170765,1,0,0:0:0:0:
64,192,170765,1,0,0:0:0:0:
192,192,170915,1,0,0:0:0:0:
448,192,170915,1,0,0:0:0:0:
448,192,171065,1,0,0:0:0:0:
320,192,171065,1,0,0:0:0:0:
64,192,171215,1,0,0:0:0:0:
192,192,171215,1,0,0:0:0:0:
320,192,171290,1,0,0:0:0:0:
64,192,171365,1,0,0:0:0:0:
448,192,171365,1,0,0:0:0:0:
320,192,171515,1,0,0:0:0:0:
448,192,171515,1,0,0:0:0:0:
320,192,171665,1,0,0:0:0:0:
64,192,171665,1,0,0:0:0:0:
64,192,171815,1,0,0:0:0:0:
192,192,171815,1,0,0:0:0:0:
448,192,171890,1,0,0:0:0:0:
192,192,171965,1,0,0:0:0:0:
320,192,171965,1,0,0:0:0:0:
320,192,172115,1,0,0:0:0:0:
64,192,172115,1,0,0:0:0:0:
192,192,172265,1,0,0:0:0:0:
448,192,172265,1,0,0:0:0:0:
320,192,172415,1,0,0:0:0:0:
448,192,172415,1,0,0:0:0:0:
64,192,172490,1,0,0:0:0:0:
320,192,172565,1,0,0:0:0:0:
192,192,172565,1,0,0:0:0:0:
320,192,172715,1,0,0:0:0:0:
448,192,172715,1,0,0:0:0:0:
448,192,172865,1,0,0:0:0:0:
64,192,172865,1,0,0:0:0:0:
64,192,173015,1,0,0:0:0:0:
192,192,173015,1,0,0:0:0:0:
320,192,173090,1,0,0:0:0:0:
192,192,173165,1,0,0:0:0:0:
448,192,173165,1,0,0:0:0:0:
192,192,173315,1,0,0:0:0:0:
64,192,173315,1,0,0:0:0:0:
64,192,173465,5,0,0:0:0:0:
448,192,173465,1,0,0:0:0:0:
192,192,173615,1,0,0:0:0:0:
320,192,173615,1,0,0:0:0:0:
64,192,173690,1,0,0:0:0:0:
448,192,173765,1,0,0:0:0:0:
320,192,173765,1,0,0:0:0:0:
192,192,173915,1,0,0:0:0:0:
64,192,173915,1,0,0:0:0:0:
320,192,173990,1,0,0:0:0:0:
448,192,173990,1,0,0:0:0:0:
192,192,174065,1,0,0:0:0:0:
64,192,174140,1,0,0:0:0:0:
448,192,174215,1,0,0:0:0:0:
320,192,174290,1,0,0:0:0:0:
192,192,174365,1,0,0:0:0:0:
320,192,174440,1,0,0:0:0:0:
64,192,174515,5,0,0:0:0:0:
192,192,174515,1,0,0:0:0:0:
448,192,174515,1,0,0:0:0:0:
320,192,174590,1,0,0:0:0:0:
64,192,174665,1,0,0:0:0:0:
448,192,174665,1,0,0:0:0:0:
192,192,174740,1,0,0:0:0:0:
320,192,174815,1,0,0:0:0:0:
448,192,174815,1,0,0:0:0:0:
64,192,174890,1,0,0:0:0:0:
192,192,174965,1,0,0:0:0:0:
320,192,174965,1,0,0:0:0:0:
448,192,175040,1,0,0:0:0:0:
64,192,175115,1,0,0:0:0:0:
192,192,175115,1,0,0:0:0:0:
320,192,175190,1,0,0:0:0:0:
448,192,175265,1,0,0:0:0:0:
192,192,175265,1,0,0:0:0:0:
64,192,175340,1,0,0:0:0:0:
320,192,175415,1,0,0:0:0:0:
448,192,175415,1,0,0:0:0:0:
192,192,175490,1,0,0:0:0:0:
64,192,175565,1,0,0:0:0:0:
320,192,175565,1,0,0:0:0:0:
448,192,175640,1,0,0:0:0:0:
64,192,175715,1,0,0:0:0:0:
192,192,175715,1,0,0:0:0:0:
320,192,175790,1,0,0:0:0:0:
448,192,175865,1,0,0:0:0:0:
64,192,175865,1,0,0:0:0:0:
192,192,175940,1,0,0:0:0:0:
320,192,176015,1,0,0:0:0:0:
448,192,176015,1,0,0:0:0:0:
192,192,176090,1,0,0:0:0:0:
64,192,176165,1,0,0:0:0:0:
320,192,176165,1,0,0:0:0:0:
448,192,176240,1,0,0:0:0:0:
64,192,176315,1,0,0:0:0:0:
192,192,176315,1,0,0:0:0:0:
320,192,176390,1,0,0:0:0:0:
448,192,176465,1,0,0:0:0:0:
192,192,176465,1,0,0:0:0:0:
64,192,176540,1,0,0:0:0:0:
320,192,176615,1,0,0:0:0:0:
448,192,176615,1,0,0:0:0:0:
192,192,176690,1,0,0:0:0:0:
64,192,176765,1,0,0:0:0:0:
320,192,176765,1,0,0:0:0:0:
192,192,176840,1,0,0:0:0:0:
448,192,176915,1,0,0:0:0:0:
320,192,176915,1,0,0:0:0:0:
192,192,176990,1,0,0:0:0:0:
64,192,177065,1,0,0:0:0:0:
448,192,177065,1,0,0:0:0:0:
320,192,177140,1,0,0:0:0:0:
192,192,177215,1,0,0:0:0:0:
448,192,177215,1,0,0:0:0:0:
64,192,177290,1,0,0:0:0:0:
320,192,177365,1,0,0:0:0:0:
192,192,177365,1,0,0:0:0:0:
448,192,177440,1,0,0:0:0:0:
64,192,177515,1,0,0:0:0:0:
192,192,177515,1,0,0:0:0:0:
320,192,177590,1,0,0:0:0:0:
448,192,177665,1,0,0:0:0:0:
64,192,177665,1,0,0:0:0:0:
192,192,177740,1,0,0:0:0:0:
320,192,177815,1,0,0:0:0:0:
448,192,177815,1,0,0:0:0:0:
64,192,177890,1,0,0:0:0:0:
192,192,177965,1,0,0:0:0:0:
320,192,177965,1,0,0:0:0:0:
448,192,178040,1,0,0:0:0:0:
64,192,178115,1,0,0:0:0:0:
192,192,178115,1,0,0:0:0:0:
448,192,178190,1,0,0:0:0:0:
320,192,178265,1,0,0:0:0:0:
64,192,178265,1,0,0:0:0:0:
192,192,178340,1,0,0:0:0:0:
320,192,178415,1,0,0:0:0:0:
448,192,178415,1,0,0:0:0:0:
64,192,178490,1,0,0:0:0:0:
192,192,178565,1,0,0:0:0:0:
448,192,178565,1,0,0:0:0:0:
320,192,178640,1,0,0:0:0:0:
192,192,178715,1,0,0:0:0:0:
64,192,178715,1,0,0:0:0:0:
320,192,178790,1,0,0:0:0:0:
448,192,178865,1,0,0:0:0:0:
64,192,178865,1,0,0:0:0:0:
192,192,178940,1,0,0:0:0:0:
448,192,179015,1,0,0:0:0:0:
320,192,179015,1,0,0:0:0:0:
64,192,179090,1,0,0:0:0:0:
320,192,179165,1,0,0:0:0:0:
192,192,179165,1,0,0:0:0:0:
448,192,179240,1,0,0:0:0:0:
64,192,179315,1,0,0:0:0:0:
192,192,179315,1,0,0:0:0:0:
320,192,179390,1,0,0:0:0:0:
448,192,179465,1,0,0:0:0:0:
192,192,179465,1,0,0:0:0:0:
320,192,179540,1,0,0:0:0:0:
64,192,179615,1,0,0:0:0:0:
448,192,179615,1,0,0:0:0:0:
192,192,179690,1,0,0:0:0:0:
320,192,179765,1,0,0:0:0:0:
64,192,179765,1,0,0:0:0:0:
448,192,179840,1,0,0:0:0:0:
64,192,179915,1,0,0:0:0:0:
192,192,179915,1,0,0:0:0:0:
320,192,179990,1,0,0:0:0:0:
448,192,180065,1,0,0:0:0:0:
192,192,180065,1,0,0:0:0:0:
64,192,180140,1,0,0:0:0:0:
320,192,180215,1,0,0:0:0:0:
448,192,180215,1,0,0:0:0:0:
192,192,180290,1,0,0:0:0:0:
64,192,180365,1,0,0:0:0:0:
320,192,180365,1,0,0:0:0:0:
448,192,180440,1,0,0:0:0:0:
64,192,180515,1,0,0:0:0:0:
192,192,180515,1,0,0:0:0:0:
320,192,180590,1,0,0:0:0:0:
448,192,180665,1,0,0:0:0:0:
192,192,180665,1,0,0:0:0:0:
64,192,180740,1,0,0:0:0:0:
320,192,180815,1,0,0:0:0:0:
448,192,180815,1,0,0:0:0:0:
192,192,180890,1,0,0:0:0:0:
64,192,180965,1,0,0:0:0:0:
320,192,181040,1,0,0:0:0:0:
192,192,181115,1,0,0:0:0:0:
448,192,181115,1,0,0:0:0:0:
64,192,181190,1,0,0:0:0:0:
320,192,181265,1,0,0:0:0:0:
448,192,181340,1,0,0:0:0:0:
64,192,181415,1,0,0:0:0:0:
192,192,181415,1,0,0:0:0:0:
320,192,181490,1,0,0:0:0:0:
448,192,181565,1,0,0:0:0:0:
320,192,181640,1,0,0:0:0:0:
64,192,181715,1,0,0:0:0:0:
192,192,181715,1,0,0:0:0:0:
320,192,181790,5,0,0:0:0:0:
448,192,181790,1,0,0:0:0:0:
192,192,181865,1,0,0:0:0:0:
64,192,181865,1,0,0:0:0:0:
320,192,181940,1,0,0:0:0:0:
448,192,181940,1,0,0:0:0:0:
192,192,182015,1,0,0:0:0:0:
64,192,182015,1,0,0:0:0:0:
320,192,182090,1,0,0:0:0:0:
448,192,182090,1,0,0:0:0:0:
192,192,182165,1,0,0:0:0:0:
64,192,182165,1,0,0:0:0:0:
320,192,182240,1,0,0:0:0:0:
448,192,182240,1,0,0:0:0:0:
192,192,182315,1,0,0:0:0:0:
64,192,182315,1,0,0:0:0:0:
320,192,182390,1,0,0:0:0:0:
448,192,182390,1,0,0:0:0:0:
192,192,182465,1,0,0:0:0:0:
64,192,182465,1,0,0:0:0:0:
320,192,182540,1,0,0:0:0:0:
448,192,182540,1,0,0:0:0:0:
192,192,182615,1,0,0:0:0:0:
64,192,182615,1,0,0:0:0:0:
320,192,182690,1,0,0:0:0:0:
448,192,182690,1,0,0:0:0:0:
192,192,182765,1,0,0:0:0:0:
64,192,182765,1,0,0:0:0:0:
320,192,182840,1,0,0:0:0:0:
64,192,182915,5,0,0:0:0:0:
448,192,182915,1,0,0:0:0:0:
192,192,182915,1,0,0:0:0:0:
64,192,184115,1,0,0:0:0:0:
320,192,184115,1,0,0:0:0:0:
448,192,184115,1,0,0:0:0:0:
192,192,184190,1,0,0:0:0:0:
320,192,184265,1,0,0:0:0:0:
448,192,184265,1,0,0:0:0:0:
64,192,184340,1,0,0:0:0:0:
192,192,184415,1,0,0:0:0:0:
320,192,184415,1,0,0:0:0:0:
448,192,184490,1,0,0:0:0:0:
64,192,184565,1,0,0:0:0:0:
192,192,184565,1,0,0:0:0:0:
448,192,184640,1,0,0:0:0:0:
320,192,184715,1,0,0:0:0:0:
192,192,184715,1,0,0:0:0:0:
64,192,184790,1,0,0:0:0:0:
448,192,184865,1,0,0:0:0:0:
320,192,184865,1,0,0:0:0:0:
192,192,184940,1,0,0:0:0:0:
64,192,185015,1,0,0:0:0:0:
448,192,185015,1,0,0:0:0:0:
320,192,185090,1,0,0:0:0:0:
192,192,185165,1,0,0:0:0:0:
64,192,185165,1,0,0:0:0:0:
448,192,185240,1,0,0:0:0:0:
320,192,185315,1,0,0:0:0:0:
192,192,185315,1,0,0:0:0:0:
64,192,185390,1,0,0:0:0:0:
320,192,185465,1,0,0:0:0:0:
448,192,185465,1,0,0:0:0:0:
64,192,185540,1,0,0:0:0:0:
192,192,185615,1,0,0:0:0:0:
320,192,185615,1,0,0:0:0:0:
448,192,185690,1,0,0:0:0:0:
64,192,185765,1,0,0:0:0:0:
192,192,185765,1,0,0:0:0:0:
320,192,185840,1,0,0:0:0:0:
448,192,185915,1,0,0:0:0:0:
192,192,185915,1,0,0:0:0:0:
64,192,185990,1,0,0:0:0:0:
320,192,186065,1,0,0:0:0:0:
448,192,186065,1,0,0:0:0:0:
64,192,186140,1,0,0:0:0:0:
192,192,186215,1,0,0:0:0:0:
320,192,186215,1,0,0:0:0:0:
448,192,186290,1,0,0:0:0:0:
64,192,186365,1,0,0:0:0:0:
192,192,186365,1,0,0:0:0:0:
448,192,186440,1,0,0:0:0:0:
320,192,186515,1,0,0:0:0:0:
192,192,186515,1,0,0:0:0:0:
64,192,186590,1,0,0:0:0:0:
448,192,186665,1,0,0:0:0:0:
320,192,186665,1,0,0:0:0:0:
192,192,186740,1,0,0:0:0:0:
64,192,186815,1,0,0:0:0:0:
448,192,186815,1,0,0:0:0:0:
320,192,186890,1,0,0:0:0:0:
192,192,186965,1,0,0:0:0:0:
64,192,186965,1,0,0:0:0:0:
448,192,187040,1,0,0:0:0:0:
320,192,187115,1,0,0:0:0:0:
192,192,187115,1,0,0:0:0:0:
64,192,187190,1,0,0:0:0:0:
320,192,187265,1,0,0:0:0:0:
448,192,187265,1,0,0:0:0:0:
64,192,187340,1,0,0:0:0:0:
192,192,187415,1,0,0:0:0:0:
320,192,187415,1,0,0:0:0:0:
448,192,187490,1,0,0:0:0:0:
64,192,187565,1,0,0:0:0:0:
192,192,187565,1,0,0:0:0:0:
320,192,187640,1,0,0:0:0:0:
448,192,187715,1,0,0:0:0:0:
192,192,187715,1,0,0:0:0:0:
64,192,187790,1,0,0:0:0:0:
448,192,187865,1,0,0:0:0:0:
320,192,187865,1,0,0:0:0:0:
64,192,187940,1,0,0:0:0:0:
320,192,188015,1,0,0:0:0:0:
192,192,188015,1,0,0:0:0:0:
448,192,188090,1,0,0:0:0:0:
192,192,188165,1,0,0:0:0:0:
64,192,188165,1,0,0:0:0:0:
448,192,188240,1,0,0:0:0:0:
192,192,188315,1,0,0:0:0:0:
320,192,188315,1,0,0:0:0:0:
64,192,188390,1,0,0:0:0:0:
320,192,188465,1,0,0:0:0:0:
448,192,188465,1,0,0:0:0:0:
192,192,188540,1,0,0:0:0:0:
448,192,188615,1,0,0:0:0:0:
64,192,188615,1,0,0:0:0:0:
320,192,188690,1,0,0:0:0:0:
64,192,188765,1,0,0:0:0:0:
192,192,188765,1,0,0:0:0:0:
448,192,188840,1,0,0:0:0:0:
192,192,188915,1,0,0:0:0:0:
320,192,188915,1,0,0:0:0:0:
64,192,188990,1,0,0:0:0:0:
448,192,189065,1,0,0:0:0:0:
320,192,189065,1,0,0:0:0:0:
64,192,189140,1,0,0:0:0:0:
320,192,189215,1,0,0:0:0:0:
192,192,189215,1,0,0:0:0:0:
448,192,189290,1,0,0:0:0:0:
192,192,189365,1,0,0:0:0:0:
64,192,189365,1,0,0:0:0:0:
320,192,189440,1,0,0:0:0:0:
192,192,189515,1,0,0:0:0:0:
448,192,189515,1,0,0:0:0:0:
64,192,189590,1,0,0:0:0:0:
320,192,189665,1,0,0:0:0:0:
448,192,189665,1,0,0:0:0:0:
64,192,189740,1,0,0:0:0:0:
192,192,189815,1,0,0:0:0:0:
320,192,189815,1,0,0:0:0:0:
448,192,189890,1,0,0:0:0:0:
64,192,189965,1,0,0:0:0:0:
192,192,189965,1,0,0:0:0:0:
448,192,190040,1,0,0:0:0:0:
320,192,190115,1,0,0:0:0:0:
192,192,190115,1,0,0:0:0:0:
64,192,190190,1,0,0:0:0:0:
448,192,190265,1,0,0:0:0:0:
320,192,190265,1,0,0:0:0:0:
192,192,190340,1,0,0:0:0:0:
64,192,190415,1,0,0:0:0:0:
448,192,190415,1,0,0:0:0:0:
320,192,190490,1,0,0:0:0:0:
192,192,190565,1,0,0:0:0:0:
64,192,190565,1,0,0:0:0:0:
448,192,190640,1,0,0:0:0:0:
320,192,190715,1,0,0:0:0:0:
192,192,190715,1,0,0:0:0:0:
64,192,190790,1,0,0:0:0:0:
320,192,190865,1,0,0:0:0:0:
448,192,190865,1,0,0:0:0:0:
64,192,190940,1,0,0:0:0:0:
192,192,191015,1,0,0:0:0:0:
320,192,191015,1,0,0:0:0:0:
448,192,191090,1,0,0:0:0:0:
64,192,191165,1,0,0:0:0:0:
192,192,191165,1,0,0:0:0:0:
320,192,191240,1,0,0:0:0:0:
448,192,191315,1,0,0:0:0:0:
192,192,191315,1,0,0:0:0:0:
64,192,191390,1,0,0:0:0:0:
320,192,191465,1,0,0:0:0:0:
448,192,191465,1,0,0:0:0:0:
192,192,191540,1,0,0:0:0:0:
64,192,191615,1,0,0:0:0:0:
448,192,191615,1,0,0:0:0:0:
320,192,191690,1,0,0:0:0:0:
64,192,191765,1,0,0:0:0:0:
192,192,191765,1,0,0:0:0:0:
448,192,191840,1,0,0:0:0:0:
320,192,191915,1,0,0:0:0:0:
192,192,191915,1,0,0:0:0:0:
64,192,191990,1,0,0:0:0:0:
448,192,192065,1,0,0:0:0:0:
320,192,192065,1,0,0:0:0:0:
192,192,192140,1,0,0:0:0:0:
64,192,192215,1,0,0:0:0:0:
448,192,192215,1,0,0:0:0:0:
320,192,192290,1,0,0:0:0:0:
192,192,192365,1,0,0:0:0:0:
448,192,192365,1,0,0:0:0:0:
320,192,192440,1,0,0:0:0:0:
64,192,192515,1,0,0:0:0:0:
192,192,192515,1,0,0:0:0:0:
320,192,192590,1,0,0:0:0:0:
448,192,192590,1,0,0:0:0:0:
192,192,192665,1,0,0:0:0:0:
64,192,192665,1,0,0:0:0:0:
320,192,192740,1,0,0:0:0:0:
448,192,192740,1,0,0:0:0:0:
192,192,192815,1,0,0:0:0:0:
64,192,192815,1,0,0:0:0:0:
320,192,192890,1,0,0:0:0:0:
448,192,192890,1,0,0:0:0:0:
192,192,192965,1,0,0:0:0:0:
64,192,192965,1,0,0:0:0:0:
320,192,193040,1,0,0:0:0:0:
448,192,193040,1,0,0:0:0:0:
64,192,193115,1,0,0:0:0:0:
192,192,193115,1,0,0:0:0:0:
320,192,193190,1,0,0:0:0:0:
448,192,193265,1,0,0:0:0:0:
64,192,193340,1,0,0:0:0:0:
192,192,193415,1,0,0:0:0:0:
320,192,193415,1,0,0:0:0:0:
448,192,193490,1,0,0:0:0:0:
192,192,193565,1,0,0:0:0:0:
320,192,193640,1,0,0:0:0:0:
448,192,193715,5,0,0:0:0:0:
192,192,193715,1,0,0:0:0:0:
64,192,193715,1,0,0:0:0:0:
64,192,193865,1,0,0:0:0:0:
320,192,193865,1,0,0:0:0:0:
448,192,193865,1,0,0:0:0:0:
192,192,194015,1,0,0:0:0:0:
320,192,194090,1,0,0:0:0:0:
448,192,194165,1,0,0:0:0:0:
64,192,194165,1,0,0:0:0:0:
192,192,194165,1,0,0:0:0:0:
320,192,194315,1,0,0:0:0:0:
64,192,194465,1,0,0:0:0:0:
448,192,194465,1,0,0:0:0:0:
192,192,194465,1,0,0:0:0:0:
320,192,194615,1,0,0:0:0:0:
192,192,194690,1,0,0:0:0:0:
64,192,194765,1,0,0:0:0:0:
320,192,194765,1,0,0:0:0:0:
448,192,194765,1,0,0:0:0:0:
192,192,194915,1,0,0:0:0:0:
192,192,195065,1,0,0:0:0:0:
448,192,195065,1,0,0:0:0:0:
64,192,195065,1,0,0:0:0:0:
448,192,195215,1,0,0:0:0:0:
320,192,195290,1,0,0:0:0:0:
192,192,195365,1,0,0:0:0:0:
64,192,195365,1,0,0:0:0:0:
448,192,195365,1,0,0:0:0:0:
64,192,195515,1,0,0:0:0:0:
192,192,195665,1,0,0:0:0:0:
320,192,195665,1,0,0:0:0:0:
448,192,195665,1,0,0:0:0:0:
320,192,195815,1,0,0:0:0:0:
192,192,195890,1,0,0:0:0:0:
64,192,195965,1,0,0:0:0:0:
320,192,195965,1,0,0:0:0:0:
448,192,195965,1,0,0:0:0:0:
192,192,196115,1,0,0:0:0:0:
320,192,196265,1,0,0:0:0:0:
448,192,196265,1,0,0:0:0:0:
64,192,196265,1,0,0:0:0:0:
192,192,196415,1,0,0:0:0:0:
320,192,196490,1,0,0:0:0:0:
192,192,196565,1,0,0:0:0:0:
64,192,196565,1,0,0:0:0:0:
448,192,196565,1,0,0:0:0:0:
320,192,196715,1,0,0:0:0:0:
192,192,196865,1,0,0:0:0:0:
448,192,196865,1,0,0:0:0:0:
64,192,196865,1,0,0:0:0:0:
192,192,197015,1,0,0:0:0:0:
320,192,197090,1,0,0:0:0:0:
192,192,197165,1,0,0:0:0:0:
64,192,197165,1,0,0:0:0:0:
448,192,197165,1,0,0:0:0:0:
320,192,197315,1,0,0:0:0:0:
192,192,197465,5,0,0:0:0:0:
448,192,197465,1,0,0:0:0:0:
64,192,197465,1,0,0:0:0:0:
320,192,197615,1,0,0:0:0:0:
192,192,197690,1,0,0:0:0:0:
448,192,197765,1,0,0:0:0:0:
64,192,197765,1,0,0:0:0:0:
320,192,197765,1,0,0:0:0:0:
192,192,197915,1,0,0:0:0:0:
320,192,197990,1,0,0:0:0:0:
448,192,198065,1,0,0:0:0:0:
64,192,198065,1,0,0:0:0:0:
192,192,198065,1,0,0:0:0:0:
320,192,198215,1,0,0:0:0:0:
192,192,198290,1,0,0:0:0:0:
64,192,198365,1,0,0:0:0:0:
448,192,198365,1,0,0:0:0:0:
320,192,198365,1,0,0:0:0:0:
64,192,198515,5,0,0:0:0:0:
448,192,198515,1,0,0:0:0:0:
192,192,198515,1,0,0:0:0:0:
64,192,199715,1,0,0:0:0:0:
192,192,199715,1,0,0:0:0:0:
320,192,199715,1,0,0:0:0:0:
448,192,199715,1,0,0:0:0:0:
64,192,200915,1,0,0:0:0:0:
192,192,200915,1,0,0:0:0:0:
320,192,200990,1,0,0:0:0:0:
448,192,200990,1,0,0:0:0:0:
192,192,201065,1,0,0:0:0:0:
64,192,201065,1,0,0:0:0:0:
320,192,201140,1,0,0:0:0:0:
448,192,201140,1,0,0:0:0:0:
64,192,201215,1,0,0:0:0:0:
192,192,201215,1,0,0:0:0:0:
448,192,201290,1,0,0:0:0:0:
320,192,201290,1,0,0:0:0:0:
64,192,201365,1,0,0:0:0:0:
192,192,201365,1,0,0:0:0:0:
320,192,201440,1,0,0:0:0:0:
448,192,201440,1,0,0:0:0:0:
64,192,201515,1,0,0:0:0:0:
192,192,201590,1,0,0:0:0:0:
448,192,201590,1,0,0:0:0:0:
320,192,201665,1,0,0:0:0:0:
64,192,201665,1,0,0:0:0:0:
448,192,201740,1,0,0:0:0:0:
192,192,201740,1,0,0:0:0:0:
320,192,201815,1,0,0:0:0:0:
64,192,201815,1,0,0:0:0:0:
192,192,201890,1,0,0:0:0:0:
448,192,201890,1,0,0:0:0:0:
320,192,201965,1,0,0:0:0:0:
64,192,201965,1,0,0:0:0:0:
192,192,202040,1,0,0:0:0:0:
64,192,202115,1,0,0:0:0:0:
448,192,202115,128,0,202265:0:0:0:0:
320,192,202115,128,0,202265:0:0:0:0:
192,192,202265,128,0,202415:0:0:0:0:
448,192,202415,1,0,0:0:0:0:
320,192,202415,1,0,0:0:0:0:
64,192,202415,128,0,202565:0:0:0:0:
448,192,202565,128,0,202715:0:0:0:0:
192,192,202715,1,0,0:0:0:0:
64,192,202715,1,0,0:0:0:0:
320,192,202715,128,0,202865:0:0:0:0:
448,192,202865,128,0,203015:0:0:0:0:
64,192,203015,1,0,0:0:0:0:
192,192,203015,1,0,0:0:0:0:
320,192,203015,128,0,203165:0:0:0:0:
64,192,203165,128,0,203315:0:0:0:0:
448,192,203315,1,0,0:0:0:0:
320,192,203315,1,0,0:0:0:0:
192,192,203315,128,0,203465:0:0:0:0:
320,192,203465,128,0,203615:0:0:0:0:
448,192,203615,1,0,0:0:0:0:
192,192,203615,1,0,0:0:0:0:
64,192,203615,128,0,203765:0:0:0:0:
320,192,203765,128,0,203915:0:0:0:0:
64,192,203915,1,0,0:0:0:0:
448,192,203915,1,0,0:0:0:0:
192,192,203915,128,0,204065:0:0:0:0:
320,192,204065,128,0,204215:0:0:0:0:
64,192,204215,1,0,0:0:0:0:
192,192,204215,1,0,0:0:0:0:
448,192,204215,128,0,204365:0:0:0:0:
320,192,204365,128,0,204515:0:0:0:0:
64,192,204515,1,0,0:0:0:0:
448,192,204515,1,0,0:0:0:0:
192,192,204515,128,0,204815:0:0:0:0:
64,192,204815,1,0,0:0:0:0:
448,192,204815,1,0,0:0:0:0:
320,192,204815,128,0,204965:0:0:0:0:
448,192,204965,128,0,205115:0:0:0:0:
320,192,205115,1,0,0:0:0:0:
64,192,205115,1,0,0:0:0:0:
192,192,205115,128,0,205265:0:0:0:0:
64,192,205265,128,0,205415:0:0:0:0:
192,192,205415,1,0,0:0:0:0:
448,192,205415,1,0,0:0:0:0:
320,192,205415,128,0,205565:0:0:0:0:
192,192,205565,128,0,205715:0:0:0:0:
64,192,205715,1,0,0:0:0:0:
320,192,205715,1,0,0:0:0:0:
448,192,205715,128,0,205865:0:0:0:0:
320,192,205865,128,0,206015:0:0:0:0:
64,192,206015,1,0,0:0:0:0:
448,192,206015,1,0,0:0:0:0:
192,192,206015,128,0,206165:0:0:0:0:
64,192,206165,128,0,206315:0:0:0:0:
192,192,206315,1,0,0:0:0:0:
448,192,206315,1,0,0:0:0:0:
320,192,206315,128,0,206465:0:0:0:0:
192,192,206465,128,0,206615:0:0:0:0:
448,192,206615,1,0,0:0:0:0:
64,192,206615,1,0,0:0:0:0:
320,192,206615,128,0,206915:0:0:0:0:
192,192,206915,1,0,0:0:0:0:
448,192,206915,1,0,0:0:0:0:
64,192,206915,128,0,207215:0:0:0:0:
320,192,207215,1,0,0:0:0:0:
192,192,207215,1,0,0:0:0:0:
448,192,207215,128,0,207365:0:0:0:0:
192,192,207365,128,0,207515:0:0:0:0:
64,192,207515,1,0,0:0:0:0:
448,192,207515,1,0,0:0:0:0:
320,192,207515,128,0,207665:0:0:0:0:
64,192,207665,128,0,207815:0:0:0:0:
192,192,207815,1,0,0:0:0:0:
448,192,207815,1,0,0:0:0:0:
320,192,207815,128,0,207965:0:0:0:0:
192,192,207965,128,0,208115:0:0:0:0:
64,192,208115,1,0,0:0:0:0:
320,192,208115,1,0,0:0:0:0:
448,192,208115,128,0,208265:0:0:0:0:
192,192,208265,128,0,208415:0:0:0:0:
448,192,208415,1,0,0:0:0:0:
64,192,208415,1,0,0:0:0:0:
320,192,208415,128,0,208565:0:0:0:0:
64,192,208715,1,0,0:0:0:0:
320,192,208715,1,0,0:0:0:0:
448,192,208715,1,0,0:0:0:0:
192,192,208715,128,0,208865:0:0:0:0:
320,192,208865,128,0,209015:0:0:0:0:
448,192,209015,1,0,0:0:0:0:
64,192,209015,1,0,0:0:0:0:
192,192,209015,128,0,209165:0:0:0:0:
64,192,209165,128,0,209315:0:0:0:0:
192,192,209315,1,0,0:0:0:0:
448,192,209315,1,0,0:0:0:0:
320,192,209315,128,0,209615:0:0:0:0:
64,192,209615,1,0,0:0:0:0:
192,192,209615,1,0,0:0:0:0:
448,192,209615,128,0,209765:0:0:0:0:
64,192,209765,128,0,209915:0:0:0:0:
192,192,209915,1,0,0:0:0:0:
448,192,209915,1,0,0:0:0:0:
320,192,209915,128,0,210065:0:0:0:0:
448,192,210065,128,0,210215:0:0:0:0:
320,192,210215,128,0,210365:0:0:0:0:
192,192,210215,1,0,0:0:0:0:
64,192,210215,1,0,0:0:0:0:
64,192,210365,1,0,0:0:0:0:
192,192,210365,128,0,210515:0:0:0:0:
320,192,210515,1,0,0:0:0:0:
448,192,210515,1,0,0:0:0:0:
192,192,210590,1,0,0:0:0:0:
64,192,210590,1,0,0:0:0:0:
320,192,210665,1,0,0:0:0:0:
448,192,210665,1,0,0:0:0:0:
192,192,210740,1,0,0:0:0:0:
64,192,210740,1,0,0:0:0:0:
448,192,210815,1,0,0:0:0:0:
320,192,210815,1,0,0:0:0:0:
64,192,210890,1,0,0:0:0:0:
192,192,210890,1,0,0:0:0:0:
448,192,210965,1,0,0:0:0:0:
320,192,210965,1,0,0:0:0:0:
64,192,211040,1,0,0:0:0:0:
192,192,211040,1,0,0:0:0:0:
320,192,211115,128,0,211265:0:0:0:0:
448,192,211115,128,0,211265:0:0:0:0:
64,192,211265,1,0,0:0:0:0:
192,192,211265,1,0,0:0:0:0:
320,192,211340,1,0,0:0:0:0:
448,192,211340,1,0,0:0:0:0:
192,192,211415,1,0,0:0:0:0:
64,192,211415,1,0,0:0:0:0:
320,192,211490,1,0,0:0:0:0:
448,192,211565,1,0,0:0:0:0:
192,192,211640,1,0,0:0:0:0:
64,192,211715,1,0,0:0:0:0:
448,192,211715,1,0,0:0:0:0:
320,192,211715,1,0,0:0:0:0:
192,192,211865,128,0,212015:0:0:0:0:
448,192,212015,128,0,212165:0:0:0:0:
64,192,212015,1,0,0:0:0:0:
320,192,212015,1,0,0:0:0:0:
320,192,212165,128,0,212315:0:0:0:0:
64,192,212315,128,0,212465:0:0:0:0:
192,192,212315,1,0,0:0:0:0:
192,192,212465,128,0,212615:0:0:0:0:
320,192,212615,128,0,212765:0:0:0:0:
64,192,212615,1,0,0:0:0:0:
448,192,212615,1,0,0:0:0:0:
64,192,212765,128,0,212915:0:0:0:0:
448,192,212915,128,0,213065:0:0:0:0:
192,192,212915,1,0,0:0:0:0:
192,192,213065,128,0,213215:0:0:0:0:
64,192,213215,1,0,0:0:0:0:
320,192,213215,128,0,213365:0:0:0:0:
448,192,213215,1,0,0:0:0:0:
64,192,213365,128,0,213515:0:0:0:0:
448,192,213515,128,0,213665:0:0:0:0:
192,192,213515,1,0,0:0:0:0:
192,192,213665,128,0,213815:0:0:0:0:
320,192,213815,128,0,213965:0:0:0:0:
448,192,213815,1,0,0:0:0:0:
64,192,213815,1,0,0:0:0:0:
192,192,213965,128,0,214115:0:0:0:0:
448,192,214115,1,0,0:0:0:0:
320,192,214265,128,0,214415:0:0:0:0:
192,192,214415,128,0,214565:0:0:0:0:
64,192,214415,1,0,0:0:0:0:
448,192,214415,1,0,0:0:0:0:
320,192,214715,128,0,214865:0:0:0:0:
64,192,214715,1,0,0:0:0:0:
192,192,214865,128,0,215015:0:0:0:0:
64,192,215015,128,0,215315:0:0:0:0:
320,192,215015,1,0,0:0:0:0:
448,192,215015,1,0,0:0:0:0:
192,192,215165,128,0,215315:0:0:0:0:
448,192,215315,128,0,215615:0:0:0:0:
320,192,215315,1,0,0:0:0:0:
192,192,215390,1,0,0:0:0:0:
64,192,215465,1,0,0:0:0:0:
192,192,215540,1,0,0:0:0:0:
64,192,215615,128,0,215765:0:0:0:0:
320,192,215615,1,0,0:0:0:0:
320,192,215765,128,0,216515:0:0:0:0:
64,192,215915,1,0,0:0:0:0:
192,192,215990,1,0,0:0:0:0:
448,192,216065,1,0,0:0:0:0:
192,192,216140,1,0,0:0:0:0:
64,192,216215,1,0,0:0:0:0:
448,192,216215,1,0,0:0:0:0:
448,192,216515,128,0,216665:0:0:0:0:
192,192,216515,1,0,0:0:0:0:
64,192,216665,128,0,216815:0:0:0:0:
192,192,216815,1,0,0:0:0:0:
320,192,216815,128,0,217115:0:0:0:0:
448,192,216815,1,0,0:0:0:0:
448,192,217115,128,0,217415:0:0:0:0:
192,192,217115,1,0,0:0:0:0:
64,192,217265,1,0,0:0:0:0:
64,192,217415,128,0,217715:0:0:0:0:
320,192,217415,1,0,0:0:0:0:
192,192,217415,1,0,0:0:0:0:
320,192,217715,128,0,218015:0:0:0:0:
448,192,217715,1,0,0:0:0:0:
192,192,218015,128,0,218165:0:0:0:0:
64,192,218015,1,0,0:0:0:0:
448,192,218015,1,0,0:0:0:0:
448,192,218165,128,0,218465:0:0:0:0:
64,192,218315,1,0,0:0:0:0:
320,192,218465,128,0,218915:0:0:0:0:
64,192,218615,1,0,0:0:0:0:
448,192,218615,1,0,0:0:0:0:
192,192,218915,128,0,219215:0:0:0:0:
64,192,218915,1,0,0:0:0:0:
320,192,219215,128,0,219515:0:0:0:0:
64,192,219215,1,0,0:0:0:0:
448,192,219215,1,0,0:0:0:0:
64,192,219515,128,0,219815:0:0:0:0:
448,192,219515,1,0,0:0:0:0:
320,192,219665,1,0,0:0:0:0:
320,192,219815,128,0,220115:0:0:0:0:
448,192,219815,1,0,0:0:0:0:
192,192,219815,1,0,0:0:0:0:
64,192,219965,1,0,0:0:0:0:
448,192,220115,128,0,220415:0:0:0:0:
64,192,220115,1,0,0:0:0:0:
192,192,220190,1,0,0:0:0:0:
320,192,220265,1,0,0:0:0:0:
64,192,220340,1,0,0:0:0:0:
192,192,220415,128,0,220565:0:0:0:0:
320,192,220415,1,0,0:0:0:0:
320,192,220565,128,0,220715:0:0:0:0:
64,192,220715,1,0,0:0:0:0:
192,192,220715,1,0,0:0:0:0:
448,192,220790,1,0,0:0:0:0:
64,192,220865,128,0,221015:0:0:0:0:
192,192,220940,1,0,0:0:0:0:
448,192,221015,128,0,221165:0:0:0:0:
320,192,221015,1,0,0:0:0:0:
192,192,221165,128,0,221315:0:0:0:0:
320,192,221315,128,0,221465:0:0:0:0:
64,192,221315,1,0,0:0:0:0:
64,192,221615,128,0,221765:0:0:0:0:
320,192,221615,1,0,0:0:0:0:
448,192,221615,1,0,0:0:0:0:
320,192,221765,128,0,221915:0:0:0:0:
448,192,221915,1,0,0:0:0:0:
320,192,222065,128,0,222215:0:0:0:0:
192,192,222215,128,0,222365:0:0:0:0:
448,192,222215,1,0,0:0:0:0:
64,192,222215,1,0,0:0:0:0:
448,192,222515,128,0,222665:0:0:0:0:
320,192,222515,1,0,0:0:0:0:
192,192,222590,1,0,0:0:0:0:
64,192,222665,1,0,0:0:0:0:
320,192,222740,1,0,0:0:0:0:
192,192,222815,128,0,222965:0:0:0:0:
448,192,222815,1,0,0:0:0:0:
64,192,222815,1,0,0:0:0:0:
192,192,223115,128,0,223265:0:0:0:0:
320,192,223115,1,0,0:0:0:0:
64,192,223190,1,0,0:0:0:0:
448,192,223265,1,0,0:0:0:0:
64,192,223340,1,0,0:0:0:0:
320,192,223415,128,0,223565:0:0:0:0:
448,192,223415,1,0,0:0:0:0:
192,192,223415,1,0,0:0:0:0:
320,192,223715,128,0,223865:0:0:0:0:
448,192,223715,1,0,0:0:0:0:
192,192,224015,128,0,224165:0:0:0:0:
448,192,224015,1,0,0:0:0:0:
64,192,224015,1,0,0:0:0:0:
320,192,224165,128,0,224315:0:0:0:0:
64,192,224315,1,0,0:0:0:0:
320,192,224465,128,0,224615:0:0:0:0:
448,192,224615,128,0,224765:0:0:0:0:
64,192,224615,1,0,0:0:0:0:
192,192,224615,1,0,0:0:0:0:
320,192,224915,128,0,225065:0:0:0:0:
64,192,224915,1,0,0:0:0:0:
192,192,224990,1,0,0:0:0:0:
448,192,225065,1,0,0:0:0:0:
192,192,225140,1,0,0:0:0:0:
320,192,225215,128,0,225365:0:0:0:0:
64,192,225215,1,0,0:0:0:0:
448,192,225215,1,0,0:0:0:0:
64,192,225515,128,0,225665:0:0:0:0:
192,192,225515,1,0,0:0:0:0:
320,192,225590,1,0,0:0:0:0:
448,192,225665,1,0,0:0:0:0:
320,192,225740,1,0,0:0:0:0:
64,192,225815,128,0,225965:0:0:0:0:
448,192,225815,1,0,0:0:0:0:
192,192,225815,1,0,0:0:0:0:
448,192,226115,128,0,226265:0:0:0:0:
320,192,226115,1,0,0:0:0:0:
192,192,226415,128,0,226565:0:0:0:0:
448,192,226415,1,0,0:0:0:0:
64,192,226415,1,0,0:0:0:0:
320,192,226565,128,0,226715:0:0:0:0:
448,192,226715,1,0,0:0:0:0:
192,192,226865,128,0,227015:0:0:0:0:
64,192,227015,128,0,227165:0:0:0:0:
448,192,227015,1,0,0:0:0:0:
320,192,227015,1,0,0:0:0:0:
320,192,227315,128,0,227465:0:0:0:0:
192,192,227315,1,0,0:0:0:0:
448,192,227615,128,0,227765:0:0:0:0:
64,192,227615,1,0,0:0:0:0:
320,192,227615,1,0,0:0:0:0:
192,192,227915,128,0,228065:0:0:0:0:
448,192,227915,1,0,0:0:0:0:
320,192,228065,1,0,0:0:0:0:
320,192,228215,128,0,228365:0:0:0:0:
64,192,228215,1,0,0:0:0:0:
448,192,228215,1,0,0:0:0:0:
64,192,228515,128,0,229115:0:0:0:0:
192,192,228515,128,0,228665:0:0:0:0:
320,192,228665,128,0,228815:0:0:0:0:
192,192,228815,1,0,0:0:0:0:
448,192,228815,128,0,228965:0:0:0:0:
320,192,228965,128,0,229115:0:0:0:0:
192,192,229115,128,0,229265:0:0:0:0:
448,192,229265,128,0,229415:0:0:0:0:
320,192,229415,1,0,0:0:0:0:
64,192,229415,1,0,0:0:0:0:
64,192,229565,1,0,0:0:0:0:
192,192,229715,128,0,229865:0:0:0:0:
320,192,229715,1,0,0:0:0:0:
64,192,229790,5,0,0:0:0:0:
320,192,229865,128,0,230015:0:0:0:0:
448,192,229940,1,0,0:0:0:0:
64,192,230015,128,0,230165:0:0:0:0:
192,192,230015,1,0,0:0:0:0:
192,192,230315,1,0,0:0:0:0:
320,192,230390,1,0,0:0:0:0:
448,192,230465,128,0,230915:0:0:0:0:
64,192,230540,1,0,0:0:0:0:
192,192,230615,1,0,0:0:0:0:
320,192,230615,1,0,0:0:0:0:
64,192,230915,5,0,0:0:0:0:
320,192,230915,128,0,230990:0:0:0:0:
192,192,230915,1,0,0:0:0:0:
448,192,230990,128,0,231065:0:0:0:0:
64,192,231065,128,0,231140:0:0:0:0:
320,192,231140,128,0,231215:0:0:0:0:
192,192,231215,128,0,231440:0:0:0:0:
64,192,231515,1,0,0:0:0:0:
448,192,231515,1,0,0:0:0:0:
320,192,231515,128,0,231590:0:0:0:0:
192,192,231590,128,0,231665:0:0:0:0:
64,192,231665,128,0,231740:0:0:0:0:
320,192,231740,128,0,231815:0:0:0:0:
448,192,231815,128,0,232002:0:0:0:0:
192,192,232115,1,0,0:0:0:0:
320,192,232115,1,0,0:0:0:0:
64,192,232115,128,0,232190:0:0:0:0:
448,192,232190,128,0,232265:0:0:0:0:
320,192,232265,128,0,232340:0:0:0:0:
192,192,232340,128,0,232415:0:0:0:0:
64,192,232415,128,0,232490:0:0:0:0:
320,192,232490,128,0,232565:0:0:0:0:
448,192,232565,128,0,232640:0:0:0:0:
64,192,232640,128,0,232715:0:0:0:0:
192,192,232715,128,0,232790:0:0:0:0:
320,192,232790,128,0,232865:0:0:0:0:
448,192,232865,128,0,232940:0:0:0:0:
320,192,232940,128,0,233015:0:0:0:0:
192,192,233015,1,0,0:0:0:0:
448,192,233015,1,0,0:0:0:0:
64,192,233015,128,0,233165:0:0:0:0:
448,192,233315,1,0,0:0:0:0:
192,192,233315,1,0,0:0:0:0:
320,192,233315,128,0,233390:0:0:0:0:
64,192,233390,128,0,233465:0:0:0:0:
192,192,233465,128,0,233540:0:0:0:0:
448,192,233540,128,0,233615:0:0:0:0:
320,192,233615,128,0,233765:0:0:0:0:
192,192,233915,1,0,0:0:0:0:
448,192,233915,1,0,0:0:0:0:
64,192,233915,128,0,233990:0:0:0:0:
320,192,233990,128,0,234065:0:0:0:0:
192,192,234065,128,0,234140:0:0:0:0:
448,192,234140,128,0,234215:0:0:0:0:
320,192,234215,128,0,234365:0:0:0:0:
64,192,234515,1,0,0:0:0:0:
448,192,234515,1,0,0:0:0:0:
192,192,234515,128,0,234590:0:0:0:0:
320,192,234590,128,0,234665:0:0:0:0:
448,192,234665,128,0,234740:0:0:0:0:
64,192,234740,128,0,234815:0:0:0:0:
320,192,234815,128,0,234890:0:0:0:0:
192,192,234890,128,0,234965:0:0:0:0:
448,192,234965,128,0,235040:0:0:0:0:
64,192,235040,128,0,235115:0:0:0:0:
192,192,235115,128,0,235190:0:0:0:0:
448,192,235190,128,0,235265:0:0:0:0:
320,192,235265,128,0,235340:0:0:0:0:
192,192,235340,128,0,235415:0:0:0:0:
64,192,235415,1,0,0:0:0:0:
448,192,235415,128,0,235565:0:0:0:0:
320,192,235415,1,0,0:0:0:0:
320,192,235715,1,0,0:0:0:0:
192,192,235715,1,0,0:0:0:0:
64,192,235715,128,0,235790:0:0:0:0:
448,192,235790,128,0,235865:0:0:0:0:
192,192,235865,128,0,235940:0:0:0:0:
64,192,235940,128,0,236015:0:0:0:0:
320,192,236015,128,0,236315:0:0:0:0:
64,192,236315,1,0,0:0:0:0:
448,192,236315,128,0,236390:0:0:0:0:
192,192,236390,128,0,236465:0:0:0:0:
320,192,236465,128,0,236540:0:0:0:0:
448,192,236540,128,0,236615:0:0:0:0:
192,192,236615,128,0,236765:0:0:0:0:
320,192,236840,1,0,0:0:0:0:
448,192,236915,1,0,0:0:0:0:
64,192,236915,128,0,236990:0:0:0:0:
192,192,236915,1,0,0:0:0:0:
192,192,236990,128,0,237065:0:0:0:0:
448,192,237065,128,0,237140:0:0:0:0:
320,192,237140,128,0,237215:0:0:0:0:
192,192,237215,128,0,237290:0:0:0:0:
64,192,237290,128,0,237365:0:0:0:0:
448,192,237365,128,0,237440:0:0:0:0:
192,192,237440,128,0,237515:0:0:0:0:
320,192,237515,128,0,237665:0:0:0:0:
192,192,237665,128,0,237815:0:0:0:0:
448,192,237815,128,0,237965:0:0:0:0:
64,192,237815,1,0,0:0:0:0:
320,192,237815,1,0,0:0:0:0:
64,192,238115,1,0,0:0:0:0:
192,192,238115,1,0,0:0:0:0:
320,192,238115,128,0,238190:0:0:0:0:
448,192,238190,128,0,238265:0:0:0:0:
192,192,238265,128,0,238340:0:0:0:0:
320,192,238340,128,0,238415:0:0:0:0:
64,192,238415,128,0,238565:0:0:0:0:
192,192,238715,1,0,0:0:0:0:
320,192,238715,1,0,0:0:0:0:
64,192,238715,128,0,238790:0:0:0:0:
448,192,238790,128,0,238865:0:0:0:0:
320,192,238865,128,0,238940:0:0:0:0:
64,192,238940,128,0,239015:0:0:0:0:
192,192,239015,128,0,239165:0:0:0:0:
320,192,239315,1,0,0:0:0:0:
64,192,239315,1,0,0:0:0:0:
448,192,239315,128,0,239390:0:0:0:0:
192,192,239390,128,0,239465:0:0:0:0:
64,192,239465,128,0,239540:0:0:0:0:
320,192,239540,128,0,239615:0:0:0:0:
192,192,239615,128,0,239690:0:0:0:0:
448,192,239690,128,0,239765:0:0:0:0:
320,192,239765,128,0,239840:0:0:0:0:
192,192,239840,128,0,239915:0:0:0:0:
64,192,239915,128,0,239990:0:0:0:0:
320,192,239990,128,0,240065:0:0:0:0:
448,192,240065,128,0,240140:0:0:0:0:
192,192,240140,128,0,240215:0:0:0:0:
320,192,240215,128,0,240515:0:0:0:0:
64,192,240515,1,0,0:0:0:0:
448,192,240515,1,0,0:0:0:0:
192,192,240515,128,0,240815:0:0:0:0:
64,192,240815,1,0,0:0:0:0:
448,192,240815,1,0,0:0:0:0:
192,192,241115,1,0,0:0:0:0:
192,192,241265,1,0,0:0:0:0:
64,192,241415,1,0,0:0:0:0:
320,192,241415,1,0,0:0:0:0:
448,192,241415,1,0,0:0:0:0:
320,192,241715,1,0,0:0:0:0:
192,192,241865,1,0,0:0:0:0:
64,192,242015,1,0,0:0:0:0:
320,192,242015,1,0,0:0:0:0:
448,192,242015,1,0,0:0:0:0:
192,192,242165,1,0,0:0:0:0:
320,192,242315,1,0,0:0:0:0:
320,192,242465,1,0,0:0:0:0:
192,192,242615,1,0,0:0:0:0:
448,192,242615,1,0,0:0:0:0:
64,192,242615,128,0,242915:0:0:0:0:
320,192,242915,1,0,0:0:0:0:
192,192,243065,1,0,0:0:0:0:
64,192,243215,1,0,0:0:0:0:
320,192,243215,1,0,0:0:0:0:
448,192,243215,1,0,0:0:0:0:
448,192,243365,1,0,0:0:0:0:
320,192,243515,1,0,0:0:0:0:
192,192,243665,1,0,0:0:0:0:
320,192,243815,1,0,0:0:0:0:
448,192,243815,1,0,0:0:0:0:
64,192,243815,1,0,0:0:0:0:
192,192,243965,1,0,0:0:0:0:
64,192,244115,1,0,0:0:0:0:
192,192,244265,1,0,0:0:0:0:
64,192,244415,1,0,0:0:0:0:
448,192,244415,1,0,0:0:0:0:
320,192,244415,1,0,0:0:0:0:
192,192,244565,1,0,0:0:0:0:
448,192,244715,128,0,245015:0:0:0:0:
320,192,244715,1,0,0:0:0:0:
192,192,244865,1,0,0:0:0:0:
64,192,245015,1,0,0:0:0:0:
320,192,245015,1,0,0:0:0:0:
320,192,245315,1,0,0:0:0:0:
192,192,245315,128,0,245540:0:0:0:0:
192,192,245615,128,0,245765:0:0:0:0:
64,192,245615,1,0,0:0:0:0:
448,192,245615,1,0,0:0:0:0:
320,192,245765,128,0,245915:0:0:0:0:
448,192,245915,128,0,246065:0:0:0:0:
192,192,246065,128,0,246215:0:0:0:0:
320,192,246215,128,0,246365:0:0:0:0:
448,192,246215,1,0,0:0:0:0:
64,192,246365,128,0,246515:0:0:0:0:
320,192,246515,1,0,0:0:0:0:
448,192,246515,128,0,246815:0:0:0:0:
192,192,246665,128,0,246815:0:0:0:0:
64,192,246815,1,0,0:0:0:0:
320,192,246815,128,0,246965:0:0:0:0:
192,192,246965,128,0,247115:0:0:0:0:
448,192,247115,128,0,247265:0:0:0:0:
320,192,247190,128,0,247265:0:0:0:0:
192,192,247265,128,0,247415:0:0:0:0:
64,192,247340,128,0,247415:0:0:0:0:
320,192,247415,128,0,247565:0:0:0:0:
448,192,247415,1,0,0:0:0:0:
192,192,247565,128,0,247715:0:0:0:0:
64,192,247715,128,0,247865:0:0:0:0:
448,192,247715,1,0,0:0:0:0:
192,192,247865,128,0,247940:0:0:0:0:
448,192,247940,128,0,248015:0:0:0:0:
320,192,248015,128,0,248165:0:0:0:0:
64,192,248015,1,0,0:0:0:0:
192,192,248090,128,0,248165:0:0:0:0:
64,192,248240,1,0,0:0:0:0:
192,192,248277,1,0,0:0:0:0:
448,192,248315,128,0,248390:0:0:0:0:
320,192,248315,1,0,0:0:0:0:
64,192,248390,128,0,248465:0:0:0:0:
320,192,248540,128,0,248615:0:0:0:0:
64,192,248615,128,0,248690:0:0:0:0:
448,192,248615,1,0,0:0:0:0:
192,192,248690,128,0,248765:0:0:0:0:
320,192,248765,128,0,248840:0:0:0:0:
448,192,248840,128,0,248915:0:0:0:0:
320,192,248915,128,0,248990:0:0:0:0:
64,192,248915,1,0,0:0:0:0:
192,192,248990,128,0,249065:0:0:0:0:
64,192,249065,128,0,249215:0:0:0:0:
192,192,249140,128,0,249215:0:0:0:0:
448,192,249215,128,0,249440:0:0:0:0:
320,192,249215,128,0,249290:0:0:0:0:
192,192,249290,128,0,249365:0:0:0:0:
64,192,249365,128,0,249440:0:0:0:0:
320,192,249440,128,0,249515:0:0:0:0:
64,192,249515,128,0,249590:0:0:0:0:
192,192,249590,128,0,249665:0:0:0:0:
448,192,249665,128,0,249740:0:0:0:0:
320,192,249740,128,0,249815:0:0:0:0:
64,192,249815,128,0,250115:0:0:0:0:
192,192,249815,128,0,249965:0:0:0:0:
320,192,249965,128,0,250040:0:0:0:0:
448,192,250040,128,0,250115:0:0:0:0:
192,192,250115,128,0,250415:0:0:0:0:
448,192,250265,128,0,250415:0:0:0:0:
320,192,250415,128,0,250715:0:0:0:0:
64,192,250415,1,0,0:0:0:0:
192,192,250565,128,0,250715:0:0:0:0:
64,192,250715,128,0,251015:0:0:0:0:
320,192,250865,128,0,251015:0:0:0:0:
448,192,251015,128,0,251315:0:0:0:0:
192,192,251015,1,0,0:0:0:0:
64,192,251165,128,0,251315:0:0:0:0:
192,192,251315,128,0,251465:0:0:0:0:
448,192,251465,128,0,251615:0:0:0:0:
320,192,251615,128,0,251765:0:0:0:0:
64,192,251615,1,0,0:0:0:0:
192,192,251765,128,0,252065:0:0:0:0:
320,192,251915,1,0,0:0:0:0:
448,192,252065,128,0,252215:0:0:0:0:
64,192,252140,1,0,0:0:0:0:
320,192,252215,1,0,0:0:0:0:
192,192,252215,1,0,0:0:0:0:
448,192,252365,1,0,0:0:0:0:
320,192,252440,1,0,0:0:0:0:
192,192,252515,1,0,0:0:0:0:
64,192,252515,1,0,0:0:0:0:
320,192,252665,1,0,0:0:0:0:
192,192,252740,1,0,0:0:0:0:
320,192,252815,1,0,0:0:0:0:
448,192,252815,1,0,0:0:0:0:
64,192,252815,128,0,252965:0:0:0:0:
192,192,252965,1,0,0:0:0:0:
320,192,253040,1,0,0:0:0:0:
448,192,253040,1,0,0:0:0:0:
64,192,253115,128,0,253265:0:0:0:0:
320,192,253265,1,0,0:0:0:0:
192,192,253340,1,0,0:0:0:0:
320,192,253415,1,0,0:0:0:0:
448,192,253415,1,0,0:0:0:0:
64,192,253415,128,0,253565:0:0:0:0:
192,192,253565,1,0,0:0:0:0:
320,192,253640,1,0,0:0:0:0:
448,192,253715,1,0,0:0:0:0:
64,192,253715,128,0,253865:0:0:0:0:
320,192,253865,1,0,0:0:0:0:
192,192,253940,1,0,0:0:0:0:
64,192,254015,1,0,0:0:0:0:
448,192,254015,128,0,254240:0:0:0:0:
320,192,254015,1,0,0:0:0:0:
64,192,254165,1,0,0:0:0:0:
192,192,254240,128,0,254465:0:0:0:0:
320,192,254315,1,0,0:0:0:0:
320,192,254465,128,0,254615:0:0:0:0:
64,192,254540,1,0,0:0:0:0:
192,192,254615,1,0,0:0:0:0:
448,192,254615,128,0,254765:0:0:0:0:
192,192,254765,128,0,254915:0:0:0:0:
64,192,254915,128,0,255065:0:0:0:0:
320,192,255065,128,0,255215:0:0:0:0:
192,192,255215,1,0,0:0:0:0:
448,192,255215,128,0,255365:0:0:0:0:
192,192,255365,128,0,255665:0:0:0:0:
320,192,255515,128,0,255665:0:0:0:0:
64,192,255515,1,0,0:0:0:0:
448,192,255665,128,0,255815:0:0:0:0:
320,192,255815,1,0,0:0:0:0:
64,192,255815,128,0,255965:0:0:0:0:
448,192,255965,128,0,256115:0:0:0:0:
192,192,256115,1,0,0:0:0:0:
64,192,256115,128,0,256265:0:0:0:0:
448,192,256265,128,0,256415:0:0:0:0:
64,192,256415,1,0,0:0:0:0:
192,192,256415,128,0,256490:0:0:0:0:
320,192,256490,128,0,256565:0:0:0:0:
448,192,256565,128,0,256715:0:0:0:0:
192,192,256715,128,0,256865:0:0:0:0:
320,192,256865,128,0,257015:0:0:0:0:
448,192,257015,128,0,257315:0:0:0:0:
192,192,257015,1,0,0:0:0:0:
64,192,257165,1,0,0:0:0:0:
192,192,257240,1,0,0:0:0:0:
64,192,257315,128,0,257465:0:0:0:0:
320,192,257315,1,0,0:0:0:0:
192,192,257465,128,0,257615:0:0:0:0:
448,192,257615,1,0,0:0:0:0:
64,192,257615,128,0,257765:0:0:0:0:
320,192,257765,128,0,257915:0:0:0:0:
448,192,257915,128,0,258065:0:0:0:0:
64,192,257915,1,0,0:0:0:0:
192,192,258065,128,0,258215:0:0:0:0:
320,192,258215,1,0,0:0:0:0:
448,192,258215,1,0,0:0:0:0:
192,192,258365,128,0,258515:0:0:0:0:
64,192,258515,128,0,258665:0:0:0:0:
448,192,258515,1,0,0:0:0:0:
320,192,258590,1,0,0:0:0:0:
448,192,258665,128,0,258815:0:0:0:0:
192,192,258665,1,0,0:0:0:0:
320,192,258815,1,0,0:0:0:0:
64,192,258815,128,0,258965:0:0:0:0:
320,192,258965,128,0,259115:0:0:0:0:
64,192,259115,128,0,259265:0:0:0:0:
192,192,259115,1,0,0:0:0:0:
320,192,259190,1,0,0:0:0:0:
448,192,259265,128,0,259415:0:0:0:0:
192,192,259265,1,0,0:0:0:0:
320,192,259415,1,0,0:0:0:0:
64,192,259415,1,0,0:0:0:0:
64,192,259715,1,0,0:0:0:0:
192,192,259715,1,0,0:0:0:0:
448,192,259715,1,0,0:0:0:0:
320,192,259790,1,0,0:0:0:0:
448,192,259865,1,0,0:0:0:0:
64,192,259940,1,0,0:0:0:0:
192,192,260015,1,0,0:0:0:0:
320,192,260090,1,0,0:0:0:0:
192,192,260165,1,0,0:0:0:0:
64,192,260240,1,0,0:0:0:0:
448,192,260315,1,0,0:0:0:0:
320,192,260390,1,0,0:0:0:0:
192,192,260465,1,0,0:0:0:0:
64,192,260540,1,0,0:0:0:0:
448,192,260615,1,0,0:0:0:0:
320,192,260690,1,0,0:0:0:0:
192,192,260765,1,0,0:0:0:0:
64,192,260840,1,0,0:0:0:0:
192,192,260915,1,0,0:0:0:0:
448,192,260915,1,0,0:0:0:0:
320,192,260990,1,0,0:0:0:0:
192,192,261065,1,0,0:0:0:0:
64,192,261140,1,0,0:0:0:0:
448,192,261215,1,0,0:0:0:0:
320,192,261290,1,0,0:0:0:0:
192,192,261365,1,0,0:0:0:0:
64,192,261440,1,0,0:0:0:0:
448,192,261515,1,0,0:0:0:0:
320,192,261590,1,0,0:0:0:0:
192,192,261665,1,0,0:0:0:0:
320,192,261740,1,0,0:0:0:0:
448,192,261815,1,0,0:0:0:0:
64,192,261890,1,0,0:0:0:0:
192,192,261965,1,0,0:0:0:0:
320,192,262040,1,0,0:0:0:0:
64,192,262115,1,0,0:0:0:0:
448,192,262115,1,0,0:0:0:0:
320,192,262190,1,0,0:0:0:0:
192,192,262265,1,0,0:0:0:0:
64,192,262340,1,0,0:0:0:0:
192,192,262415,1,0,0:0:0:0:
320,192,262490,1,0,0:0:0:0:
448,192,262565,1,0,0:0:0:0:
64,192,262640,1,0,0:0:0:0:
192,192,262715,1,0,0:0:0:0:
320,192,262790,1,0,0:0:0:0:
448,192,262865,1,0,0:0:0:0:
320,192,262940,1,0,0:0:0:0:
192,192,263015,1,0,0:0:0:0:
64,192,263090,1,0,0:0:0:0:
448,192,263165,1,0,0:0:0:0:
320,192,263240,1,0,0:0:0:0:
192,192,263315,1,0,0:0:0:0:
448,192,263315,1,0,0:0:0:0:
64,192,263390,1,0,0:0:0:0:
192,192,263465,1,0,0:0:0:0:
320,192,263540,1,0,0:0:0:0:
448,192,263615,1,0,0:0:0:0:
64,192,263690,1,0,0:0:0:0:
192,192,263765,1,0,0:0:0:0:
320,192,263840,1,0,0:0:0:0:
448,192,263915,1,0,0:0:0:0:
320,192,263990,1,0,0:0:0:0:
192,192,264065,1,0,0:0:0:0:
64,192,264140,1,0,0:0:0:0:
192,192,264215,1,0,0:0:0:0:
320,192,264290,1,0,0:0:0:0:
448,192,264365,1,0,0:0:0:0:
192,192,264440,1,0,0:0:0:0:
320,192,264515,1,0,0:0:0:0:
64,192,264515,1,0,0:0:0:0:
448,192,264590,1,0,0:0:0:0:
320,192,264665,1,0,0:0:0:0:
192,192,264740,1,0,0:0:0:0:
64,192,264815,1,0,0:0:0:0:
192,192,264890,1,0,0:0:0:0:
320,192,264965,1,0,0:0:0:0:
448,192,265040,1,0,0:0:0:0:
320,192,265115,1,0,0:0:0:0:
192,192,265190,1,0,0:0:0:0:
64,192,265265,1,0,0:0:0:0:
448,192,265340,1,0,0:0:0:0:
320,192,265415,1,0,0:0:0:0:
192,192,265490,1,0,0:0:0:0:
64,192,265565,1,0,0:0:0:0:
192,192,265640,1,0,0:0:0:0:
320,192,265715,1,0,0:0:0:0:
448,192,265715,1,0,0:0:0:0:
192,192,265790,1,0,0:0:0:0:
64,192,265865,1,0,0:0:0:0:
192,192,265940,1,0,0:0:0:0:
320,192,266015,1,0,0:0:0:0:
448,192,266090,1,0,0:0:0:0:
320,192,266165,1,0,0:0:0:0:
192,192,266240,1,0,0:0:0:0:
64,192,266315,1,0,0:0:0:0:
448,192,266390,1,0,0:0:0:0:
320,192,266465,1,0,0:0:0:0:
192,192,266540,1,0,0:0:0:0:
64,192,266615,1,0,0:0:0:0:
192,192,266690,1,0,0:0:0:0:
320,192,266765,1,0,0:0:0:0:
448,192,266840,1,0,0:0:0:0:
320,192,266915,1,0,0:0:0:0:
192,192,266915,1,0,0:0:0:0:
64,192,266990,1,0,0:0:0:0:
192,192,267065,1,0,0:0:0:0:
320,192,267140,1,0,0:0:0:0:
448,192,267215,1,0,0:0:0:0:
64,192,267290,1,0,0:0:0:0:
192,192,267365,1,0,0:0:0:0:
320,192,267440,1,0,0:0:0:0:
448,192,267515,1,0,0:0:0:0:
64,192,267590,1,0,0:0:0:0:
192,192,267665,1,0,0:0:0:0:
320,192,267740,1,0,0:0:0:0:
448,192,267815,1,0,0:0:0:0:
320,192,267890,1,0,0:0:0:0:
192,192,267965,1,0,0:0:0:0:
64,192,268040,1,0,0:0:0:0:
448,192,268115,1,0,0:0:0:0:
192,192,268115,1,0,0:0:0:0:
320,192,268190,1,0,0:0:0:0:
448,192,268265,1,0,0:0:0:0:
320,192,268340,1,0,0:0:0:0:
192,192,268415,1,0,0:0:0:0:
64,192,268490,1,0,0:0:0:0:
448,192,268565,1,0,0:0:0:0:
320,192,268640,1,0,0:0:0:0:
192,192,268715,1,0,0:0:0:0:
64,192,268790,1,0,0:0:0:0:
192,192,268865,1,0,0:0:0:0:
320,192,268940,1,0,0:0:0:0:
448,192,269015,1,0,0:0:0:0:
64,192,269090,1,0,0:0:0:0:
192,192,269165,1,0,0:0:0:0:
320,192,269240,1,0,0:0:0:0:
64,192,269315,1,0,0:0:0:0:
192,192,269315,1,0,0:0:0:0:
448,192,269315,1,0,0:0:0:0:
64,192,269465,1,0,0:0:0:0:
448,192,269465,1,0,0:0:0:0:
320,192,269465,1,0,0:0:0:0:
64,192,269615,1,0,0:0:0:0:
320,192,269615,1,0,0:0:0:0:
192,192,269615,1,0,0:0:0:0:
320,192,269765,1,0,0:0:0:0:
448,192,269765,1,0,0:0:0:0:
64,192,269915,1,0,0:0:0:0:
192,192,269915,1,0,0:0:0:0:
448,192,269915,1,0,0:0:0:0:
64,192,270065,1,0,0:0:0:0:
320,192,270065,1,0,0:0:0:0:
448,192,270065,1,0,0:0:0:0:
320,192,270215,1,0,0:0:0:0:
192,192,270215,1,0,0:0:0:0:
64,192,270215,1,0,0:0:0:0:
192,192,270365,1,0,0:0:0:0:
320,192,270365,1,0,0:0:0:0:
448,192,270365,1,0,0:0:0:0:
64,192,270515,1,0,0:0:0:0:
192,192,270515,1,0,0:0:0:0:
448,192,270515,1,0,0:0:0:0:
64,192,270665,1,0,0:0:0:0:
320,192,270665,1,0,0:0:0:0:
448,192,270665,1,0,0:0:0:0:
64,192,270815,1,0,0:0:0:0:
192,192,270815,1,0,0:0:0:0:
320,192,270815,1,0,0:0:0:0:
192,192,270965,1,0,0:0:0:0:
320,192,270965,1,0,0:0:0:0:
448,192,270965,1,0,0:0:0:0:
64,192,271115,1,0,0:0:0:0:
192,192,271115,1,0,0:0:0:0:
448,192,271115,1,0,0:0:0:0:
448,192,271265,1,0,0:0:0:0:
320,192,271265,1,0,0:0:0:0:
64,192,271265,1,0,0:0:0:0:
64,192,271415,1,0,0:0:0:0:
192,192,271415,1,0,0:0:0:0:
320,192,271415,1,0,0:0:0:0:
192,192,271565,1,0,0:0:0:0:
320,192,271565,1,0,0:0:0:0:
448,192,271565,1,0,0:0:0:0:
64,192,271715,1,0,0:0:0:0:
192,192,271715,1,0,0:0:0:0:
448,192,271715,1,0,0:0:0:0:
64,192,271865,1,0,0:0:0:0:
320,192,271865,1,0,0:0:0:0:
448,192,271865,1,0,0:0:0:0:
320,192,272015,1,0,0:0:0:0:
192,192,272015,1,0,0:0:0:0:
64,192,272015,1,0,0:0:0:0:
192,192,272165,1,0,0:0:0:0:
320,192,272165,1,0,0:0:0:0:
448,192,272165,1,0,0:0:0:0:
64,192,272315,1,0,0:0:0:0:
192,192,272315,1,0,0:0:0:0:
448,192,272315,1,0,0:0:0:0:
64,192,272465,1,0,0:0:0:0:
448,192,272465,1,0,0:0:0:0:
320,192,272465,1,0,0:0:0:0:
64,192,272615,1,0,0:0:0:0:
320,192,272615,1,0,0:0:0:0:
192,192,272615,1,0,0:0:0:0:
320,192,272765,1,0,0:0:0:0:
448,192,272765,1,0,0:0:0:0:
64,192,272915,1,0,0:0:0:0:
192,192,272915,1,0,0:0:0:0:
448,192,272915,1,0,0:0:0:0:
64,192,273065,1,0,0:0:0:0:
320,192,273065,1,0,0:0:0:0:
448,192,273065,1,0,0:0:0:0:
320,192,273215,1,0,0:0:0:0:
192,192,273215,1,0,0:0:0:0:
64,192,273215,1,0,0:0:0:0:
192,192,273365,1,0,0:0:0:0:
320,192,273365,1,0,0:0:0:0:
448,192,273365,1,0,0:0:0:0:
64,192,273515,1,0,0:0:0:0:
192,192,273515,1,0,0:0:0:0:
448,192,273515,1,0,0:0:0:0:
64,192,273665,1,0,0:0:0:0:
320,192,273665,1,0,0:0:0:0:
448,192,273665,1,0,0:0:0:0:
64,192,273815,1,0,0:0:0:0:
192,192,273815,1,0,0:0:0:0:
320,192,273815,1,0,0:0:0:0:
192,192,273965,1,0,0:0:0:0:
320,192,273965,1,0,0:0:0:0:
448,192,273965,1,0,0:0:0:0:
64,192,274115,1,0,0:0:0:0:
192,192,274115,1,0,0:0:0:0:
448,192,274115,1,0,0:0:0:0:
448,192,274265,1,0,0:0:0:0:
320,192,274265,1,0,0:0:0:0:
64,192,274265,1,0,0:0:0:0:
64,192,274415,1,0,0:0:0:0:
192,192,274415,1,0,0:0:0:0:
320,192,274415,1,0,0:0:0:0:
192,192,274565,1,0,0:0:0:0:
320,192,274565,1,0,0:0:0:0:
448,192,274565,1,0,0:0:0:0:
64,192,274715,1,0,0:0:0:0:
192,192,274715,1,0,0:0:0:0:
448,192,274715,1,0,0:0:0:0:
64,192,274865,1,0,0:0:0:0:
320,192,274865,1,0,0:0:0:0:
448,192,274865,1,0,0:0:0:0:
320,192,275015,1,0,0:0:0:0:
192,192,275015,1,0,0:0:0:0:
64,192,275015,1,0,0:0:0:0:
192,192,275165,1,0,0:0:0:0:
320,192,275165,1,0,0:0:0:0:
448,192,275165,1,0,0:0:0:0:
64,192,275315,1,0,0:0:0:0:
192,192,275315,1,0,0:0:0:0:
448,192,275315,1,0,0:0:0:0:
64,192,275465,1,0,0:0:0:0:
320,192,275465,1,0,0:0:0:0:
448,192,275465,1,0,0:0:0:0:
64,192,275615,1,0,0:0:0:0:
192,192,275615,1,0,0:0:0:0:
320,192,275615,1,0,0:0:0:0:
192,192,275765,1,0,0:0:0:0:
320,192,275765,1,0,0:0:0:0:
448,192,275765,1,0,0:0:0:0:
64,192,275915,1,0,0:0:0:0:
192,192,275915,1,0,0:0:0:0:
448,192,275915,1,0,0:0:0:0:
448,192,276065,1,0,0:0:0:0:
320,192,276065,1,0,0:0:0:0:
64,192,276065,1,0,0:0:0:0:
64,192,276215,1,0,0:0:0:0:
192,192,276215,1,0,0:0:0:0:
320,192,276215,1,0,0:0:0:0:
192,192,276365,1,0,0:0:0:0:
320,192,276365,1,0,0:0:0:0:
448,192,276365,1,0,0:0:0:0:
64,192,276515,1,0,0:0:0:0:
192,192,276515,1,0,0:0:0:0:
448,192,276515,1,0,0:0:0:0:
448,192,276665,1,0,0:0:0:0:
320,192,276665,1,0,0:0:0:0:
64,192,276665,1,0,0:0:0:0:
64,192,276815,1,0,0:0:0:0:
192,192,276815,1,0,0:0:0:0:
320,192,276815,1,0,0:0:0:0:
192,192,276965,1,0,0:0:0:0:
320,192,276965,1,0,0:0:0:0:
448,192,276965,1,0,0:0:0:0:
64,192,277115,1,0,0:0:0:0:
192,192,277115,1,0,0:0:0:0:
448,192,277115,1,0,0:0:0:0:
448,192,277265,5,0,0:0:0:0:
320,192,277265,1,0,0:0:0:0:
64,192,277265,1,0,0:0:0:0:
64,192,277415,1,0,0:0:0:0:
192,192,277415,1,0,0:0:0:0:
320,192,277415,1,0,0:0:0:0:
192,192,277565,1,0,0:0:0:0:
320,192,277565,1,0,0:0:0:0:
448,192,277565,1,0,0:0:0:0:
64,192,277715,1,0,0:0:0:0:
192,192,277715,1,0,0:0:0:0:
448,192,277715,1,0,0:0:0:0:
448,192,277865,1,0,0:0:0:0:
320,192,277865,1,0,0:0:0:0:
64,192,277865,1,0,0:0:0:0:
64,192,278015,1,0,0:0:0:0:
192,192,278015,1,0,0:0:0:0:
320,192,278015,1,0,0:0:0:0:
192,192,278165,1,0,0:0:0:0:
320,192,278165,1,0,0:0:0:0:
448,192,278165,1,0,0:0:0:0:
64,192,278315,1,0,0:0:0:0:
192,192,278315,1,0,0:0:0:0:
320,192,278390,1,0,0:0:0:0:
448,192,278390,1,0,0:0:0:0:
192,192,278465,1,0,0:0:0:0:
64,192,278465,1,0,0:0:0:0:
448,192,278540,1,0,0:0:0:0:
320,192,278615,1,0,0:0:0:0:
192,192,278690,1,0,0:0:0:0:
64,192,278765,1,0,0:0:0:0:
320,192,278840,1,0,0:0:0:0:
192,192,278915,1,0,0:0:0:0:
64,192,278915,1,0,0:0:0:0:
448,192,278915,1,0,0:0:0:0:
320,192,278990,1,0,0:0:0:0:
192,192,279065,1,0,0:0:0:0:
64,192,279065,1,0,0:0:0:0:
448,192,279140,1,0,0:0:0:0:
320,192,279215,1,0,0:0:0:0:
192,192,279215,1,0,0:0:0:0:
64,192,279290,1,0,0:0:0:0:
448,192,279365,1,0,0:0:0:0:
320,192,279365,1,0,0:0:0:0:
192,192,279440,1,0,0:0:0:0:
64,192,279515,1,0,0:0:0:0:
448,192,279515,1,0,0:0:0:0:
320,192,279590,1,0,0:0:0:0:
192,192,279665,1,0,0:0:0:0:
64,192,279665,1,0,0:0:0:0:
448,192,279740,1,0,0:0:0:0:
320,192,279815,1,0,0:0:0:0:
192,192,279815,1,0,0:0:0:0:
64,192,279890,1,0,0:0:0:0:
448,192,279965,1,0,0:0:0:0:
320,192,279965,1,0,0:0:0:0:
192,192,280040,1,0,0:0:0:0:
64,192,280115,1,0,0:0:0:0:
448,192,280115,1,0,0:0:0:0:
320,192,280190,1,0,0:0:0:0:
192,192,280265,1,0,0:0:0:0:
64,192,280265,1,0,0:0:0:0:
448,192,280340,1,0,0:0:0:0:
320,192,280415,1,0,0:0:0:0:
192,192,280415,1,0,0:0:0:0:
64,192,280490,1,0,0:0:0:0:
320,192,280565,1,0,0:0:0:0:
448,192,280565,1,0,0:0:0:0:
192,192,280640,1,0,0:0:0:0:
64,192,280715,1,0,0:0:0:0:
320,192,280715,1,0,0:0:0:0:
448,192,280790,1,0,0:0:0:0:
64,192,280865,1,0,0:0:0:0:
192,192,280865,1,0,0:0:0:0:
320,192,280940,1,0,0:0:0:0:
448,192,281015,1,0,0:0:0:0:
64,192,281015,1,0,0:0:0:0:
192,192,281090,1,0,0:0:0:0:
320,192,281165,1,0,0:0:0:0:
448,192,281165,1,0,0:0:0:0:
64,192,281240,1,0,0:0:0:0:
192,192,281315,1,0,0:0:0:0:
320,192,281315,1,0,0:0:0:0:
448,192,281390,1,0,0:0:0:0:
64,192,281465,1,0,0:0:0:0:
192,192,281465,1,0,0:0:0:0:
320,192,281540,1,0,0:0:0:0:
448,192,281615,1,0,0:0:0:0:
64,192,281615,1,0,0:0:0:0:
192,192,281690,1,0,0:0:0:0:
320,192,281765,1,0,0:0:0:0:
448,192,281765,1,0,0:0:0:0:
64,192,281840,1,0,0:0:0:0:
192,192,281915,1,0,0:0:0:0:
320,192,281915,1,0,0:0:0:0:
448,192,281990,1,0,0:0:0:0:
64,192,282065,1,0,0:0:0:0:
192,192,282065,1,0,0:0:0:0:
320,192,282140,1,0,0:0:0:0:
448,192,282215,1,0,0:0:0:0:
64,192,282215,1,0,0:0:0:0:
192,192,282290,1,0,0:0:0:0:
320,192,282365,1,0,0:0:0:0:
448,192,282365,1,0,0:0:0:0:
64,192,282440,1,0,0:0:0:0:
192,192,282515,1,0,0:0:0:0:
320,192,282515,1,0,0:0:0:0:
448,192,282590,1,0,0:0:0:0:
64,192,282665,1,0,0:0:0:0:
320,192,282665,1,0,0:0:0:0:
192,192,282740,1,0,0:0:0:0:
448,192,282815,1,0,0:0:0:0:
64,192,282815,1,0,0:0:0:0:
320,192,282890,1,0,0:0:0:0:
192,192,282965,1,0,0:0:0:0:
448,192,282965,1,0,0:0:0:0:
64,192,283040,1,0,0:0:0:0:
320,192,283115,1,0,0:0:0:0:
448,192,283115,1,0,0:0:0:0:
192,192,283190,1,0,0:0:0:0:
64,192,283265,1,0,0:0:0:0:
320,192,283265,1,0,0:0:0:0:
448,192,283340,1,0,0:0:0:0:
64,192,283415,1,0,0:0:0:0:
192,192,283490,1,0,0:0:0:0:
320,192,283565,1,0,0:0:0:0:
192,192,283640,1,0,0:0:0:0:
448,192,283715,1,0,0:0:0:0:
64,192,283715,1,0,0:0:0:0:
192,192,283790,1,0,0:0:0:0:
320,192,283865,1,0,0:0:0:0:
448,192,283865,1,0,0:0:0:0:
64,192,283940,1,0,0:0:0:0:
192,192,284015,1,0,0:0:0:0:
448,192,284015,1,0,0:0:0:0:
320,192,284090,1,0,0:0:0:0:
192,192,284165,1,0,0:0:0:0:
64,192,284165,1,0,0:0:0:0:
448,192,284240,1,0,0:0:0:0:
320,192,284315,1,0,0:0:0:0:
192,192,284315,1,0,0:0:0:0:
64,192,284390,1,0,0:0:0:0:
320,192,284465,1,0,0:0:0:0:
448,192,284465,1,0,0:0:0:0:
192,192,284540,1,0,0:0:0:0:
64,192,284615,1,0,0:0:0:0:
448,192,284615,1,0,0:0:0:0:
320,192,284690,1,0,0:0:0:0:
192,192,284765,1,0,0:0:0:0:
64,192,284765,1,0,0:0:0:0:
448,192,284840,1,0,0:0:0:0:
320,192,284915,1,0,0:0:0:0:
192,192,284915,1,0,0:0:0:0:
64,192,284990,1,0,0:0:0:0:
448,192,285065,1,0,0:0:0:0:
320,192,285065,1,0,0:0:0:0:
192,192,285140,1,0,0:0:0:0:
64,192,285215,1,0,0:0:0:0:
448,192,285215,1,0,0:0:0:0:
320,192,285290,1,0,0:0:0:0:
192,192,285365,1,0,0:0:0:0:
64,192,285365,1,0,0:0:0:0:
448,192,285440,1,0,0:0:0:0:
320,192,285515,1,0,0:0:0:0:
192,192,285515,1,0,0:0:0:0:
64,192,285590,1,0,0:0:0:0:
320,192,285665,1,0,0:0:0:0:
448,192,285665,1,0,0:0:0:0:
192,192,285740,1,0,0:0:0:0:
64,192,285815,1,0,0:0:0:0:
448,192,285815,1,0,0:0:0:0:
320,192,285890,1,0,0:0:0:0:
192,192,285965,1,0,0:0:0:0:
64,192,285965,1,0,0:0:0:0:
320,192,286040,1,0,0:0:0:0:
448,192,286115,1,0,0:0:0:0:
64,192,286115,1,0,0:0:0:0:
192,192,286190,1,0,0:0:0:0:
320,192,286265,1,0,0:0:0:0:
448,192,286265,1,0,0:0:0:0:
64,192,286340,1,0,0:0:0:0:
192,192,286415,1,0,0:0:0:0:
320,192,286415,1,0,0:0:0:0:
448,192,286490,1,0,0:0:0:0:
64,192,286565,1,0,0:0:0:0:
192,192,286565,1,0,0:0:0:0:
320,192,286640,1,0,0:0:0:0:
448,192,286715,1,0,0:0:0:0:
64,192,286715,1,0,0:0:0:0:
192,192,286790,1,0,0:0:0:0:
320,192,286865,1,0,0:0:0:0:
448,192,286865,1,0,0:0:0:0:
64,192,286940,1,0,0:0:0:0:
192,192,287015,1,0,0:0:0:0:
448,192,287015,1,0,0:0:0:0:
320,192,287090,1,0,0:0:0:0:
192,192,287165,1,0,0:0:0:0:
64,192,287165,1,0,0:0:0:0:
320,192,287240,1,0,0:0:0:0:
448,192,287315,1,0,0:0:0:0:
64,192,287315,1,0,0:0:0:0:
192,192,287390,1,0,0:0:0:0:
320,192,287465,1,0,0:0:0:0:
448,192,287465,1,0,0:0:0:0:
64,192,287540,1,0,0:0:0:0:
192,192,287615,1,0,0:0:0:0:
320,192,287615,1,0,0:0:0:0:
448,192,287690,1,0,0:0:0:0:
64,192,287765,1,0,0:0:0:0:
192,192,287765,1,0,0:0:0:0:
320,192,287840,1,0,0:0:0:0:
448,192,287915,1,0,0:0:0:0:
64,192,287915,1,0,0:0:0:0:
192,192,287990,1,0,0:0:0:0:
320,192,288065,1,0,0:0:0:0:
448,192,288065,1,0,0:0:0:0:
192,192,288140,1,0,0:0:0:0:
448,192,288215,1,0,0:0:0:0:
64,192,288215,1,0,0:0:0:0:
320,192,288290,1,0,0:0:0:0:
192,192,288365,1,0,0:0:0:0:
64,192,288440,1,0,0:0:0:0:
448,192,288515,1,0,0:0:0:0:
320,192,288515,1,0,0:0:0:0:
192,192,288515,1,0,0:0:0:0:
320,192,288665,1,0,0:0:0:0:
192,192,288665,1,0,0:0:0:0:
64,192,288665,1,0,0:0:0:0:
64,192,288815,1,0,0:0:0:0:
320,192,288815,1,0,0:0:0:0:
448,192,288815,1,0,0:0:0:0:
448,192,288965,1,0,0:0:0:0:
192,192,288965,1,0,0:0:0:0:
320,192,288965,1,0,0:0:0:0:
192,192,289115,1,0,0:0:0:0:
448,192,289115,1,0,0:0:0:0:
64,192,289115,1,0,0:0:0:0:
320,192,289265,1,0,0:0:0:0:
64,192,289265,1,0,0:0:0:0:
192,192,289265,1,0,0:0:0:0:
320,192,289415,1,0,0:0:0:0:
448,192,289415,1,0,0:0:0:0:
64,192,289415,1,0,0:0:0:0:
320,192,289565,1,0,0:0:0:0:
192,192,289565,1,0,0:0:0:0:
448,192,289565,1,0,0:0:0:0:
192,192,289715,1,0,0:0:0:0:
448,192,289715,1,0,0:0:0:0:
64,192,289715,1,0,0:0:0:0:
320,192,289865,1,0,0:0:0:0:
192,192,289865,1,0,0:0:0:0:
64,192,289865,1,0,0:0:0:0:
64,192,290015,1,0,0:0:0:0:
448,192,290015,1,0,0:0:0:0:
320,192,290015,1,0,0:0:0:0:
320,192,290165,1,0,0:0:0:0:
448,192,290165,1,0,0:0:0:0:
192,192,290165,1,0,0:0:0:0:
192,192,290315,1,0,0:0:0:0:
448,192,290315,1,0,0:0:0:0:
64,192,290315,1,0,0:0:0:0:
64,192,290465,1,0,0:0:0:0:
192,192,290465,1,0,0:0:0:0:
320,192,290465,1,0,0:0:0:0:
448,192,290615,1,0,0:0:0:0:
320,192,290615,1,0,0:0:0:0:
64,192,290615,1,0,0:0:0:0:
448,192,290765,1,0,0:0:0:0:
320,192,290765,1,0,0:0:0:0:
192,192,290765,1,0,0:0:0:0:
192,192,290915,1,0,0:0:0:0:
64,192,290915,1,0,0:0:0:0:
448,192,290915,1,0,0:0:0:0:
320,192,291065,1,0,0:0:0:0:
64,192,291065,1,0,0:0:0:0:
192,192,291065,1,0,0:0:0:0:
64,192,291215,1,0,0:0:0:0:
448,192,291215,1,0,0:0:0:0:
320,192,291215,1,0,0:0:0:0:
320,192,291365,1,0,0:0:0:0:
448,192,291365,1,0,0:0:0:0:
192,192,291365,1,0,0:0:0:0:
192,192,291515,1,0,0:0:0:0:
448,192,291515,1,0,0:0:0:0:
64,192,291515,1,0,0:0:0:0:
64,192,291665,1,0,0:0:0:0:
192,192,291665,1,0,0:0:0:0:
320,192,291665,1,0,0:0:0:0:
64,192,291815,1,0,0:0:0:0:
320,192,291815,1,0,0:0:0:0:
448,192,291815,1,0,0:0:0:0:
448,192,291965,1,0,0:0:0:0:
320,192,291965,1,0,0:0:0:0:
192,192,291965,1,0,0:0:0:0:
64,192,292115,1,0,0:0:0:0:
448,192,292115,1,0,0:0:0:0:
192,192,292115,1,0,0:0:0:0:
192,192,292265,1,0,0:0:0:0:
64,192,292265,1,0,0:0:0:0:
320,192,292265,1,0,0:0:0:0:
64,192,292415,1,0,0:0:0:0:
320,192,292415,1,0,0:0:0:0:
448,192,292415,1,0,0:0:0:0:
320,192,292565,1,0,0:0:0:0:
192,192,292565,1,0,0:0:0:0:
448,192,292565,1,0,0:0:0:0:
192,192,292715,1,0,0:0:0:0:
64,192,292715,1,0,0:0:0:0:
448,192,292715,1,0,0:0:0:0:
192,192,292865,1,0,0:0:0:0:
320,192,292865,1,0,0:0:0:0:
64,192,292865,1,0,0:0:0:0:
64,192,293015,1,0,0:0:0:0:
320,192,293015,1,0,0:0:0:0:
448,192,293015,1,0,0:0:0:0:
192,192,293165,1,0,0:0:0:0:
320,192,293165,1,0,0:0:0:0:
448,192,293165,1,0,0:0:0:0:
64,192,293315,1,0,0:0:0:0:
192,192,293315,1,0,0:0:0:0:
448,192,293315,1,0,0:0:0:0:
64,192,293465,1,0,0:0:0:0:
320,192,293465,1,0,0:0:0:0:
192,192,293465,1,0,0:0:0:0:
64,192,293615,1,0,0:0:0:0:
320,192,293615,1,0,0:0:0:0:
448,192,293615,1,0,0:0:0:0:
192,192,293765,1,0,0:0:0:0:
320,192,293765,1,0,0:0:0:0:
448,192,293765,1,0,0:0:0:0:
64,192,293915,1,0,0:0:0:0:
192,192,293915,1,0,0:0:0:0:
448,192,293915,1,0,0:0:0:0:
64,192,294065,1,0,0:0:0:0:
320,192,294065,1,0,0:0:0:0:
192,192,294065,1,0,0:0:0:0:
64,192,294215,1,0,0:0:0:0:
320,192,294215,1,0,0:0:0:0:
448,192,294215,1,0,0:0:0:0:
192,192,294365,1,0,0:0:0:0:
320,192,294365,1,0,0:0:0:0:
448,192,294365,1,0,0:0:0:0:
64,192,294515,1,0,0:0:0:0:
192,192,294515,1,0,0:0:0:0:
448,192,294515,1,0,0:0:0:0:
320,192,294665,1,0,0:0:0:0:
192,192,294665,1,0,0:0:0:0:
64,192,294665,1,0,0:0:0:0:
64,192,294815,1,0,0:0:0:0:
320,192,294815,1,0,0:0:0:0:
448,192,294815,1,0,0:0:0:0:
192,192,294965,1,0,0:0:0:0:
320,192,294965,1,0,0:0:0:0:
448,192,294965,1,0,0:0:0:0:
64,192,295115,1,0,0:0:0:0:
192,192,295115,1,0,0:0:0:0:
448,192,295115,1,0,0:0:0:0:
64,192,295265,1,0,0:0:0:0:
192,192,295265,1,0,0:0:0:0:
320,192,295265,1,0,0:0:0:0:
64,192,295415,1,0,0:0:0:0:
320,192,295415,1,0,0:0:0:0:
448,192,295415,1,0,0:0:0:0:
192,192,295565,1,0,0:0:0:0:
320,192,295565,1,0,0:0:0:0:
448,192,295565,1,0,0:0:0:0:
64,192,295715,128,0,295865:0:0:0:0:
192,192,295715,128,0,295865:0:0:0:0:
448,192,295715,128,0,295865:0:0:0:0:
64,192,296015,128,0,296165:0:0:0:0:
320,192,296015,128,0,296165:0:0:0:0:
448,192,296015,128,0,296165:0:0:0:0:
64,192,296315,128,0,296465:0:0:0:0:
192,192,296315,128,0,296465:0:0:0:0:
448,192,296315,128,0,296465:0:0:0:0:
64,192,296615,128,0,296765:0:0:0:0:
192,192,296615,128,0,296765:0:0:0:0:
320,192,296615,128,0,296765:0:0:0:0:
64,192,296915,128,0,297065:0:0:0:0:
192,192,296915,128,0,297065:0:0:0:0:
448,192,296915,128,0,297065:0:0:0:0:
64,192,297215,128,0,297365:0:0:0:0:
320,192,297215,128,0,297365:0:0:0:0:
448,192,297215,128,0,297365:0:0:0:0:
64,192,297515,128,0,297665:0:0:0:0:
448,192,297515,128,0,297665:0:0:0:0:
192,192,297515,128,0,297665:0:0:0:0:
320,192,297665,1,0,0:0:0:0:
192,192,297740,1,0,0:0:0:0:
320,192,297815,1,0,0:0:0:0:
448,192,297815,1,0,0:0:0:0:
64,192,297815,1,0,0:0:0:0:
64,192,298115,1,0,0:0:0:0:
192,192,298190,1,0,0:0:0:0:
320,192,298265,1,0,0:0:0:0:
448,192,298265,1,0,0:0:0:0:
192,192,298415,1,0,0:0:0:0:
320,192,298490,1,0,0:0:0:0:
448,192,298565,1,0,0:0:0:0:
64,192,298565,1,0,0:0:0:0:
192,192,298715,1,0,0:0:0:0:
448,192,298865,1,0,0:0:0:0:
64,192,298865,1,0,0:0:0:0:
320,192,299015,1,0,0:0:0:0:
192,192,299090,1,0,0:0:0:0:
64,192,299165,1,0,0:0:0:0:
448,192,299165,1,0,0:0:0:0:
320,192,299315,1,0,0:0:0:0:
192,192,299465,1,0,0:0:0:0:
448,192,299465,1,0,0:0:0:0:
64,192,299615,1,0,0:0:0:0:
192,192,299690,1,0,0:0:0:0:
320,192,299765,1,0,0:0:0:0:
64,192,299765,1,0,0:0:0:0:
448,192,299915,1,0,0:0:0:0:
320,192,300065,1,0,0:0:0:0:
192,192,300065,1,0,0:0:0:0:
64,192,300215,1,0,0:0:0:0:
448,192,300215,128,0,300515:0:0:0:0:
192,192,300290,1,0,0:0:0:0:
320,192,300365,1,0,0:0:0:0:
64,192,300365,1,0,0:0:0:0:
64,192,300515,1,0,0:0:0:0:
192,192,300515,1,0,0:0:0:0:
192,192,300665,1,0,0:0:0:0:
320,192,300665,1,0,0:0:0:0:
64,192,300815,1,0,0:0:0:0:
192,192,300890,1,0,0:0:0:0:
64,192,300965,1,0,0:0:0:0:
320,192,300965,1,0,0:0:0:0:
448,192,301115,1,0,0:0:0:0:
192,192,301265,1,0,0:0:0:0:
448,192,301265,1,0,0:0:0:0:
320,192,301415,1,0,0:0:0:0:
192,192,301490,1,0,0:0:0:0:
64,192,301565,1,0,0:0:0:0:
448,192,301565,1,0,0:0:0:0:
192,192,301715,128,0,302015:0:0:0:0:
320,192,301715,128,0,301865:0:0:0:0:
64,192,301865,128,0,302015:0:0:0:0:
448,192,301865,1,0,0:0:0:0:
448,192,302015,1,0,0:0:0:0:
320,192,302090,1,0,0:0:0:0:
192,192,302165,1,0,0:0:0:0:
64,192,302165,1,0,0:0:0:0:
320,192,302315,128,0,302615:0:0:0:0:
192,192,302315,128,0,302465:0:0:0:0:
448,192,302465,128,0,302615:0:0:0:0:
64,192,302465,1,0,0:0:0:0:
64,192,302615,1,0,0:0:0:0:
192,192,302690,1,0,0:0:0:0:
320,192,302765,1,0,0:0:0:0:
448,192,302765,1,0,0:0:0:0:
192,192,302915,1,0,0:0:0:0:
64,192,302915,1,0,0:0:0:0:
448,192,302915,1,0,0:0:0:0:
64,192,303065,1,0,0:0:0:0:
320,192,303065,1,0,0:0:0:0:
192,192,303215,1,0,0:0:0:0:
320,192,303290,1,0,0:0:0:0:
448,192,303365,1,0,0:0:0:0:
64,192,303365,1,0,0:0:0:0:
448,192,303515,1,0,0:0:0:0:
64,192,303665,1,0,0:0:0:0:
192,192,303665,1,0,0:0:0:0:
320,192,303815,1,0,0:0:0:0:
192,192,303890,1,0,0:0:0:0:
64,192,303965,1,0,0:0:0:0:
448,192,303965,1,0,0:0:0:0:
192,192,304115,1,0,0:0:0:0:
320,192,304265,1,0,0:0:0:0:
448,192,304265,1,0,0:0:0:0:
192,192,304415,1,0,0:0:0:0:
320,192,304490,1,0,0:0:0:0:
448,192,304565,1,0,0:0:0:0:
64,192,304565,1,0,0:0:0:0:
192,192,304715,1,0,0:0:0:0:
64,192,304865,1,0,0:0:0:0:
320,192,304865,1,0,0:0:0:0:
64,192,305015,128,0,305090:0:0:0:0:
320,192,305090,128,0,305165:0:0:0:0:
64,192,305165,128,0,305240:0:0:0:0:
448,192,305165,1,0,0:0:0:0:
320,192,305315,1,0,0:0:0:0:
192,192,305465,1,0,0:0:0:0:
448,192,305465,1,0,0:0:0:0:
64,192,305615,1,0,0:0:0:0:
192,192,305690,1,0,0:0:0:0:
320,192,305765,1,0,0:0:0:0:
448,192,305765,1,0,0:0:0:0:
192,192,305915,1,0,0:0:0:0:
64,192,306065,1,0,0:0:0:0:
320,192,306065,1,0,0:0:0:0:
448,192,306215,1,0,0:0:0:0:
64,192,306290,1,0,0:0:0:0:
192,192,306365,1,0,0:0:0:0:
320,192,306365,1,0,0:0:0:0:
64,192,306515,1,0,0:0:0:0:
192,192,306515,1,0,0:0:0:0:
320,192,306590,1,0,0:0:0:0:
448,192,306590,1,0,0:0:0:0:
64,192,306665,1,0,0:0:0:0:
192,192,306665,1,0,0:0:0:0:
320,192,306740,1,0,0:0:0:0:
192,192,306815,128,0,306965:0:0:0:0:
448,192,306815,1,0,0:0:0:0:
64,192,306890,1,0,0:0:0:0:
448,192,306965,128,0,307115:0:0:0:0:
320,192,307040,1,0,0:0:0:0:
64,192,307115,128,0,307415:0:0:0:0:
192,192,307190,1,0,0:0:0:0:
320,192,307265,1,0,0:0:0:0:
448,192,307340,1,0,0:0:0:0:
192,192,307415,128,0,307565:0:0:0:0:
448,192,307490,1,0,0:0:0:0:
320,192,307565,128,0,307715:0:0:0:0:
64,192,307640,1,0,0:0:0:0:
448,192,307715,1,0,0:0:0:0:
192,192,307715,128,0,308015:0:0:0:0:
320,192,307790,1,0,0:0:0:0:
64,192,307865,1,0,0:0:0:0:
448,192,307940,1,0,0:0:0:0:
64,192,308015,128,0,308315:0:0:0:0:
320,192,308015,1,0,0:0:0:0:
448,192,308090,1,0,0:0:0:0:
320,192,308165,1,0,0:0:0:0:
192,192,308240,1,0,0:0:0:0:
448,192,308315,128,0,308615:0:0:0:0:
320,192,308315,1,0,0:0:0:0:
192,192,308390,1,0,0:0:0:0:
64,192,308465,1,0,0:0:0:0:
320,192,308540,1,0,0:0:0:0:
192,192,308615,128,0,308915:0:0:0:0:
64,192,308615,1,0,0:0:0:0:
448,192,308690,1,0,0:0:0:0:
320,192,308765,1,0,0:0:0:0:
448,192,308840,1,0,0:0:0:0:
64,192,308915,1,0,0:0:0:0:
320,192,308915,128,0,309215:0:0:0:0:
448,192,308990,1,0,0:0:0:0:
192,192,309065,1,0,0:0:0:0:
64,192,309140,1,0,0:0:0:0:
448,192,309215,1,0,0:0:0:0:
192,192,309215,128,0,309515:0:0:0:0:
64,192,309290,1,0,0:0:0:0:
448,192,309365,1,0,0:0:0:0:
320,192,309440,1,0,0:0:0:0:
64,192,309515,1,0,0:0:0:0:
448,192,309515,128,0,309815:0:0:0:0:
320,192,309590,1,0,0:0:0:0:
192,192,309665,1,0,0:0:0:0:
320,192,309740,1,0,0:0:0:0:
192,192,309815,1,0,0:0:0:0:
64,192,309815,128,0,310115:0:0:0:0:
448,192,309890,1,0,0:0:0:0:
320,192,309965,1,0,0:0:0:0:
192,192,310040,1,0,0:0:0:0:
448,192,310115,128,0,310415:0:0:0:0:
320,192,310115,1,0,0:0:0:0:
192,192,310190,1,0,0:0:0:0:
64,192,310265,1,0,0:0:0:0:
192,192,310340,1,0,0:0:0:0:
320,192,310415,1,0,0:0:0:0:
64,192,310415,128,0,310715:0:0:0:0:
448,192,310490,1,0,0:0:0:0:
320,192,310565,1,0,0:0:0:0:
192,192,310640,1,0,0:0:0:0:
448,192,310715,1,0,0:0:0:0:
320,192,310715,128,0,311015:0:0:0:0:
64,192,310790,1,0,0:0:0:0:
192,192,310865,1,0,0:0:0:0:
448,192,310940,1,0,0:0:0:0:
64,192,311015,1,0,0:0:0:0:
192,192,311015,128,0,311315:0:0:0:0:
448,192,311090,1,0,0:0:0:0:
320,192,311165,1,0,0:0:0:0:
64,192,311240,1,0,0:0:0:0:
448,192,311315,128,0,312440:0:0:0:0:
320,192,311315,1,0,0:0:0:0:
192,192,311390,1,0,0:0:0:0:
64,192,311465,1,0,0:0:0:0:
320,192,311540,1,0,0:0:0:0:
64,192,311615,1,0,0:0:0:0:
192,192,311615,1,0,0:0:0:0:
320,192,311690,1,0,0:0:0:0:
192,192,311765,1,0,0:0:0:0:
64,192,311840,1,0,0:0:0:0:
192,192,311915,1,0,0:0:0:0:
320,192,311915,1,0,0:0:0:0:
64,192,311990,1,0,0:0:0:0:
320,192,312065,1,0,0:0:0:0:
192,192,312140,1,0,0:0:0:0:
64,192,312215,1,0,0:0:0:0:
320,192,312215,1,0,0:0:0:0:
192,192,312290,1,0,0:0:0:0:
64,192,312365,1,0,0:0:0:0:
320,192,312440,1,0,0:0:0:0:
192,192,312515,1,0,0:0:0:0:
448,192,312515,128,0,312815:0:0:0:0:
64,192,312515,1,0,0:0:0:0:
320,192,312590,1,0,0:0:0:0:
192,192,312665,1,0,0:0:0:0:
320,192,312740,1,0,0:0:0:0:
192,192,312815,1,0,0:0:0:0:
64,192,312815,128,0,313115:0:0:0:0:
448,192,312890,1,0,0:0:0:0:
320,192,312965,1,0,0:0:0:0:
192,192,313040,1,0,0:0:0:0:
320,192,313115,1,0,0:0:0:0:
448,192,313115,128,0,313415:0:0:0:0:
192,192,313190,1,0,0:0:0:0:
320,192,313265,1,0,0:0:0:0:
64,192,313340,1,0,0:0:0:0:
320,192,313415,128,0,313715:0:0:0:0:
192,192,313415,1,0,0:0:0:0:
64,192,313490,1,0,0:0:0:0:
448,192,313565,1,0,0:0:0:0:
192,192,313640,1,0,0:0:0:0:
64,192,313715,128,0,314015:0:0:0:0:
448,192,313715,1,0,0:0:0:0:
192,192,313790,1,0,0:0:0:0:
320,192,313865,1,0,0:0:0:0:
448,192,313940,1,0,0:0:0:0:
192,192,314015,1,0,0:0:0:0:
320,192,314015,128,0,314315:0:0:0:0:
64,192,314090,1,0,0:0:0:0:
192,192,314165,1,0,0:0:0:0:
448,192,314240,1,0,0:0:0:0:
192,192,314315,1,0,0:0:0:0:
64,192,314315,128,0,314615:0:0:0:0:
448,192,314390,1,0,0:0:0:0:
320,192,314465,1,0,0:0:0:0:
192,192,314540,1,0,0:0:0:0:
448,192,314615,1,0,0:0:0:0:
320,192,314615,128,0,314915:0:0:0:0:
192,192,314690,1,0,0:0:0:0:
64,192,314765,1,0,0:0:0:0:
448,192,314840,1,0,0:0:0:0:
192,192,314915,1,0,0:0:0:0:
64,192,314915,128,0,315215:0:0:0:0:
320,192,314990,1,0,0:0:0:0:
448,192,315065,1,0,0:0:0:0:
192,192,315140,1,0,0:0:0:0:
320,192,315215,128,0,315515:0:0:0:0:
448,192,315215,1,0,0:0:0:0:
192,192,315290,1,0,0:0:0:0:
64,192,315365,1,0,0:0:0:0:
192,192,315440,1,0,0:0:0:0:
448,192,315515,1,0,0:0:0:0:
64,192,315515,128,0,315815:0:0:0:0:
320,192,315590,1,0,0:0:0:0:
448,192,315665,1,0,0:0:0:0:
192,192,315740,1,0,0:0:0:0:
448,192,315815,128,0,316115:0:0:0:0:
320,192,315815,1,0,0:0:0:0:
192,192,315890,1,0,0:0:0:0:
64,192,315965,1,0,0:0:0:0:
320,192,316040,1,0,0:0:0:0:
64,192,316115,1,0,0:0:0:0:
192,192,316115,1,0,0:0:0:0:
320,192,316190,1,0,0:0:0:0:
448,192,316190,1,0,0:0:0:0:
192,192,316265,1,0,0:0:0:0:
64,192,316265,1,0,0:0:0:0:
320,192,316340,1,0,0:0:0:0:
448,192,316340,1,0,0:0:0:0:
64,192,316415,1,0,0:0:0:0:
192,192,316415,1,0,0:0:0:0:
320,192,316490,1,0,0:0:0:0:
448,192,316490,1,0,0:0:0:0:
64,192,316565,1,0,0:0:0:0:
192,192,316565,1,0,0:0:0:0:
320,192,316640,1,0,0:0:0:0:
448,192,316640,1,0,0:0:0:0:
64,192,316715,1,0,0:0:0:0:
192,192,316790,1,0,0:0:0:0:
448,192,316865,1,0,0:0:0:0:
320,192,316940,1,0,0:0:0:0:
64,192,317015,1,0,0:0:0:0:
192,192,317090,1,0,0:0:0:0:
320,192,317165,1,0,0:0:0:0:
448,192,317165,1,0,0:0:0:0:
192,192,317240,1,0,0:0:0:0:
448,192,317315,1,0,0:0:0:0:
320,192,317315,1,0,0:0:0:0:
64,192,317315,128,0,317390:0:0:0:0:
192,192,317390,128,0,317465:0:0:0:0:
320,192,317465,128,0,317540:0:0:0:0:
64,192,317540,128,0,317615:0:0:0:0:
192,192,317615,128,0,317690:0:0:0:0:
448,192,317615,1,0,0:0:0:0:
320,192,317690,128,0,317765:0:0:0:0:
448,192,317765,128,0,317840:0:0:0:0:
192,192,317840,128,0,317915:0:0:0:0:
320,192,317915,128,0,317990:0:0:0:0:
64,192,317915,1,0,0:0:0:0:
192,192,317990,128,0,318065:0:0:0:0:
448,192,318065,128,0,318140:0:0:0:0:
320,192,318140,128,0,318215:0:0:0:0:
64,192,318215,128,0,318515:0:0:0:0:
192,192,318215,1,0,0:0:0:0:
320,192,318290,1,0,0:0:0:0:
448,192,318365,1,0,0:0:0:0:
320,192,318515,128,0,318590:0:0:0:0:
448,192,318515,1,0,0:0:0:0:
192,192,318590,128,0,318665:0:0:0:0:
448,192,318665,128,0,318740:0:0:0:0:
320,192,318740,128,0,318815:0:0:0:0:
192,192,318815,128,0,318890:0:0:0:0:
448,192,318815,1,0,0:0:0:0:
64,192,318890,128,0,318965:0:0:0:0:
320,192,318965,128,0,319040:0:0:0:0:
192,192,319040,128,0,319115:0:0:0:0:
448,192,319115,128,0,319190:0:0:0:0:
64,192,319115,1,0,0:0:0:0:
64,192,319190,128,0,319265:0:0:0:0:
192,192,319265,128,0,319340:0:0:0:0:
320,192,319340,128,0,319415:0:0:0:0:
448,192,319415,128,0,319715:0:0:0:0:
64,192,319415,1,0,0:0:0:0:
192,192,319490,1,0,0:0:0:0:
320,192,319565,1,0,0:0:0:0:
192,192,319715,128,0,319790:0:0:0:0:
320,192,319715,1,0,0:0:0:0:
64,192,319790,128,0,319865:0:0:0:0:
448,192,319865,128,0,319940:0:0:0:0:
192,192,319940,128,0,320015:0:0:0:0:
64,192,320015,128,0,320090:0:0:0:0:
448,192,320015,1,0,0:0:0:0:
320,192,320090,128,0,320165:0:0:0:0:
448,192,320165,128,0,320240:0:0:0:0:
192,192,320240,128,0,320315:0:0:0:0:
320,192,320315,128,0,320390:0:0:0:0:
64,192,320315,1,0,0:0:0:0:
448,192,320390,128,0,320465:0:0:0:0:
64,192,320465,128,0,320540:0:0:0:0:
320,192,320540,128,0,320615:0:0:0:0:
192,192,320615,128,0,320690:0:0:0:0:
64,192,320615,1,0,0:0:0:0:
448,192,320690,128,0,320765:0:0:0:0:
320,192,320765,128,0,320840:0:0:0:0:
192,192,320840,128,0,320915:0:0:0:0:
64,192,320915,128,0,320990:0:0:0:0:
448,192,320915,1,0,0:0:0:0:
448,192,320990,128,0,321065:0:0:0:0:
192,192,321065,128,0,321140:0:0:0:0:
320,192,321140,128,0,321215:0:0:0:0:
448,192,321215,128,0,321290:0:0:0:0:
64,192,321215,1,0,0:0:0:0:
320,192,321290,128,0,321365:0:0:0:0:
64,192,321365,128,0,321515:0:0:0:0:
192,192,321515,128,0,321590:0:0:0:0:
448,192,321515,1,0,0:0:0:0:
320,192,321590,128,0,321665:0:0:0:0:
448,192,321665,128,0,321740:0:0:0:0:
320,192,321740,128,0,321815:0:0:0:0:
192,192,321815,128,0,321890:0:0:0:0:
448,192,321815,1,0,0:0:0:0:
64,192,321890,128,0,321965:0:0:0:0:
448,192,321965,128,0,322115:0:0:0:0:
192,192,322115,1,0,0:0:0:0:
64,192,322115,1,0,0:0:0:0:
320,192,322115,128,0,322265:0:0:0:0:
64,192,322265,128,0,322415:0:0:0:0:
192,192,322415,128,0,322490:0:0:0:0:
448,192,322415,1,0,0:0:0:0:
320,192,322490,128,0,322565:0:0:0:0:
448,192,322565,128,0,322865:0:0:0:0:
192,192,322715,1,0,0:0:0:0:
64,192,322865,128,0,323015:0:0:0:0:
192,192,323015,128,0,323090:0:0:0:0:
448,192,323015,1,0,0:0:0:0:
320,192,323090,128,0,323165:0:0:0:0:
448,192,323165,128,0,323240:0:0:0:0:
192,192,323240,128,0,323315:0:0:0:0:
320,192,323315,128,0,323465:0:0:0:0:
64,192,323315,1,0,0:0:0:0:
448,192,323390,128,0,323465:0:0:0:0:
64,192,323465,128,0,323615:0:0:0:0:
320,192,323540,128,0,323615:0:0:0:0:
448,192,323615,128,0,323765:0:0:0:0:
192,192,323615,1,0,0:0:0:0:
320,192,323690,1,0,0:0:0:0:
64,192,323765,128,0,323915:0:0:0:0:
192,192,323840,128,0,323915:0:0:0:0:
320,192,323915,128,0,323990:0:0:0:0:
448,192,323915,1,0,0:0:0:0:
192,192,323990,128,0,324065:0:0:0:0:
448,192,324065,128,0,324140:0:0:0:0:
320,192,324140,128,0,324215:0:0:0:0:
192,192,324215,128,0,324290:0:0:0:0:
64,192,324215,1,0,0:0:0:0:
448,192,324290,128,0,324365:0:0:0:0:
64,192,324365,128,0,324515:0:0:0:0:
192,192,324440,128,0,324515:0:0:0:0:
320,192,324515,128,0,324665:0:0:0:0:
448,192,324515,1,0,0:0:0:0:
448,192,324665,128,0,324815:0:0:0:0:
64,192,324815,128,0,324890:0:0:0:0:
320,192,324815,1,0,0:0:0:0:
192,192,324890,128,0,324965:0:0:0:0:
320,192,324965,128,0,325115:0:0:0:0:
192,192,325115,128,0,325265:0:0:0:0:
448,192,325115,1,0,0:0:0:0:
64,192,325265,128,0,325415:0:0:0:0:
448,192,325415,128,0,325490:0:0:0:0:
192,192,325415,1,0,0:0:0:0:
320,192,325490,128,0,325565:0:0:0:0:
192,192,325565,128,0,325715:0:0:0:0:
448,192,325715,128,0,325865:0:0:0:0:
64,192,325715,1,0,0:0:0:0:
64,192,325865,128,0,326015:0:0:0:0:
192,192,326015,128,0,326090:0:0:0:0:
448,192,326015,1,0,0:0:0:0:
320,192,326090,128,0,326165:0:0:0:0:
448,192,326165,128,0,326315:0:0:0:0:
192,192,326240,1,0,0:0:0:0:
64,192,326315,128,0,326465:0:0:0:0:
320,192,326315,1,0,0:0:0:0:
448,192,326390,1,0,0:0:0:0:
192,192,326465,128,0,326615:0:0:0:0:
320,192,326540,1,0,0:0:0:0:
64,192,326615,128,0,326915:0:0:0:0:
448,192,326615,1,0,0:0:0:0:
320,192,326690,1,0,0:0:0:0:
192,192,326765,1,0,0:0:0:0:
320,192,326840,1,0,0:0:0:0:
192,192,326915,1,0,0:0:0:0:
448,192,326915,128,0,327065:0:0:0:0:
64,192,327065,128,0,327215:0:0:0:0:
192,192,327215,128,0,327290:0:0:0:0:
448,192,327215,1,0,0:0:0:0:
320,192,327290,128,0,327365:0:0:0:0:
448,192,327365,128,0,327665:0:0:0:0:
192,192,327515,1,0,0:0:0:0:
64,192,327665,128,0,327815:0:0:0:0:
192,192,327815,128,0,327965:0:0:0:0:
448,192,327815,1,0,0:0:0:0:
320,192,327890,1,0,0:0:0:0:
448,192,327965,128,0,328115:0:0:0:0:
320,192,328040,1,0,0:0:0:0:
64,192,328115,128,0,328265:0:0:0:0:
192,192,328115,1,0,0:0:0:0:
192,192,328265,128,0,328415:0:0:0:0:
448,192,328415,128,0,328565:0:0:0:0:
64,192,328415,1,0,0:0:0:0:
320,192,328490,128,0,328565:0:0:0:0:
64,192,328565,128,0,328865:0:0:0:0:
320,192,328715,1,0,0:0:0:0:
192,192,328865,128,0,329165:0:0:0:0:
448,192,329015,1,0,0:0:0:0:
320,192,329090,1,0,0:0:0:0:
64,192,329165,128,0,329240:0:0:0:0:
320,192,329240,1,0,0:0:0:0:
192,192,329315,1,0,0:0:0:0:
64,192,329315,1,0,0:0:0:0:
448,192,329315,128,0,329465:0:0:0:0:
192,192,329465,128,0,329615:0:0:0:0:
448,192,329615,128,0,329765:0:0:0:0:
320,192,329615,1,0,0:0:0:0:
192,192,329690,1,0,0:0:0:0:
64,192,329765,128,0,329915:0:0:0:0:
320,192,329915,128,0,330065:0:0:0:0:
448,192,329915,1,0,0:0:0:0:
192,192,329990,128,0,330065:0:0:0:0:
448,192,330065,128,0,330215:0:0:0:0:
64,192,330215,128,0,330365:0:0:0:0:
192,192,330215,1,0,0:0:0:0:
448,192,330290,1,0,0:0:0:0:
320,192,330365,128,0,330515:0:0:0:0:
192,192,330515,128,0,330665:0:0:0:0:
448,192,330515,1,0,0:0:0:0:
448,192,330665,128,0,330815:0:0:0:0:
320,192,330815,128,0,330890:0:0:0:0:
64,192,330815,1,0,0:0:0:0:
192,192,330890,128,0,330965:0:0:0:0:
64,192,330965,128,0,331115:0:0:0:0:
320,192,331115,128,0,331265:0:0:0:0:
192,192,331115,1,0,0:0:0:0:
448,192,331265,128,0,331415:0:0:0:0:
64,192,331415,128,0,331490:0:0:0:0:
320,192,331415,1,0,0:0:0:0:
192,192,331490,128,0,331565:0:0:0:0:
320,192,331565,128,0,331640:0:0:0:0:
448,192,331640,128,0,331715:0:0:0:0:
64,192,331715,128,0,331790:0:0:0:0:
192,192,331790,128,0,331865:0:0:0:0:
320,192,331865,128,0,331940:0:0:0:0:
448,192,331940,128,0,332015:0:0:0:0:
64,192,332015,128,0,332090:0:0:0:0:
192,192,332090,128,0,332165:0:0:0:0:
320,192,332165,128,0,332240:0:0:0:0:
64,192,332240,128,0,332315:0:0:0:0:
192,192,332315,128,0,332465:0:0:0:0:
320,192,332390,128,0,332465:0:0:0:0:
448,192,332465,128,0,332615:0:0:0:0:
64,192,332540,128,0,332615:0:0:0:0:
192,192,332615,128,0,332765:0:0:0:0:
320,192,332690,128,0,332765:0:0:0:0:
64,192,332765,128,0,332915:0:0:0:0:
448,192,332915,128,0,332990:0:0:0:0:
320,192,332990,128,0,333065:0:0:0:0:
192,192,333065,128,0,333140:0:0:0:0:
448,192,333140,128,0,333215:0:0:0:0:
320,192,333215,128,0,333290:0:0:0:0:
192,192,333290,128,0,333365:0:0:0:0:
64,192,333365,128,0,333515:0:0:0:0:
192,192,333515,128,0,333590:0:0:0:0:
320,192,333590,128,0,333665:0:0:0:0:
64,192,333665,128,0,333740:0:0:0:0:
448,192,333740,128,0,333815:0:0:0:0:
320,192,333815,128,0,333890:0:0:0:0:
64,192,333890,128,0,333965:0:0:0:0:
192,192,333965,128,0,334115:0:0:0:0:
448,192,334115,128,0,334190:0:0:0:0:
320,192,334190,128,0,334265:0:0:0:0:
192,192,334265,128,0,334340:0:0:0:0:
64,192,334340,128,0,334415:0:0:0:0:
448,192,334415,128,0,334565:0:0:0:0:
320,192,334415,1,0,0:0:0:0:
192,192,334490,1,0,0:0:0:0:
64,192,334565,128,0,334640:0:0:0:0:
320,192,334640,128,0,334715:0:0:0:0:
192,192,334715,128,0,334865:0:0:0:0:
448,192,334715,1,0,0:0:0:0:
448,192,334865,128,0,335015:0:0:0:0:
320,192,334940,128,0,335015:0:0:0:0:
64,192,335015,128,0,335090:0:0:0:0:
192,192,335090,128,0,335165:0:0:0:0:
448,192,335165,128,0,335315:0:0:0:0:
64,192,335315,128,0,335465:0:0:0:0:
192,192,335315,1,0,0:0:0:0:
320,192,335390,5,0,0:0:0:0:
448,192,335465,1,0,0:0:0:0:
320,192,335540,128,0,335615:0:0:0:0:
192,192,335615,128,0,335690:0:0:0:0:
64,192,335615,1,0,0:0:0:0:
448,192,335615,1,0,0:0:0:0:
320,192,335690,128,0,335765:0:0:0:0:
64,192,335765,128,0,335840:0:0:0:0:
192,192,335840,128,0,335915:0:0:0:0:
448,192,335915,128,0,335990:0:0:0:0:
320,192,335990,128,0,336065:0:0:0:0:
192,192,336065,128,0,336140:0:0:0:0:
64,192,336140,128,0,336215:0:0:0:0:
320,192,336215,128,0,336290:0:0:0:0:
448,192,336290,128,0,336365:0:0:0:0:
320,192,336365,128,0,336440:0:0:0:0:
64,192,336440,128,0,336515:0:0:0:0:
192,192,336515,5,0,0:0:0:0:
448,192,336515,1,0,0:0:0:0:
320,192,336590,1,0,0:0:0:0:
64,192,336665,1,0,0:0:0:0:
192,192,336740,1,0,0:0:0:0:
320,192,336815,1,0,0:0:0:0:
448,192,336890,1,0,0:0:0:0:
192,192,336965,1,0,0:0:0:0:
64,192,337040,1,0,0:0:0:0:
192,192,337115,1,0,0:0:0:0:
448,192,337115,128,0,337265:0:0:0:0:
320,192,337190,1,0,0:0:0:0:
192,192,337265,1,0,0:0:0:0:
64,192,337340,1,0,0:0:0:0:
320,192,337415,1,0,0:0:0:0:
192,192,337490,1,0,0:0:0:0:
448,192,337565,1,0,0:0:0:0:
320,192,337640,1,0,0:0:0:0:
192,192,337715,1,0,0:0:0:0:
64,192,337715,128,0,337865:0:0:0:0:
448,192,337790,1,0,0:0:0:0:
320,192,337865,1,0,0:0:0:0:
192,192,337940,1,0,0:0:0:0:
64,192,338015,1,0,0:0:0:0:
448,192,338090,1,0,0:0:0:0:
320,192,338165,1,0,0:0:0:0:
192,192,338240,1,0,0:0:0:0:
64,192,338315,1,0,0:0:0:0:
448,192,338315,128,0,338465:0:0:0:0:
320,192,338390,1,0,0:0:0:0:
192,192,338465,1,0,0:0:0:0:
320,192,338540,1,0,0:0:0:0:
192,192,338615,1,0,0:0:0:0:
64,192,338690,1,0,0:0:0:0:
320,192,338765,1,0,0:0:0:0:
192,192,338840,1,0,0:0:0:0:
320,192,338915,128,0,339140:0:0:0:0:
448,192,338915,1,0,0:0:0:0:
192,192,338990,1,0,0:0:0:0:
64,192,339065,1,0,0:0:0:0:
448,192,339140,1,0,0:0:0:0:
64,192,339215,1,0,0:0:0:0:
192,192,339290,1,0,0:0:0:0:
320,192,339365,1,0,0:0:0:0:
448,192,339440,1,0,0:0:0:0:
64,192,339515,1,0,0:0:0:0:
192,192,339515,128,0,339740:0:0:0:0:
448,192,339590,1,0,0:0:0:0:
320,192,339665,1,0,0:0:0:0:
448,192,339740,1,0,0:0:0:0:
64,192,339815,1,0,0:0:0:0:
320,192,339890,1,0,0:0:0:0:
448,192,339965,1,0,0:0:0:0:
192,192,340040,1,0,0:0:0:0:
320,192,340115,128,0,340340:0:0:0:0:
448,192,340115,1,0,0:0:0:0:
192,192,340190,1,0,0:0:0:0:
64,192,340265,1,0,0:0:0:0:
448,192,340340,1,0,0:0:0:0:
64,192,340415,1,0,0:0:0:0:
192,192,340490,1,0,0:0:0:0:
320,192,340565,1,0,0:0:0:0:
192,192,340640,1,0,0:0:0:0:
64,192,340715,1,0,0:0:0:0:
448,192,340715,128,0,340940:0:0:0:0:
192,192,340790,1,0,0:0:0:0:
64,192,340865,1,0,0:0:0:0:
320,192,340940,1,0,0:0:0:0:
64,192,341015,1,0,0:0:0:0:
192,192,341090,1,0,0:0:0:0:
448,192,341165,1,0,0:0:0:0:
320,192,341240,1,0,0:0:0:0:
192,192,341315,1,0,0:0:0:0:
64,192,341315,128,0,341465:0:0:0:0:
192,192,341465,128,0,341540:0:0:0:0:
320,192,341540,128,0,341615:0:0:0:0:
64,192,341615,128,0,341690:0:0:0:0:
192,192,341690,128,0,341765:0:0:0:0:
320,192,341765,128,0,341840:0:0:0:0:
448,192,341840,128,0,341915:0:0:0:0:
192,192,341915,128,0,341990:0:0:0:0:
320,192,341990,128,0,342065:0:0:0:0:
64,192,342065,128,0,342140:0:0:0:0:
192,192,342140,128,0,342215:0:0:0:0:
320,192,342215,128,0,342290:0:0:0:0:
192,192,342290,128,0,342365:0:0:0:0:
320,192,342365,128,0,342440:0:0:0:0:
448,192,342440,128,0,342515:0:0:0:0:
192,192,342515,128,0,342590:0:0:0:0:
320,192,342590,128,0,342665:0:0:0:0:
64,192,342665,128,0,342740:0:0:0:0:
192,192,342740,128,0,342815:0:0:0:0:
448,192,342815,128,0,342890:0:0:0:0:
320,192,342890,128,0,342965:0:0:0:0:
192,192,342965,128,0,343040:0:0:0:0:
448,192,343040,128,0,343115:0:0:0:0:
64,192,343115,128,0,343190:0:0:0:0:
192,192,343190,128,0,343265:0:0:0:0:
64,192,343265,128,0,343340:0:0:0:0:
192,192,343340,128,0,343415:0:0:0:0:
320,192,343415,128,0,343490:0:0:0:0:
448,192,343490,128,0,343565:0:0:0:0:
320,192,343565,128,0,343640:0:0:0:0:
448,192,343640,128,0,343715:0:0:0:0:
64,192,343715,128,0,343790:0:0:0:0:
192,192,343790,128,0,343865:0:0:0:0:
320,192,343865,128,0,343940:0:0:0:0:
64,192,343940,128,0,344015:0:0:0:0:
192,192,344015,128,0,344090:0:0:0:0:
320,192,344090,128,0,344165:0:0:0:0:
64,192,344165,128,0,344315:0:0:0:0:
192,192,344240,128,0,344315:0:0:0:0:
448,192,344315,128,0,344465:0:0:0:0:
320,192,344390,128,0,344465:0:0:0:0:
192,192,344465,128,0,344540:0:0:0:0:
320,192,344540,128,0,344615:0:0:0:0:
64,192,344615,128,0,344765:0:0:0:0:
192,192,344690,128,0,344765:0:0:0:0:
448,192,344765,128,0,344915:0:0:0:0:
192,192,344840,128,0,344915:0:0:0:0:
64,192,344915,128,0,345065:0:0:0:0:
192,192,345065,128,0,345215:0:0:0:0:
448,192,345140,1,0,0:0:0:0:
320,192,345215,128,0,345365:0:0:0:0:
64,192,345290,1,0,0:0:0:0:
448,192,345365,128,0,345515:0:0:0:0:
64,192,345515,128,0,346115:0:0:0:0:
320,192,345515,1,0,0:0:0:0:
192,192,345665,1,0,0:0:0:0:
448,192,345815,1,0,0:0:0:0:
320,192,345890,1,0,0:0:0:0:
192,192,345965,1,0,0:0:0:0:
192,192,346115,128,0,346265:0:0:0:0:
320,192,346265,128,0,346415:0:0:0:0:
448,192,346415,128,0,346565:0:0:0:0:
192,192,346490,128,0,346565:0:0:0:0:
64,192,346565,128,0,346715:0:0:0:0:
448,192,346715,128,0,346865:0:0:0:0:
320,192,346790,128,0,346865:0:0:0:0:
64,192,346865,128,0,346940:0:0:0:0:
192,192,346940,128,0,347015:0:0:0:0:
448,192,347015,128,0,347165:0:0:0:0:
320,192,347090,1,0,0:0:0:0:
192,192,347165,128,0,347315:0:0:0:0:
320,192,347240,128,0,347315:0:0:0:0:
64,192,347315,128,0,347465:0:0:0:0:
448,192,347465,128,0,347615:0:0:0:0:
320,192,347540,128,0,347615:0:0:0:0:
64,192,347615,128,0,347690:0:0:0:0:
192,192,347690,1,0,0:0:0:0:
320,192,347765,128,0,347915:0:0:0:0:
192,192,347840,128,0,347915:0:0:0:0:
64,192,347915,128,0,348215:0:0:0:0:
320,192,348065,1,0,0:0:0:0:
448,192,348215,128,0,348290:0:0:0:0:
320,192,348290,128,0,348365:0:0:0:0:
192,192,348365,128,0,348440:0:0:0:0:
448,192,348440,128,0,348515:0:0:0:0:
64,192,348515,128,0,348590:0:0:0:0:
192,192,348515,128,0,348590:0:0:0:0:
320,192,348515,1,0,0:0:0:0:
448,192,348590,128,0,348665:0:0:0:0:
320,192,348590,128,0,348665:0:0:0:0:
192,192,348665,128,0,348740:0:0:0:0:
64,192,348665,128,0,348740:0:0:0:0:
320,192,348740,128,0,348815:0:0:0:0:
448,192,348815,128,0,348890:0:0:0:0:
64,192,348890,128,0,348965:0:0:0:0:
320,192,348965,128,0,349040:0:0:0:0:
192,192,348965,128,0,349040:0:0:0:0:
448,192,349040,128,0,349115:0:0:0:0:
64,192,349115,128,0,349190:0:0:0:0:
192,192,349190,128,0,349265:0:0:0:0:
320,192,349265,128,0,349340:0:0:0:0:
448,192,349340,128,0,349415:0:0:0:0:
64,192,349415,1,0,0:0:0:0:
192,192,349452,1,0,0:0:0:0:
320,192,349490,1,0,0:0:0:0:
448,192,349527,1,0,0:0:0:0:
64,192,349565,128,0,349640:0:0:0:0:
192,192,349640,128,0,349715:0:0:0:0:
320,192,349715,128,0,349790:0:0:0:0:
448,192,349790,128,0,349940:0:0:0:0:
64,192,349865,128,0,349940:0:0:0:0:
320,192,349940,128,0,350015:0:0:0:0:
192,192,350015,128,0,350090:0:0:0:0:
320,192,350090,128,0,350315:0:0:0:0:
448,192,350165,1,0,0:0:0:0:
192,192,350240,1,0,0:0:0:0:
64,192,350315,128,0,350465:0:0:0:0:
192,192,350465,128,0,350615:0:0:0:0:
448,192,350615,128,0,350915:0:0:0:0:
64,192,350915,5,0,0:0:0:0:
192,192,350915,1,0,0:0:0:0:
320,192,350990,1,0,0:0:0:0:
192,192,351065,1,0,0:0:0:0:
64,192,351065,1,0,0:0:0:0:
448,192,351140,1,0,0:0:0:0:
320,192,351215,1,0,0:0:0:0:
192,192,351215,1,0,0:0:0:0:
64,192,351290,1,0,0:0:0:0:
320,192,351365,1,0,0:0:0:0:
448,192,351365,1,0,0:0:0:0:
192,192,351440,1,0,0:0:0:0:
64,192,351515,1,0,0:0:0:0:
448,192,351515,1,0,0:0:0:0:
320,192,351590,1,0,0:0:0:0:
192,192,351665,1,0,0:0:0:0:
64,192,351665,1,0,0:0:0:0:
448,192,351740,1,0,0:0:0:0:
320,192,351815,1,0,0:0:0:0:
192,192,351815,1,0,0:0:0:0:
64,192,351890,1,0,0:0:0:0:
320,192,351965,1,0,0:0:0:0:
448,192,351965,1,0,0:0:0:0:
64,192,352040,1,0,0:0:0:0:
192,192,352115,1,0,0:0:0:0:
448,192,352115,1,0,0:0:0:0:
320,192,352190,1,0,0:0:0:0:
192,192,352265,1,0,0:0:0:0:
64,192,352265,1,0,0:0:0:0:
448,192,352340,1,0,0:0:0:0:
320,192,352415,1,0,0:0:0:0:
64,192,352415,1,0,0:0:0:0:
192,192,352490,1,0,0:0:0:0:
320,192,352565,1,0,0:0:0:0:
448,192,352565,1,0,0:0:0:0:
64,192,352640,1,0,0:0:0:0:
192,192,352715,1,0,0:0:0:0:
448,192,352715,1,0,0:0:0:0:
320,192,352790,1,0,0:0:0:0:
64,192,352865,1,0,0:0:0:0:
448,192,352865,1,0,0:0:0:0:
192,192,352940,1,0,0:0:0:0:
320,192,353015,1,0,0:0:0:0:
64,192,353015,1,0,0:0:0:0:
192,192,353090,1,0,0:0:0:0:
320,192,353165,1,0,0:0:0:0:
448,192,353165,1,0,0:0:0:0:
192,192,353240,1,0,0:0:0:0:
64,192,353315,1,0,0:0:0:0:
448,192,353315,1,0,0:0:0:0:
320,192,353390,1,0,0:0:0:0:
192,192,353465,1,0,0:0:0:0:
64,192,353465,1,0,0:0:0:0:
448,192,353540,1,0,0:0:0:0:
320,192,353615,1,0,0:0:0:0:
192,192,353615,1,0,0:0:0:0:
64,192,353690,1,0,0:0:0:0:
448,192,353765,1,0,0:0:0:0:
320,192,353765,1,0,0:0:0:0:
64,192,353840,1,0,0:0:0:0:
192,192,353915,1,0,0:0:0:0:
448,192,353915,1,0,0:0:0:0:
320,192,353990,1,0,0:0:0:0:
64,192,354065,1,0,0:0:0:0:
192,192,354065,1,0,0:0:0:0:
320,192,354140,1,0,0:0:0:0:
448,192,354215,1,0,0:0:0:0:
64,192,354215,1,0,0:0:0:0:
192,192,354290,1,0,0:0:0:0:
320,192,354365,1,0,0:0:0:0:
448,192,354365,1,0,0:0:0:0:
64,192,354440,1,0,0:0:0:0:
192,192,354515,1,0,0:0:0:0:
320,192,354515,1,0,0:0:0:0:
448,192,354590,1,0,0:0:0:0:
64,192,354665,1,0,0:0:0:0:
192,192,354665,1,0,0:0:0:0:
320,192,354740,1,0,0:0:0:0:
448,192,354815,1,0,0:0:0:0:
64,192,354815,1,0,0:0:0:0:
192,192,354890,1,0,0:0:0:0:
320,192,354965,1,0,0:0:0:0:
448,192,354965,1,0,0:0:0:0:
64,192,355040,1,0,0:0:0:0:
192,192,355115,1,0,0:0:0:0:
320,192,355115,1,0,0:0:0:0:
64,192,355190,1,0,0:0:0:0:
448,192,355265,1,0,0:0:0:0:
192,192,355265,1,0,0:0:0:0:
320,192,355340,1,0,0:0:0:0:
192,192,355415,1,0,0:0:0:0:
64,192,355415,1,0,0:0:0:0:
448,192,355490,1,0,0:0:0:0:
320,192,355565,1,0,0:0:0:0:
64,192,355565,1,0,0:0:0:0:
192,192,355640,1,0,0:0:0:0:
64,192,355715,128,0,356015:0:0:0:0:
448,192,355790,1,0,0:0:0:0:
320,192,355865,1,0,0:0:0:0:
192,192,355940,1,0,0:0:0:0:
448,192,356015,128,0,356315:0:0:0:0:
320,192,356015,1,0,0:0:0:0:
64,192,356090,1,0,0:0:0:0:
192,192,356165,1,0,0:0:0:0:
320,192,356240,1,0,0:0:0:0:
192,192,356315,128,0,356615:0:0:0:0:
64,192,356315,1,0,0:0:0:0:
320,192,356390,1,0,0:0:0:0:
448,192,356465,1,0,0:0:0:0:
64,192,356540,1,0,0:0:0:0:
448,192,356615,128,0,356765:0:0:0:0:
320,192,356615,1,0,0:0:0:0:
192,192,356690,1,0,0:0:0:0:
64,192,356765,1,0,0:0:0:0:
320,192,356840,1,0,0:0:0:0:
192,192,356915,1,0,0:0:0:0:
320,192,356990,1,0,0:0:0:0:
192,192,357065,1,0,0:0:0:0:
64,192,357065,1,0,0:0:0:0:
448,192,357140,1,0,0:0:0:0:
320,192,357215,1,0,0:0:0:0:
192,192,357290,1,0,0:0:0:0:
64,192,357365,1,0,0:0:0:0:
448,192,357365,128,0,357815:0:0:0:0:
320,192,357440,1,0,0:0:0:0:
192,192,357515,1,0,0:0:0:0:
64,192,357590,1,0,0:0:0:0:
320,192,357665,1,0,0:0:0:0:
192,192,357740,1,0,0:0:0:0:
64,192,357815,1,0,0:0:0:0:
320,192,357890,1,0,0:0:0:0:
64,192,357965,1,0,0:0:0:0:
192,192,357965,1,0,0:0:0:0:
448,192,358040,1,0,0:0:0:0:
192,192,358115,1,0,0:0:0:0:
64,192,358115,1,0,0:0:0:0:
320,192,358190,1,0,0:0:0:0:
192,192,358265,1,0,0:0:0:0:
448,192,358265,1,0,0:0:0:0:
64,192,358340,1,0,0:0:0:0:
320,192,358415,1,0,0:0:0:0:
448,192,358415,1,0,0:0:0:0:
192,192,358490,1,0,0:0:0:0:
64,192,358565,1,0,0:0:0:0:
448,192,358565,1,0,0:0:0:0:
320,192,358640,1,0,0:0:0:0:
192,192,358715,1,0,0:0:0:0:
64,192,358715,1,0,0:0:0:0:
448,192,358790,1,0,0:0:0:0:
320,192,358865,1,0,0:0:0:0:
64,192,358865,1,0,0:0:0:0:
192,192,358940,1,0,0:0:0:0:
448,192,359015,1,0,0:0:0:0:
320,192,359015,1,0,0:0:0:0:
64,192,359090,1,0,0:0:0:0:
192,192,359165,1,0,0:0:0:0:
448,192,359165,1,0,0:0:0:0:
320,192,359240,1,0,0:0:0:0:
448,192,359315,1,0,0:0:0:0:
64,192,359315,1,0,0:0:0:0:
192,192,359390,1,0,0:0:0:0:
320,192,359465,1,0,0:0:0:0:
448,192,359465,1,0,0:0:0:0:
64,192,359540,1,0,0:0:0:0:
192,192,359615,1,0,0:0:0:0:
320,192,359690,1,0,0:0:0:0:
448,192,359690,1,0,0:0:0:0:
64,192,359765,1,0,0:0:0:0:
192,192,359765,1,0,0:0:0:0:
320,192,359840,1,0,0:0:0:0:
448,192,359840,1,0,0:0:0:0:
192,192,359915,128,0,360140:0:0:0:0:
64,192,359990,1,0,0:0:0:0:
320,192,360065,1,0,0:0:0:0:
448,192,360140,128,0,360365:0:0:0:0:
64,192,360215,1,0,0:0:0:0:
192,192,360290,1,0,0:0:0:0:
320,192,360365,1,0,0:0:0:0:
192,192,360440,1,0,0:0:0:0:
64,192,360515,1,0,0:0:0:0:
448,192,360515,1,0,0:0:0:0:
320,192,360515,1,0,0:0:0:0:
64,192,360665,1,0,0:0:0:0:
192,192,360665,1,0,0:0:0:0:
448,192,360665,1,0,0:0:0:0:
320,192,360815,1,0,0:0:0:0:
192,192,360890,1,0,0:0:0:0:
64,192,360965,1,0,0:0:0:0:
320,192,360965,1,0,0:0:0:0:
448,192,360965,1,0,0:0:0:0:
192,192,361115,1,0,0:0:0:0:
448,192,361265,1,0,0:0:0:0:
320,192,361265,1,0,0:0:0:0:
64,192,361265,1,0,0:0:0:0:
192,192,361415,1,0,0:0:0:0:
320,192,361490,1,0,0:0:0:0:
448,192,361565,1,0,0:0:0:0:
192,192,361565,1,0,0:0:0:0:
64,192,361565,1,0,0:0:0:0:
320,192,361715,1,0,0:0:0:0:
64,192,361865,1,0,0:0:0:0:
192,192,361865,1,0,0:0:0:0:
448,192,361865,1,0,0:0:0:0:
192,192,362015,1,0,0:0:0:0:
320,192,362090,1,0,0:0:0:0:
448,192,362165,1,0,0:0:0:0:
64,192,362165,1,0,0:0:0:0:
192,192,362165,1,0,0:0:0:0:
320,192,362315,1,0,0:0:0:0:
64,192,362465,1,0,0:0:0:0:
192,192,362465,1,0,0:0:0:0:
448,192,362465,1,0,0:0:0:0:
320,192,362615,1,0,0:0:0:0:
192,192,362690,1,0,0:0:0:0:
64,192,362765,1,0,0:0:0:0:
320,192,362765,1,0,0:0:0:0:
448,192,362765,1,0,0:0:0:0:
192,192,362915,1,0,0:0:0:0:
64,192,363065,1,0,0:0:0:0:
320,192,363065,1,0,0:0:0:0:
448,192,363065,1,0,0:0:0:0:
64,192,363215,1,0,0:0:0:0:
192,192,363290,1,0,0:0:0:0:
320,192,363365,1,0,0:0:0:0:
448,192,363365,1,0,0:0:0:0:
64,192,363365,1,0,0:0:0:0:
192,192,363515,1,0,0:0:0:0:
448,192,363665,1,0,0:0:0:0:
320,192,363665,1,0,0:0:0:0:
64,192,363665,1,0,0:0:0:0:
320,192,363815,1,0,0:0:0:0:
192,192,363890,1,0,0:0:0:0:
64,192,363965,1,0,0:0:0:0:
448,192,363965,1,0,0:0:0:0:
320,192,363965,1,0,0:0:0:0:
192,192,364115,1,0,0:0:0:0:
64,192,364265,1,0,0:0:0:0:
320,192,364265,1,0,0:0:0:0:
448,192,364265,1,0,0:0:0:0:
192,192,364415,1,0,0:0:0:0:
320,192,364490,1,0,0:0:0:0:
448,192,364565,1,0,0:0:0:0:
64,192,364565,1,0,0:0:0:0:
192,192,364565,1,0,0:0:0:0:
448,192,364715,1,0,0:0:0:0:
64,192,364715,1,0,0:0:0:0:
320,192,364790,1,0,0:0:0:0:
192,192,364865,1,0,0:0:0:0:
64,192,364940,1,0,0:0:0:0:
448,192,365015,1,0,0:0:0:0:
320,192,365090,1,0,0:0:0:0:
64,192,365165,1,0,0:0:0:0:
192,192,365240,1,0,0:0:0:0:
320,192,365315,1,0,0:0:0:0:
64,192,365315,1,0,0:0:0:0:
448,192,365315,1,0,0:0:0:0:
64,192,365465,1,0,0:0:0:0:
192,192,365465,1,0,0:0:0:0:
448,192,365465,1,0,0:0:0:0:
320,192,365615,1,0,0:0:0:0:
192,192,365690,1,0,0:0:0:0:
64,192,365765,1,0,0:0:0:0:
448,192,365765,1,0,0:0:0:0:
320,192,365765,1,0,0:0:0:0:
192,192,365915,1,0,0:0:0:0:
448,192,366065,1,0,0:0:0:0:
320,192,366065,1,0,0:0:0:0:
64,192,366065,1,0,0:0:0:0:
192,192,366215,1,0,0:0:0:0:
320,192,366290,1,0,0:0:0:0:
448,192,366365,1,0,0:0:0:0:
64,192,366365,1,0,0:0:0:0:
192,192,366365,1,0,0:0:0:0:
192,192,366515,1,0,0:0:0:0:
448,192,366665,1,0,0:0:0:0:
64,192,366665,1,0,0:0:0:0:
320,192,366665,1,0,0:0:0:0:
320,192,366815,1,0,0:0:0:0:
192,192,366890,1,0,0:0:0:0:
64,192,366965,1,0,0:0:0:0:
320,192,366965,1,0,0:0:0:0:
448,192,366965,1,0,0:0:0:0:
192,192,367115,1,0,0:0:0:0:
64,192,367265,1,0,0:0:0:0:
320,192,367265,1,0,0:0:0:0:
448,192,367265,1,0,0:0:0:0:
448,192,367415,1,0,0:0:0:0:
320,192,367490,1,0,0:0:0:0:
448,192,367565,1,0,0:0:0:0:
64,192,367565,1,0,0:0:0:0:
192,192,367565,1,0,0:0:0:0:
64,192,367715,1,0,0:0:0:0:
192,192,367715,1,0,0:0:0:0:
320,192,367790,1,0,0:0:0:0:
448,192,367790,1,0,0:0:0:0:
192,192,367865,1,0,0:0:0:0:
64,192,367865,1,0,0:0:0:0:
320,192,367940,1,0,0:0:0:0:
448,192,367940,1,0,0:0:0:0:
64,192,368015,1,0,0:0:0:0:
192,192,368090,1,0,0:0:0:0:
320,192,368165,1,0,0:0:0:0:
448,192,368165,1,0,0:0:0:0:
192,192,368240,1,0,0:0:0:0:
64,192,368240,1,0,0:0:0:0:
320,192,368315,1,0,0:0:0:0:
448,192,368315,1,0,0:0:0:0:
64,192,368390,1,0,0:0:0:0:
192,192,368465,1,0,0:0:0:0:
320,192,368540,1,0,0:0:0:0:
192,192,368615,1,0,0:0:0:0:
64,192,368615,1,0,0:0:0:0:
320,192,368690,1,0,0:0:0:0:
448,192,368690,1,0,0:0:0:0:
192,192,368765,1,0,0:0:0:0:
64,192,368765,1,0,0:0:0:0:
320,192,368840,1,0,0:0:0:0:
448,192,368840,1,0,0:0:0:0:
192,192,368915,1,0,0:0:0:0:
64,192,368915,1,0,0:0:0:0:
320,192,368990,5,0,0:0:0:0:
448,192,368990,1,0,0:0:0:0:
192,192,369065,1,0,0:0:0:0:
64,192,369065,1,0,0:0:0:0:
320,192,369140,1,0,0:0:0:0:
448,192,369140,1,0,0:0:0:0:
64,192,369215,5,0,0:0:0:0:
192,192,369290,1,0,0:0:0:0:
320,192,369365,1,0,0:0:0:0:
448,192,369440,1,0,0:0:0:0:
64,192,369515,1,0,0:0:0:0:
192,192,369590,1,0,0:0:0:0:
320,192,369665,1,0,0:0:0:0:
448,192,369740,1,0,0:0:0:0:
64,192,369815,1,0,0:0:0:0:
192,192,369890,1,0,0:0:0:0:
448,192,369965,1,0,0:0:0:0:
320,192,370040,1,0,0:0:0:0:
64,192,370115,5,0,0:0:0:0:
448,192,370115,1,0,0:0:0:0:
192,192,370115,128,0,371315:0:0:0:0:
64,192,371315,128,0,372515:0:0:0:0:
448,192,372515,128,0,373715:0:0:0:0:
320,192,373715,128,0,374615:0:0:0:0:
448,192,374915,128,0,376115:0:0:0:0:
192,192,376115,128,0,377315:0:0:0:0:
64,192,377315,5,0,0:0:0:0:
448,192,377315,1,0,0:0:0:0:
320,192,377390,1,0,0:0:0:0:
192,192,377465,1,0,0:0:0:0:
64,192,377540,1,0,0:0:0:0:
448,192,377615,1,0,0:0:0:0:
320,192,377690,1,0,0:0:0:0:
64,192,377765,1,0,0:0:0:0:
448,192,377765,1,0,0:0:0:0:
192,192,377840,1,0,0:0:0:0:
320,192,377915,1,0,0:0:0:0:
192,192,377990,1,0,0:0:0:0:
448,192,378065,1,0,0:0:0:0:
320,192,378140,1,0,0:0:0:0:
192,192,378215,128,0,378515:0:0:0:0:
448,192,378215,1,0,0:0:0:0:
448,192,378515,1,0,0:0:0:0:
320,192,378515,1,0,0:0:0:0:
192,192,378590,1,0,0:0:0:0:
64,192,378590,1,0,0:0:0:0:
320,192,378665,1,0,0:0:0:0:
448,192,378665,1,0,0:0:0:0:
64,192,378740,1,0,0:0:0:0:
192,192,378740,1,0,0:0:0:0:
448,192,378815,1,0,0:0:0:0:
320,192,378890,1,0,0:0:0:0:
192,192,378965,1,0,0:0:0:0:
64,192,378965,1,0,0:0:0:0:
448,192,379040,1,0,0:0:0:0:
320,192,379115,1,0,0:0:0:0:
448,192,379190,1,0,0:0:0:0:
192,192,379265,1,0,0:0:0:0:
320,192,379340,1,0,0:0:0:0:
192,192,379415,1,0,0:0:0:0:
448,192,379415,1,0,0:0:0:0:
64,192,379490,1,0,0:0:0:0:
320,192,379565,1,0,0:0:0:0:
192,192,379640,1,0,0:0:0:0:
64,192,379715,1,0,0:0:0:0:
320,192,379715,1,0,0:0:0:0:
448,192,379715,1,0,0:0:0:0:
192,192,379790,1,0,0:0:0:0:
320,192,379865,1,0,0:0:0:0:
448,192,379865,1,0,0:0:0:0:
64,192,379940,1,0,0:0:0:0:
192,192,380015,1,0,0:0:0:0:
320,192,380015,1,0,0:0:0:0:
448,192,380090,1,0,0:0:0:0:
64,192,380165,1,0,0:0:0:0:
192,192,380165,1,0,0:0:0:0:
448,192,380240,1,0,0:0:0:0:
320,192,380315,1,0,0:0:0:0:
192,192,380315,1,0,0:0:0:0:
64,192,380390,1,0,0:0:0:0:
448,192,380465,1,0,0:0:0:0:
320,192,380465,1,0,0:0:0:0:
192,192,380540,1,0,0:0:0:0:
64,192,380615,1,0,0:0:0:0:
448,192,380615,1,0,0:0:0:0:
320,192,380690,1,0,0:0:0:0:
192,192,380765,1,0,0:0:0:0:
64,192,380765,1,0,0:0:0:0:
448,192,380840,1,0,0:0:0:0:
320,192,380915,1,0,0:0:0:0:
192,192,380915,1,0,0:0:0:0:
64,192,380990,1,0,0:0:0:0:
320,192,381065,1,0,0:0:0:0:
448,192,381065,1,0,0:0:0:0:
64,192,381140,1,0,0:0:0:0:
192,192,381215,1,0,0:0:0:0:
320,192,381215,1,0,0:0:0:0:
448,192,381290,1,0,0:0:0:0:
64,192,381365,1,0,0:0:0:0:
192,192,381365,1,0,0:0:0:0:
320,192,381440,1,0,0:0:0:0:
448,192,381515,1,0,0:0:0:0:
192,192,381515,1,0,0:0:0:0:
64,192,381590,1,0,0:0:0:0:
320,192,381665,1,0,0:0:0:0:
448,192,381665,1,0,0:0:0:0:
64,192,381740,1,0,0:0:0:0:
192,192,381815,1,0,0:0:0:0:
320,192,381815,1,0,0:0:0:0:
448,192,381890,1,0,0:0:0:0:
64,192,381965,1,0,0:0:0:0:
192,192,381965,1,0,0:0:0:0:
448,192,382040,1,0,0:0:0:0:
320,192,382115,1,0,0:0:0:0:
192,192,382115,1,0,0:0:0:0:
64,192,382190,1,0,0:0:0:0:
448,192,382265,1,0,0:0:0:0:
320,192,382265,1,0,0:0:0:0:
192,192,382340,1,0,0:0:0:0:
64,192,382415,1,0,0:0:0:0:
448,192,382415,1,0,0:0:0:0:
320,192,382490,1,0,0:0:0:0:
192,192,382565,1,0,0:0:0:0:
64,192,382565,1,0,0:0:0:0:
448,192,382640,1,0,0:0:0:0:
320,192,382715,1,0,0:0:0:0:
192,192,382715,1,0,0:0:0:0:
64,192,382790,1,0,0:0:0:0:
320,192,382865,1,0,0:0:0:0:
448,192,382865,1,0,0:0:0:0:
64,192,382940,1,0,0:0:0:0:
192,192,383015,1,0,0:0:0:0:
320,192,383015,1,0,0:0:0:0:
448,192,383090,1,0,0:0:0:0:
64,192,383165,1,0,0:0:0:0:
192,192,383165,1,0,0:0:0:0:
320,192,383240,1,0,0:0:0:0:
448,192,383315,1,0,0:0:0:0:
192,192,383315,1,0,0:0:0:0:
64,192,383390,1,0,0:0:0:0:
448,192,383465,1,0,0:0:0:0:
320,192,383465,1,0,0:0:0:0:
64,192,383540,1,0,0:0:0:0:
320,192,383615,1,0,0:0:0:0:
192,192,383615,1,0,0:0:0:0:
448,192,383690,1,0,0:0:0:0:
192,192,383765,1,0,0:0:0:0:
64,192,383765,1,0,0:0:0:0:
448,192,383840,1,0,0:0:0:0:
192,192,383915,1,0,0:0:0:0:
320,192,383915,1,0,0:0:0:0:
64,192,383990,1,0,0:0:0:0:
320,192,384065,1,0,0:0:0:0:
448,192,384065,1,0,0:0:0:0:
192,192,384140,1,0,0:0:0:0:
448,192,384215,1,0,0:0:0:0:
64,192,384215,1,0,0:0:0:0:
320,192,384290,1,0,0:0:0:0:
64,192,384365,1,0,0:0:0:0:
192,192,384365,1,0,0:0:0:0:
448,192,384440,1,0,0:0:0:0:
192,192,384515,1,0,0:0:0:0:
320,192,384515,1,0,0:0:0:0:
64,192,384590,1,0,0:0:0:0:
448,192,384665,1,0,0:0:0:0:
320,192,384665,1,0,0:0:0:0:
64,192,384740,1,0,0:0:0:0:
320,192,384815,1,0,0:0:0:0:
192,192,384815,1,0,0:0:0:0:
448,192,384890,1,0,0:0:0:0:
192,192,384965,1,0,0:0:0:0:
64,192,384965,1,0,0:0:0:0:
320,192,385040,1,0,0:0:0:0:
192,192,385115,1,0,0:0:0:0:
448,192,385115,1,0,0:0:0:0:
64,192,385190,1,0,0:0:0:0:
320,192,385265,1,0,0:0:0:0:
448,192,385265,1,0,0:0:0:0:
64,192,385340,1,0,0:0:0:0:
192,192,385415,1,0,0:0:0:0:
320,192,385415,1,0,0:0:0:0:
448,192,385490,1,0,0:0:0:0:
64,192,385565,1,0,0:0:0:0:
192,192,385565,1,0,0:0:0:0:
448,192,385640,1,0,0:0:0:0:
320,192,385715,1,0,0:0:0:0:
192,192,385715,1,0,0:0:0:0:
64,192,385790,1,0,0:0:0:0:
448,192,385865,1,0,0:0:0:0:
320,192,385865,1,0,0:0:0:0:
192,192,385940,1,0,0:0:0:0:
64,192,386015,1,0,0:0:0:0:
448,192,386015,1,0,0:0:0:0:
320,192,386090,1,0,0:0:0:0:
192,192,386165,1,0,0:0:0:0:
64,192,386165,1,0,0:0:0:0:
448,192,386240,1,0,0:0:0:0:
320,192,386315,1,0,0:0:0:0:
192,192,386315,1,0,0:0:0:0:
64,192,386390,1,0,0:0:0:0:
320,192,386465,1,0,0:0:0:0:
448,192,386465,1,0,0:0:0:0:
64,192,386540,1,0,0:0:0:0:
192,192,386615,1,0,0:0:0:0:
320,192,386615,1,0,0:0:0:0:
448,192,386690,1,0,0:0:0:0:
64,192,386765,1,0,0:0:0:0:
192,192,386765,1,0,0:0:0:0:
320,192,386840,1,0,0:0:0:0:
64,192,386915,1,0,0:0:0:0:
192,192,386915,1,0,0:0:0:0:
320,192,386990,1,0,0:0:0:0:
448,192,386990,1,0,0:0:0:0:
192,192,387065,1,0,0:0:0:0:
64,192,387065,1,0,0:0:0:0:
448,192,387140,1,0,0:0:0:0:
320,192,387215,1,0,0:0:0:0:
192,192,387290,1,0,0:0:0:0:
320,192,387365,1,0,0:0:0:0:
448,192,387365,1,0,0:0:0:0:
64,192,387440,1,0,0:0:0:0:
192,192,387440,1,0,0:0:0:0:
320,192,387515,1,0,0:0:0:0:
448,192,387515,1,0,0:0:0:0:
64,192,387590,1,0,0:0:0:0:
192,192,387665,1,0,0:0:0:0:
320,192,387740,1,0,0:0:0:0:
192,192,387815,1,0,0:0:0:0:
64,192,387815,1,0,0:0:0:0:
320,192,387890,1,0,0:0:0:0:
448,192,387890,1,0,0:0:0:0:
64,192,387965,1,0,0:0:0:0:
192,192,388040,1,0,0:0:0:0:
320,192,388115,1,0,0:0:0:0:
448,192,388115,1,0,0:0:0:0:
64,192,388190,1,0,0:0:0:0:
192,192,388190,1,0,0:0:0:0:
320,192,388265,1,0,0:0:0:0:
448,192,388265,1,0,0:0:0:0:
192,192,388340,1,0,0:0:0:0:
64,192,388340,1,0,0:0:0:0:
320,192,388415,1,0,0:0:0:0:
448,192,388415,1,0,0:0:0:0:
192,192,388490,1,0,0:0:0:0:
64,192,388490,1,0,0:0:0:0:
320,192,388565,1,0,0:0:0:0:
448,192,388565,1,0,0:0:0:0:
192,192,388640,1,0,0:0:0:0:
64,192,388640,1,0,0:0:0:0:
448,192,388715,1,0,0:0:0:0:
320,192,388790,1,0,0:0:0:0:
192,192,388865,1,0,0:0:0:0:
64,192,388940,1,0,0:0:0:0:
320,192,389015,1,0,0:0:0:0:
448,192,389015,1,0,0:0:0:0:
64,192,389090,1,0,0:0:0:0:
192,192,389165,1,0,0:0:0:0:
320,192,389240,1,0,0:0:0:0:
448,192,389315,5,0,0:0:0:0:
64,192,389315,1,0,0:0:0:0:
192,192,389315,1,0,0:0:0:0:
64,192,389465,1,0,0:0:0:0:
448,192,389465,1,0,0:0:0:0:
320,192,389465,1,0,0:0:0:0:
192,192,389615,1,0,0:0:0:0:
320,192,389690,1,0,0:0:0:0:
448,192,389765,1,0,0:0:0:0:
64,192,389765,1,0,0:0:0:0:
192,192,389765,1,0,0:0:0:0:
320,192,389915,1,0,0:0:0:0:
64,192,390065,1,0,0:0:0:0:
448,192,390065,1,0,0:0:0:0:
192,192,390065,1,0,0:0:0:0:
320,192,390215,1,0,0:0:0:0:
192,192,390290,1,0,0:0:0:0:
64,192,390365,1,0,0:0:0:0:
320,192,390365,1,0,0:0:0:0:
448,192,390365,1,0,0:0:0:0:
192,192,390515,1,0,0:0:0:0:
192,192,390665,1,0,0:0:0:0:
448,192,390665,1,0,0:0:0:0:
64,192,390665,1,0,0:0:0:0:
448,192,390815,1,0,0:0:0:0:
320,192,390890,1,0,0:0:0:0:
192,192,390965,1,0,0:0:0:0:
64,192,390965,1,0,0:0:0:0:
448,192,390965,1,0,0:0:0:0:
64,192,391115,1,0,0:0:0:0:
192,192,391265,1,0,0:0:0:0:
320,192,391265,1,0,0:0:0:0:
448,192,391265,1,0,0:0:0:0:
320,192,391415,1,0,0:0:0:0:
192,192,391490,1,0,0:0:0:0:
64,192,391565,1,0,0:0:0:0:
320,192,391565,1,0,0:0:0:0:
448,192,391565,1,0,0:0:0:0:
192,192,391715,1,0,0:0:0:0:
320,192,391865,1,0,0:0:0:0:
448,192,391865,1,0,0:0:0:0:
64,192,391865,1,0,0:0:0:0:
192,192,392015,1,0,0:0:0:0:
320,192,392090,1,0,0:0:0:0:
192,192,392165,1,0,0:0:0:0:
64,192,392165,1,0,0:0:0:0:
448,192,392165,1,0,0:0:0:0:
320,192,392315,1,0,0:0:0:0:
192,192,392465,1,0,0:0:0:0:
448,192,392465,1,0,0:0:0:0:
64,192,392465,1,0,0:0:0:0:
192,192,392615,1,0,0:0:0:0:
320,192,392690,1,0,0:0:0:0:
192,192,392765,1,0,0:0:0:0:
64,192,392765,1,0,0:0:0:0:
448,192,392765,1,0,0:0:0:0:
320,192,392915,1,0,0:0:0:0:
192,192,393065,5,0,0:0:0:0:
448,192,393065,1,0,0:0:0:0:
64,192,393065,1,0,0:0:0:0:
320,192,393215,1,0,0:0:0:0:
192,192,393290,1,0,0:0:0:0:
64,192,393365,1,0,0:0:0:0:
448,192,393365,1,0,0:0:0:0:
320,192,393365,1,0,0:0:0:0:
192,192,393515,1,0,0:0:0:0:
64,192,393665,1,0,0:0:0:0:
320,192,393665,1,0,0:0:0:0:
448,192,393665,1,0,0:0:0:0:
192,192,393815,1,0,0:0:0:0:
320,192,393890,1,0,0:0:0:0:
448,192,393965,1,0,0:0:0:0:
64,192,393965,1,0,0:0:0:0:
192,192,393965,1,0,0:0:0:0:
192,192,394115,1,0,0:0:0:0:
320,192,394265,1,0,0:0:0:0:
64,192,394265,1,0,0:0:0:0:
192,192,394415,1,0,0:0:0:0:
320,192,394490,1,0,0:0:0:0:
448,192,394565,1,0,0:0:0:0:
64,192,394565,1,0,0:0:0:0:
192,192,394565,1,0,0:0:0:0:
320,192,394715,1,0,0:0:0:0:
64,192,394865,1,0,0:0:0:0:
448,192,394865,1,0,0:0:0:0:
192,192,395015,1,0,0:0:0:0:
320,192,395090,1,0,0:0:0:0:
448,192,395165,1,0,0:0:0:0:
64,192,395165,1,0,0:0:0:0:
192,192,395165,1,0,0:0:0:0:
320,192,395315,1,0,0:0:0:0:
448,192,395465,1,0,0:0:0:0:
192,192,395465,1,0,0:0:0:0:
64,192,395615,1,0,0:0:0:0:
192,192,395690,1,0,0:0:0:0:
320,192,395765,1,0,0:0:0:0:
448,192,395765,1,0,0:0:0:0:
64,192,395765,1,0,0:0:0:0:
192,192,395915,1,0,0:0:0:0:
320,192,396065,1,0,0:0:0:0:
64,192,396065,1,0,0:0:0:0:
192,192,396215,1,0,0:0:0:0:
320,192,396290,1,0,0:0:0:0:
448,192,396365,1,0,0:0:0:0:
64,192,396365,1,0,0:0:0:0:
192,192,396365,1,0,0:0:0:0:
320,192,396515,1,0,0:0:0:0:
192,192,396665,1,0,0:0:0:0:
64,192,396665,1,0,0:0:0:0:
448,192,396815,1,0,0:0:0:0:
320,192,396890,1,0,0:0:0:0:
192,192,396965,1,0,0:0:0:0:
64,192,396965,1,0,0:0:0:0:
448,192,396965,1,0,0:0:0:0:
320,192,397115,1,0,0:0:0:0:
192,192,397265,1,0,0:0:0:0:
448,192,397265,1,0,0:0:0:0:
320,192,397415,1,0,0:0:0:0:
192,192,397490,1,0,0:0:0:0:
64,192,397565,1,0,0:0:0:0:
320,192,397565,1,0,0:0:0:0:
448,192,397565,1,0,0:0:0:0:
64,192,397715,1,0,0:0:0:0:
192,192,397715,1,0,0:0:0:0:
448,192,397715,1,0,0:0:0:0:
64,192,397865,5,0,0:0:0:0:
192,192,397940,1,0,0:0:0:0:
320,192,398015,1,0,0:0:0:0:
448,192,398015,1,0,0:0:0:0:
64,192,398090,1,0,0:0:0:0:
192,192,398165,1,0,0:0:0:0:
320,192,398240,1,0,0:0:0:0:
64,192,398315,1,0,0:0:0:0:
192,192,398315,1,0,0:0:0:0:
320,192,398390,1,0,0:0:0:0:
448,192,398390,1,0,0:0:0:0:
192,192,398465,1,0,0:0:0:0:
64,192,398465,1,0,0:0:0:0:
448,192,398540,1,0,0:0:0:0:
320,192,398540,1,0,0:0:0:0:
192,192,398615,1,0,0:0:0:0:
64,192,398615,1,0,0:0:0:0:
320,192,398690,1,0,0:0:0:0:
448,192,398690,1,0,0:0:0:0:
192,192,398765,1,0,0:0:0:0:
64,192,398765,1,0,0:0:0:0:
320,192,398840,1,0,0:0:0:0:
64,192,398915,5,0,0:0:0:0:
448,192,398915,1,0,0:0:0:0:
192,192,398915,1,0,0:0:0:0:
64,192,400115,1,0,0:0:0:0:
192,192,400115,1,0,0:0:0:0:
320,192,400115,1,0,0:0:0:0:
448,192,400115,1,0,0:0:0:0:
64,192,401315,1,0,0:0:0:0:
192,192,401315,1,0,0:0:0:0:
320,192,401390,1,0,0:0:0:0:
448,192,401390,1,0,0:0:0:0:
192,192,401465,1,0,0:0:0:0:
64,192,401465,1,0,0:0:0:0:
320,192,401540,1,0,0:0:0:0:
448,192,401615,1,0,0:0:0:0:
192,192,401690,1,0,0:0:0:0:
64,192,401690,1,0,0:0:0:0:
320,192,401765,1,0,0:0:0:0:
448,192,401765,1,0,0:0:0:0:
192,192,401840,1,0,0:0:0:0:
64,192,401840,1,0,0:0:0:0:
320,192,401915,1,0,0:0:0:0:
448,192,401915,1,0,0:0:0:0:
192,192,401990,1,0,0:0:0:0:
64,192,401990,1,0,0:0:0:0:
320,192,402065,1,0,0:0:0:0:
448,192,402065,1,0,0:0:0:0:
192,192,402140,1,0,0:0:0:0:
64,192,402140,1,0,0:0:0:0:
448,192,402215,1,0,0:0:0:0:
320,192,402215,1,0,0:0:0:0:
192,192,402290,1,0,0:0:0:0:
64,192,402290,1,0,0:0:0:0:
320,192,402365,1,0,0:0:0:0:
192,192,402440,1,0,0:0:0:0:
64,192,402515,1,0,0:0:0:0:
320,192,402515,1,0,0:0:0:0:
448,192,402515,1,0,0:0:0:0:
192,192,402765,1,0,0:0:0:0:
320,192,402765,1,0,0:0:0:0:
448,192,402765,1,0,0:0:0:0:
64,192,402965,1,0,0:0:0:0:
448,192,402965,1,0,0:0:0:0:
192,192,402965,1,0,0:0:0:0:
448,192,403190,128,0,403715:0:0:0:0:
320,192,403190,128,0,403790:0:0:0:0:
192,192,403190,128,0,403865:0:0:0:0:
64,192,403190,128,0,403940:0:0:0:0:
