osu file format v14

[General]
AudioFilename: audio.mp3
AudioLeadIn: 0
PreviewTime: -1
Countdown: 0
SampleSet: Normal
StackLeniency: 0.3
Mode: 0
LetterboxInBreaks: 0
WidescreenStoryboard: 0

[Editor]
DistanceSpacing: 3
BeatDivisor: 12
GridSize: 8
TimelineZoom: 1.9

[Metadata]
Title:Fallen World
TitleUnicode:Fallen World
Artist:DragonForce
ArtistUnicode:DragonForce
Creator:Weriko
Version:Fallen
Source:
Tags:
BeatmapID:1138009
BeatmapSetID:536943

[Difficulty]
HPDrainRate:0
CircleSize:4
OverallDifficulty:9
ApproachRate:10
SliderMultiplier:1.8
SliderTickRate:1

[Events]
//Background and Video events
0,0,"Background.jpg",0,0
//Break Periods
2,216484,220199
//Storyboard Layer 0 (Background)
//Storyboard Layer 1 (Fail)
//Storyboard Layer 2 (Pass)
//Storyboard Layer 3 (Foreground)
//Storyboard Sound Samples

[TimingPoints]
286,1090.90909090909,4,1,0,50,1,0
15558,-55.5555555555556,4,1,0,50,0,0
17740,272.727272727273,4,1,0,50,1,0
21558,-80,4,1,0,50,0,0
22103,-100,4,1,0,50,0,0
24830,-80,4,1,0,50,0,0
25376,-100,4,1,0,50,0,0
41740,-80,4,1,0,50,0,0
45012,-100,4,1,0,50,0,0
46103,-80,4,1,0,50,0,0
52649,-100,4,1,0,50,0,0
63558,-100,4,1,0,50,0,1
71740,-100,4,1,0,50,0,0
72285,-100,4,1,0,50,0,1
85376,-100,4,1,0,50,0,0
89740,-80,4,1,0,50,0,0
108285,-100,4,1,0,40,0,0
109376,-200,4,1,0,40,0,0
111012,-117.647058823529,4,1,0,40,0,0
111217,-117.647058823529,4,1,0,40,0,0
111285,-80,4,1,0,40,0,0
118103,-100,4,1,0,40,0,0
120285,-80,4,1,0,40,0,0
126830,-100,4,1,0,40,0,0
129012,-80,4,1,0,40,0,0
135558,-100,4,1,0,40,0,0
155194,-80,4,1,0,40,0,0
182467,-200,4,1,0,40,0,0
183558,-80,4,1,0,40,0,0
220649,-66.6666666666667,4,1,0,40,0,0
222830,-80,4,1,0,40,0,0
225012,-66.6666666666667,4,1,0,40,0,0
232649,-60.6060606060606,4,1,0,40,0,0
237012,-80,4,1,0,40,0,0
238102,-58.8235294117647,4,1,0,40,0,0

[Colours]
Combo1 : 0,255,190
Combo2 : 0,150,255
Combo3 : 0,128,192
Combo4 : 0,64,128

[HitObjects]
63,83,286,6,0,P|116:69|144:69,2,67.5
205,38,1376,6,0,P|210:73|147:154,1,135
65,195,2331,1,0,0:0:0:0:
47,289,2467,2,0,P|81:279|123:262,2,67.5
191,294,3558,2,0,P|193:249|181:216,2,67.5
338,268,4649,6,0,L|300:197,2,67.5
426,304,5604,1,0,0:0:0:0:
473,231,5740,6,0,L|511:160,1,67.5
429,76,6558,1,0,0:0:0:0:
264,0,6831,6,0,B|269:39|248:99|248:99|268:132|268:132|223:156|237:226|287:272|323:268|353:268|360:241,1,360
422,207,9422,1,0,0:0:0:0:
422,207,9831,1,0,0:0:0:0:
354,207,10240,1,0,0:0:0:0:
288,197,10376,1,0,0:0:0:0:
234,158,10512,1,0,0:0:0:0:
203,100,10650,1,0,0:0:0:0:
267,113,10786,1,0,0:0:0:0:
331,97,10922,1,0,0:0:0:0:
382,53,11058,1,0,0:0:0:0:
424,105,11195,6,0,L|506:85,2,67.5
357,284,12285,1,0,0:0:0:0:
480,145,12490,5,0,0:0:0:0:
472,166,12558,1,0,0:0:0:0:
459,184,12626,1,0,0:0:0:0:
442,199,12694,1,0,0:0:0:0:
422,208,12762,1,0,0:0:0:0:
400,213,12831,1,0,0:0:0:0:
377,212,12899,1,0,0:0:0:0:
353,210,12967,1,0,0:0:0:0:
330,209,13035,1,0,0:0:0:0:
309,217,13103,1,0,0:0:0:0:
292,231,13171,1,0,0:0:0:0:
281,250,13239,1,0,0:0:0:0:
277,272,13307,1,0,0:0:0:0:
280,295,13376,6,0,L|209:323,2,67.5
150,210,14467,2,0,L|221:238,2,67.5
98,76,15558,6,0,L|124:92,2,20.2499993820191
148,209,15831,1,0,0:0:0:0:
193,45,15967,2,0,L|216:58,2,20.2499993820191
243,178,16240,1,0,0:0:0:0:
376,75,16376,2,0,L|388:120,1,40.4999987640381
426,270,16649,2,0,L|401:253,2,20.2499993820191
243,178,16922,1,0,0:0:0:0:
284,293,17058,2,0,L|257:277,2,20.2499993820191
101,201,17331,1,0,0:0:0:0:
253,103,17467,2,0,L|219:60,1,40.4999987640381
141,5,17740,5,0,0:0:0:0:
100,22,17808,1,0,0:0:0:0:
74,58,17876,1,0,0:0:0:0:
71,102,17944,1,0,0:0:0:0:
92,142,18012,1,0,0:0:0:0:
131,164,18080,1,0,0:0:0:0:
175,162,18149,1,0,0:0:0:0:
212,138,18217,1,0,0:0:0:0:
237,101,18285,1,0,0:0:0:0:
257,62,18353,1,0,0:0:0:0:
294,37,18421,1,0,0:0:0:0:
339,34,18489,1,0,0:0:0:0:
379,53,18557,1,0,0:0:0:0:
405,89,18625,1,0,0:0:0:0:
410,133,18694,1,0,0:0:0:0:
393,174,18762,1,0,0:0:0:0:
358,202,18830,5,0,0:0:0:0:
372,160,18898,1,0,0:0:0:0:
410,133,18966,1,0,0:0:0:0:
453,136,19034,1,0,0:0:0:0:
488,163,19102,1,0,0:0:0:0:
500,205,19170,1,0,0:0:0:0:
486,247,19239,1,0,0:0:0:0:
449,272,19307,1,0,0:0:0:0:
405,270,19375,1,0,0:0:0:0:
362,279,19444,1,0,0:0:0:0:
338,316,19512,1,0,0:0:0:0:
346,359,19580,1,0,0:0:0:0:
383,384,19648,1,0,0:0:0:0:
426,376,19716,1,0,0:0:0:0:
451,340,19785,1,0,0:0:0:0:
443,297,19853,1,0,0:0:0:0:
405,270,19921,5,0,0:0:0:0:
365,249,19989,1,0,0:0:0:0:
321,237,20057,1,0,0:0:0:0:
276,237,20125,1,0,0:0:0:0:
233,246,20193,1,0,0:0:0:0:
192,266,20261,1,0,0:0:0:0:
157,295,20330,1,0,0:0:0:0:
125,326,20398,1,0,0:0:0:0:
82,335,20466,1,0,0:0:0:0:
41,318,20534,1,0,0:0:0:0:
16,281,20602,1,0,0:0:0:0:
16,237,20670,1,0,0:0:0:0:
41,200,20739,1,0,0:0:0:0:
82,183,20807,1,0,0:0:0:0:
125,192,20875,1,0,0:0:0:0:
156,224,20943,1,0,0:0:0:0:
192,266,21012,6,0,B|210:286|210:286|250:303,3,45
392,325,21285,2,0,B|374:305|374:305|334:288,3,45
202,73,21558,2,0,B|220:93|220:93|267:111,3,56.25
402,132,21831,2,0,B|384:112|384:112|331:93,3,56.25
492,255,22103,5,0,0:0:0:0:
453,231,22171,1,0,0:0:0:0:
410,219,22239,1,0,0:0:0:0:
365,220,22307,1,0,0:0:0:0:
323,234,22375,1,0,0:0:0:0:
286,260,22443,1,0,0:0:0:0:
258,295,22512,1,0,0:0:0:0:
224,325,22580,1,0,0:0:0:0:
188,350,22648,1,0,0:0:0:0:
144,353,22716,1,0,0:0:0:0:
104,334,22784,1,0,0:0:0:0:
80,296,22852,1,0,0:0:0:0:
78,252,22920,1,0,0:0:0:0:
100,213,22989,1,0,0:0:0:0:
138,190,23057,1,0,0:0:0:0:
180,173,23126,1,0,0:0:0:0:
217,149,23194,5,0,0:0:0:0:
238,109,23262,1,0,0:0:0:0:
235,65,23330,1,0,0:0:0:0:
211,27,23398,1,0,0:0:0:0:
172,7,23466,1,0,0:0:0:0:
127,9,23535,1,0,0:0:0:0:
90,34,23603,1,0,0:0:0:0:
70,73,23671,1,0,0:0:0:0:
73,118,23739,1,0,0:0:0:0:
105,147,23808,1,0,0:0:0:0:
149,150,23876,1,0,0:0:0:0:
185,123,23944,1,0,0:0:0:0:
195,80,24012,1,0,0:0:0:0:
176,41,24080,1,0,0:0:0:0:
136,22,24149,1,0,0:0:0:0:
93,34,24217,1,0,0:0:0:0:
70,73,24285,6,0,B|43:85|43:85|0:90,3,45
149,150,24558,2,0,B|176:161|176:161|219:166,3,45
59,232,24830,2,0,B|31:243|31:243|-17:250,3,56.25
137,308,25103,2,0,B|164:319|164:319|209:325,3,56.25
297,330,25376,5,0,0:0:0:0:
287,304,25444,1,0,0:0:0:0:
278,279,25512,2,0,L|248:199,1,45
452,252,25649,5,0,0:0:0:0:
461,226,25717,1,0,0:0:0:0:
470,201,25785,2,0,L|500:120,1,45
296,175,25922,5,0,0:0:0:0:
286,149,25990,1,0,0:0:0:0:
277,124,26058,2,0,L|246:43,1,45
451,97,26194,5,0,0:0:0:0:
461,71,26262,1,0,0:0:0:0:
470,46,26330,2,0,L|500:-34,1,45
243,14,26467,6,0,P|206:55|196:117,1,90
198,284,26740,1,0,0:0:0:0:
155,44,26876,6,0,P|144:98|166:157,1,90
251,300,27149,1,0,0:0:0:0:
107,66,27285,6,0,P|114:131|150:175,1,90
405,315,27558,2,0,P|398:250|362:206,1,90
87,96,27830,2,0,P|106:159|149:196,1,90
424,287,28103,2,0,P|405:224|362:187,1,90
87,96,28376,1,0,0:0:0:0:
470,196,28512,1,0,0:0:0:0:
147,262,28649,6,0,P|123:199|123:151,1,90
410,135,28921,1,0,0:0:0:0:
141,252,29058,6,0,P|122:187|127:139,1,90
410,135,29330,1,0,0:0:0:0:
136,242,29467,6,0,P|123:175|132:128,1,90
410,135,29740,5,0,0:0:0:0:
46,154,29876,1,0,0:0:0:0:
383,294,30012,1,0,0:0:0:0:
140,23,30149,1,0,0:0:0:0:
240,373,30285,1,0,0:0:0:0:
302,14,30421,1,0,0:0:0:0:
114,270,30558,1,0,0:0:0:0:
108,282,30626,1,0,0:0:0:0:
102,294,30694,1,0,0:0:0:0:
96,306,30762,1,0,0:0:0:0:
91,310,30830,6,0,B|76:284|76:284|19:253,3,60
261,95,31194,6,0,B|276:121|276:121|333:152,3,60
59,106,31558,6,0,B|44:132|44:132|-13:163,3,60
137,260,31921,6,0,B|122:234|122:234|65:203,5,60
127,87,32467,6,0,L|88:57,1,45
116,32,32603,2,0,L|147:66,1,45
170,49,32740,2,0,L|144:7,1,45
179,0,32876,2,0,L|196:37,1,45
337,40,33012,5,0,0:0:0:0:
337,40,33081,1,0,0:0:0:0:
337,40,33149,1,0,0:0:0:0:
337,40,33217,1,0,0:0:0:0:
337,40,33285,2,0,L|364:89,1,45
415,307,33421,5,0,0:0:0:0:
415,307,33490,1,0,0:0:0:0:
415,307,33558,1,0,0:0:0:0:
415,307,33626,1,0,0:0:0:0:
415,307,33694,2,0,L|388:258,1,45
206,100,33830,5,0,0:0:0:0:
206,100,33899,1,0,0:0:0:0:
206,100,33967,1,0,0:0:0:0:
206,100,34035,1,0,0:0:0:0:
206,100,34103,2,0,L|233:149,1,45
273,369,34239,5,0,0:0:0:0:
273,369,34308,1,0,0:0:0:0:
273,369,34376,1,0,0:0:0:0:
273,369,34444,1,0,0:0:0:0:
273,369,34512,2,0,L|246:320,1,45
18,264,34649,5,0,0:0:0:0:
40,200,34717,1,0,0:0:0:0:
83,148,34785,1,0,0:0:0:0:
140,114,34853,1,0,0:0:0:0:
206,100,34921,1,0,0:0:0:0:
273,109,34989,1,0,0:0:0:0:
332,140,35058,1,0,0:0:0:0:
378,189,35126,1,0,0:0:0:0:
405,250,35194,6,0,P|325:213|302:188,1,90
140,114,35467,1,0,0:0:0:0:
386,28,35603,1,0,0:0:0:0:
403,259,35740,6,0,P|309:215|294:200,1,90
93,100,36013,1,0,0:0:0:0:
381,0,36149,1,0,0:0:0:0:
396,338,36285,5,0,0:0:0:0:
351,335,36353,1,0,0:0:0:0:
308,320,36421,1,0,0:0:0:0:
272,294,36489,1,0,0:0:0:0:
245,258,36557,1,0,0:0:0:0:
228,217,36625,1,0,0:0:0:0:
224,172,36694,1,0,0:0:0:0:
220,127,36762,1,0,0:0:0:0:
210,83,36830,1,0,0:0:0:0:
184,46,36898,1,0,0:0:0:0:
146,23,36966,1,0,0:0:0:0:
102,18,37034,1,0,0:0:0:0:
59,30,37102,1,0,0:0:0:0:
24,58,37171,1,0,0:0:0:0:
4,98,37239,1,0,0:0:0:0:
1,143,37307,1,0,0:0:0:0:
24,181,37376,6,0,P|78:189|129:136,1,90
274,102,37649,1,0,0:0:0:0:
487,245,37785,2,0,P|420:253|366:223,1,90
107,172,38058,1,0,0:0:0:0:
161,344,38194,2,0,P|208:322|242:268,1,90
316,44,38467,5,0,0:0:0:0:
498,343,38603,1,0,0:0:0:0:
291,255,38740,1,0,0:0:0:0:
511,204,38876,1,0,0:0:0:0:
363,375,39012,1,0,0:0:0:0:
382,150,39149,1,0,0:0:0:0:
498,343,39285,1,0,0:0:0:0:
291,255,39421,1,0,0:0:0:0:
159,130,39558,6,0,P|205:83|242:68,1,90
395,245,39830,1,0,0:0:0:0:
164,121,39967,2,0,P|214:78|252:67,1,90
389,256,40239,1,0,0:0:0:0:
116,249,40376,6,0,P|135:289|167:320,1,90
395,245,40649,1,0,0:0:0:0:
121,260,40786,2,0,P|144:299|178:328,1,90
477,253,41058,2,0,P|449:186|412:163,1,90
251,69,41330,2,0,P|279:136|316:159,1,90
470,272,41603,1,0,0:0:0:0:
43,108,41740,6,0,P|114:125|158:153,1,112.5
273,321,42012,2,0,P|202:304|158:276,1,112.5
51,89,42285,2,0,P|120:112|161:144,1,112.5
250,234,42558,2,0,P|319:257|360:288,1,112.5
469,108,42830,6,0,P|398:125|354:153,1,112.5
239,321,43102,2,0,P|310:304|354:276,1,112.5
460,89,43375,2,0,P|391:112|350:144,1,112.5
262,234,43649,2,0,L|191:233,1,56.25
11,185,43785,2,0,L|83:181,1,56.25
49,4,43921,6,0,P|66:75|94:119,1,112.5
262,234,44193,2,0,P|245:163|217:119,1,112.5
30,13,44466,2,0,P|53:82|85:123,1,112.5
175,211,44739,2,0,P|198:281|229:322,1,112.5
412,315,45012,5,0,0:0:0:0:
445,286,45080,1,0,0:0:0:0:
451,242,45148,1,0,0:0:0:0:
426,206,45216,1,0,0:0:0:0:
383,196,45284,1,0,0:0:0:0:
345,217,45352,1,0,0:0:0:0:
330,259,45421,1,0,0:0:0:0:
347,299,45489,1,0,0:0:0:0:
390,299,45558,1,0,0:0:0:0:
412,262,45626,1,0,0:0:0:0:
391,224,45694,1,0,0:0:0:0:
348,224,45762,1,0,0:0:0:0:
330,259,45830,1,0,0:0:0:0:
364,284,45898,1,0,0:0:0:0:
398,260,45966,1,0,0:0:0:0:
386,220,46034,1,0,0:0:0:0:
348,223,46103,6,0,P|287:180|236:141,1,112.5
78,26,46376,1,0,0:0:0:0:
36,226,46512,2,0,P|101:244|157:228,1,112.5
260,13,46785,1,0,0:0:0:0:
415,112,46921,2,0,P|344:147|238:155,1,168.75
94,139,47194,6,0,L|95:205,1,56.25
172,218,47330,2,0,L|172:288,1,56.25
79,348,47467,2,0,P|154:359|232:341,1,112.5
448,308,47740,1,0,0:0:0:0:
349,126,47876,1,0,0:0:0:0:
286,339,48012,1,0,0:0:0:0:
463,192,48149,1,0,0:0:0:0:
318,20,48285,6,0,P|274:53|250:104,1,112.5
286,339,48558,1,0,0:0:0:0:
165,149,48694,2,0,P|140:98|96:64,1,112.5
1,270,48967,1,0,0:0:0:0:
220,245,49103,6,0,P|183:170|154:138,1,112.5
376,36,49376,2,0,P|353:126|353:161,1,112.5
379,315,49649,6,0,L|315:315,1,56.25
221,244,49785,2,0,L|140:242,1,56.25
51,56,49921,2,0,L|50:132,1,56.25
265,175,50058,2,0,L|266:99,1,56.25
61,62,50194,2,0,L|60:130,1,56.25
254,168,50331,2,0,L|255:100,1,56.25
326,7,50467,6,0,P|369:66|377:138,1,112.5
459,229,50740,2,0,P|434:319|434:368,1,112.5
300,137,51012,1,0,0:0:0:0:
219,269,51148,1,0,0:0:0:0:
214,88,51285,1,0,0:0:0:0:
325,268,51421,1,0,0:0:0:0:
186,7,51558,6,0,P|143:66|135:138,1,112.5
53,229,51831,2,0,P|78:319|78:368,1,112.5
225,273,52103,1,0,0:0:0:0:
359,186,52240,1,0,0:0:0:0:
213,131,52376,1,0,0:0:0:0:
354,316,52512,1,0,0:0:0:0:
434,220,52649,5,0,0:0:0:0:
440,176,52717,1,0,0:0:0:0:
423,135,52785,1,0,0:0:0:0:
387,109,52853,1,0,0:0:0:0:
343,105,52921,1,0,0:0:0:0:
303,126,52989,1,0,0:0:0:0:
281,164,53058,5,0,0:0:0:0:
286,120,53126,1,0,0:0:0:0:
266,81,53194,1,0,0:0:0:0:
227,59,53262,1,0,0:0:0:0:
183,64,53330,1,0,0:0:0:0:
149,92,53398,1,0,0:0:0:0:
137,135,53467,5,0,0:0:0:0:
177,111,53535,1,0,0:0:0:0:
183,64,53603,1,0,0:0:0:0:
161,32,53671,1,0,0:0:0:0:
118,23,53739,5,0,0:0:0:0:
85,53,53808,1,0,0:0:0:0:
63,92,53876,1,0,0:0:0:0:
57,136,53944,1,0,0:0:0:0:
66,180,54012,1,0,0:0:0:0:
90,218,54080,1,0,0:0:0:0:
126,245,54149,5,0,0:0:0:0:
150,281,54217,1,0,0:0:0:0:
137,322,54285,1,0,0:0:0:0:
96,339,54353,1,0,0:0:0:0:
58,318,54421,1,0,0:0:0:0:
50,275,54489,1,0,0:0:0:0:
82,246,54558,5,0,0:0:0:0:
126,245,54626,1,0,0:0:0:0:
171,244,54694,1,0,0:0:0:0:
216,244,54762,1,0,0:0:0:0:
261,243,54830,2,0,P|308:213|299:148,1,90
473,222,55103,1,0,0:0:0:0:
235,143,55240,2,0,P|291:95|343:90,1,90
412,324,55512,1,0,0:0:0:0:
432,113,55649,1,0,0:0:0:0:
277,329,55785,1,0,0:0:0:0:
432,113,55921,6,0,P|455:179|378:137,1,180
80,271,56467,2,0,P|62:197|135:216,1,180
430,113,57012,6,0,P|393:82|346:71,1,90
246,262,57285,1,0,0:0:0:0:
367,36,57421,2,0,P|319:28|273:42,1,90
282,257,57694,1,0,0:0:0:0:
274,1,57830,2,0,P|229:18|196:53,1,90
86,293,58103,6,0,P|131:276|164:241,1,90
200,47,58376,1,0,0:0:0:0:
159,364,58512,2,0,P|190:327|201:280,1,90
135,94,58785,1,0,0:0:0:0:
258,384,58921,2,0,P|266:336|252:290,1,90
444,113,59194,6,0,B|416:129|416:129|374:137,5,45
297,232,59603,2,0,B|325:248|325:248|367:256,5,45
225,319,60012,2,0,B|197:335|197:335|155:343,3,45
61,317,60285,5,0,0:0:0:0:
70,273,60353,1,0,0:0:0:0:
93,234,60421,1,0,0:0:0:0:
127,204,60489,1,0,0:0:0:0:
167,186,60557,1,0,0:0:0:0:
212,181,60625,1,0,0:0:0:0:
257,172,60694,1,0,0:0:0:0:
297,152,60762,1,0,0:0:0:0:
321,115,60830,1,0,0:0:0:0:
322,70,60898,1,0,0:0:0:0:
301,31,60966,1,0,0:0:0:0:
262,11,61034,1,0,0:0:0:0:
218,11,61103,1,0,0:0:0:0:
180,32,61171,1,0,0:0:0:0:
159,71,61239,1,0,0:0:0:0:
161,116,61307,1,0,0:0:0:0:
192,149,61376,6,0,P|282:127|183:70,1,270
192,149,61921,6,0,P|274:124|172:102,1,270
192,149,62467,6,0,P|257:99|174:135,1,270
210,107,63012,6,0,P|282:125|362:229,1,180
364,213,63558,5,0,0:0:0:0:
210,338,63694,1,0,0:0:0:0:
210,107,63830,1,0,0:0:0:0:
210,107,63899,1,0,0:0:0:0:
210,107,63967,1,0,0:0:0:0:
75,212,64103,6,0,P|140:238|195:239,1,90
384,232,64376,1,0,0:0:0:0:
384,232,64444,1,0,0:0:0:0:
384,232,64512,1,0,0:0:0:0:
405,77,64649,5,0,0:0:0:0:
279,325,64785,1,0,0:0:0:0:
468,282,64921,1,0,0:0:0:0:
468,282,64990,1,0,0:0:0:0:
468,282,65058,1,0,0:0:0:0:
482,97,65194,6,0,P|468:33|444:13,1,90
266,92,65467,1,0,0:0:0:0:
266,92,65535,1,0,0:0:0:0:
266,92,65603,1,0,0:0:0:0:
83,97,65740,6,0,P|106:155|132:196,1,90
286,337,66012,2,0,P|256:261|235:242,1,90
125,43,66285,2,0,P|127:105|138:153,1,90
234,338,66557,2,0,P|232:256|219:231,1,90
233,16,66830,5,0,0:0:0:0:
472,346,66967,1,0,0:0:0:0:
237,51,67103,1,0,0:0:0:0:
428,315,67240,1,0,0:0:0:0:
239,77,67376,2,0,L|241:134,1,45
394,290,67512,2,0,L|393:234,1,45
242,99,67649,2,0,L|244:145,1,45
366,270,67785,2,0,L|366:226,1,45
338,48,67921,5,0,0:0:0:0:
228,305,68058,1,0,0:0:0:0:
509,140,68194,1,0,0:0:0:0:
199,24,68330,2,0,P|161:81|152:132,1,90
145,312,68603,1,0,0:0:0:0:
471,255,68740,1,0,0:0:0:0:
247,100,68876,1,0,0:0:0:0:
387,334,69012,6,0,P|349:262|316:226,1,90
247,100,69285,1,0,0:0:0:0:
50,48,69421,2,0,B|54:93|108:142,1,90
195,359,69694,1,0,0:0:0:0:
345,255,69830,2,0,P|298:228|241:217,1,90
56,184,70103,5,0,0:0:0:0:
50,228,70171,1,0,0:0:0:0:
59,272,70239,1,0,0:0:0:0:
81,311,70307,1,0,0:0:0:0:
115,341,70375,1,0,0:0:0:0:
156,358,70443,1,0,0:0:0:0:
200,362,70512,1,0,0:0:0:0:
244,352,70580,1,0,0:0:0:0:
282,329,70648,1,0,0:0:0:0:
311,295,70716,1,0,0:0:0:0:
328,253,70784,1,0,0:0:0:0:
350,212,70854,1,0,0:0:0:0:
380,179,70922,1,0,0:0:0:0:
423,167,70990,1,0,0:0:0:0:
466,178,71058,1,0,0:0:0:0:
498,209,71126,1,0,0:0:0:0:
509,252,71194,6,0,L|510:296,1,45
394,358,71330,2,0,L|393:314,1,45
505,265,71467,2,0,L|504:309,1,45
385,364,71603,2,0,L|386:321,1,45
380,179,71740,5,0,0:0:0:0:
371,136,71808,1,0,0:0:0:0:
334,111,71876,1,0,0:0:0:0:
291,118,71944,1,0,0:0:0:0:
272,156,72012,1,0,0:0:0:0:
295,192,72080,1,0,0:0:0:0:
338,190,72148,1,0,0:0:0:0:
357,151,72216,1,0,0:0:0:0:
334,111,72285,6,0,P|283:66|247:66,1,90
145,154,72558,2,0,L|50:120,1,90
326,104,72830,2,0,P|271:64|236:67,1,90
142,163,73103,2,0,L|44:138,1,90
155,320,73376,6,0,L|244:284,1,90
385,200,73649,2,0,P|435:193|482:225,1,90
144,310,73921,2,0,L|236:282,1,90
383,211,74194,2,0,P|434:208|478:244,1,90
300,335,74467,6,0,P|246:307|226:276,1,90
187,154,74740,2,0,L|167:56,1,90
287,338,75012,2,0,P|236:305|218:273,1,90
190,148,75285,2,0,L|179:48,1,90
413,193,75558,5,0,0:0:0:0:
180,328,75694,1,0,0:0:0:0:
180,58,75830,1,0,0:0:0:0:
407,233,75967,1,0,0:0:0:0:
147,303,76103,1,0,0:0:0:0:
217,42,76239,1,0,0:0:0:0:
288,348,76376,1,0,0:0:0:0:
62,149,76512,1,0,0:0:0:0:
382,119,76649,6,0,L|458:194,1,90
361,305,76921,2,0,P|320:343|275:346,1,90
387,130,77194,2,0,L|457:211,1,90
350,313,77466,2,0,P|306:348|261:347,1,90
149,216,77740,6,0,P|210:179|247:187,1,90
387,130,78012,2,0,L|452:61,1,90
147,206,78285,2,0,P|211:175|247:186,1,90
391,141,78557,2,0,L|462:78,1,90
502,267,78830,5,0,0:0:0:0:
459,281,78898,1,0,0:0:0:0:
414,281,78966,1,0,0:0:0:0:
372,266,79034,1,0,0:0:0:0:
337,239,79102,1,0,0:0:0:0:
312,201,79170,1,0,0:0:0:0:
301,158,79239,1,0,0:0:0:0:
290,114,79308,1,0,0:0:0:0:
258,83,79376,1,0,0:0:0:0:
214,80,79444,1,0,0:0:0:0:
179,106,79512,1,0,0:0:0:0:
169,149,79580,1,0,0:0:0:0:
190,188,79648,1,0,0:0:0:0:
231,204,79717,1,0,0:0:0:0:
273,189,79785,1,0,0:0:0:0:
279,147,79853,1,0,0:0:0:0:
247,119,79921,5,0,0:0:0:0:
203,111,79989,1,0,0:0:0:0:
159,120,80057,1,0,0:0:0:0:
121,144,80125,1,0,0:0:0:0:
94,180,80193,1,0,0:0:0:0:
82,223,80261,1,0,0:0:0:0:
86,267,80330,1,0,0:0:0:0:
105,307,80398,1,0,0:0:0:0:
138,338,80467,1,0,0:0:0:0:
152,338,80535,1,0,0:0:0:0:
165,338,80603,1,0,0:0:0:0:
179,338,80671,1,0,0:0:0:0:
192,338,80739,1,0,0:0:0:0:
206,338,80807,1,0,0:0:0:0:
219,338,80876,1,0,0:0:0:0:
233,338,80944,1,0,0:0:0:0:
242,336,81012,6,0,L|242:272,1,45
242,112,81149,2,0,L|242:176,1,45
339,234,81285,2,0,L|339:170,1,45
339,10,81422,2,0,L|339:74,1,45
438,342,81558,2,0,L|438:278,1,45
438,118,81695,2,0,L|438:182,1,45
339,368,81830,2,0,L|339:304,1,45
339,144,81967,2,0,L|339:208,1,45
242,336,82103,6,0,L|242:272,1,45
242,112,82240,2,0,L|242:176,1,45
142,372,82376,2,0,L|142:308,1,45
142,148,82513,2,0,L|142:212,1,45
44,313,82648,2,0,L|44:249,1,45
44,89,82785,2,0,L|44:153,1,45
142,238,82921,2,0,L|142:174,1,45
142,14,83058,2,0,L|142:78,1,45
242,291,83194,6,0,L|242:227,1,45
242,67,83331,2,0,L|242:131,1,45
142,238,83467,2,0,L|142:174,1,45
241,82,83603,2,0,L|237:133,1,45
149,211,83739,2,0,L|154:160,1,45
251,81,83876,2,0,L|242:131,1,45
167,201,84012,2,0,L|172:150,1,45
269,71,84149,2,0,L|260:121,1,45
313,8,84285,5,0,0:0:0:0:
284,380,84421,1,0,0:0:0:0:
148,32,84558,1,0,0:0:0:0:
421,288,84694,1,0,0:0:0:0:
65,176,84830,1,0,0:0:0:0:
435,122,84967,1,0,0:0:0:0:
124,331,85103,2,0,P|151:275|177:185,1,135
189,163,85376,6,0,P|212:98|252:65,1,90
435,122,85649,1,0,0:0:0:0:
245,222,85785,2,0,P|189:148|192:137,1,90
100,24,86058,1,0,0:0:0:0:
52,210,86194,2,0,P|88:276|119:295,1,90
335,315,86467,6,0,L|283:293,1,45
323,213,86603,2,0,L|377:237,1,45
427,296,86740,1,0,0:0:0:0:
373,124,86876,1,0,0:0:0:0:
226,228,87012,1,0,0:0:0:0:
478,212,87149,1,0,0:0:0:0:
217,115,87285,1,0,0:0:0:0:
319,371,87421,1,0,0:0:0:0:
151,266,87558,6,0,P|146:212|168:166,1,90
319,371,87830,1,0,0:0:0:0:
217,115,87967,2,0,P|222:61|200:15,1,90
319,371,88240,1,0,0:0:0:0:
151,266,88376,2,0,P|146:212|168:166,1,90
209,28,88649,2,0,P|223:70|217:115,1,90
352,232,88921,6,0,P|349:199|362:171,1,45
433,105,89058,2,0,P|437:126|433:148,1,45
361,236,89194,2,0,P|358:200|372:169,1,45
450,96,89331,2,0,P|455:120|451:144,1,45
372,240,89467,2,0,P|368:201|384:167,1,45
470,86,89604,2,0,P|475:113|470:139,1,45
395,320,89740,6,0,P|325:302|282:273,1,112.5
103,125,90012,2,0,P|173:143|216:172,1,112.5
383,331,90285,2,0,P|315:307|274:274,1,112.5
42,196,90558,2,0,P|18:119|31:64,1,112.5
117,320,90830,6,0,P|187:302|230:273,1,112.5
409,125,91102,2,0,P|339:143|296:172,1,112.5
128,331,91375,2,0,P|196:307|237:274,1,112.5
409,181,91649,2,0,L|409:103,1,56.25
479,33,91785,2,0,L|479:100,1,56.25
494,245,91921,6,0,P|423:281|364:286,1,112.5
150,236,92194,2,0,P|221:200|280:195,1,112.5
488,265,92467,2,0,P|414:295|355:295,1,112.5
119,329,92740,2,0,P|57:284|49:240,1,112.5
34,98,93012,5,0,0:0:0:0:
29,54,93080,1,0,0:0:0:0:
55,18,93148,1,0,0:0:0:0:
98,8,93216,1,0,0:0:0:0:
136,30,93284,1,0,0:0:0:0:
149,72,93352,1,0,0:0:0:0:
132,112,93421,5,0,0:0:0:0:
92,130,93489,1,0,0:0:0:0:
61,101,93558,1,0,0:0:0:0:
70,59,93626,1,0,0:0:0:0:
111,45,93694,1,0,0:0:0:0:
142,75,93762,1,0,0:0:0:0:
132,112,93830,1,0,0:0:0:0:
90,108,93898,1,0,0:0:0:0:
81,67,93966,1,0,0:0:0:0:
117,46,94034,1,0,0:0:0:0:
143,74,94103,6,0,P|216:84|280:90,1,112.5
476,121,94376,1,0,0:0:0:0:
145,275,94512,2,0,L|262:190,1,112.5
387,31,94785,1,0,0:0:0:0:
337,246,94921,2,0,P|254:225|216:180,1,112.5
65,30,95194,6,0,L|66:124,1,56.25
152,146,95330,2,0,L|152:71,1,56.25
150,2,95467,1,0,0:0:0:0:
357,87,95603,1,0,0:0:0:0:
149,229,95740,1,0,0:0:0:0:
325,0,95876,1,0,0:0:0:0:
332,292,96012,1,0,0:0:0:0:
28,162,96149,1,0,0:0:0:0:
266,217,96285,6,0,P|357:201|389:203,1,112.5
472,350,96558,1,0,0:0:0:0:
192,265,96694,2,0,P|185:188|211:148,1,112.5
472,350,96967,1,0,0:0:0:0:
187,351,97103,2,0,P|135:331|117:261,1,112.5
116,144,97376,2,0,P|163:83|212:64,1,112.5
314,37,97649,6,0,L|320:115,1,56.25
478,189,97785,2,0,L|472:111,1,56.25
327,42,97921,2,0,L|326:120,1,56.25
477,208,98057,2,0,L|478:130,1,56.25
340,49,98194,2,0,L|332:127,1,56.25
475,227,98330,2,0,L|482:149,1,56.25
257,10,98467,6,0,L|228:136,1,112.5
155,282,98740,2,0,P|88:308|39:285,1,112.5
272,10,99012,2,0,L|232:133,1,112.5
147,272,99285,2,0,P|78:292|31:265,1,112.5
40,115,99558,6,0,P|109:94|155:122,1,112.5
350,195,99830,2,0,L|472:237,1,112.5
47,96,100103,2,0,P|118:82|162:113,1,112.5
349,203,100375,2,0,L|467:255,1,112.5
281,345,100649,6,0,L|184:263,1,112.5
48,179,100921,2,0,P|66:115|113:81,1,112.5
267,346,101194,2,0,L|178:256,1,112.5
48,165,101466,2,0,P|72:103|121:73,1,112.5
332,72,101740,5,0,0:0:0:0:
386,67,101808,1,0,0:0:0:0:
431,99,101876,1,0,0:0:0:0:
444,153,101944,1,0,0:0:0:0:
419,202,102012,1,0,0:0:0:0:
368,223,102080,1,0,0:0:0:0:
315,206,102149,5,0,0:0:0:0:
287,159,102217,1,0,0:0:0:0:
305,107,102285,1,0,0:0:0:0:
356,89,102353,1,0,0:0:0:0:
403,117,102421,1,0,0:0:0:0:
411,170,102489,1,0,0:0:0:0:
374,211,102558,6,0,P|299:205|247:156,1,112.5
70,69,102830,1,0,0:0:0:0:
316,333,102967,1,0,0:0:0:0:
198,21,103103,1,0,0:0:0:0:
186,381,103239,1,0,0:0:0:0:
325,77,103376,1,0,0:0:0:0:
61,324,103512,1,0,0:0:0:0:
373,206,103648,1,0,0:0:0:0:
12,194,103785,1,0,0:0:0:0:
500,190,103921,6,0,P|515:279|436:385,1,225
12,194,104467,6,0,P|-3:105|76:-1,1,225
128,251,105012,5,0,0:0:0:0:
248,50,105149,2,0,P|314:83|340:144,1,112.5
115,179,105421,1,0,0:0:0:0:
320,65,105558,2,0,P|360:126|352:192,1,112.5
140,110,105830,1,0,0:0:0:0:
374,114,105967,1,0,0:0:0:0:
186,348,106103,5,0,0:0:0:0:
223,121,106240,2,0,P|200:51|155:38,1,112.5
273,362,106512,1,0,0:0:0:0:
191,147,106649,2,0,P|137:97|91:109,1,112.5
356,330,106921,1,0,0:0:0:0:
178,185,107058,1,0,0:0:0:0:
387,82,107194,6,0,B|362:78|362:78|323:44,5,56.25
350,226,107603,2,0,B|375:222|375:222|414:188,5,56.25
302,303,108012,2,0,B|277:299|277:299|238:265,3,56.25
115,313,108285,5,0,0:0:0:0:
110,268,108353,1,0,0:0:0:0:
126,226,108421,1,0,0:0:0:0:
158,195,108489,1,0,0:0:0:0:
201,182,108557,1,0,0:0:0:0:
239,158,108626,1,0,0:0:0:0:
253,116,108694,1,0,0:0:0:0:
245,72,108762,1,0,0:0:0:0:
216,38,108830,1,0,0:0:0:0:
174,23,108898,1,0,0:0:0:0:
130,31,108966,1,0,0:0:0:0:
96,60,109035,1,0,0:0:0:0:
81,101,109103,1,0,0:0:0:0:
88,145,109171,1,0,0:0:0:0:
116,180,109239,1,0,0:0:0:0:
158,195,109307,1,0,0:0:0:0:
201,209,109376,6,0,B|263:220|305:201|305:201|354:202|399:279|490:206|490:206|470:160|399:168|352:102|393:107,1,450
216,38,111012,6,0,P|183:135|189:156,1,114.750002188683
180,187,111285,2,0,P|148:108|197:15,1,168.75
190,15,111558,5,0,0:0:0:0:
39,183,111694,1,0,0:0:0:0:
225,317,111830,1,0,0:0:0:0:
225,317,111899,1,0,0:0:0:0:
225,317,111967,1,0,0:0:0:0:
432,230,112103,6,0,P|395:166|331:133,1,112.5
190,15,112376,1,0,0:0:0:0:
190,15,112444,1,0,0:0:0:0:
190,15,112512,1,0,0:0:0:0:
364,144,112649,5,0,0:0:0:0:
72,162,112785,1,0,0:0:0:0:
219,313,112921,1,0,0:0:0:0:
219,313,112990,1,0,0:0:0:0:
219,313,113058,1,0,0:0:0:0:
422,237,113194,6,0,P|374:153|354:137,1,112.5
179,64,113467,1,0,0:0:0:0:
179,64,113535,1,0,0:0:0:0:
179,64,113603,1,0,0:0:0:0:
172,289,113740,5,0,0:0:0:0:
363,144,113876,1,0,0:0:0:0:
157,186,114012,1,0,0:0:0:0:
157,186,114080,1,0,0:0:0:0:
157,186,114149,1,0,0:0:0:0:
326,325,114285,6,0,P|286:273|270:218,1,112.5
251,13,114558,1,0,0:0:0:0:
251,13,114626,1,0,0:0:0:0:
251,13,114694,1,0,0:0:0:0:
500,242,114830,5,0,0:0:0:0:
251,13,114967,1,0,0:0:0:0:
420,249,115103,1,0,0:0:0:0:
171,20,115240,1,0,0:0:0:0:
97,226,115376,2,0,L|95:145,1,56.25
251,13,115512,2,0,L|250:76,1,56.25
94,212,115649,2,0,L|99:131,1,56.25
266,13,115785,2,0,L|260:75,1,56.25
190,317,115921,6,0,P|248:288|288:248,1,112.5
430,142,116194,1,0,0:0:0:0:
266,13,116330,2,0,P|215:49|206:116,1,112.5
281,255,116603,1,0,0:0:0:0:
94,148,116740,1,0,0:0:0:0:
202,340,116876,1,0,0:0:0:0:
205,95,117012,6,0,L|83:56,1,112.5
74,255,117285,1,0,0:0:0:0:
47,38,117421,2,0,L|155:73,1,112.5
361,262,117694,1,0,0:0:0:0:
138,127,117830,2,0,P|160:52|178:5,1,112.5
417,63,118103,5,0,0:0:0:0:
447,95,118171,1,0,0:0:0:0:
462,137,118239,1,0,0:0:0:0:
459,182,118307,1,0,0:0:0:0:
438,221,118375,1,0,0:0:0:0:
403,249,118443,1,0,0:0:0:0:
360,249,118512,1,0,0:0:0:0:
316,256,118580,1,0,0:0:0:0:
286,289,118648,1,0,0:0:0:0:
283,333,118716,1,0,0:0:0:0:
307,370,118784,1,0,0:0:0:0:
349,384,118852,1,0,0:0:0:0:
390,370,118921,1,0,0:0:0:0:
415,333,118989,1,0,0:0:0:0:
411,289,119057,1,0,0:0:0:0:
403,249,119126,1,0,0:0:0:0:
397,204,119194,6,0,L|379:149,1,45
212,65,119330,2,0,L|230:120,1,45
409,218,119467,2,0,L|394:156,1,45
219,48,119603,2,0,L|234:110,1,45
421,235,119740,6,0,L|411:166,1,45
230,31,119876,2,0,L|240:100,1,45
433,256,120012,2,0,L|428:179,1,45
243,13,120148,2,0,L|247:90,1,45
248,274,120285,6,0,P|196:238|149:188,1,112.5
73,106,120558,2,0,L|27:-10,1,112.5
240,272,120830,2,0,P|192:232|149:178,1,112.5
81,90,121103,2,0,L|45:-29,1,112.5
243,13,121376,6,0,L|294:116,1,112.5
382,219,121649,2,0,P|441:269|490:271,1,112.5
227,14,121921,2,0,L|287:112,1,112.5
383,207,122194,2,0,P|447:252|495:250,1,112.5
512,129,122467,6,0,P|481:96|416:82,1,112.5
285,110,122740,2,0,L|170:136,1,112.5
505,106,123012,2,0,P|471:76|405:68,1,112.5
277,107,123285,2,0,L|165:143,1,112.5
247,290,123558,5,0,0:0:0:0:
92,343,123694,1,0,0:0:0:0:
170,142,123830,1,0,0:0:0:0:
340,315,123967,1,0,0:0:0:0:
113,322,124103,1,0,0:0:0:0:
271,91,124239,1,0,0:0:0:0:
406,361,124376,1,0,0:0:0:0:
102,295,124512,1,0,0:0:0:0:
320,184,124649,6,0,P|308:127|268:89,1,112.5
149,43,124921,2,0,L|36:25,1,112.5
319,178,125194,2,0,P|302:122|258:88,1,112.5
136,52,125466,2,0,L|22:44,1,112.5
56,210,125740,6,0,L|187:201,1,112.5
319,178,126012,2,0,P|371:183|429:208,1,112.5
55,192,126285,2,0,L|186:194,1,112.5
319,183,126557,2,0,P|371:193|426:223,1,112.5
384,345,126830,5,0,0:0:0:0:
339,345,126898,1,0,0:0:0:0:
297,331,126966,1,0,0:0:0:0:
262,302,127034,1,0,0:0:0:0:
240,263,127102,1,0,0:0:0:0:
233,219,127170,1,0,0:0:0:0:
242,175,127239,5,0,0:0:0:0:
197,168,127308,1,0,0:0:0:0:
155,154,127376,1,0,0:0:0:0:
116,131,127444,1,0,0:0:0:0:
82,102,127512,1,0,0:0:0:0:
54,67,127580,1,0,0:0:0:0:
34,28,127649,5,0,0:0:0:0:
78,34,127718,1,0,0:0:0:0:
120,48,127786,1,0,0:0:0:0:
159,71,127854,1,0,0:0:0:0:
193,100,127921,5,0,0:0:0:0:
196,104,127989,1,0,0:0:0:0:
199,108,128057,1,0,0:0:0:0:
203,112,128125,1,0,0:0:0:0:
206,116,128193,1,0,0:0:0:0:
210,120,128261,1,0,0:0:0:0:
213,124,128330,1,0,0:0:0:0:
217,129,128398,1,0,0:0:0:0:
220,133,128466,1,0,0:0:0:0:
223,137,128534,1,0,0:0:0:0:
226,142,128602,1,0,0:0:0:0:
229,146,128671,1,0,0:0:0:0:
232,151,128739,1,0,0:0:0:0:
234,156,128807,1,0,0:0:0:0:
237,160,128875,1,0,0:0:0:0:
240,165,128943,1,0,0:0:0:0:
244,170,129012,6,0,L|363:181,1,112.5
489,363,129285,1,0,0:0:0:0:
356,180,129421,1,0,0:0:0:0:
512,14,129558,1,0,0:0:0:0:
473,235,129694,1,0,0:0:0:0:
351,46,129830,1,0,0:0:0:0:
512,138,129967,1,0,0:0:0:0:
288,122,130103,6,0,P|237:69|240:13,1,112.5
73,56,130376,2,0,L|120:160,1,112.5
40,261,130649,2,0,L|182:268,1,112.5
316,345,130921,5,0,0:0:0:0:
280,301,130989,1,0,0:0:0:0:
244,258,131057,1,0,0:0:0:0:
179,60,131194,1,0,0:0:0:0:
316,345,131330,1,0,0:0:0:0:
69,148,131467,1,0,0:0:0:0:
377,218,131603,1,0,0:0:0:0:
69,289,131740,1,0,0:0:0:0:
316,92,131876,1,0,0:0:0:0:
179,376,132012,2,0,P|236:329|251:289,1,112.5
314,90,132285,5,0,0:0:0:0:
314,293,132421,1,0,0:0:0:0:
139,192,132558,1,0,0:0:0:0:
387,116,132694,1,0,0:0:0:0:
255,343,132830,1,0,0:0:0:0:
124,116,132967,1,0,0:0:0:0:
453,192,133103,1,0,0:0:0:0:
157,362,133239,1,0,0:0:0:0:
157,21,133376,6,0,L|276:56,1,112.5
453,192,133649,1,0,0:0:0:0:
157,363,133785,2,0,L|276:328,1,112.5
453,192,134058,1,0,0:0:0:0:
264,52,134194,2,0,L|157:21,1,112.5
264,331,134467,2,0,L|157:363,1,112.5
64,192,134740,5,0,0:0:0:0:
64,192,134808,1,0,0:0:0:0:
64,192,134876,1,0,0:0:0:0:
32,48,135012,2,0,P|116:60|148:108,1,112.5
159,365,135285,2,0,L|246:279,1,112.5
310,98,135558,5,0,0:0:0:0:
334,61,135626,1,0,0:0:0:0:
376,48,135694,1,0,0:0:0:0:
417,65,135762,1,0,0:0:0:0:
438,104,135830,1,0,0:0:0:0:
429,147,135898,1,0,0:0:0:0:
408,187,135967,5,0,0:0:0:0:
382,222,136035,1,0,0:0:0:0:
392,264,136103,1,0,0:0:0:0:
432,282,136171,1,0,0:0:0:0:
471,263,136239,5,0,0:0:0:0:
480,220,136307,1,0,0:0:0:0:
449,183,136376,1,0,0:0:0:0:
411,160,136444,1,0,0:0:0:0:
367,148,136512,1,0,0:0:0:0:
323,149,136580,1,0,0:0:0:0:
280,162,136648,5,0,0:0:0:0:
238,169,136717,1,0,0:0:0:0:
194,165,136785,1,0,0:0:0:0:
161,136,136853,1,0,0:0:0:0:
152,93,136921,1,0,0:0:0:0:
172,53,136989,1,0,0:0:0:0:
212,34,137058,1,0,0:0:0:0:
255,42,137126,1,0,0:0:0:0:
284,75,137194,5,0,0:0:0:0:
292,119,137262,1,0,0:0:0:0:
280,162,137330,1,0,0:0:0:0:
252,196,137398,1,0,0:0:0:0:
211,215,137466,5,0,0:0:0:0:
166,214,137534,1,0,0:0:0:0:
126,195,137603,1,0,0:0:0:0:
98,160,137671,1,0,0:0:0:0:
88,117,137740,5,0,0:0:0:0:
86,108,137808,1,0,0:0:0:0:
85,99,137876,1,0,0:0:0:0:
84,90,137944,1,0,0:0:0:0:
83,81,138012,1,0,0:0:0:0:
82,72,138080,1,0,0:0:0:0:
81,63,138149,1,0,0:0:0:0:
80,54,138217,1,0,0:0:0:0:
78,45,138285,1,0,0:0:0:0:
260,47,138558,5,0,0:0:0:0:
408,191,138694,1,0,0:0:0:0:
260,47,138967,5,0,0:0:0:0:
408,191,139103,1,0,0:0:0:0:
204,195,139376,5,0,0:0:0:0:
205,204,139444,1,0,0:0:0:0:
206,213,139512,1,0,0:0:0:0:
207,222,139580,1,0,0:0:0:0:
208,231,139648,1,0,0:0:0:0:
264,87,139921,5,0,0:0:0:0:
281,101,139989,1,0,0:0:0:0:
298,116,140057,1,0,0:0:0:0:
315,131,140125,1,0,0:0:0:0:
332,145,140193,1,0,0:0:0:0:
349,160,140261,1,0,0:0:0:0:
366,175,140330,1,0,0:0:0:0:
383,190,140398,1,0,0:0:0:0:
400,204,140466,1,0,0:0:0:0:
247,73,140740,5,0,0:0:0:0:
417,218,140876,1,0,0:0:0:0:
247,73,141149,5,0,0:0:0:0:
417,218,141285,1,0,0:0:0:0:
202,144,141558,5,0,0:0:0:0:
184,158,141626,1,0,0:0:0:0:
167,173,141694,1,0,0:0:0:0:
150,188,141762,1,0,0:0:0:0:
133,202,141830,1,0,0:0:0:0:
269,207,142103,5,0,0:0:0:0:
251,221,142171,1,0,0:0:0:0:
234,236,142239,1,0,0:0:0:0:
217,251,142307,1,0,0:0:0:0:
200,265,142375,1,0,0:0:0:0:
183,280,142443,1,0,0:0:0:0:
166,295,142512,1,0,0:0:0:0:
149,310,142580,1,0,0:0:0:0:
132,324,142648,1,0,0:0:0:0:
286,193,142922,5,0,0:0:0:0:
116,338,143058,1,0,0:0:0:0:
286,193,143331,5,0,0:0:0:0:
116,338,143467,1,0,0:0:0:0:
157,195,143740,5,0,0:0:0:0:
175,181,143808,1,0,0:0:0:0:
192,166,143876,1,0,0:0:0:0:
209,151,143944,1,0,0:0:0:0:
226,137,144012,1,0,0:0:0:0:
90,132,144285,5,0,0:0:0:0:
108,118,144353,1,0,0:0:0:0:
125,103,144421,1,0,0:0:0:0:
142,88,144489,1,0,0:0:0:0:
159,74,144557,1,0,0:0:0:0:
176,59,144625,1,0,0:0:0:0:
193,44,144694,1,0,0:0:0:0:
210,29,144762,1,0,0:0:0:0:
227,15,144830,1,0,0:0:0:0:
73,146,145104,5,0,0:0:0:0:
243,1,145240,1,0,0:0:0:0:
73,146,145513,5,0,0:0:0:0:
243,1,145649,1,0,0:0:0:0:
355,195,145921,5,0,0:0:0:0:
337,181,145989,1,0,0:0:0:0:
320,166,146057,1,0,0:0:0:0:
303,151,146125,1,0,0:0:0:0:
286,137,146193,1,0,0:0:0:0:
463,305,146467,5,0,0:0:0:0:
418,304,146535,1,0,0:0:0:0:
373,304,146603,1,0,0:0:0:0:
328,304,146671,1,0,0:0:0:0:
283,304,146739,1,0,0:0:0:0:
238,304,146807,1,0,0:0:0:0:
193,304,146876,1,0,0:0:0:0:
148,304,146944,1,0,0:0:0:0:
103,304,147012,1,0,0:0:0:0:
508,306,147285,5,0,0:0:0:0:
58,303,147421,1,0,0:0:0:0:
508,306,147694,5,0,0:0:0:0:
58,303,147830,1,0,0:0:0:0:
508,306,148103,5,0,0:0:0:0:
463,306,148171,1,0,0:0:0:0:
418,306,148239,1,0,0:0:0:0:
373,306,148307,1,0,0:0:0:0:
329,306,148375,1,0,0:0:0:0:
463,79,148649,5,0,0:0:0:0:
418,79,148717,1,0,0:0:0:0:
373,79,148785,1,0,0:0:0:0:
328,79,148853,1,0,0:0:0:0:
283,79,148921,1,0,0:0:0:0:
238,79,148989,1,0,0:0:0:0:
193,79,149058,1,0,0:0:0:0:
148,79,149126,1,0,0:0:0:0:
103,79,149194,1,0,0:0:0:0:
508,78,149467,5,0,0:0:0:0:
58,81,149603,1,0,0:0:0:0:
508,78,149876,5,0,0:0:0:0:
58,81,150012,1,0,0:0:0:0:
508,78,150285,5,0,0:0:0:0:
463,78,150353,1,0,0:0:0:0:
418,78,150421,1,0,0:0:0:0:
373,78,150489,1,0,0:0:0:0:
329,78,150557,1,0,0:0:0:0:
61,169,150830,5,0,0:0:0:0:
55,213,150898,1,0,0:0:0:0:
66,256,150966,1,0,0:0:0:0:
93,292,151034,1,0,0:0:0:0:
132,314,151102,1,0,0:0:0:0:
176,321,151170,1,0,0:0:0:0:
219,310,151239,1,0,0:0:0:0:
255,283,151307,1,0,0:0:0:0:
278,245,151375,1,0,0:0:0:0:
435,50,151649,5,0,0:0:0:0:
163,213,151785,1,0,0:0:0:0:
472,119,152058,5,0,0:0:0:0:
161,179,152194,1,0,0:0:0:0:
90,47,152467,5,0,0:0:0:0:
130,67,152535,1,0,0:0:0:0:
170,87,152603,1,0,0:0:0:0:
210,107,152671,1,0,0:0:0:0:
250,127,152739,1,0,0:0:0:0:
488,25,153012,5,0,0:0:0:0:
405,311,153149,1,0,0:0:0:0:
43,27,153285,1,0,0:0:0:0:
43,27,153694,5,0,0:0:0:0:
143,213,153830,1,0,0:0:0:0:
272,42,153967,1,0,0:0:0:0:
480,337,154103,1,0,0:0:0:0:
21,70,155194,5,0,0:0:0:0:
61,31,155262,1,0,0:0:0:0:
114,12,155330,1,0,0:0:0:0:
170,16,155398,1,0,0:0:0:0:
219,42,155466,1,0,0:0:0:0:
254,86,155534,1,0,0:0:0:0:
269,140,155603,1,0,0:0:0:0:
290,192,155671,1,0,0:0:0:0:
314,242,155739,1,0,0:0:0:0:
365,263,155807,1,0,0:0:0:0:
418,246,155875,1,0,0:0:0:0:
446,199,155943,1,0,0:0:0:0:
437,144,156011,1,0,0:0:0:0:
395,109,156080,1,0,0:0:0:0:
340,110,156148,1,0,0:0:0:0:
299,146,156216,1,0,0:0:0:0:
271,195,156285,5,0,0:0:0:0:
225,226,156353,1,0,0:0:0:0:
171,218,156421,1,0,0:0:0:0:
136,175,156489,1,0,0:0:0:0:
140,120,156557,1,0,0:0:0:0:
180,82,156625,1,0,0:0:0:0:
235,82,156694,1,0,0:0:0:0:
276,119,156762,1,0,0:0:0:0:
275,173,156830,1,0,0:0:0:0:
228,196,156898,1,0,0:0:0:0:
185,163,156966,1,0,0:0:0:0:
196,111,157034,1,0,0:0:0:0:
248,98,157102,1,0,0:0:0:0:
75,89,157376,5,0,0:0:0:0:
71,144,157444,1,0,0:0:0:0:
86,198,157512,1,0,0:0:0:0:
117,245,157580,1,0,0:0:0:0:
161,280,157648,1,0,0:0:0:0:
214,299,157716,1,0,0:0:0:0:
270,300,157785,1,0,0:0:0:0:
323,283,157853,1,0,0:0:0:0:
369,251,157921,5,0,0:0:0:0:
417,224,157989,1,0,0:0:0:0:
471,235,158057,1,0,0:0:0:0:
503,279,158125,1,0,0:0:0:0:
498,334,158193,1,0,0:0:0:0:
458,372,158261,1,0,0:0:0:0:
403,373,158330,1,0,0:0:0:0:
361,337,158398,1,0,0:0:0:0:
353,283,158466,5,0,0:0:0:0:
351,227,158535,1,0,0:0:0:0:
326,177,158603,1,0,0:0:0:0:
282,143,158671,1,0,0:0:0:0:
227,131,158740,1,0,0:0:0:0:
240,269,158876,1,0,0:0:0:0:
445,48,159012,1,0,0:0:0:0:
169,129,159149,1,0,0:0:0:0:
488,248,159285,1,0,0:0:0:0:
240,269,159421,1,0,0:0:0:0:
385,153,159558,5,0,0:0:0:0:
343,189,159626,1,0,0:0:0:0:
329,243,159694,1,0,0:0:0:0:
347,295,159762,1,0,0:0:0:0:
392,328,159830,1,0,0:0:0:0:
447,330,159899,1,0,0:0:0:0:
489,295,159967,1,0,0:0:0:0:
493,240,160035,1,0,0:0:0:0:
457,199,160103,1,0,0:0:0:0:
402,195,160171,1,0,0:0:0:0:
361,231,160239,1,0,0:0:0:0:
357,285,160308,1,0,0:0:0:0:
392,328,160376,2,0,P|449:319|464:266,1,112.5
241,66,160649,5,0,0:0:0:0:
277,107,160717,1,0,0:0:0:0:
273,161,160786,1,0,0:0:0:0:
232,197,160854,1,0,0:0:0:0:
177,193,160922,1,0,0:0:0:0:
141,152,160990,1,0,0:0:0:0:
145,97,161058,1,0,0:0:0:0:
187,62,161126,1,0,0:0:0:0:
242,64,161195,1,0,0:0:0:0:
287,97,161263,1,0,0:0:0:0:
305,149,161331,1,0,0:0:0:0:
291,203,161399,1,0,0:0:0:0:
249,239,161467,2,0,P|204:246|131:230,1,112.5
205,334,161740,5,0,0:0:0:0:
260,341,161808,1,0,0:0:0:0:
315,330,161876,1,0,0:0:0:0:
364,302,161944,1,0,0:0:0:0:
401,261,162012,5,0,0:0:0:0:
343,16,162149,1,0,0:0:0:0:
512,172,162285,1,0,0:0:0:0:
267,173,162421,1,0,0:0:0:0:
501,344,162558,1,0,0:0:0:0:
115,276,162694,1,0,0:0:0:0:
343,16,162830,1,0,0:0:0:0:
291,374,162967,1,0,0:0:0:0:
50,184,163103,1,0,0:0:0:0:
471,139,163240,1,0,0:0:0:0:
179,383,163377,1,0,0:0:0:0:
113,8,163513,1,0,0:0:0:0:
471,139,163649,1,0,0:0:0:0:
179,383,163785,1,0,0:0:0:0:
319,10,163921,5,0,0:0:0:0:
243,176,164057,1,0,0:0:0:0:
186,284,164194,1,0,0:0:0:0:
131,87,164330,1,0,0:0:0:0:
149,92,164603,5,0,0:0:0:0:
358,224,164740,1,0,0:0:0:0:
269,106,164876,1,0,0:0:0:0:
279,128,165149,5,0,0:0:0:0:
191,315,165285,1,0,0:0:0:0:
455,296,165421,1,0,0:0:0:0:
149,168,165558,1,0,0:0:0:0:
350,255,165694,1,0,0:0:0:0:
402,275,165762,1,0,0:0:0:0:
454,295,165830,1,0,0:0:0:0:
438,131,165967,1,0,0:0:0:0:
291,44,166103,5,0,0:0:0:0:
291,44,166171,1,0,0:0:0:0:
291,44,166240,1,0,0:0:0:0:
291,44,166308,1,0,0:0:0:0:
291,44,166376,1,0,0:0:0:0:
291,44,166444,1,0,0:0:0:0:
291,44,166512,2,0,L|287:127,1,56.25
221,340,166649,5,0,0:0:0:0:
221,340,166717,1,0,0:0:0:0:
221,340,166785,1,0,0:0:0:0:
221,340,166853,1,0,0:0:0:0:
221,340,166921,1,0,0:0:0:0:
221,340,166990,1,0,0:0:0:0:
221,340,167058,2,0,L|217:243,1,56.25
140,50,167194,5,0,0:0:0:0:
165,100,167262,1,0,0:0:0:0:
201,142,167330,1,0,0:0:0:0:
248,174,167398,1,0,0:0:0:0:
300,194,167466,1,0,0:0:0:0:
355,204,167535,1,0,0:0:0:0:
404,231,167603,1,0,0:0:0:0:
442,273,167671,1,0,0:0:0:0:
465,322,167740,1,0,0:0:0:0:
440,371,167808,1,0,0:0:0:0:
387,382,167876,1,0,0:0:0:0:
346,346,167944,1,0,0:0:0:0:
306,306,168012,2,0,L|299:182,1,112.5
464,63,168285,6,0,B|389:54|253:44|258:67|258:67|260:47|260:47|257:137|172:208|87:208,1,450
136,61,168967,1,0,0:0:0:0:
416,316,169103,1,0,0:0:0:0:
416,316,169171,2,0,L|331:262,1,56.25
131,200,169308,1,0,0:0:0:0:
131,200,169376,1,0,0:0:0:0:
131,200,169444,1,0,0:0:0:0:
131,200,169512,2,0,L|184:159,1,56.25
270,29,169649,5,0,0:0:0:0:
289,40,169740,2,0,L|319:124,1,75
302,247,169921,5,0,0:0:0:0:
320,256,170012,2,0,L|350:340,1,75
474,306,170194,2,0,P|476:225|439:112,1,168.75
435,103,170467,5,0,0:0:0:0:
396,63,170535,1,0,0:0:0:0:
344,41,170603,1,0,0:0:0:0:
289,40,170671,1,0,0:0:0:0:
237,62,170739,1,0,0:0:0:0:
197,101,170807,1,0,0:0:0:0:
176,153,170876,1,0,0:0:0:0:
176,209,170944,1,0,0:0:0:0:
171,264,171012,5,0,0:0:0:0:
146,313,171080,1,0,0:0:0:0:
96,336,171148,1,0,0:0:0:0:
42,323,171216,1,0,0:0:0:0:
9,279,171284,1,0,0:0:0:0:
10,224,171352,1,0,0:0:0:0:
45,181,171421,1,0,0:0:0:0:
99,170,171489,1,0,0:0:0:0:
148,195,171557,5,0,0:0:0:0:
166,246,171626,1,0,0:0:0:0:
142,296,171694,1,0,0:0:0:0:
90,314,171762,1,0,0:0:0:0:
41,290,171830,1,0,0:0:0:0:
22,238,171898,1,0,0:0:0:0:
46,189,171967,1,0,0:0:0:0:
98,171,172035,1,0,0:0:0:0:
154,163,172103,5,0,0:0:0:0:
206,147,172171,1,0,0:0:0:0:
236,101,172239,1,0,0:0:0:0:
229,46,172307,1,0,0:0:0:0:
189,9,172375,1,0,0:0:0:0:
134,7,172443,1,0,0:0:0:0:
90,41,172512,1,0,0:0:0:0:
80,95,172580,1,0,0:0:0:0:
115,139,172649,5,0,0:0:0:0:
115,139,172717,1,0,0:0:0:0:
115,139,172785,2,0,L|162:89,1,56.25
188,193,172922,5,0,0:0:0:0:
188,193,172990,1,0,0:0:0:0:
188,193,173058,2,0,L|249:162,1,56.25
228,273,173194,5,0,0:0:0:0:
228,273,173262,1,0,0:0:0:0:
228,273,173330,2,0,L|296:276,1,56.25
165,337,173467,5,0,0:0:0:0:
165,337,173535,1,0,0:0:0:0:
165,337,173603,2,0,L|206:391,1,56.25
397,139,173740,5,0,0:0:0:0:
397,139,173808,1,0,0:0:0:0:
397,139,173876,2,0,L|358:98,1,56.25
324,193,174013,5,0,0:0:0:0:
324,193,174081,1,0,0:0:0:0:
324,193,174149,2,0,L|273:167,1,56.25
279,268,174285,5,0,0:0:0:0:
284,273,174353,1,0,0:0:0:0:
284,273,174421,2,0,L|227:276,1,56.25
347,337,174558,5,0,0:0:0:0:
347,337,174626,1,0,0:0:0:0:
347,337,174694,2,0,L|313:382,1,56.25
51,281,174830,5,0,0:0:0:0:
51,281,174898,1,0,0:0:0:0:
51,281,174966,2,0,L|84:235,1,56.25
29,141,175103,5,0,0:0:0:0:
29,141,175171,1,0,0:0:0:0:
29,141,175239,2,0,L|76:110,1,56.25
100,4,175376,5,0,0:0:0:0:
100,4,175444,1,0,0:0:0:0:
100,4,175512,2,0,L|156:0,1,56.25
280,39,175649,5,0,0:0:0:0:
280,39,175717,1,0,0:0:0:0:
280,39,175785,2,0,L|330:64,1,56.25
461,281,175922,5,0,0:0:0:0:
461,281,175990,1,0,0:0:0:0:
461,281,176058,2,0,L|427:235,1,56.25
483,141,176195,5,0,0:0:0:0:
483,141,176263,1,0,0:0:0:0:
483,141,176331,2,0,L|435:110,1,56.25
412,4,176468,5,0,0:0:0:0:
412,4,176535,1,0,0:0:0:0:
412,4,176604,2,0,L|355:0,1,56.25
232,39,176741,5,0,0:0:0:0:
232,39,176809,1,0,0:0:0:0:
232,39,176877,2,0,L|181:64,1,56.25
45,245,177012,5,0,0:0:0:0:
45,245,177080,1,0,0:0:0:0:
45,245,177148,2,0,L|96:220,1,56.25
292,236,177285,5,0,0:0:0:0:
292,236,177353,1,0,0:0:0:0:
290,236,177421,2,0,L|239:261,1,56.25
121,325,177558,5,0,0:0:0:0:
121,325,177626,1,0,0:0:0:0:
121,325,177694,2,0,L|172:300,1,56.25
366,316,177830,5,0,0:0:0:0:
366,316,177899,1,0,0:0:0:0:
366,316,177967,2,0,L|315:341,1,56.25
40,136,178103,5,0,0:0:0:0:
40,136,178171,1,0,0:0:0:0:
45,139,178239,2,0,L|96:164,1,56.25
290,148,178376,5,0,0:0:0:0:
290,148,178444,1,0,0:0:0:0:
290,148,178512,2,0,L|239:123,1,56.25
121,59,178649,5,0,0:0:0:0:
121,59,178717,1,0,0:0:0:0:
121,59,178785,2,0,L|172:84,1,56.25
366,68,178922,5,0,0:0:0:0:
366,68,178990,1,0,0:0:0:0:
366,68,179058,2,0,L|315:43,1,56.25
40,16,179194,5,0,0:0:0:0:
352,252,179330,1,0,0:0:0:0:
56,332,179467,1,0,0:0:0:0:
312,40,179603,2,0,L|442:110,1,112.5
456,259,179876,1,0,0:0:0:0:
304,384,180012,1,0,0:0:0:0:
309,178,180149,2,0,P|256:233|209:232,1,112.5
40,240,180421,1,0,0:0:0:0:
145,67,180558,5,0,0:0:0:0:
339,67,180694,1,0,0:0:0:0:
238,242,180830,1,0,0:0:0:0:
268,0,180967,1,0,0:0:0:0:
438,201,181103,1,0,0:0:0:0:
180,246,181239,1,0,0:0:0:0:
58,134,181376,5,0,0:0:0:0:
94,92,181444,1,0,0:0:0:0:
145,67,181512,1,0,0:0:0:0:
201,65,181580,1,0,0:0:0:0:
253,84,181648,1,0,0:0:0:0:
294,122,181716,1,0,0:0:0:0:
316,173,181785,1,0,0:0:0:0:
329,227,181853,1,0,0:0:0:0:
368,266,181921,1,0,0:0:0:0:
422,278,181989,1,0,0:0:0:0:
474,258,182057,1,0,0:0:0:0:
507,214,182125,1,0,0:0:0:0:
512,159,182194,1,0,0:0:0:0:
485,110,182262,1,0,0:0:0:0:
437,83,182330,1,0,0:0:0:0:
381,86,182398,1,0,0:0:0:0:
325,92,182467,6,0,B|261:70|256:144|144:135,1,180
155,135,183285,1,0,0:0:0:0:
325,92,183421,1,0,0:0:0:0:
155,135,183558,6,0,P|129:170|122:250,1,112.5
382,121,183830,1,0,0:0:0:0:
150,144,183967,6,0,P|127:181|127:261,1,112.5
374,108,184239,1,0,0:0:0:0:
147,153,184376,6,0,P|127:192|134:272,1,112.5
364,227,184649,6,0,P|384:188|377:108,1,112.5
129,262,184921,1,0,0:0:0:0:
367,218,185058,6,0,P|383:177|369:98,1,112.5
135,272,185330,1,0,0:0:0:0:
86,88,185467,2,0,P|164:97|211:115,1,112.5
439,246,185740,5,0,0:0:0:0:
467,293,185808,1,0,0:0:0:0:
457,347,185876,1,0,0:0:0:0:
415,382,185944,1,0,0:0:0:0:
360,380,186012,1,0,0:0:0:0:
319,343,186080,1,0,0:0:0:0:
313,288,186149,1,0,0:0:0:0:
315,231,186217,1,0,0:0:0:0:
324,176,186285,1,0,0:0:0:0:
299,126,186353,1,0,0:0:0:0:
250,101,186421,1,0,0:0:0:0:
196,109,186489,1,0,0:0:0:0:
156,148,186557,1,0,0:0:0:0:
148,203,186626,1,0,0:0:0:0:
173,252,186694,1,0,0:0:0:0:
222,277,186762,1,0,0:0:0:0:
277,268,186830,5,0,0:0:0:0:
306,222,186898,1,0,0:0:0:0:
294,168,186966,1,0,0:0:0:0:
248,139,187034,1,0,0:0:0:0:
195,151,187102,1,0,0:0:0:0:
165,197,187170,1,0,0:0:0:0:
178,251,187239,1,0,0:0:0:0:
224,280,187307,1,0,0:0:0:0:
281,283,187376,1,0,0:0:0:0:
327,251,187444,1,0,0:0:0:0:
349,200,187512,1,0,0:0:0:0:
343,145,187580,1,0,0:0:0:0:
309,101,187648,1,0,0:0:0:0:
258,80,187716,1,0,0:0:0:0:
203,89,187785,1,0,0:0:0:0:
160,124,187853,1,0,0:0:0:0:
141,176,187921,5,0,0:0:0:0:
459,24,188058,1,0,0:0:0:0:
58,9,188194,1,0,0:0:0:0:
258,193,188330,1,0,0:0:0:0:
377,91,188467,1,0,0:0:0:0:
137,82,188603,1,0,0:0:0:0:
257,192,188739,1,0,0:0:0:0:
253,24,188876,1,0,0:0:0:0:
107,202,189012,6,0,B|76:179|76:179|67:134,3,56.25
269,307,189285,2,0,B|300:330|300:330|309:375,3,56.25
441,250,189558,1,0,0:0:0:0:
432,244,189626,1,0,0:0:0:0:
440,238,189694,1,0,0:0:0:0:
431,233,189762,1,0,0:0:0:0:
439,227,189830,1,0,0:0:0:0:
431,221,189898,1,0,0:0:0:0:
438,216,189967,1,0,0:0:0:0:
430,210,190035,1,0,0:0:0:0:
427,201,190103,6,0,P|413:148|375:95,1,112.5
191,44,190376,2,0,P|205:97|243:150,1,112.5
239,351,190649,2,0,P|225:298|187:245,1,112.5
3,194,190922,2,0,P|17:247|55:300,1,112.5
325,325,191194,5,0,0:0:0:0:
204,129,191330,1,0,0:0:0:0:
365,281,191467,1,0,0:0:0:0:
163,172,191603,1,0,0:0:0:0:
379,223,191740,1,0,0:0:0:0:
149,230,191876,1,0,0:0:0:0:
363,94,192012,1,0,0:0:0:0:
187,338,192149,1,0,0:0:0:0:
38,161,192285,6,0,P|67:90|126:52,1,112.5
241,244,192558,2,0,P|212:315|153:353,1,112.5
128,183,192830,2,0,P|157:112|216:74,1,112.5
331,266,193103,2,0,P|302:337|243:375,1,112.5
182,90,193376,5,0,0:0:0:0:
442,281,193512,1,0,0:0:0:0:
148,301,193649,1,0,0:0:0:0:
242,66,193785,1,0,0:0:0:0:
372,362,193921,1,0,0:0:0:0:
107,232,194058,1,0,0:0:0:0:
468,194,194194,1,0,0:0:0:0:
136,40,194330,1,0,0:0:0:0:
362,80,194467,5,0,0:0:0:0:
259,225,194603,1,0,0:0:0:0:
489,296,194740,1,0,0:0:0:0:
136,40,194876,1,0,0:0:0:0:
193,301,195012,2,0,P|257:329|311:329,1,112.5
421,94,195285,1,0,0:0:0:0:
96,167,195421,1,0,0:0:0:0:
387,308,195558,1,0,0:0:0:0:
198,43,195694,1,0,0:0:0:0:
198,43,195762,1,0,0:0:0:0:
198,43,195830,1,0,0:0:0:0:
172,248,195967,6,0,P|244:244|272:196,1,112.5
424,61,196240,1,0,0:0:0:0:
368,333,196376,2,0,P|375:306|377:278,3,56.25
512,270,196649,5,0,0:0:0:0:
482,221,196717,1,0,0:0:0:0:
444,181,196785,1,0,0:0:0:0:
397,150,196853,1,0,0:0:0:0:
345,129,196921,1,0,0:0:0:0:
289,121,196989,1,0,0:0:0:0:
233,124,197058,1,0,0:0:0:0:
179,140,197126,1,0,0:0:0:0:
130,167,197194,1,0,0:0:0:0:
439,44,197330,1,0,0:0:0:0:
298,266,197467,1,0,0:0:0:0:
108,39,197603,1,0,0:0:0:0:
397,150,197740,5,0,0:0:0:0:
345,129,197808,1,0,0:0:0:0:
289,121,197876,1,0,0:0:0:0:
233,124,197945,1,0,0:0:0:0:
179,140,198013,1,0,0:0:0:0:
152,194,198080,1,0,0:0:0:0:
178,242,198148,1,0,0:0:0:0:
231,254,198216,1,0,0:0:0:0:
274,221,198284,1,0,0:0:0:0:
277,166,198352,1,0,0:0:0:0:
238,127,198421,1,0,0:0:0:0:
182,122,198489,1,0,0:0:0:0:
134,150,198557,1,0,0:0:0:0:
110,200,198625,1,0,0:0:0:0:
117,255,198693,1,0,0:0:0:0:
154,296,198761,1,0,0:0:0:0:
208,309,198830,6,0,B|244:317|244:317|290:298,7,56.25
408,251,199376,1,0,0:0:0:0:
402,254,199444,1,0,0:0:0:0:
397,256,199512,1,0,0:0:0:0:
392,258,199580,1,0,0:0:0:0:
387,261,199648,1,0,0:0:0:0:
382,263,199716,1,0,0:0:0:0:
377,265,199785,1,0,0:0:0:0:
371,267,199853,1,0,0:0:0:0:
365,270,199921,6,0,B|357:306|357:306|376:352,7,56.25
451,283,200467,1,0,0:0:0:0:
448,277,200535,1,0,0:0:0:0:
446,272,200603,1,0,0:0:0:0:
444,267,200671,1,0,0:0:0:0:
441,262,200739,1,0,0:0:0:0:
439,257,200807,1,0,0:0:0:0:
437,252,200876,1,0,0:0:0:0:
435,246,200944,1,0,0:0:0:0:
416,224,201012,5,0,0:0:0:0:
413,218,201080,1,0,0:0:0:0:
410,213,201148,1,0,0:0:0:0:
408,208,201216,1,0,0:0:0:0:
384,192,201285,1,0,0:0:0:0:
378,187,201353,1,0,0:0:0:0:
374,183,201421,1,0,0:0:0:0:
369,178,201489,1,0,0:0:0:0:
352,160,201558,5,0,0:0:0:0:
344,155,201626,1,0,0:0:0:0:
339,152,201694,1,0,0:0:0:0:
333,147,201762,1,0,0:0:0:0:
320,128,201830,1,0,0:0:0:0:
310,124,201898,1,0,0:0:0:0:
304,121,201966,1,0,0:0:0:0:
296,117,202034,1,0,0:0:0:0:
288,96,202103,5,0,0:0:0:0:
275,92,202171,1,0,0:0:0:0:
269,90,202239,1,0,0:0:0:0:
259,88,202307,1,0,0:0:0:0:
256,64,202376,1,0,0:0:0:0:
240,61,202444,1,0,0:0:0:0:
234,60,202512,1,0,0:0:0:0:
223,60,202580,1,0,0:0:0:0:
224,32,202649,1,0,0:0:0:0:
199,29,202717,1,0,0:0:0:0:
190,29,202785,1,0,0:0:0:0:
175,33,202853,1,0,0:0:0:0:
128,64,202921,1,0,0:0:0:0:
15,186,203194,5,0,0:0:0:0:
64,159,203262,1,0,0:0:0:0:
114,133,203330,1,0,0:0:0:0:
243,175,203467,5,0,0:0:0:0:
292,148,203535,1,0,0:0:0:0:
342,122,203603,1,0,0:0:0:0:
494,242,203740,5,0,0:0:0:0:
458,265,203808,1,0,0:0:0:0:
423,288,203876,1,0,0:0:0:0:
309,236,204012,5,0,0:0:0:0:
273,259,204080,1,0,0:0:0:0:
238,282,204148,1,0,0:0:0:0:
122,218,204285,5,0,0:0:0:0:
105,240,204353,1,0,0:0:0:0:
88,263,204421,1,0,0:0:0:0:
50,99,204558,5,0,0:0:0:0:
33,121,204626,1,0,0:0:0:0:
16,144,204694,1,0,0:0:0:0:
146,23,204830,5,0,0:0:0:0:
187,60,204898,1,0,0:0:0:0:
229,98,204966,1,0,0:0:0:0:
418,229,205103,5,0,0:0:0:0:
422,232,205171,1,0,0:0:0:0:
426,236,205239,1,0,0:0:0:0:
431,239,205307,1,0,0:0:0:0:
435,243,205375,5,0,0:0:0:0:
464,291,205444,1,0,0:0:0:0:
449,344,205512,1,0,0:0:0:0:
400,369,205580,1,0,0:0:0:0:
349,350,205648,1,0,0:0:0:0:
327,300,205716,1,0,0:0:0:0:
344,246,205785,1,0,0:0:0:0:
349,191,205853,1,0,0:0:0:0:
324,141,205921,1,0,0:0:0:0:
278,110,205989,1,0,0:0:0:0:
222,108,206057,1,0,0:0:0:0:
173,135,206125,1,0,0:0:0:0:
151,187,206194,1,0,0:0:0:0:
151,242,206262,1,0,0:0:0:0:
183,287,206330,1,0,0:0:0:0:
236,304,206398,1,0,0:0:0:0:
288,288,206466,5,0,0:0:0:0:
322,244,206534,1,0,0:0:0:0:
323,189,206603,1,0,0:0:0:0:
292,143,206671,1,0,0:0:0:0:
240,124,206739,1,0,0:0:0:0:
187,139,206808,1,0,0:0:0:0:
165,189,206876,1,0,0:0:0:0:
191,237,206944,1,0,0:0:0:0:
244,247,207012,1,0,0:0:0:0:
285,211,207080,1,0,0:0:0:0:
282,156,207148,1,0,0:0:0:0:
229,131,207217,1,0,0:0:0:0:
189,166,207285,1,0,0:0:0:0:
205,216,207353,1,0,0:0:0:0:
258,220,207421,1,0,0:0:0:0:
283,173,207489,1,0,0:0:0:0:
249,132,207557,5,0,0:0:0:0:
89,20,207694,2,0,P|36:75|27:141,1,112.5
249,132,207967,5,0,0:0:0:0:
60,81,208104,2,0,P|29:150|43:215,1,112.5
249,132,208376,5,0,0:0:0:0:
32,183,208512,1,0,0:0:0:0:
291,354,208649,2,0,P|312:294|289:229,1,112.5
32,183,208921,1,0,0:0:0:0:
333,255,209058,2,0,P|332:191|288:138,1,112.5
32,183,209330,1,0,0:0:0:0:
339,147,209467,2,0,P|316:87|257:52,1,112.5
480,183,209740,5,0,0:0:0:0:
221,354,209877,2,0,P|200:294|223:229,1,112.5
480,183,210149,1,0,0:0:0:0:
179,255,210286,5,0,0:0:0:0:
176,199,210354,1,0,0:0:0:0:
208,154,210422,1,0,0:0:0:0:
261,138,210490,1,0,0:0:0:0:
313,157,210558,1,0,0:0:0:0:
342,203,210626,1,0,0:0:0:0:
338,258,210695,1,0,0:0:0:0:
300,299,210763,1,0,0:0:0:0:
246,309,210830,1,0,0:0:0:0:
253,253,210898,1,0,0:0:0:0:
241,199,210966,1,0,0:0:0:0:
209,153,211034,1,0,0:0:0:0:
162,121,211102,1,0,0:0:0:0:
108,109,211170,1,0,0:0:0:0:
53,118,211239,1,0,0:0:0:0:
5,146,211307,1,0,0:0:0:0:
46,170,211376,6,0,B|69:180|69:180|82:232,3,56.25
155,318,211649,2,0,B|162:287|162:287|185:277,3,56.25
320,64,211921,6,0,P|408:184|288:96,1,393.75
320,64,212467,6,0,P|347:133|275:123,1,168.75
278,130,212740,6,0,P|350:128|320:64,1,168.75
279,127,213012,6,0,P|426:143|411:82,1,281.25
370,55,213421,6,0,P|417:166|297:175,1,281.25
292,159,213830,2,0,P|295:80|373:59,1,168.75
354,125,214103,6,0,B|332:205|205:125|205:125|144:162|159:274|250:235|291:242|302:307|267:376|180:372|134:355|100:276|149:207|218:203|267:227|336:242|316:314,1,675
376,326,215058,6,0,P|432:252|446:191,1,112.5
438,234,215262,1,0,0:0:0:0:
438,234,215330,1,0,0:0:0:0:
247,151,215467,1,0,0:0:0:0:
422,81,215603,1,0,0:0:0:0:
422,81,215671,1,0,0:0:0:0:
422,81,215740,1,0,0:0:0:0:
346,170,215876,1,0,0:0:0:0:
106,94,216012,5,0,0:0:0:0:
116,91,216080,1,0,0:0:0:0:
127,88,216148,1,0,0:0:0:0:
138,85,216216,1,0,0:0:0:0:
149,82,216284,1,0,0:0:0:0:
56,83,220649,5,0,0:0:0:0:
352,67,220785,1,0,0:0:0:0:
135,187,220921,1,0,0:0:0:0:
135,187,220990,1,0,0:0:0:0:
135,187,221058,1,0,0:0:0:0:
443,161,221194,6,0,P|390:90|309:55,1,135.000005149842
256,325,221467,1,0,0:0:0:0:
256,325,221535,1,0,0:0:0:0:
256,325,221603,1,0,0:0:0:0:
193,60,221740,5,0,0:0:0:0:
386,246,221876,1,0,0:0:0:0:
135,187,222012,1,0,0:0:0:0:
135,187,222080,1,0,0:0:0:0:
135,187,222149,1,0,0:0:0:0:
447,172,222285,6,0,P|479:239|465:320,1,135.000005149842
280,138,222558,1,0,0:0:0:0:
280,138,222626,1,0,0:0:0:0:
280,138,222694,1,0,0:0:0:0:
66,47,222830,5,0,0:0:0:0:
43,98,222898,1,0,0:0:0:0:
41,154,222966,1,0,0:0:0:0:
61,206,223034,1,0,0:0:0:0:
98,248,223102,1,0,0:0:0:0:
148,272,223170,1,0,0:0:0:0:
204,276,223239,1,0,0:0:0:0:
257,259,223307,1,0,0:0:0:0:
296,219,223376,1,0,0:0:0:0:
350,210,223444,1,0,0:0:0:0:
400,235,223512,1,0,0:0:0:0:
425,284,223580,1,0,0:0:0:0:
415,339,223648,1,0,0:0:0:0:
375,377,223717,1,0,0:0:0:0:
320,384,223785,1,0,0:0:0:0:
272,357,223853,1,0,0:0:0:0:
249,307,223921,6,0,L|242:214,1,56.25
128,143,224058,2,0,L|139:230,1,56.25
258,299,224194,6,0,L|240:207,1,56.25
118,150,224331,2,0,L|139:235,1,56.25
154,336,224467,5,0,0:0:0:0:
101,317,224535,1,0,0:0:0:0:
59,280,224603,1,0,0:0:0:0:
33,231,224671,1,0,0:0:0:0:
28,175,224739,1,0,0:0:0:0:
44,121,224807,1,0,0:0:0:0:
79,78,224876,1,0,0:0:0:0:
128,50,224944,1,0,0:0:0:0:
183,43,225012,6,0,P|258:54|311:91,1,135.000005149842
359,311,225285,2,0,L|210:233,1,135.000005149842
196,37,225558,2,0,P|270:54|319:96,1,135.000005149842
348,319,225831,2,0,L|206:228,1,135.000005149842
28,165,226103,6,0,L|159:113,1,135.000005149842
428,224,226376,2,0,P|385:304|309:317,1,135.000005149842
31,145,226649,2,0,L|166:104,1,135.000005149842
424,238,226922,2,0,P|374:314|297:321,1,135.000005149842
160,106,227194,6,0,P|99:133|71:193,1,135.000005149842
336,325,227467,2,0,L|360:193,1,135.000005149842
152,114,227740,2,0,P|95:147|72:209,1,135.000005149842
347,318,228013,2,0,L|359:183,1,135.000005149842
168,40,228285,5,0,0:0:0:0:
168,343,228421,1,0,0:0:0:0:
431,192,228558,1,0,0:0:0:0:
91,132,228694,1,0,0:0:0:0:
286,364,228830,1,0,0:0:0:0:
390,79,228967,1,0,0:0:0:0:
62,269,229103,1,0,0:0:0:0:
431,192,229240,1,0,0:0:0:0:
67,36,229376,6,0,P|11:102|0:184,1,135.000005149842
336,288,229649,2,0,L|439:183,1,135.000005149842
54,53,229921,2,0,P|4:123|0:206,1,135.000005149842
344,280,230194,2,0,L|437:167,1,135.000005149842
445,36,230467,6,0,P|501:102|512:184,1,135.000005149842
176,288,230740,2,0,L|73:183,1,135.000005149842
457,53,231012,2,0,P|507:123|511:206,1,135.000005149842
167,280,231285,2,0,L|74:167,1,135.000005149842
146,36,231558,5,0,0:0:0:0:
201,0,231626,1,0,0:0:0:0:
267,0,231694,1,0,0:0:0:0:
323,34,231762,1,0,0:0:0:0:
349,95,231830,1,0,0:0:0:0:
336,161,231898,1,0,0:0:0:0:
289,208,231967,1,0,0:0:0:0:
224,222,232035,1,0,0:0:0:0:
167,255,232103,1,0,0:0:0:0:
156,320,232171,1,0,0:0:0:0:
196,371,232239,1,0,0:0:0:0:
261,375,232307,1,0,0:0:0:0:
310,333,232375,1,0,0:0:0:0:
307,273,232444,1,0,0:0:0:0:
289,208,232512,1,0,0:0:0:0:
242,161,232580,1,0,0:0:0:0:
178,142,232648,5,0,0:0:0:0:
110,118,232717,1,0,0:0:0:0:
93,49,232785,1,0,0:0:0:0:
141,0,232853,1,0,0:0:0:0:
211,8,232921,1,0,0:0:0:0:
240,74,232989,1,0,0:0:0:0:
254,144,233058,1,0,0:0:0:0:
316,181,233126,1,0,0:0:0:0:
385,159,233194,1,0,0:0:0:0:
414,93,233262,1,0,0:0:0:0:
384,27,233330,1,0,0:0:0:0:
315,6,233399,1,0,0:0:0:0:
254,43,233467,1,0,0:0:0:0:
214,104,233535,1,0,0:0:0:0:
220,176,233603,1,0,0:0:0:0:
270,229,233671,1,0,0:0:0:0:
342,240,233740,5,0,0:0:0:0:
96,48,233876,1,0,0:0:0:0:
183,349,234012,1,0,0:0:0:0:
290,54,234148,1,0,0:0:0:0:
30,229,234285,1,0,0:0:0:0:
337,247,234421,1,0,0:0:0:0:
109,34,234557,1,0,0:0:0:0:
169,342,234693,1,0,0:0:0:0:
301,57,234829,5,0,0:0:0:0:
24,128,234967,1,0,0:0:0:0:
280,327,235103,1,0,0:0:0:0:
216,25,235240,1,0,0:0:0:0:
66,290,235376,1,0,0:0:0:0:
353,184,235512,1,0,0:0:0:0:
24,128,235649,1,0,0:0:0:0:
456,199,235785,1,0,0:0:0:0:
66,290,235921,5,0,0:0:0:0:
453,101,236058,1,0,0:0:0:0:
24,128,236194,1,0,0:0:0:0:
488,256,236330,1,0,0:0:0:0:
87,36,236467,1,0,0:0:0:0:
425,348,236603,1,0,0:0:0:0:
189,7,236740,1,0,0:0:0:0:
323,377,236876,1,0,0:0:0:0:
356,35,237012,5,0,0:0:0:0:
370,88,237080,1,0,0:0:0:0:
354,142,237148,1,0,0:0:0:0:
314,180,237216,1,0,0:0:0:0:
259,191,237284,1,0,0:0:0:0:
207,174,237352,1,0,0:0:0:0:
159,160,237421,1,0,0:0:0:0:
104,161,237489,1,0,0:0:0:0:
57,191,237557,1,0,0:0:0:0:
34,241,237625,1,0,0:0:0:0:
42,296,237693,1,0,0:0:0:0:
78,338,237761,1,0,0:0:0:0:
132,354,237830,1,0,0:0:0:0:
185,338,237898,1,0,0:0:0:0:
221,296,237966,1,0,0:0:0:0:
229,241,238034,1,0,0:0:0:0:
210,193,238103,5,0,0:0:0:0:
183,122,238171,1,0,0:0:0:0:
202,49,238239,1,0,0:0:0:0:
260,1,238307,1,0,0:0:0:0:
335,0,238375,1,0,0:0:0:0:
399,35,238443,1,0,0:0:0:0:
428,104,238512,1,0,0:0:0:0:
412,178,238580,1,0,0:0:0:0:
356,228,238648,1,0,0:0:0:0:
281,236,238717,1,0,0:0:0:0:
226,186,238785,1,0,0:0:0:0:
222,112,238853,1,0,0:0:0:0:
273,57,238921,1,0,0:0:0:0:
347,54,238989,1,0,0:0:0:0:
402,104,239057,1,0,0:0:0:0:
404,179,239126,1,0,0:0:0:0:
353,234,239194,5,0,0:0:0:0:
282,260,239262,1,0,0:0:0:0:
210,239,239330,1,0,0:0:0:0:
165,179,239398,1,0,0:0:0:0:
165,104,239467,1,0,0:0:0:0:
120,45,239535,1,0,0:0:0:0:
46,38,239603,1,0,0:0:0:0:
0,89,239671,1,0,0:0:0:0:
0,163,239739,1,0,0:0:0:0:
48,212,239807,1,0,0:0:0:0:
123,212,239876,1,0,0:0:0:0:
196,204,239944,1,0,0:0:0:0:
250,255,240012,1,0,0:0:0:0:
247,329,240080,1,0,0:0:0:0:
188,375,240148,1,0,0:0:0:0:
116,361,240216,1,0,0:0:0:0:
79,297,240285,5,0,0:0:0:0:
83,220,240353,1,0,0:0:0:0:
107,148,240421,1,0,0:0:0:0:
160,94,240489,1,0,0:0:0:0:
232,69,240557,1,0,0:0:0:0:
307,78,240625,1,0,0:0:0:0:
371,119,240693,1,0,0:0:0:0:
411,184,240762,1,0,0:0:0:0:
401,258,240830,1,0,0:0:0:0:
346,309,240898,1,0,0:0:0:0:
272,313,240966,1,0,0:0:0:0:
211,269,241034,1,0,0:0:0:0:
193,196,241102,1,0,0:0:0:0:
226,129,241171,1,0,0:0:0:0:
294,98,241239,1,0,0:0:0:0:
367,118,241307,1,0,0:0:0:0:
411,184,241376,5,0,0:0:0:0:
26,30,241512,1,0,0:0:0:0:
167,353,241649,1,0,0:0:0:0:
414,35,241785,1,0,0:0:0:0:
54,228,241921,1,0,0:0:0:0:
469,305,242058,1,0,0:0:0:0:
193,102,242194,5,0,0:0:0:0:
469,305,242330,1,0,0:0:0:0:
38,59,242467,1,0,0:0:0:0:
350,335,242603,1,0,0:0:0:0:
474,36,242740,1,0,0:0:0:0:
