osu file format v14

[General]
AudioFilename: audio.mp3
AudioLeadIn: 0
PreviewTime: 0
Countdown: 1
SampleSet: Soft
StackLeniency: 0.7
Mode: 0
LetterboxInBreaks: 0
WidescreenStoryboard: 0

[Editor]
DistanceSpacing: 1
BeatDivisor: 16
GridSize: 8
TimelineZoom: 1

[Metadata]
Title:Extraction Zone
TitleUnicode:Extraction Zone
Artist:DragonForce
ArtistUnicode:DragonForce
Creator:SxGon
Version:Legend
Source:
Tags:GNOMED
BeatmapID:1965838
BeatmapSetID:941366

[Difficulty]
HPDrainRate:5
CircleSize:5
OverallDifficulty:5
ApproachRate:5
SliderMultiplier:2.8
SliderTickRate:1

[Events]
//Background and Video events
0,0,"bg.png",0,0
//Break Periods
//Storyboard Layer 0 (Background)
//Storyboard Layer 1 (Fail)
//Storyboard Layer 2 (Pass)
//Storyboard Layer 3 (Foreground)
//Storyboard Sound Samples

[TimingPoints]
0,226.415094339623,4,2,0,100,1,0

[HitObjects]
256,192,0,12,0,453,0:0:0:0:
256,192,622,12,0,1075,0:0:0:0:
256,192,1188,12,0,1641,0:0:0:0:
256,192,1754,12,0,2207,0:0:0:0:
256,192,2320,12,0,2773,0:0:0:0:
205,181,3113,6,0,B|112:156|77:238|195:228|206:221|206:221|182:300|257:310|237:194|237:193|237:193|402:71|402:71,1,490
56,79,3948,5,0,0:0:0:0:
412,80,3990,1,0,0:0:0:0:
71,219,4061,1,0,0:0:0:0:
103,248,4174,1,0,0:0:0:0:
146,271,4344,1,0,0:0:0:0:
192,288,4429,1,0,0:0:0:0:
245,297,4457,1,0,0:0:0:0:
290,286,4528,1,0,0:0:0:0:
333,276,4542,1,0,0:0:0:0:
364,256,4584,1,0,0:0:0:0:
390,227,4627,1,0,0:0:0:0:
414,193,4641,1,0,0:0:0:0:
61,111,4896,5,0,0:0:0:0:
61,111,4924,5,0,0:0:0:0:
61,88,4952,5,0,0:0:0:0:
61,161,4966,5,0,0:0:0:0:
61,161,4994,5,0,0:0:0:0:
62,182,4995,5,0,0:0:0:0:
62,182,5023,5,0,0:0:0:0:
63,206,5051,5,0,0:0:0:0:
62,220,5066,5,0,0:0:0:0:
61,111,5080,5,0,0:0:0:0:
62,220,5094,5,0,0:0:0:0:
61,88,5108,5,0,0:0:0:0:
61,235,5122,5,0,0:0:0:0:
61,161,5150,5,0,0:0:0:0:
62,182,5179,5,0,0:0:0:0:
61,111,5180,5,0,0:0:0:0:
63,206,5207,5,0,0:0:0:0:
61,88,5208,5,0,0:0:0:0:
61,111,5236,5,0,0:0:0:0:
61,161,5250,5,0,0:0:0:0:
62,220,5250,5,0,0:0:0:0:
61,88,5264,5,0,0:0:0:0:
61,235,5278,5,0,0:0:0:0:
62,182,5279,5,0,0:0:0:0:
61,111,5292,5,0,0:0:0:0:
61,161,5306,5,0,0:0:0:0:
63,206,5307,5,0,0:0:0:0:
61,88,5320,5,0,0:0:0:0:
62,182,5335,5,0,0:0:0:0:
62,220,5350,5,0,0:0:0:0:
61,161,5362,5,0,0:0:0:0:
63,206,5363,5,0,0:0:0:0:
61,235,5378,5,0,0:0:0:0:
62,182,5391,5,0,0:0:0:0:
62,220,5406,5,0,0:0:0:0:
63,206,5419,5,0,0:0:0:0:
61,235,5434,5,0,0:0:0:0:
62,220,5462,5,0,0:0:0:0:
61,111,5490,5,0,0:0:0:0:
61,235,5490,5,0,0:0:0:0:
61,88,5518,5,0,0:0:0:0:
61,111,5519,5,0,0:0:0:0:
61,88,5547,5,0,0:0:0:0:
61,161,5560,5,0,0:0:0:0:
62,182,5589,5,0,0:0:0:0:
61,161,5589,5,0,0:0:0:0:
63,206,5617,5,0,0:0:0:0:
62,182,5618,5,0,0:0:0:0:
63,206,5646,5,0,0:0:0:0:
62,220,5660,5,0,0:0:0:0:
61,235,5688,5,0,0:0:0:0:
62,220,5689,5,0,0:0:0:0:
61,235,5717,5,0,0:0:0:0:
61,111,5745,5,0,0:0:0:0:
61,88,5773,5,0,0:0:0:0:
61,161,5815,5,0,0:0:0:0:
62,182,5844,5,0,0:0:0:0:
61,111,5858,5,0,0:0:0:0:
63,206,5872,5,0,0:0:0:0:
61,88,5886,5,0,0:0:0:0:
62,220,5915,5,0,0:0:0:0:
61,161,5928,5,0,0:0:0:0:
61,235,5943,5,0,0:0:0:0:
62,182,5957,5,0,0:0:0:0:
63,206,5985,5,0,0:0:0:0:
61,111,5999,5,0,0:0:0:0:
61,88,6027,5,0,0:0:0:0:
62,220,6028,5,0,0:0:0:0:
61,111,6043,5,0,0:0:0:0:
61,235,6056,5,0,0:0:0:0:
61,161,6069,5,0,0:0:0:0:
61,88,6071,5,0,0:0:0:0:
62,182,6098,5,0,0:0:0:0:
61,161,6113,5,0,0:0:0:0:
63,206,6126,5,0,0:0:0:0:
62,182,6142,5,0,0:0:0:0:
62,220,6169,5,0,0:0:0:0:
63,206,6170,5,0,0:0:0:0:
61,235,6197,5,0,0:0:0:0:
61,111,6212,5,0,0:0:0:0:
62,220,6213,5,0,0:0:0:0:
61,88,6240,5,0,0:0:0:0:
61,235,6241,5,0,0:0:0:0:
61,161,6282,5,0,0:0:0:0:
62,182,6311,5,0,0:0:0:0:
63,206,6339,5,0,0:0:0:0:
62,220,6382,5,0,0:0:0:0:
61,235,6410,5,0,0:0:0:0:
