osu file format v14

[General]
AudioFilename: audio.mp3
AudioLeadIn: 0
PreviewTime: 91977
Countdown: 0
SampleSet: Soft
StackLeniency: 0.7
Mode: 1
LetterboxInBreaks: 0
WidescreenStoryboard: 0

[Editor]
DistanceSpacing: 0.7
BeatDivisor: 8
GridSize: 32
TimelineZoom: 3

[Metadata]
Title:Extraction Zone
TitleUnicode:Extraction Zone
Artist:DragonForce
ArtistUnicode:DragonForce
Creator:Surono
Version:Tatsujin
Source:
Tags:DF DGF Speed Power Metal Maximum Overload Herman Li Marc Hudson Marathon
BeatmapID:1402693
BeatmapSetID:662660

[Difficulty]
HPDrainRate:5
CircleSize:2
OverallDifficulty:7
ApproachRate:10
SliderMultiplier:1.4
SliderTickRate:1

[Events]
//Background and Video events
0,0,"stupud bege.jpg",0,-25
//Break Periods
//Storyboard Layer 0 (Background)
//Storyboard Layer 1 (Fail)
//Storyboard Layer 2 (Pass)
//Storyboard Layer 3 (Foreground)
//Storyboard Sound Samples

[TimingPoints]
402,300,4,1,0,85,1,0
5202,-100,4,1,0,85,0,1
13602,-100,4,1,0,85,0,0
46002,-100,4,1,0,85,0,1
65202,-100,4,1,0,85,0,0
76827,-100,4,2,1,50,0,0
77202,300,4,2,1,50,1,8
77802,300,4,1,0,85,1,0
97002,-100,4,1,0,85,0,1
115002,-101.010101010101,4,1,0,85,0,1
115077,-102.040816326531,4,1,0,85,0,1
115152,-103.092783505155,4,1,0,85,0,1
115227,-104.166666666667,4,1,0,85,0,1
115302,-105.263157894737,4,1,0,85,0,1
115377,-106.382978723404,4,1,0,85,0,1
115452,-107.52688172043,4,1,0,85,0,1
115527,-108.695652173913,4,1,0,85,0,1
115602,-109.89010989011,4,1,0,85,0,1
115752,-112.359550561798,4,1,0,85,0,1
115827,-113.636363636364,4,1,0,85,0,1
115902,-114.942528735632,4,1,0,85,0,1
116052,-117.647058823529,4,1,0,85,0,1
116127,-119.047619047619,4,1,0,85,0,1
116202,600,4,1,0,85,1,0
116202,-60.9756097560976,4,1,0,85,0,0
116277,-61.7283950617284,4,1,0,85,0,0
116352,-61.7283950617284,4,2,1,80,0,0
118002,-100,4,2,1,80,0,0
123252,-66.6666666666667,4,2,1,50,0,0
125652,-75.187969924812,4,2,1,80,0,0
126252,-100,4,2,1,80,0,0
161802,-66.6666666666667,4,1,0,75,0,0
164202,300,4,1,0,85,1,0
164202,-111.111111111111,4,1,0,85,0,0
171327,-100,4,1,0,85,0,0
174102,-111.111111111111,4,1,0,85,0,0
180927,-105.263157894737,4,1,0,85,0,0
190527,-100,4,1,0,85,0,0
198477,-100,4,2,1,85,0,0
198927,-100,4,1,0,85,0,0
202677,-100,4,1,0,40,0,0
205002,-142.857142857143,4,1,0,50,0,0
212202,-125,4,1,0,75,0,0
217752,-123.456790123457,4,1,0,85,0,0
217902,-121.951219512195,4,1,0,85,0,0
218052,-120.481927710843,4,1,0,85,0,0
218202,-119.047619047619,4,1,0,85,0,0
218352,-117.647058823529,4,1,0,85,0,0
218502,-116.279069767442,4,1,0,85,0,0
218652,-114.942528735632,4,1,0,85,0,0
218802,-113.636363636364,4,1,0,85,0,0
218952,-112.359550561798,4,1,0,85,0,0
219102,-111.111111111111,4,1,0,85,0,0
219252,-109.89010989011,4,1,0,85,0,0
219402,-108.695652173913,4,1,0,85,0,0
219552,-107.52688172043,4,1,0,85,0,0
219702,-106.382978723404,4,1,0,85,0,0
219852,-105.263157894737,4,1,0,85,0,0
220002,-104.166666666667,4,1,0,85,0,0
220152,-103.092783505155,4,1,0,85,0,0
220302,-102.040816326531,4,1,0,85,0,0
220452,-101.010101010101,4,1,0,85,0,0
220602,-100,4,1,0,85,0,0
221802,-100,4,1,0,85,0,1
230202,-100,4,1,0,85,0,0
231402,-100,4,1,0,85,0,1
238602,-100,4,1,0,85,0,0
241002,-100,4,1,0,85,0,1
248202,-100,4,1,0,85,0,0
249327,-111.111111111111,4,1,0,85,0,0
250002,-119.047619047619,4,1,0,85,0,0
250077,-116.279069767442,4,1,0,85,0,0
250152,-113.636363636364,4,1,0,85,0,0
250227,-111.111111111111,4,1,0,85,0,0
250302,-108.695652173913,4,1,0,85,0,0
250377,-106.382978723404,4,1,0,85,0,0
250452,-104.166666666667,4,1,0,85,0,0
250527,-102.040816326531,4,1,0,85,0,0
250602,-100,4,1,0,85,0,1
260202,-100,4,1,0,85,0,0
269802,-100,4,1,0,85,0,1
289002,-100,4,1,0,85,0,0

[HitObjects]
256,192,402,5,12,0:0:0:0:
256,192,852,1,0,0:0:0:0:
256,192,1002,1,0,0:0:0:0:
256,192,1302,1,0,0:0:0:0:
256,192,1602,1,12,0:0:0:0:
256,192,2202,1,12,0:0:0:0:
256,192,2802,1,12,0:0:0:0:
256,192,3102,1,0,0:0:0:0:
256,192,3402,1,0,0:0:0:0:
256,192,3702,1,0,0:0:0:0:
256,192,4002,1,4,0:0:0:0:
256,192,4152,1,0,0:0:0:0:
256,192,4227,1,8,0:0:0:0:
256,192,4302,1,0,0:0:0:0:
256,192,4377,1,0,0:0:0:0:
256,192,4452,1,8,0:0:0:0:
256,192,4602,1,4,0:0:0:0:
256,192,5202,1,8,0:0:0:0:
256,192,5277,1,8,0:0:0:0:
256,192,5352,1,0,0:0:0:0:
256,192,5427,1,0,0:0:0:0:
256,192,5502,1,0,0:0:0:0:
256,192,5577,1,0,0:0:0:0:
256,192,5652,1,8,0:0:0:0:
256,192,5727,1,0,0:0:0:0:
256,192,5802,1,8,0:0:0:0:
256,192,5877,1,8,0:0:0:0:
256,192,5952,1,0,0:0:0:0:
256,192,6027,1,0,0:0:0:0:
256,192,6102,1,8,0:0:0:0:
256,192,6177,1,8,0:0:0:0:
256,192,6252,1,0,0:0:0:0:
256,192,6327,1,0,0:0:0:0:
256,192,6402,1,8,0:0:0:0:
256,192,6477,1,0,0:0:0:0:
256,192,6552,1,8,0:0:0:0:
256,192,6627,1,0,0:0:0:0:
256,192,6702,1,8,0:0:0:0:
256,192,6777,1,8,0:0:0:0:
256,192,6852,1,0,0:0:0:0:
256,192,6927,1,0,0:0:0:0:
256,192,7002,1,8,0:0:0:0:
256,192,7077,1,0,0:0:0:0:
256,192,7152,1,8,0:0:0:0:
256,192,7227,1,0,0:0:0:0:
256,192,7302,1,8,0:0:0:0:
256,192,7377,1,8,0:0:0:0:
256,192,7452,1,0,0:0:0:0:
256,192,7527,1,0,0:0:0:0:
256,192,7602,1,8,0:0:0:0:
256,192,7677,1,8,0:0:0:0:
256,192,7752,1,0,0:0:0:0:
256,192,7827,1,0,0:0:0:0:
256,192,7902,1,8,0:0:0:0:
256,192,7977,1,0,0:0:0:0:
256,192,8052,1,0,0:0:0:0:
256,192,8127,1,0,0:0:0:0:
256,192,8202,1,8,0:0:0:0:
256,192,8277,1,8,0:0:0:0:
256,192,8352,1,0,0:0:0:0:
256,192,8427,1,0,0:0:0:0:
256,192,8502,1,8,0:0:0:0:
256,192,8577,1,0,0:0:0:0:
256,192,8652,1,0,0:0:0:0:
256,192,8727,1,0,0:0:0:0:
256,192,8802,1,8,0:0:0:0:
256,192,8877,1,8,0:0:0:0:
256,192,8952,1,8,0:0:0:0:
256,192,9027,1,0,0:0:0:0:
256,192,9102,1,8,0:0:0:0:
256,192,9177,1,8,0:0:0:0:
256,192,9252,1,0,0:0:0:0:
256,192,9327,1,0,0:0:0:0:
256,192,9402,1,8,0:0:0:0:
256,192,9552,1,0,0:0:0:0:
256,192,9627,1,0,0:0:0:0:
256,192,9702,1,8,0:0:0:0:
256,192,9852,1,0,0:0:0:0:
256,192,9927,1,0,0:0:0:0:
256,192,10002,1,8,0:0:0:0:
256,192,10077,1,8,0:0:0:0:
256,192,10152,1,0,0:0:0:0:
256,192,10227,1,0,0:0:0:0:
256,192,10302,1,0,0:0:0:0:
256,192,10377,1,0,0:0:0:0:
256,192,10452,1,8,0:0:0:0:
256,192,10527,1,0,0:0:0:0:
256,192,10602,1,8,0:0:0:0:
256,192,10677,1,8,0:0:0:0:
256,192,10752,1,0,0:0:0:0:
256,192,10827,1,0,0:0:0:0:
256,192,10902,1,8,0:0:0:0:
256,192,10977,1,8,0:0:0:0:
256,192,11052,1,0,0:0:0:0:
256,192,11127,1,0,0:0:0:0:
256,192,11202,1,8,0:0:0:0:
256,192,11277,1,0,0:0:0:0:
256,192,11352,1,8,0:0:0:0:
256,192,11427,1,0,0:0:0:0:
256,192,11502,1,8,0:0:0:0:
256,192,11577,1,8,0:0:0:0:
256,192,11652,1,0,0:0:0:0:
256,192,11727,1,0,0:0:0:0:
256,192,11802,1,8,0:0:0:0:
256,192,11877,1,0,0:0:0:0:
256,192,11952,1,8,0:0:0:0:
256,192,12027,1,0,0:0:0:0:
256,192,12102,1,8,0:0:0:0:
256,192,12177,1,8,0:0:0:0:
256,192,12252,1,0,0:0:0:0:
256,192,12327,1,0,0:0:0:0:
256,192,12402,1,8,0:0:0:0:
256,192,12477,1,8,0:0:0:0:
256,192,12552,1,0,0:0:0:0:
256,192,12627,1,0,0:0:0:0:
256,192,12702,1,8,0:0:0:0:
256,192,12777,1,0,0:0:0:0:
256,192,12852,1,0,0:0:0:0:
256,192,12927,1,0,0:0:0:0:
256,192,13002,1,8,0:0:0:0:
256,192,13077,1,8,0:0:0:0:
256,192,13152,1,0,0:0:0:0:
256,192,13227,1,0,0:0:0:0:
256,192,13302,1,8,0:0:0:0:
256,192,13377,1,0,0:0:0:0:
256,192,13452,1,0,0:0:0:0:
256,192,13527,1,0,0:0:0:0:
256,192,13602,1,8,0:0:0:0:
256,192,13752,1,8,0:0:0:0:
256,192,14202,1,8,0:0:0:0:
256,192,14352,1,8,0:0:0:0:
256,192,14802,1,4,0:0:0:0:
256,192,14952,1,8,0:0:0:0:
256,192,15027,1,0,0:0:0:0:
256,192,15102,1,8,0:0:0:0:
256,192,15177,1,8,0:0:0:0:
256,192,15252,1,0,0:0:0:0:
256,192,15327,1,0,0:0:0:0:
256,192,15402,1,8,0:0:0:0:
256,192,15477,1,0,0:0:0:0:
256,192,15552,1,8,0:0:0:0:
256,192,15627,1,8,0:0:0:0:
256,192,15702,1,0,0:0:0:0:
256,192,15777,1,0,0:0:0:0:
256,192,15852,1,8,0:0:0:0:
256,192,15927,1,0,0:0:0:0:
256,192,16002,1,8,0:0:0:0:
256,192,16077,1,0,0:0:0:0:
256,192,16152,1,0,0:0:0:0:
256,192,16227,1,8,0:0:0:0:
256,192,16302,1,0,0:0:0:0:
256,192,16377,1,0,0:0:0:0:
256,192,16452,1,8,0:0:0:0:
256,192,16527,1,0,0:0:0:0:
256,192,16602,1,8,0:0:0:0:
256,192,16677,1,8,0:0:0:0:
256,192,16752,1,0,0:0:0:0:
256,192,16827,1,8,0:0:0:0:
256,192,16902,1,0,0:0:0:0:
256,192,16977,1,0,0:0:0:0:
256,192,17052,1,0,0:0:0:0:
256,192,17202,1,4,0:0:0:0:
256,192,17352,1,8,0:0:0:0:
256,192,17502,1,0,0:0:0:0:
256,192,17577,1,0,0:0:0:0:
256,192,17652,1,8,0:0:0:0:
256,192,17727,1,0,0:0:0:0:
256,192,17802,1,0,0:0:0:0:
256,192,17952,1,8,0:0:0:0:
256,192,18027,1,0,0:0:0:0:
256,192,18102,1,0,0:0:0:0:
256,192,18177,1,0,0:0:0:0:
256,192,18252,1,8,0:0:0:0:
256,192,18327,1,8,0:0:0:0:
256,192,18402,1,0,0:0:0:0:
256,192,18552,1,8,0:0:0:0:
256,192,18627,1,8,0:0:0:0:
256,192,18702,1,0,0:0:0:0:
256,192,18777,1,0,0:0:0:0:
256,192,18852,1,8,0:0:0:0:
256,192,19002,1,0,0:0:0:0:
256,192,19152,1,8,0:0:0:0:
256,192,19302,1,0,0:0:0:0:
256,192,19377,1,0,0:0:0:0:
256,192,19452,1,8,0:0:0:0:
256,192,19602,1,0,0:0:0:0:
256,192,19752,1,8,0:0:0:0:
256,192,19902,1,0,0:0:0:0:
256,192,19977,1,0,0:0:0:0:
256,192,20052,1,8,0:0:0:0:
256,192,20127,1,0,0:0:0:0:
256,192,20202,1,0,0:0:0:0:
256,192,20352,1,8,0:0:0:0:
256,192,20427,1,8,0:0:0:0:
256,192,20502,1,0,0:0:0:0:
256,192,20577,1,0,0:0:0:0:
256,192,20652,1,8,0:0:0:0:
256,192,20727,1,0,0:0:0:0:
256,192,20802,1,0,0:0:0:0:
256,192,20952,1,8,0:0:0:0:
256,192,21027,1,0,0:0:0:0:
256,192,21102,1,0,0:0:0:0:
256,192,21177,1,0,0:0:0:0:
256,192,21252,1,8,0:0:0:0:
256,192,21327,1,8,0:0:0:0:
256,192,21402,1,0,0:0:0:0:
256,192,21477,1,0,0:0:0:0:
256,192,21552,1,8,0:0:0:0:
256,192,21627,1,8,0:0:0:0:
256,192,21702,1,0,0:0:0:0:
256,192,21777,1,0,0:0:0:0:
256,192,21852,1,8,0:0:0:0:
256,192,21927,1,8,0:0:0:0:
256,192,22002,1,0,0:0:0:0:
256,192,22152,1,8,0:0:0:0:
256,192,22227,1,8,0:0:0:0:
256,192,22377,1,0,0:0:0:0:
256,192,22452,1,8,0:0:0:0:
256,192,22527,1,0,0:0:0:0:
256,192,22602,1,8,0:0:0:0:
256,192,22752,1,8,0:0:0:0:
256,192,22827,1,0,0:0:0:0:
256,192,22902,1,0,0:0:0:0:
256,192,22977,1,0,0:0:0:0:
256,192,23052,1,8,0:0:0:0:
256,192,23127,1,8,0:0:0:0:
256,192,23202,1,0,0:0:0:0:
256,192,23352,1,8,0:0:0:0:
256,192,23427,1,0,0:0:0:0:
256,192,23577,1,0,0:0:0:0:
256,192,23652,1,8,0:0:0:0:
256,192,23727,1,8,0:0:0:0:
256,192,23802,1,0,0:0:0:0:
256,192,23952,1,8,0:0:0:0:
256,192,24102,1,8,0:0:0:0:
256,192,24177,1,0,0:0:0:0:
256,192,24252,1,8,0:0:0:0:
256,192,24402,1,0,0:0:0:0:
256,192,24477,1,0,0:0:0:0:
256,192,24552,1,8,0:0:0:0:
256,192,24627,1,8,0:0:0:0:
256,192,24702,1,8,0:0:0:0:
256,192,24777,1,0,0:0:0:0:
256,192,24852,1,8,0:0:0:0:
256,192,24927,1,8,0:0:0:0:
256,192,25002,1,0,0:0:0:0:
256,192,25077,1,0,0:0:0:0:
256,192,25152,1,8,0:0:0:0:
256,192,25227,1,8,0:0:0:0:
256,192,25302,1,8,0:0:0:0:
256,192,25377,1,0,0:0:0:0:
256,192,25452,1,8,0:0:0:0:
256,192,25527,1,8,0:0:0:0:
256,192,25602,1,0,0:0:0:0:
256,192,25677,1,0,0:0:0:0:
256,192,25752,1,8,0:0:0:0:
256,192,25827,1,8,0:0:0:0:
256,192,25902,1,8,0:0:0:0:
256,192,25977,1,0,0:0:0:0:
256,192,26052,1,8,0:0:0:0:
256,192,26127,1,0,0:0:0:0:
256,192,26202,1,8,0:0:0:0:
256,192,26277,1,8,0:0:0:0:
256,192,26352,1,0,0:0:0:0:
256,192,26427,1,0,0:0:0:0:
256,192,26502,1,8,0:0:0:0:
256,192,26577,1,8,0:0:0:0:
256,192,26652,1,0,0:0:0:0:
256,192,26802,1,4,0:0:0:0:
256,192,26952,1,8,0:0:0:0:
256,192,27102,1,0,0:0:0:0:
256,192,27177,1,0,0:0:0:0:
256,192,27252,1,8,0:0:0:0:
256,192,27327,1,0,0:0:0:0:
256,192,27402,1,0,0:0:0:0:
256,192,27552,1,8,0:0:0:0:
256,192,27627,1,0,0:0:0:0:
256,192,27702,1,0,0:0:0:0:
256,192,27777,1,0,0:0:0:0:
256,192,27852,1,8,0:0:0:0:
256,192,27927,1,8,0:0:0:0:
256,192,28002,1,0,0:0:0:0:
256,192,28152,1,8,0:0:0:0:
256,192,28227,1,8,0:0:0:0:
256,192,28302,1,0,0:0:0:0:
256,192,28377,1,0,0:0:0:0:
256,192,28452,1,8,0:0:0:0:
256,192,28602,1,0,0:0:0:0:
256,192,28752,1,8,0:0:0:0:
256,192,28902,1,0,0:0:0:0:
256,192,28977,1,0,0:0:0:0:
256,192,29052,1,8,0:0:0:0:
256,192,29202,1,0,0:0:0:0:
256,192,29352,1,8,0:0:0:0:
256,192,29502,1,0,0:0:0:0:
256,192,29577,1,0,0:0:0:0:
256,192,29652,1,8,0:0:0:0:
256,192,29727,1,0,0:0:0:0:
256,192,29802,1,0,0:0:0:0:
256,192,29952,1,8,0:0:0:0:
256,192,30027,1,8,0:0:0:0:
256,192,30102,1,0,0:0:0:0:
256,192,30177,1,0,0:0:0:0:
256,192,30252,1,8,0:0:0:0:
256,192,30327,1,0,0:0:0:0:
256,192,30402,1,0,0:0:0:0:
256,192,30552,1,8,0:0:0:0:
256,192,30627,1,0,0:0:0:0:
256,192,30702,1,0,0:0:0:0:
256,192,30777,1,0,0:0:0:0:
256,192,30852,1,8,0:0:0:0:
256,192,30927,1,8,0:0:0:0:
256,192,31002,1,0,0:0:0:0:
256,192,31077,1,0,0:0:0:0:
256,192,31152,1,8,0:0:0:0:
256,192,31227,1,8,0:0:0:0:
256,192,31302,1,0,0:0:0:0:
256,192,31377,1,0,0:0:0:0:
256,192,31452,1,8,0:0:0:0:
256,192,31527,1,8,0:0:0:0:
256,192,31602,1,0,0:0:0:0:
256,192,31752,1,8,0:0:0:0:
256,192,31827,1,8,0:0:0:0:
256,192,31977,1,0,0:0:0:0:
256,192,32052,1,8,0:0:0:0:
256,192,32127,1,0,0:0:0:0:
256,192,32202,1,0,0:0:0:0:
256,192,32352,1,8,0:0:0:0:
256,192,32427,1,8,0:0:0:0:
256,192,32502,1,0,0:0:0:0:
256,192,32577,1,0,0:0:0:0:
256,192,32652,1,8,0:0:0:0:
256,192,32727,1,8,0:0:0:0:
256,192,32802,1,0,0:0:0:0:
256,192,32952,1,8,0:0:0:0:
256,192,33027,1,0,0:0:0:0:
256,192,33177,1,0,0:0:0:0:
256,192,33252,1,8,0:0:0:0:
256,192,33327,1,8,0:0:0:0:
256,192,33402,1,0,0:0:0:0:
256,192,33552,1,8,0:0:0:0:
256,192,33702,1,8,0:0:0:0:
256,192,33777,1,0,0:0:0:0:
256,192,33852,1,8,0:0:0:0:
256,192,34002,1,0,0:0:0:0:
256,192,34077,1,0,0:0:0:0:
256,192,34152,1,8,0:0:0:0:
256,192,34227,1,8,0:0:0:0:
256,192,34302,1,8,0:0:0:0:
256,192,34377,1,0,0:0:0:0:
256,192,34452,1,8,0:0:0:0:
256,192,34527,1,8,0:0:0:0:
256,192,34602,1,0,0:0:0:0:
256,192,34677,1,0,0:0:0:0:
256,192,34752,1,8,0:0:0:0:
256,192,34827,1,8,0:0:0:0:
256,192,34902,1,8,0:0:0:0:
256,192,34977,1,0,0:0:0:0:
256,192,35052,1,8,0:0:0:0:
256,192,35127,1,8,0:0:0:0:
256,192,35202,1,0,0:0:0:0:
256,192,35277,1,0,0:0:0:0:
256,192,35352,1,8,0:0:0:0:
256,192,35427,1,0,0:0:0:0:
256,192,35502,1,8,0:0:0:0:
256,192,35577,1,8,0:0:0:0:
256,192,35652,1,0,0:0:0:0:
256,192,35727,1,0,0:0:0:0:
256,192,35802,1,8,0:0:0:0:
256,192,35877,1,0,0:0:0:0:
256,192,35952,1,8,0:0:0:0:
256,192,36027,1,8,0:0:0:0:
256,192,36102,1,0,0:0:0:0:
256,192,36252,1,8,0:0:0:0:
256,192,36402,1,12,0:0:0:0:
256,192,36627,1,0,0:0:0:0:
256,192,36702,1,8,0:0:0:0:
256,192,36852,1,0,0:0:0:0:
256,192,37002,1,8,0:0:0:0:
256,192,37152,1,0,0:0:0:0:
256,192,37227,1,0,0:0:0:0:
256,192,37302,1,8,0:0:0:0:
256,192,37452,1,0,0:0:0:0:
256,192,37602,1,8,0:0:0:0:
256,192,37677,1,0,0:0:0:0:
256,192,37752,1,0,0:0:0:0:
256,192,37827,1,0,0:0:0:0:
256,192,37902,1,8,0:0:0:0:
256,192,38052,1,0,0:0:0:0:
256,192,38202,1,8,0:0:0:0:
256,192,38352,1,0,0:0:0:0:
256,192,38427,1,0,0:0:0:0:
256,192,38502,1,8,0:0:0:0:
256,192,38652,1,0,0:0:0:0:
256,192,38802,1,12,0:0:0:0:
256,192,38952,1,0,0:0:0:0:
256,192,39102,1,8,0:0:0:0:
256,192,39177,1,8,0:0:0:0:
256,192,39252,1,0,0:0:0:0:
256,192,39402,1,8,0:0:0:0:
256,192,39477,1,8,0:0:0:0:
256,192,39552,1,0,0:0:0:0:
256,192,39702,1,8,0:0:0:0:
256,192,39852,1,0,0:0:0:0:
256,192,39927,1,0,0:0:0:0:
256,192,40002,1,8,0:0:0:0:
256,192,40152,1,0,0:0:0:0:
256,192,40227,1,0,0:0:0:0:
256,192,40302,1,8,0:0:0:0:
256,192,40452,1,0,0:0:0:0:
256,192,40602,1,8,0:0:0:0:
256,192,40752,1,0,0:0:0:0:
256,192,40827,1,0,0:0:0:0:
256,192,40902,1,8,0:0:0:0:
256,192,40977,1,8,0:0:0:0:
256,192,41052,1,0,0:0:0:0:
256,192,41127,1,8,0:0:0:0:
256,192,41202,1,0,0:0:0:0:
256,192,41352,1,8,0:0:0:0:
256,192,41502,1,0,0:0:0:0:
256,192,41577,1,0,0:0:0:0:
256,192,41652,1,8,0:0:0:0:
256,192,41727,1,0,0:0:0:0:
256,192,41802,1,0,0:0:0:0:
256,192,41952,1,8,0:0:0:0:
256,192,42027,1,8,0:0:0:0:
256,192,42102,1,0,0:0:0:0:
256,192,42177,1,0,0:0:0:0:
256,192,42252,1,8,0:0:0:0:
256,192,42402,1,0,0:0:0:0:
256,192,42552,1,8,0:0:0:0:
256,192,42702,1,0,0:0:0:0:
256,192,42777,1,0,0:0:0:0:
256,192,42852,1,8,0:0:0:0:
256,192,43002,1,0,0:0:0:0:
256,192,43152,1,8,0:0:0:0:
256,192,43302,1,0,0:0:0:0:
256,192,43377,1,0,0:0:0:0:
256,192,43452,1,8,0:0:0:0:
256,192,43527,1,8,0:0:0:0:
256,192,43602,1,0,0:0:0:0:
256,192,43752,1,8,0:0:0:0:
256,192,43902,1,8,0:0:0:0:
256,192,43977,1,8,0:0:0:0:
256,192,44052,1,0,0:0:0:0:
256,192,44127,1,8,0:0:0:0:
256,192,44202,1,0,0:0:0:0:
256,192,44352,1,8,0:0:0:0:
256,192,44427,1,8,0:0:0:0:
256,192,44502,1,8,0:0:0:0:
256,192,44577,1,8,0:0:0:0:
256,192,44652,1,0,0:0:0:0:
256,192,44802,1,8,0:0:0:0:
256,192,44877,1,0,0:0:0:0:
256,192,44952,1,8,0:0:0:0:
256,192,45027,1,8,0:0:0:0:
256,192,45102,1,0,0:0:0:0:
256,192,45177,1,8,0:0:0:0:
256,192,45252,1,8,0:0:0:0:
256,192,45327,1,8,0:0:0:0:
256,192,45402,1,0,0:0:0:0:
256,192,45552,2,0,L|128:128,1,140
256,192,46002,1,4,0:0:0:0:
256,192,46152,1,8,0:0:0:0:
256,192,46227,1,0,0:0:0:0:
256,192,46302,1,0,0:0:0:0:
256,192,46377,1,0,0:0:0:0:
256,192,46452,1,8,0:0:0:0:
256,192,46527,1,0,0:0:0:0:
256,192,46602,1,0,0:0:0:0:
256,192,46677,1,0,0:0:0:0:
256,192,46752,1,8,0:0:0:0:
256,192,46827,1,8,0:0:0:0:
256,192,46902,1,0,0:0:0:0:
256,192,46977,1,0,0:0:0:0:
256,192,47052,1,8,0:0:0:0:
256,192,47127,1,8,0:0:0:0:
256,192,47202,1,0,0:0:0:0:
256,192,47352,1,8,0:0:0:0:
256,192,47427,1,0,0:0:0:0:
256,192,47502,1,0,0:0:0:0:
256,192,47577,1,0,0:0:0:0:
256,192,47652,1,8,0:0:0:0:
256,192,47727,1,0,0:0:0:0:
256,192,47802,1,0,0:0:0:0:
256,192,47877,1,0,0:0:0:0:
256,192,47952,1,8,0:0:0:0:
256,192,48027,1,8,0:0:0:0:
256,192,48102,1,0,0:0:0:0:
256,192,48177,1,0,0:0:0:0:
256,192,48252,1,8,0:0:0:0:
256,192,48402,1,4,0:0:0:0:
256,192,48552,1,8,0:0:0:0:
256,192,48702,1,0,0:0:0:0:
256,192,48777,1,0,0:0:0:0:
256,192,48852,1,8,0:0:0:0:
256,192,49002,1,0,0:0:0:0:
256,192,49152,1,8,0:0:0:0:
256,192,49227,1,0,0:0:0:0:
256,192,49302,1,0,0:0:0:0:
256,192,49377,1,0,0:0:0:0:
256,192,49452,1,8,0:0:0:0:
256,192,49602,1,4,0:0:0:0:
256,192,49752,1,8,0:0:0:0:
256,192,49902,1,0,0:0:0:0:
256,192,49977,1,0,0:0:0:0:
256,192,50052,1,8,0:0:0:0:
256,192,50202,1,0,0:0:0:0:
256,192,50352,1,8,0:0:0:0:
256,192,50502,1,8,0:0:0:0:
256,192,50577,1,0,0:0:0:0:
256,192,50652,1,8,0:0:0:0:
256,192,50802,1,4,0:0:0:0:
256,192,50952,1,8,0:0:0:0:
256,192,51027,1,0,0:0:0:0:
256,192,51102,1,0,0:0:0:0:
256,192,51177,1,0,0:0:0:0:
256,192,51252,1,8,0:0:0:0:
256,192,51327,1,0,0:0:0:0:
256,192,51402,1,0,0:0:0:0:
256,192,51477,1,0,0:0:0:0:
256,192,51552,1,8,0:0:0:0:
256,192,51627,1,0,0:0:0:0:
256,192,51702,1,8,0:0:0:0:
256,192,51777,1,0,0:0:0:0:
256,192,51852,1,8,0:0:0:0:
256,192,51927,1,8,0:0:0:0:
256,192,52002,1,0,0:0:0:0:
256,192,52152,1,8,0:0:0:0:
256,192,52227,1,0,0:0:0:0:
256,192,52302,1,0,0:0:0:0:
256,192,52377,1,0,0:0:0:0:
256,192,52452,1,8,0:0:0:0:
256,192,52527,1,0,0:0:0:0:
256,192,52602,1,0,0:0:0:0:
256,192,52677,1,0,0:0:0:0:
256,192,52752,1,8,0:0:0:0:
256,192,52827,1,8,0:0:0:0:
256,192,52902,1,0,0:0:0:0:
256,192,52977,1,0,0:0:0:0:
256,192,53052,1,8,0:0:0:0:
256,192,53202,1,4,0:0:0:0:
256,192,53352,1,8,0:0:0:0:
256,192,53502,1,0,0:0:0:0:
256,192,53577,1,0,0:0:0:0:
256,192,53652,1,8,0:0:0:0:
256,192,53802,1,0,0:0:0:0:
256,192,53952,1,8,0:0:0:0:
256,192,54027,1,8,0:0:0:0:
256,192,54102,1,0,0:0:0:0:
256,192,54177,1,0,0:0:0:0:
256,192,54252,1,8,0:0:0:0:
256,192,54402,1,8,0:0:0:0:
256,192,54477,1,8,0:0:0:0:
256,192,54552,1,0,0:0:0:0:
256,192,54702,1,0,0:0:0:0:
256,192,54852,1,8,0:0:0:0:
256,192,54927,1,8,0:0:0:0:
256,192,55002,1,0,0:0:0:0:
256,192,55152,1,0,0:0:0:0:
256,192,55302,1,8,0:0:0:0:
256,192,55377,1,8,0:0:0:0:
256,192,55452,1,8,0:0:0:0:
256,192,55602,1,4,0:0:0:0:
256,192,55752,1,8,0:0:0:0:
256,192,55902,1,0,0:0:0:0:
256,192,55977,1,0,0:0:0:0:
256,192,56052,1,8,0:0:0:0:
256,192,56127,1,0,0:0:0:0:
256,192,56202,1,0,0:0:0:0:
256,192,56352,1,8,0:0:0:0:
256,192,56502,1,8,0:0:0:0:
256,192,56577,1,0,0:0:0:0:
256,192,56652,1,8,0:0:0:0:
256,192,56727,1,8,0:0:0:0:
256,192,56802,1,0,0:0:0:0:
256,192,56952,1,8,0:0:0:0:
256,192,57102,1,0,0:0:0:0:
256,192,57177,1,0,0:0:0:0:
256,192,57252,1,8,0:0:0:0:
256,192,57327,1,8,0:0:0:0:
256,192,57402,1,0,0:0:0:0:
256,192,57552,1,8,0:0:0:0:
256,192,57702,1,0,0:0:0:0:
256,192,57777,1,0,0:0:0:0:
256,192,57852,1,8,0:0:0:0:
256,192,58002,1,4,0:0:0:0:
256,192,58152,1,8,0:0:0:0:
256,192,58302,1,0,0:0:0:0:
256,192,58377,1,0,0:0:0:0:
256,192,58452,1,8,0:0:0:0:
256,192,58527,1,0,0:0:0:0:
256,192,58602,1,8,0:0:0:0:
256,192,58752,1,8,0:0:0:0:
256,192,58902,1,0,0:0:0:0:
256,192,58977,1,0,0:0:0:0:
256,192,59052,1,8,0:0:0:0:
256,192,59202,1,0,0:0:0:0:
256,192,59352,1,8,0:0:0:0:
256,192,59427,1,8,0:0:0:0:
256,192,59502,1,0,0:0:0:0:
256,192,59577,1,0,0:0:0:0:
256,192,59652,1,8,0:0:0:0:
256,192,59802,1,0,0:0:0:0:
256,192,59952,1,8,0:0:0:0:
256,192,60102,1,0,0:0:0:0:
256,192,60177,1,0,0:0:0:0:
256,192,60252,1,8,0:0:0:0:
256,192,60402,1,8,0:0:0:0:
256,192,60477,1,0,0:0:0:0:
256,192,60552,1,8,0:0:0:0:
256,192,60627,1,8,0:0:0:0:
256,192,60702,1,0,0:0:0:0:
256,192,60777,1,0,0:0:0:0:
256,192,60852,1,8,0:0:0:0:
256,192,60927,1,8,0:0:0:0:
256,192,61002,1,0,0:0:0:0:
256,192,61077,1,0,0:0:0:0:
256,192,61152,1,8,0:0:0:0:
256,192,61227,1,0,0:0:0:0:
256,192,61302,1,0,0:0:0:0:
256,192,61377,1,0,0:0:0:0:
256,192,61452,1,8,0:0:0:0:
256,192,61527,1,0,0:0:0:0:
256,192,61602,1,0,0:0:0:0:
256,192,61677,1,0,0:0:0:0:
256,192,61752,1,8,0:0:0:0:
256,192,61827,1,8,0:0:0:0:
256,192,61902,1,0,0:0:0:0:
256,192,61977,1,0,0:0:0:0:
256,192,62052,1,8,0:0:0:0:
256,192,62127,1,8,0:0:0:0:
256,192,62202,1,0,0:0:0:0:
256,192,62277,1,0,0:0:0:0:
256,192,62352,1,8,0:0:0:0:
256,192,62427,1,0,0:0:0:0:
256,192,62502,1,0,0:0:0:0:
256,192,62577,1,0,0:0:0:0:
256,192,62652,1,8,0:0:0:0:
256,192,62802,1,8,0:0:0:0:
256,192,62877,1,0,0:0:0:0:
256,192,62952,1,0,0:0:0:0:
256,192,63027,1,8,0:0:0:0:
256,192,63102,1,0,0:0:0:0:
256,192,63177,1,0,0:0:0:0:
256,192,63252,5,8,0:0:0:0:
256,192,63327,1,0,0:0:0:0:
256,192,63402,1,8,0:0:0:0:
256,192,63477,1,8,0:0:0:0:
256,192,63552,1,0,0:0:0:0:
256,192,63627,1,0,0:0:0:0:
256,192,63702,1,8,0:0:0:0:
256,192,63852,1,8,0:0:0:0:
256,192,63927,1,0,0:0:0:0:
256,192,64002,1,8,0:0:0:0:
256,192,64077,1,8,0:0:0:0:
256,192,64152,1,0,0:0:0:0:
256,192,64227,1,8,0:0:0:0:
256,192,64302,1,8,0:0:0:0:
256,192,64377,1,8,0:0:0:0:
256,192,64452,1,0,0:0:0:0:
256,192,64527,1,0,0:0:0:0:
256,192,64602,1,8,0:0:0:0:
256,192,64677,1,8,0:0:0:0:
256,192,64752,1,0,0:0:0:0:
256,192,64827,1,8,0:0:0:0:
256,192,64902,1,8,0:0:0:0:
256,192,64977,1,8,0:0:0:0:
256,192,65052,1,0,0:0:0:0:
256,192,65202,1,4,0:0:0:0:
256,192,65352,1,0,0:0:0:0:
256,192,65502,1,8,0:0:0:0:
256,192,65652,1,0,0:0:0:0:
256,192,65802,1,0,0:0:0:0:
256,192,65952,1,8,0:0:0:0:
256,192,66102,1,8,0:0:0:0:
256,192,66252,1,8,0:0:0:0:
256,192,66402,1,0,0:0:0:0:
256,192,66552,1,8,0:0:0:0:
256,192,66702,1,8,0:0:0:0:
256,192,66852,1,0,0:0:0:0:
256,192,67002,1,0,0:0:0:0:
256,192,67152,1,0,0:0:0:0:
256,192,67302,1,8,0:0:0:0:
256,192,67452,1,0,0:0:0:0:
256,192,67602,1,4,0:0:0:0:
256,192,67752,1,8,0:0:0:0:
256,192,67902,1,8,0:0:0:0:
256,192,68052,1,0,0:0:0:0:
256,192,68202,1,0,0:0:0:0:
256,192,68352,1,8,0:0:0:0:
256,192,68502,1,8,0:0:0:0:
256,192,68652,1,8,0:0:0:0:
256,192,68952,1,0,0:0:0:0:
256,192,69102,1,8,0:0:0:0:
256,192,69252,1,8,0:0:0:0:
256,192,69327,1,8,0:0:0:0:
256,192,69402,1,8,0:0:0:0:
256,192,69552,1,8,0:0:0:0:
256,192,69702,1,0,0:0:0:0:
256,192,69852,1,0,0:0:0:0:
256,192,70002,1,8,0:0:0:0:
256,192,70152,1,0,0:0:0:0:
256,192,70302,1,12,0:0:0:0:
256,192,70452,1,0,0:0:0:0:
256,192,70602,1,0,0:0:0:0:
256,192,70752,1,8,0:0:0:0:
256,192,70902,1,8,0:0:0:0:
256,192,71052,1,8,0:0:0:0:
256,192,71202,1,0,0:0:0:0:
256,192,71352,1,8,0:0:0:0:
256,192,71502,1,8,0:0:0:0:
256,192,71652,1,0,0:0:0:0:
256,192,71802,1,0,0:0:0:0:
256,192,71952,1,0,0:0:0:0:
256,192,72102,1,8,0:0:0:0:
256,192,72252,1,0,0:0:0:0:
256,192,72402,1,0,0:0:0:0:
256,192,72552,1,8,0:0:0:0:
256,192,72702,1,8,0:0:0:0:
256,192,72852,1,0,0:0:0:0:
256,192,73002,1,0,0:0:0:0:
256,192,73152,1,8,0:0:0:0:
256,192,73302,1,8,0:0:0:0:
256,192,73452,1,12,0:0:0:0:
256,192,73752,1,8,0:0:0:0:
256,192,73827,1,8,0:0:0:0:
256,192,73902,1,8,0:0:0:0:
256,192,73977,1,0,0:0:0:0:
256,192,74052,1,8,0:0:0:0:
256,192,74127,1,8,0:0:0:0:
256,192,74202,1,0,0:0:0:0:
256,192,74352,1,8,0:0:0:0:
256,192,74427,1,0,0:0:0:0:
256,192,74502,1,8,0:0:0:0:
256,192,74577,1,8,0:0:0:0:
256,192,74652,1,0,0:0:0:0:
256,192,74727,1,8,0:0:0:0:
256,192,74802,1,0,0:0:0:0:
256,192,75252,1,4,0:0:0:0:
256,192,75702,1,12,0:0:0:0:
256,192,76152,1,0,0:0:0:0:
256,192,76302,1,0,0:0:0:0:
256,192,76452,1,0,0:0:0:0:
256,192,76602,1,8,0:0:0:0:
256,192,76752,1,0,0:0:0:0:
256,192,76902,1,8,0:0:0:0:
256,192,76939,1,8,0:0:0:0:
256,192,77202,1,8,0:0:0:0:
256,192,77239,1,8,0:0:0:0:
256,192,77502,1,0,0:0:0:0:
256,192,77539,1,0,0:0:0:0:
256,192,77802,1,4,0:0:0:0:
256,192,77952,1,8,0:0:0:0:
256,192,78027,1,0,0:0:0:0:
256,192,78177,1,0,0:0:0:0:
256,192,78252,1,8,0:0:0:0:
256,192,78327,1,0,0:0:0:0:
256,192,78402,1,0,0:0:0:0:
256,192,78552,1,8,0:0:0:0:
256,192,78627,1,0,0:0:0:0:
256,192,78702,1,0,0:0:0:0:
256,192,78777,1,0,0:0:0:0:
256,192,78852,1,8,0:0:0:0:
256,192,78927,1,8,0:0:0:0:
256,192,79002,1,0,0:0:0:0:
256,192,79152,1,8,0:0:0:0:
256,192,79227,1,8,0:0:0:0:
256,192,79302,1,0,0:0:0:0:
256,192,79452,1,8,0:0:0:0:
256,192,79527,1,0,0:0:0:0:
256,192,79602,1,0,0:0:0:0:
256,192,79752,1,8,0:0:0:0:
256,192,79902,1,0,0:0:0:0:
256,192,79977,1,0,0:0:0:0:
256,192,80052,1,8,0:0:0:0:
256,192,80202,1,0,0:0:0:0:
256,192,80352,1,8,0:0:0:0:
256,192,80427,1,0,0:0:0:0:
256,192,80577,1,0,0:0:0:0:
256,192,80652,1,8,0:0:0:0:
256,192,80727,1,0,0:0:0:0:
256,192,80802,1,0,0:0:0:0:
256,192,80952,1,8,0:0:0:0:
256,192,81027,1,8,0:0:0:0:
256,192,81102,1,0,0:0:0:0:
256,192,81177,1,0,0:0:0:0:
256,192,81252,1,8,0:0:0:0:
256,192,81327,1,0,0:0:0:0:
256,192,81402,1,0,0:0:0:0:
256,192,81552,1,8,0:0:0:0:
256,192,81627,1,0,0:0:0:0:
256,192,81702,1,0,0:0:0:0:
256,192,81777,1,0,0:0:0:0:
256,192,81852,1,8,0:0:0:0:
256,192,81927,1,8,0:0:0:0:
256,192,82002,1,0,0:0:0:0:
256,192,82077,1,0,0:0:0:0:
256,192,82152,1,8,0:0:0:0:
256,192,82227,1,8,0:0:0:0:
256,192,82302,1,0,0:0:0:0:
256,192,82377,1,0,0:0:0:0:
256,192,82452,1,8,0:0:0:0:
256,192,82527,1,8,0:0:0:0:
256,192,82602,1,0,0:0:0:0:
256,192,82752,1,8,0:0:0:0:
256,192,82902,1,8,0:0:0:0:
256,192,82977,1,0,0:0:0:0:
256,192,83052,1,8,0:0:0:0:
256,192,83127,1,8,0:0:0:0:
256,192,83202,1,0,0:0:0:0:
256,192,83352,1,8,0:0:0:0:
256,192,83427,1,0,0:0:0:0:
256,192,83502,1,8,0:0:0:0:
256,192,83577,1,0,0:0:0:0:
256,192,83652,1,8,0:0:0:0:
256,192,83727,1,8,0:0:0:0:
256,192,83802,1,0,0:0:0:0:
256,192,83952,1,8,0:0:0:0:
256,192,84102,1,0,0:0:0:0:
256,192,84177,1,0,0:0:0:0:
256,192,84252,1,8,0:0:0:0:
256,192,84327,1,8,0:0:0:0:
256,192,84402,1,0,0:0:0:0:
256,192,84552,1,8,0:0:0:0:
256,192,84702,1,8,0:0:0:0:
256,192,84777,1,0,0:0:0:0:
256,192,84852,1,8,0:0:0:0:
256,192,85002,1,0,0:0:0:0:
256,192,85077,1,0,0:0:0:0:
256,192,85152,1,8,0:0:0:0:
256,192,85227,1,8,0:0:0:0:
256,192,85302,1,8,0:0:0:0:
256,192,85377,1,0,0:0:0:0:
256,192,85452,1,8,0:0:0:0:
256,192,85527,1,8,0:0:0:0:
256,192,85602,1,0,0:0:0:0:
256,192,85677,1,0,0:0:0:0:
256,192,85752,1,8,0:0:0:0:
256,192,85827,1,8,0:0:0:0:
256,192,85902,1,8,0:0:0:0:
256,192,85977,1,0,0:0:0:0:
256,192,86052,1,8,0:0:0:0:
256,192,86127,1,8,0:0:0:0:
256,192,86202,1,0,0:0:0:0:
256,192,86277,1,8,0:0:0:0:
256,192,86352,1,0,0:0:0:0:
256,192,86427,1,0,0:0:0:0:
256,192,86502,1,8,0:0:0:0:
256,192,86577,1,8,0:0:0:0:
256,192,86652,1,0,0:0:0:0:
256,192,86727,1,0,0:0:0:0:
256,192,86802,1,8,0:0:0:0:
256,192,86877,1,0,0:0:0:0:
256,192,86952,1,8,0:0:0:0:
256,192,87027,1,0,0:0:0:0:
256,192,87102,1,8,0:0:0:0:
256,192,87177,1,8,0:0:0:0:
256,192,87252,1,8,0:0:0:0:
256,192,87402,1,12,0:0:0:0:
256,192,87627,1,0,0:0:0:0:
256,192,87702,1,8,0:0:0:0:
256,192,87852,1,0,0:0:0:0:
256,192,88002,1,8,0:0:0:0:
256,192,88152,1,0,0:0:0:0:
256,192,88227,1,0,0:0:0:0:
256,192,88302,1,8,0:0:0:0:
256,192,88452,1,0,0:0:0:0:
256,192,88602,1,8,0:0:0:0:
256,192,88677,1,0,0:0:0:0:
256,192,88752,1,0,0:0:0:0:
256,192,88827,1,0,0:0:0:0:
256,192,88902,1,8,0:0:0:0:
256,192,89052,1,0,0:0:0:0:
256,192,89202,1,8,0:0:0:0:
256,192,89352,1,0,0:0:0:0:
256,192,89427,1,0,0:0:0:0:
256,192,89502,1,8,0:0:0:0:
256,192,89652,1,0,0:0:0:0:
256,192,89802,1,8,0:0:0:0:
256,192,89952,1,0,0:0:0:0:
256,192,90102,1,8,0:0:0:0:
256,192,90177,1,8,0:0:0:0:
256,192,90252,1,0,0:0:0:0:
256,192,90402,1,8,0:0:0:0:
256,192,90477,1,8,0:0:0:0:
256,192,90552,1,0,0:0:0:0:
256,192,90702,1,8,0:0:0:0:
256,192,90852,1,0,0:0:0:0:
256,192,90927,1,0,0:0:0:0:
256,192,91002,1,8,0:0:0:0:
256,192,91152,1,0,0:0:0:0:
256,192,91227,1,0,0:0:0:0:
256,192,91302,1,0,0:0:0:0:
256,192,91377,1,0,0:0:0:0:
256,192,91452,1,8,0:0:0:0:
256,192,91602,1,8,0:0:0:0:
256,192,91752,1,0,0:0:0:0:
256,192,91827,1,0,0:0:0:0:
256,192,91902,1,8,0:0:0:0:
256,192,91977,1,8,0:0:0:0:
256,192,92052,1,0,0:0:0:0:
256,192,92127,1,8,0:0:0:0:
256,192,92202,1,0,0:0:0:0:
256,192,92352,1,8,0:0:0:0:
256,192,92502,1,0,0:0:0:0:
256,192,92577,1,0,0:0:0:0:
256,192,92652,1,8,0:0:0:0:
256,192,92727,1,0,0:0:0:0:
256,192,92802,1,0,0:0:0:0:
256,192,92952,1,8,0:0:0:0:
256,192,93027,1,8,0:0:0:0:
256,192,93102,1,0,0:0:0:0:
256,192,93177,1,0,0:0:0:0:
256,192,93252,1,8,0:0:0:0:
256,192,93402,1,0,0:0:0:0:
256,192,93552,1,8,0:0:0:0:
256,192,93702,1,0,0:0:0:0:
256,192,93777,1,0,0:0:0:0:
256,192,93852,1,8,0:0:0:0:
256,192,94002,1,0,0:0:0:0:
256,192,94152,1,8,0:0:0:0:
256,192,94302,1,0,0:0:0:0:
256,192,94377,1,0,0:0:0:0:
256,192,94452,1,8,0:0:0:0:
256,192,94527,1,8,0:0:0:0:
256,192,94602,1,0,0:0:0:0:
256,192,94752,1,8,0:0:0:0:
256,192,94827,1,8,0:0:0:0:
256,192,94902,1,8,0:0:0:0:
256,192,95052,1,0,0:0:0:0:
256,192,95202,1,8,0:0:0:0:
256,192,95352,1,0,0:0:0:0:
256,192,95502,1,8,0:0:0:0:
256,192,95577,1,8,0:0:0:0:
256,192,95652,1,8,0:0:0:0:
256,192,95727,1,8,0:0:0:0:
256,192,95802,1,0,0:0:0:0:
256,192,95952,1,8,0:0:0:0:
256,192,96102,1,8,0:0:0:0:
256,192,96177,1,8,0:0:0:0:
256,192,96252,1,0,0:0:0:0:
256,192,96402,1,8,0:0:0:0:
256,192,96552,2,0,L|128:128,1,140
256,192,97002,1,4,0:0:0:0:
256,192,97152,1,8,0:0:0:0:
256,192,97227,1,0,0:0:0:0:
256,192,97302,1,0,0:0:0:0:
256,192,97377,1,0,0:0:0:0:
256,192,97452,1,8,0:0:0:0:
256,192,97527,1,0,0:0:0:0:
256,192,97602,1,0,0:0:0:0:
256,192,97677,1,0,0:0:0:0:
256,192,97752,1,8,0:0:0:0:
256,192,97827,1,8,0:0:0:0:
256,192,97902,1,0,0:0:0:0:
256,192,97977,1,0,0:0:0:0:
256,192,98052,1,8,0:0:0:0:
256,192,98127,1,8,0:0:0:0:
256,192,98202,1,0,0:0:0:0:
256,192,98352,1,8,0:0:0:0:
256,192,98427,1,0,0:0:0:0:
256,192,98502,1,0,0:0:0:0:
256,192,98577,1,0,0:0:0:0:
256,192,98652,1,8,0:0:0:0:
256,192,98727,1,0,0:0:0:0:
256,192,98802,1,0,0:0:0:0:
256,192,98877,1,0,0:0:0:0:
256,192,98952,1,8,0:0:0:0:
256,192,99027,1,8,0:0:0:0:
256,192,99102,1,0,0:0:0:0:
256,192,99177,1,0,0:0:0:0:
256,192,99252,1,8,0:0:0:0:
256,192,99402,1,4,0:0:0:0:
256,192,99552,1,8,0:0:0:0:
256,192,99702,1,0,0:0:0:0:
256,192,99777,1,0,0:0:0:0:
256,192,99852,1,8,0:0:0:0:
256,192,100002,1,0,0:0:0:0:
256,192,100152,1,8,0:0:0:0:
256,192,100227,1,0,0:0:0:0:
256,192,100302,1,0,0:0:0:0:
256,192,100377,1,0,0:0:0:0:
256,192,100452,1,8,0:0:0:0:
256,192,100602,1,4,0:0:0:0:
256,192,100752,1,8,0:0:0:0:
256,192,100902,1,0,0:0:0:0:
256,192,100977,1,0,0:0:0:0:
256,192,101052,1,8,0:0:0:0:
256,192,101202,1,0,0:0:0:0:
256,192,101352,1,8,0:0:0:0:
256,192,101502,1,8,0:0:0:0:
256,192,101577,1,0,0:0:0:0:
256,192,101652,1,8,0:0:0:0:
256,192,101802,1,4,0:0:0:0:
256,192,101952,1,8,0:0:0:0:
256,192,102027,1,0,0:0:0:0:
256,192,102102,1,0,0:0:0:0:
256,192,102177,1,0,0:0:0:0:
256,192,102252,1,8,0:0:0:0:
256,192,102327,1,0,0:0:0:0:
256,192,102402,1,0,0:0:0:0:
256,192,102477,1,0,0:0:0:0:
256,192,102552,1,8,0:0:0:0:
256,192,102627,1,0,0:0:0:0:
256,192,102702,1,8,0:0:0:0:
256,192,102777,1,0,0:0:0:0:
256,192,102852,1,8,0:0:0:0:
256,192,102927,1,8,0:0:0:0:
256,192,103002,1,0,0:0:0:0:
256,192,103152,1,8,0:0:0:0:
256,192,103227,1,0,0:0:0:0:
256,192,103302,1,0,0:0:0:0:
256,192,103377,1,0,0:0:0:0:
256,192,103452,1,8,0:0:0:0:
256,192,103527,1,0,0:0:0:0:
256,192,103602,1,0,0:0:0:0:
256,192,103677,1,0,0:0:0:0:
256,192,103752,1,8,0:0:0:0:
256,192,103827,1,8,0:0:0:0:
256,192,103902,1,0,0:0:0:0:
256,192,103977,1,0,0:0:0:0:
256,192,104052,1,8,0:0:0:0:
256,192,104202,1,4,0:0:0:0:
256,192,104352,1,8,0:0:0:0:
256,192,104502,1,0,0:0:0:0:
256,192,104577,1,0,0:0:0:0:
256,192,104652,1,8,0:0:0:0:
256,192,104802,1,0,0:0:0:0:
256,192,104952,1,8,0:0:0:0:
256,192,105027,1,8,0:0:0:0:
256,192,105102,1,0,0:0:0:0:
256,192,105177,1,0,0:0:0:0:
256,192,105252,1,8,0:0:0:0:
256,192,105402,1,12,0:0:0:0:
256,192,105552,1,0,0:0:0:0:
256,192,105627,1,8,0:0:0:0:
256,192,105702,1,8,0:0:0:0:
256,192,105852,1,12,0:0:0:0:
256,192,106002,1,0,0:0:0:0:
256,192,106077,1,0,0:0:0:0:
256,192,106152,1,8,0:0:0:0:
256,192,106227,1,8,0:0:0:0:
256,192,106302,1,8,0:0:0:0:
256,192,106377,1,8,0:0:0:0:
256,192,106452,1,0,0:0:0:0:
256,192,106602,1,4,0:0:0:0:
256,192,106752,1,8,0:0:0:0:
256,192,106902,1,0,0:0:0:0:
256,192,106977,1,0,0:0:0:0:
256,192,107052,1,8,0:0:0:0:
256,192,107127,1,0,0:0:0:0:
256,192,107202,1,0,0:0:0:0:
256,192,107352,1,8,0:0:0:0:
256,192,107502,1,8,0:0:0:0:
256,192,107577,1,0,0:0:0:0:
256,192,107652,1,8,0:0:0:0:
256,192,107727,1,8,0:0:0:0:
256,192,107802,1,0,0:0:0:0:
256,192,107952,1,8,0:0:0:0:
256,192,108102,1,0,0:0:0:0:
256,192,108177,1,0,0:0:0:0:
256,192,108252,1,8,0:0:0:0:
256,192,108327,1,8,0:0:0:0:
256,192,108402,1,0,0:0:0:0:
256,192,108552,1,8,0:0:0:0:
256,192,108702,1,0,0:0:0:0:
256,192,108777,1,0,0:0:0:0:
256,192,108852,1,8,0:0:0:0:
256,192,109002,1,4,0:0:0:0:
256,192,109152,1,8,0:0:0:0:
256,192,109302,1,0,0:0:0:0:
256,192,109377,1,0,0:0:0:0:
256,192,109452,1,8,0:0:0:0:
256,192,109527,1,0,0:0:0:0:
256,192,109602,1,8,0:0:0:0:
256,192,109752,1,8,0:0:0:0:
256,192,109902,1,0,0:0:0:0:
256,192,109977,1,0,0:0:0:0:
256,192,110052,1,8,0:0:0:0:
256,192,110202,1,0,0:0:0:0:
256,192,110352,1,8,0:0:0:0:
256,192,110427,1,8,0:0:0:0:
256,192,110502,1,0,0:0:0:0:
256,192,110577,1,0,0:0:0:0:
256,192,110652,1,8,0:0:0:0:
256,192,110802,1,8,0:0:0:0:
256,192,110952,1,0,0:0:0:0:
256,192,111102,1,0,0:0:0:0:
256,192,111177,1,0,0:0:0:0:
256,192,111252,1,0,0:0:0:0:
256,192,111402,1,8,0:0:0:0:
256,192,111477,1,0,0:0:0:0:
256,192,111552,1,8,0:0:0:0:
256,192,111627,1,8,0:0:0:0:
256,192,111702,1,0,0:0:0:0:
256,192,111777,1,0,0:0:0:0:
256,192,111852,1,8,0:0:0:0:
256,192,111927,1,8,0:0:0:0:
256,192,112002,1,0,0:0:0:0:
256,192,112077,1,0,0:0:0:0:
256,192,112152,1,8,0:0:0:0:
256,192,112227,1,0,0:0:0:0:
256,192,112302,1,0,0:0:0:0:
256,192,112377,1,0,0:0:0:0:
256,192,112452,1,8,0:0:0:0:
256,192,112527,1,0,0:0:0:0:
256,192,112602,1,0,0:0:0:0:
256,192,112677,1,0,0:0:0:0:
256,192,112752,1,8,0:0:0:0:
256,192,112827,1,8,0:0:0:0:
256,192,112902,1,0,0:0:0:0:
256,192,112977,1,0,0:0:0:0:
256,192,113052,1,8,0:0:0:0:
256,192,113127,1,8,0:0:0:0:
256,192,113202,1,0,0:0:0:0:
256,192,113277,1,0,0:0:0:0:
256,192,113352,1,8,0:0:0:0:
256,192,113427,1,0,0:0:0:0:
256,192,113502,1,0,0:0:0:0:
256,192,113577,1,0,0:0:0:0:
256,192,113652,1,8,0:0:0:0:
256,192,113802,1,8,0:0:0:0:
256,192,113877,1,8,0:0:0:0:
256,192,113952,1,0,0:0:0:0:
256,192,114027,1,0,0:0:0:0:
256,192,114102,1,8,0:0:0:0:
256,192,114177,1,8,0:0:0:0:
256,192,114252,1,8,0:0:0:0:
256,192,114327,1,0,0:0:0:0:
256,192,114402,1,0,0:0:0:0:
256,192,114477,1,0,0:0:0:0:
256,192,114552,1,8,0:0:0:0:
256,192,114627,1,0,0:0:0:0:
256,192,114702,1,8,0:0:0:0:
256,192,114852,1,0,0:0:0:0:
256,192,114927,1,0,0:0:0:0:
256,192,115002,1,8,0:0:0:0:
256,192,115077,1,8,0:0:0:0:
256,192,115152,1,0,0:0:0:0:
256,192,115227,1,0,0:0:0:0:
256,192,115302,1,8,0:0:0:0:
256,192,115377,1,8,0:0:0:0:
256,192,115452,1,8,0:0:0:0:
256,192,115527,1,8,0:0:0:0:
256,192,115602,1,0,0:0:0:0:
256,192,115752,1,0,0:0:0:0:
256,192,115827,1,0,0:0:0:0:
256,192,115902,1,0,0:0:0:0:
256,192,116052,1,0,0:0:0:0:
256,192,116127,1,0,0:0:0:0:
256,192,116202,1,8,0:0:0:0:
256,192,116277,1,8,0:0:0:0:
256,192,116352,12,0,117852,0:0:0:0:
256,192,118002,5,0,0:0:0:0:
256,192,118152,1,0,0:0:0:0:
256,192,118602,1,8,0:0:0:0:
256,192,118752,12,0,120252,0:0:0:0:
256,192,120402,5,0,0:0:0:0:
256,192,120552,1,0,0:0:0:0:
256,192,121002,1,8,0:0:0:0:
256,192,121452,1,8,0:0:0:0:
256,192,121902,1,8,0:0:0:0:
256,192,122352,1,8,0:0:0:0:
256,192,122802,1,8,0:0:0:0:
256,192,122952,1,8,0:0:0:0:
256,192,123402,2,0,L|256:128,14,52.5000020027161
256,192,125802,1,12,0:0:0:0:
256,192,126402,1,8,0:0:0:0:
256,192,126852,1,0,0:0:0:0:
256,192,127002,1,0,0:0:0:0:
256,192,127302,1,0,0:0:0:0:
256,192,127602,1,8,0:0:0:0:
256,192,127752,1,8,0:0:0:0:
256,192,128202,1,0,0:0:0:0:
256,192,128502,1,0,0:0:0:0:
256,192,128802,1,8,0:0:0:0:
256,192,129102,1,8,0:0:0:0:
256,192,129252,1,0,0:0:0:0:
256,192,129402,1,0,0:0:0:0:
256,192,129702,1,0,0:0:0:0:
256,192,130002,1,8,0:0:0:0:
256,192,130152,1,8,0:0:0:0:
256,192,130602,1,0,0:0:0:0:
256,192,131052,1,0,0:0:0:0:
256,192,131202,1,8,0:0:0:0:
256,192,131502,1,0,0:0:0:0:
256,192,131802,1,0,0:0:0:0:
256,192,131952,1,8,0:0:0:0:
256,192,132252,1,0,0:0:0:0:
256,192,132402,1,8,0:0:0:0:
256,192,132552,1,8,0:0:0:0:
256,192,133002,1,0,0:0:0:0:
256,192,133152,1,8,0:0:0:0:
256,192,133302,1,0,0:0:0:0:
256,192,133452,1,0,0:0:0:0:
256,192,133602,1,8,0:0:0:0:
256,192,133902,1,8,0:0:0:0:
256,192,134052,1,0,0:0:0:0:
256,192,134202,1,8,0:0:0:0:
256,192,134352,1,8,0:0:0:0:
256,192,134502,1,0,0:0:0:0:
256,192,134802,1,8,0:0:0:0:
256,192,134952,1,8,0:0:0:0:
256,192,135402,1,4,0:0:0:0:
256,192,136002,1,8,0:0:0:0:
256,192,136302,1,8,0:0:0:0:
256,192,136452,1,8,0:0:0:0:
256,192,136602,1,0,0:0:0:0:
256,192,136902,1,0,0:0:0:0:
256,192,137202,1,8,0:0:0:0:
256,192,137352,1,8,0:0:0:0:
256,192,137802,1,8,0:0:0:0:
256,192,138102,1,0,0:0:0:0:
256,192,138402,1,8,0:0:0:0:
256,192,138702,1,8,0:0:0:0:
256,192,138852,1,0,0:0:0:0:
256,192,139002,1,0,0:0:0:0:
256,192,139302,1,0,0:0:0:0:
256,192,139602,1,8,0:0:0:0:
256,192,139752,1,8,0:0:0:0:
256,192,140202,1,8,0:0:0:0:
256,192,140652,1,0,0:0:0:0:
256,192,140802,1,8,0:0:0:0:
256,192,141102,1,8,0:0:0:0:
256,192,141402,1,0,0:0:0:0:
256,192,141552,1,8,0:0:0:0:
256,192,141852,1,0,0:0:0:0:
256,192,142002,1,8,0:0:0:0:
256,192,142152,1,8,0:0:0:0:
256,192,142602,1,0,0:0:0:0:
256,192,142752,1,8,0:0:0:0:
256,192,142902,1,0,0:0:0:0:
256,192,143052,1,8,0:0:0:0:
256,192,143202,1,8,0:0:0:0:
256,192,143352,1,0,0:0:0:0:
256,192,143502,1,8,0:0:0:0:
256,192,143652,1,0,0:0:0:0:
256,192,143802,1,0,0:0:0:0:
256,192,144102,1,0,0:0:0:0:
256,192,144402,1,8,0:0:0:0:
256,192,144552,1,8,0:0:0:0:
256,192,145002,1,0,0:0:0:0:
256,192,145602,1,8,0:0:0:0:
256,192,145902,1,8,0:0:0:0:
256,192,146052,1,8,0:0:0:0:
256,192,146202,1,0,0:0:0:0:
256,192,146502,1,0,0:0:0:0:
256,192,146802,1,8,0:0:0:0:
256,192,146952,1,8,0:0:0:0:
256,192,147402,1,8,0:0:0:0:
256,192,147702,1,0,0:0:0:0:
256,192,148002,1,8,0:0:0:0:
256,192,148302,1,8,0:0:0:0:
256,192,148452,1,0,0:0:0:0:
256,192,148602,1,0,0:0:0:0:
256,192,148902,1,0,0:0:0:0:
256,192,149202,1,8,0:0:0:0:
256,192,149352,1,8,0:0:0:0:
256,192,149802,1,8,0:0:0:0:
256,192,150252,1,0,0:0:0:0:
256,192,150402,1,8,0:0:0:0:
256,192,150702,1,8,0:0:0:0:
256,192,151002,1,0,0:0:0:0:
256,192,151152,1,8,0:0:0:0:
256,192,151452,1,0,0:0:0:0:
256,192,151602,1,8,0:0:0:0:
256,192,151752,1,8,0:0:0:0:
256,192,152202,1,0,0:0:0:0:
256,192,152352,1,8,0:0:0:0:
256,192,152502,1,0,0:0:0:0:
256,192,152652,1,0,0:0:0:0:
256,192,152802,1,8,0:0:0:0:
256,192,153102,1,8,0:0:0:0:
256,192,153252,1,0,0:0:0:0:
256,192,153402,1,8,0:0:0:0:
256,192,153552,1,8,0:0:0:0:
256,192,153702,1,0,0:0:0:0:
256,192,154002,1,8,0:0:0:0:
256,192,154152,1,8,0:0:0:0:
256,192,154602,1,8,0:0:0:0:
256,192,154752,1,0,0:0:0:0:
256,192,155052,1,0,0:0:0:0:
256,192,155202,1,8,0:0:0:0:
256,192,155352,1,0,0:0:0:0:
256,192,155502,1,0,0:0:0:0:
256,192,155652,1,8,0:0:0:0:
256,192,155802,1,8,0:0:0:0:
256,192,156102,1,8,0:0:0:0:
256,192,156252,1,0,0:0:0:0:
256,192,156402,1,8,0:0:0:0:
256,192,156552,1,8,0:0:0:0:
256,192,157002,1,8,0:0:0:0:
256,192,157302,1,0,0:0:0:0:
256,192,157602,1,8,0:0:0:0:
256,192,157902,1,8,0:0:0:0:
256,192,158052,1,0,0:0:0:0:
256,192,158202,1,0,0:0:0:0:
256,192,158502,1,0,0:0:0:0:
256,192,158802,1,8,0:0:0:0:
256,192,158952,1,8,0:0:0:0:
256,192,159402,1,8,0:0:0:0:
256,192,159852,1,0,0:0:0:0:
256,192,160002,1,8,0:0:0:0:
256,192,160302,1,8,0:0:0:0:
256,192,160602,1,0,0:0:0:0:
256,192,160752,1,8,0:0:0:0:
256,192,161052,1,0,0:0:0:0:
256,192,161202,1,8,0:0:0:0:
256,192,161352,1,8,0:0:0:0:
256,192,161802,1,8,0:0:0:0:
256,192,162102,1,0,0:0:0:0:
256,192,162252,1,8,0:0:0:0:
256,192,162552,1,0,0:0:0:0:
256,192,162702,1,8,0:0:0:0:
256,192,163002,1,0,0:0:0:0:
256,192,163152,1,8,0:0:0:0:
256,192,163302,1,8,0:0:0:0:
256,192,163452,1,0,0:0:0:0:
256,192,163602,1,8,0:0:0:0:
256,192,163752,1,0,0:0:0:0:
256,192,163902,1,8,0:0:0:0:
256,192,164052,1,8,0:0:0:0:
256,192,164202,1,4,0:0:0:0:
256,192,164502,1,0,0:0:0:0:
256,192,164652,1,0,0:0:0:0:
256,192,164802,1,8,0:0:0:0:
256,192,164952,1,8,0:0:0:0:
256,192,165102,1,0,0:0:0:0:
256,192,165252,1,0,0:0:0:0:
256,192,165402,1,8,0:0:0:0:
256,192,165702,1,0,0:0:0:0:
256,192,165852,1,0,0:0:0:0:
256,192,166002,1,8,0:0:0:0:
256,192,166152,1,0,0:0:0:0:
256,192,166302,1,0,0:0:0:0:
256,192,166452,1,8,0:0:0:0:
256,192,166602,1,0,0:0:0:0:
256,192,166902,1,0,0:0:0:0:
256,192,167052,1,0,0:0:0:0:
256,192,167202,1,8,0:0:0:0:
256,192,167352,1,0,0:0:0:0:
256,192,167502,1,8,0:0:0:0:
256,192,167802,1,0,0:0:0:0:
256,192,167952,1,8,0:0:0:0:
256,192,168102,1,0,0:0:0:0:
256,192,168252,1,0,0:0:0:0:
256,192,168402,1,8,0:0:0:0:
256,192,168552,1,8,0:0:0:0:
256,192,168702,1,0,0:0:0:0:
256,192,168802,1,0,0:0:0:0:
256,192,168902,1,0,0:0:0:0:
256,192,169002,1,12,0:0:0:0:
256,192,169302,1,0,0:0:0:0:
256,192,169452,1,0,0:0:0:0:
256,192,169602,1,8,0:0:0:0:
256,192,169752,1,8,0:0:0:0:
256,192,169902,1,0,0:0:0:0:
256,192,170052,1,8,0:0:0:0:
256,192,170202,1,0,0:0:0:0:
256,192,170502,1,0,0:0:0:0:
256,192,170652,1,0,0:0:0:0:
256,192,170802,1,8,0:0:0:0:
256,192,170952,1,0,0:0:0:0:
256,192,171102,1,8,0:0:0:0:
256,192,171252,1,8,0:0:0:0:
256,192,171402,1,4,0:0:0:0:
256,192,171552,1,8,0:0:0:0:
256,192,171627,1,0,0:0:0:0:
256,192,171702,1,8,0:0:0:0:
256,192,171777,1,8,0:0:0:0:
256,192,171852,1,8,0:0:0:0:
256,192,171927,1,0,0:0:0:0:
256,192,172002,1,8,0:0:0:0:
256,192,172077,1,8,0:0:0:0:
256,192,172152,1,8,0:0:0:0:
256,192,172227,1,0,0:0:0:0:
256,192,172302,1,8,0:0:0:0:
256,192,172377,1,8,0:0:0:0:
256,192,172452,1,8,0:0:0:0:
256,192,172527,1,0,0:0:0:0:
256,192,172602,1,8,0:0:0:0:
256,192,172677,1,8,0:0:0:0:
256,192,172752,1,0,0:0:0:0:
256,192,172827,1,8,0:0:0:0:
256,192,172902,1,0,0:0:0:0:
256,192,172977,1,0,0:0:0:0:
256,192,173052,1,8,0:0:0:0:
256,192,173127,1,8,0:0:0:0:
256,192,173202,1,0,0:0:0:0:
256,192,173277,1,0,0:0:0:0:
256,192,173352,1,8,0:0:0:0:
256,192,173427,1,0,0:0:0:0:
256,192,173502,1,8,0:0:0:0:
256,192,173577,1,8,0:0:0:0:
256,192,173652,1,0,0:0:0:0:
256,192,173802,1,12,0:0:0:0:
256,192,174102,1,0,0:0:0:0:
256,192,174252,1,8,0:0:0:0:
256,192,174402,1,8,0:0:0:0:
256,192,174552,1,0,0:0:0:0:
256,192,174702,1,8,0:0:0:0:
256,192,175002,1,0,0:0:0:0:
256,192,175302,1,0,0:0:0:0:
256,192,175452,1,0,0:0:0:0:
256,192,175602,1,8,0:0:0:0:
256,192,175752,1,0,0:0:0:0:
256,192,175902,1,8,0:0:0:0:
256,192,176002,1,8,0:0:0:0:
256,192,176102,1,8,0:0:0:0:
256,192,176202,1,4,0:0:0:0:
256,192,176502,1,8,0:0:0:0:
256,192,176652,1,0,0:0:0:0:
256,192,176802,1,8,0:0:0:0:
256,192,176952,1,0,0:0:0:0:
256,192,177102,1,8,0:0:0:0:
256,192,177252,1,8,0:0:0:0:
256,192,177552,1,8,0:0:0:0:
256,192,177702,1,0,0:0:0:0:
256,192,177852,1,0,0:0:0:0:
256,192,178002,1,8,0:0:0:0:
256,192,178152,1,0,0:0:0:0:
256,192,178302,1,8,0:0:0:0:
256,192,178452,1,8,0:0:0:0:
256,192,178602,1,4,0:0:0:0:
256,192,178802,1,8,0:0:0:0:
256,192,178902,1,0,0:0:0:0:
256,192,179052,1,8,0:0:0:0:
256,192,179202,1,8,0:0:0:0:
256,192,179352,1,0,0:0:0:0:
256,192,179502,1,0,0:0:0:0:
256,192,179652,1,8,0:0:0:0:
256,192,179802,1,8,0:0:0:0:
256,192,179952,1,8,0:0:0:0:
256,192,180102,1,0,0:0:0:0:
256,192,180252,1,0,0:0:0:0:
256,192,180402,1,8,0:0:0:0:
256,192,180502,1,0,0:0:0:0:
256,192,180602,1,0,0:0:0:0:
256,192,180702,1,8,0:0:0:0:
256,192,180852,1,0,0:0:0:0:
256,192,181002,1,8,0:0:0:0:
256,192,181077,1,0,0:0:0:0:
256,192,181152,1,0,0:0:0:0:
256,192,181227,1,8,0:0:0:0:
256,192,181302,1,0,0:0:0:0:
256,192,181377,1,0,0:0:0:0:
256,192,181452,1,8,0:0:0:0:
256,192,181602,1,8,0:0:0:0:
256,192,181677,1,0,0:0:0:0:
256,192,181752,1,0,0:0:0:0:
256,192,181827,1,0,0:0:0:0:
256,192,181902,1,8,0:0:0:0:
256,192,182002,1,0,0:0:0:0:
256,192,182102,1,0,0:0:0:0:
256,192,182202,1,8,0:0:0:0:
256,192,182352,1,8,0:0:0:0:
256,192,182502,1,0,0:0:0:0:
256,192,182602,1,8,0:0:0:0:
256,192,182702,1,8,0:0:0:0:
256,192,182802,1,8,0:0:0:0:
256,192,182902,1,0,0:0:0:0:
256,192,183002,1,0,0:0:0:0:
256,192,183102,1,8,0:0:0:0:
256,192,183177,1,8,0:0:0:0:
256,192,183252,1,0,0:0:0:0:
256,192,183402,1,12,0:0:0:0:
256,192,183552,1,0,0:0:0:0:
256,192,183627,1,8,0:0:0:0:
256,192,183702,1,8,0:0:0:0:
256,192,183777,1,8,0:0:0:0:
256,192,183852,1,0,0:0:0:0:
256,192,184002,1,8,0:0:0:0:
256,192,184077,1,8,0:0:0:0:
256,192,184152,1,8,0:0:0:0:
256,192,184227,1,0,0:0:0:0:
256,192,184302,1,8,0:0:0:0:
256,192,184377,1,0,0:0:0:0:
256,192,184452,1,0,0:0:0:0:
256,192,184527,1,0,0:0:0:0:
256,192,184602,1,8,0:0:0:0:
256,192,184677,1,0,0:0:0:0:
256,192,184752,1,8,0:0:0:0:
256,192,184902,1,0,0:0:0:0:
256,192,184977,1,8,0:0:0:0:
256,192,185052,1,0,0:0:0:0:
256,192,185202,2,4,L|384:32,1,199.499994672775
256,192,185802,1,12,0:0:0:0:
256,192,185952,1,8,0:0:0:0:
256,192,186102,1,0,0:0:0:0:
256,192,186252,1,0,0:0:0:0:
256,192,186402,1,8,0:0:0:0:
256,192,186552,1,8,0:0:0:0:
256,192,186702,1,0,0:0:0:0:
256,192,186852,1,0,0:0:0:0:
256,192,187002,1,8,0:0:0:0:
256,192,187077,1,8,0:0:0:0:
256,192,187152,1,8,0:0:0:0:
256,192,187227,1,0,0:0:0:0:
256,192,187302,1,8,0:0:0:0:
256,192,187452,1,0,0:0:0:0:
256,192,187602,1,8,0:0:0:0:
256,192,187677,1,8,0:0:0:0:
256,192,187752,1,8,0:0:0:0:
256,192,187827,1,0,0:0:0:0:
256,192,187902,1,8,0:0:0:0:
256,192,188052,1,0,0:0:0:0:
256,192,188202,1,12,0:0:0:0:
256,192,188502,1,8,0:0:0:0:
256,192,188652,1,0,0:0:0:0:
256,192,188802,1,8,0:0:0:0:
256,192,188952,1,0,0:0:0:0:
256,192,189102,1,8,0:0:0:0:
256,192,189252,1,8,0:0:0:0:
256,192,189402,1,8,0:0:0:0:
256,192,189552,1,0,0:0:0:0:
256,192,189702,1,0,0:0:0:0:
256,192,189852,1,8,0:0:0:0:
256,192,190002,1,8,0:0:0:0:
256,192,190152,1,0,0:0:0:0:
256,192,190302,1,8,0:0:0:0:
256,192,190452,1,0,0:0:0:0:
256,192,190602,1,8,0:0:0:0:
256,192,190677,1,8,0:0:0:0:
256,192,190752,1,0,0:0:0:0:
256,192,190827,1,8,0:0:0:0:
256,192,190902,1,0,0:0:0:0:
256,192,190977,1,0,0:0:0:0:
256,192,191052,1,8,0:0:0:0:
256,192,191127,1,8,0:0:0:0:
256,192,191202,1,0,0:0:0:0:
256,192,191277,1,8,0:0:0:0:
256,192,191352,1,0,0:0:0:0:
256,192,191427,1,0,0:0:0:0:
256,192,191502,1,8,0:0:0:0:
256,192,191577,1,8,0:0:0:0:
256,192,191652,1,0,0:0:0:0:
256,192,191727,1,0,0:0:0:0:
256,192,191802,1,8,0:0:0:0:
256,192,191877,1,0,0:0:0:0:
256,192,191952,1,8,0:0:0:0:
256,192,192027,1,8,0:0:0:0:
256,192,192102,1,8,0:0:0:0:
256,192,192177,1,0,0:0:0:0:
256,192,192252,1,8,0:0:0:0:
256,192,192327,1,8,0:0:0:0:
256,192,192402,1,0,0:0:0:0:
256,192,192552,1,0,0:0:0:0:
256,192,192627,1,0,0:0:0:0:
256,192,192702,1,8,0:0:0:0:
256,192,192852,1,0,0:0:0:0:
256,192,193002,1,12,0:0:0:0:
256,192,193152,1,8,0:0:0:0:
256,192,193302,1,8,0:0:0:0:
256,192,193452,1,0,0:0:0:0:
256,192,193602,1,8,0:0:0:0:
256,192,193752,1,8,0:0:0:0:
256,192,193902,1,0,0:0:0:0:
256,192,194052,1,8,0:0:0:0:
256,192,194202,1,8,0:0:0:0:
256,192,194352,1,0,0:0:0:0:
256,192,194502,1,8,0:0:0:0:
256,192,194652,1,0,0:0:0:0:
256,192,194802,1,8,0:0:0:0:
256,192,194952,1,8,0:0:0:0:
256,192,195102,1,0,0:0:0:0:
256,192,195252,1,0,0:0:0:0:
256,192,195402,1,12,0:0:0:0:
256,192,195552,1,0,0:0:0:0:
256,192,195702,1,8,0:0:0:0:
256,192,195852,1,0,0:0:0:0:
256,192,196002,1,8,0:0:0:0:
256,192,196152,1,8,0:0:0:0:
256,192,196302,1,0,0:0:0:0:
256,192,196452,1,0,0:0:0:0:
256,192,196602,1,8,0:0:0:0:
256,192,196752,1,8,0:0:0:0:
256,192,196902,1,0,0:0:0:0:
256,192,197052,1,8,0:0:0:0:
256,192,197202,1,8,0:0:0:0:
256,192,197352,1,0,0:0:0:0:
256,192,197502,1,8,0:0:0:0:
256,192,197652,1,0,0:0:0:0:
256,192,197802,1,12,0:0:0:0:
256,192,197952,1,0,0:0:0:0:
256,192,198102,1,0,0:0:0:0:
256,192,198252,1,8,0:0:0:0:
256,192,198402,1,8,0:0:0:0:
256,192,198552,1,0,0:0:0:0:
256,192,198589,1,0,0:0:0:0:
256,192,198702,1,0,0:0:0:0:
256,192,198739,1,0,0:0:0:0:
256,192,198852,1,0,0:0:0:0:
256,192,198889,1,0,0:0:0:0:
256,192,199002,1,12,0:0:0:0:
256,192,199152,1,0,0:0:0:0:
256,192,199302,1,8,0:0:0:0:
256,192,199452,1,0,0:0:0:0:
256,192,199602,1,8,0:0:0:0:
256,192,199752,1,8,0:0:0:0:
256,192,199789,1,8,0:0:0:0:
256,192,199902,1,8,0:0:0:0:
256,192,199939,1,8,0:0:0:0:
256,192,200052,1,8,0:0:0:0:
256,192,200089,1,8,0:0:0:0:
256,192,200202,1,0,0:0:0:0:
256,192,200277,1,8,0:0:0:0:
256,192,200352,1,0,0:0:0:0:
256,192,200427,1,0,0:0:0:0:
256,192,200502,1,8,0:0:0:0:
256,192,200577,1,0,0:0:0:0:
256,192,200652,1,8,0:0:0:0:
256,192,200727,1,8,0:0:0:0:
256,192,200802,1,0,0:0:0:0:
256,192,200877,1,8,0:0:0:0:
256,192,200952,1,0,0:0:0:0:
256,192,201027,1,0,0:0:0:0:
256,192,201102,1,8,0:0:0:0:
256,192,201177,1,8,0:0:0:0:
256,192,201252,1,0,0:0:0:0:
256,192,201327,1,0,0:0:0:0:
256,192,201402,1,8,0:0:0:0:
256,192,201477,1,0,0:0:0:0:
256,192,201552,1,8,0:0:0:0:
256,192,201627,1,8,0:0:0:0:
256,192,201702,1,0,0:0:0:0:
256,192,201777,1,0,0:0:0:0:
256,192,201852,1,8,0:0:0:0:
256,192,201927,1,0,0:0:0:0:
256,192,202002,1,8,0:0:0:0:
256,192,202152,1,0,0:0:0:0:
256,192,202227,1,0,0:0:0:0:
256,192,202302,1,8,0:0:0:0:
256,192,202377,1,8,0:0:0:0:
256,192,202452,1,8,0:0:0:0:
256,192,202602,1,12,0:0:0:0:
256,192,202752,12,0,204702,0:0:0:0:
256,192,205002,5,8,0:0:0:0:
256,192,205452,1,0,0:0:0:0:
256,192,205902,1,0,0:0:0:0:
256,192,206202,1,8,0:0:0:0:
256,192,206652,1,8,0:0:0:0:
256,192,207102,1,0,0:0:0:0:
256,192,207402,1,8,0:0:0:0:
256,192,207552,12,0,211902,0:0:0:0:
256,192,212202,5,4,0:0:0:0:
256,192,212652,1,0,0:0:0:0:
256,192,213102,1,0,0:0:0:0:
256,192,213402,1,8,0:0:0:0:
256,192,213452,1,8,0:0:0:0:
256,192,213852,1,0,0:0:0:0:
256,192,213902,1,0,0:0:0:0:
256,192,214302,1,0,0:0:0:0:
256,192,214602,1,4,0:0:0:0:
256,192,215052,1,0,0:0:0:0:
256,192,215502,1,8,0:0:0:0:
256,192,215652,1,0,0:0:0:0:
256,192,215802,1,8,0:0:0:0:
256,192,215852,1,8,0:0:0:0:
256,192,215952,1,0,0:0:0:0:
256,192,216102,1,0,0:0:0:0:
256,192,216252,1,8,0:0:0:0:
256,192,216402,1,0,0:0:0:0:
256,192,216552,1,0,0:0:0:0:
256,192,216702,1,8,0:0:0:0:
256,192,216852,1,0,0:0:0:0:
256,192,217002,1,12,0:0:0:0:
256,192,217302,5,0,0:0:0:0:
256,192,217452,1,0,0:0:0:0:
256,192,217602,1,0,0:0:0:0:
256,192,217752,1,0,0:0:0:0:
256,192,217902,1,0,0:0:0:0:
256,192,218052,1,0,0:0:0:0:
256,192,218202,1,0,0:0:0:0:
256,192,218352,1,0,0:0:0:0:
256,192,218502,1,0,0:0:0:0:
256,192,218652,1,0,0:0:0:0:
256,192,218802,1,0,0:0:0:0:
256,192,218952,1,0,0:0:0:0:
256,192,219102,1,0,0:0:0:0:
256,192,219252,1,0,0:0:0:0:
256,192,219402,1,8,0:0:0:0:
256,192,219552,1,8,0:0:0:0:
256,192,219702,1,8,0:0:0:0:
256,192,219852,1,8,0:0:0:0:
256,192,220002,1,8,0:0:0:0:
256,192,220152,1,8,0:0:0:0:
256,192,220302,1,8,0:0:0:0:
256,192,220452,1,8,0:0:0:0:
256,192,220602,1,12,0:0:0:0:
256,192,221802,1,0,0:0:0:0:
256,192,221877,1,0,0:0:0:0:
256,192,221952,1,8,0:0:0:0:
256,192,222027,1,0,0:0:0:0:
256,192,222102,1,8,0:0:0:0:
256,192,222177,1,8,0:0:0:0:
256,192,222252,1,0,0:0:0:0:
256,192,222327,1,0,0:0:0:0:
256,192,222402,1,8,0:0:0:0:
256,192,222477,1,0,0:0:0:0:
256,192,222552,1,8,0:0:0:0:
256,192,222627,1,8,0:0:0:0:
256,192,222702,1,0,0:0:0:0:
256,192,222777,1,0,0:0:0:0:
256,192,222852,1,8,0:0:0:0:
256,192,222927,1,8,0:0:0:0:
256,192,223002,1,8,0:0:0:0:
256,192,223077,1,0,0:0:0:0:
256,192,223152,1,8,0:0:0:0:
256,192,223227,1,0,0:0:0:0:
256,192,223302,1,0,0:0:0:0:
256,192,223377,1,0,0:0:0:0:
256,192,223452,1,8,0:0:0:0:
256,192,223527,1,8,0:0:0:0:
256,192,223602,1,0,0:0:0:0:
256,192,223677,1,0,0:0:0:0:
256,192,223752,1,8,0:0:0:0:
256,192,223827,1,0,0:0:0:0:
256,192,223902,1,8,0:0:0:0:
256,192,223977,1,0,0:0:0:0:
256,192,224052,1,8,0:0:0:0:
256,192,224127,1,8,0:0:0:0:
256,192,224202,1,0,0:0:0:0:
256,192,224277,1,0,0:0:0:0:
256,192,224352,1,8,0:0:0:0:
256,192,224427,1,0,0:0:0:0:
256,192,224502,1,8,0:0:0:0:
256,192,224577,1,8,0:0:0:0:
256,192,224652,1,0,0:0:0:0:
256,192,224727,1,0,0:0:0:0:
256,192,224802,1,8,0:0:0:0:
256,192,224877,1,0,0:0:0:0:
256,192,224952,1,8,0:0:0:0:
256,192,225027,1,8,0:0:0:0:
256,192,225102,1,0,0:0:0:0:
256,192,225177,1,0,0:0:0:0:
256,192,225252,1,8,0:0:0:0:
256,192,225327,1,8,0:0:0:0:
256,192,225402,1,8,0:0:0:0:
256,192,225477,1,0,0:0:0:0:
256,192,225552,1,8,0:0:0:0:
256,192,225627,1,8,0:0:0:0:
256,192,225702,1,0,0:0:0:0:
256,192,225777,1,0,0:0:0:0:
256,192,225852,1,8,0:0:0:0:
256,192,225927,1,0,0:0:0:0:
256,192,226002,1,8,0:0:0:0:
256,192,226152,1,8,0:0:0:0:
256,192,226227,1,8,0:0:0:0:
256,192,226302,1,0,0:0:0:0:
256,192,226377,1,0,0:0:0:0:
256,192,226452,1,8,0:0:0:0:
256,192,226602,1,8,0:0:0:0:
256,192,226677,1,0,0:0:0:0:
256,192,226752,1,8,0:0:0:0:
256,192,226827,1,8,0:0:0:0:
256,192,226902,1,0,0:0:0:0:
256,192,226977,1,8,0:0:0:0:
256,192,227052,1,8,0:0:0:0:
256,192,227202,1,8,0:0:0:0:
256,192,227277,1,0,0:0:0:0:
256,192,227352,1,8,0:0:0:0:
256,192,227427,1,0,0:0:0:0:
256,192,227502,1,0,0:0:0:0:
256,192,227577,1,8,0:0:0:0:
256,192,227652,1,8,0:0:0:0:
256,192,227802,1,8,0:0:0:0:
256,192,227877,1,0,0:0:0:0:
256,192,227952,1,8,0:0:0:0:
256,192,228102,1,0,0:0:0:0:
256,192,228177,1,0,0:0:0:0:
256,192,228252,1,8,0:0:0:0:
256,192,228402,1,0,0:0:0:0:
256,192,228552,1,8,0:0:0:0:
256,192,228702,1,8,0:0:0:0:
256,192,228777,1,0,0:0:0:0:
256,192,228852,1,8,0:0:0:0:
256,192,229002,1,0,0:0:0:0:
256,192,229077,1,0,0:0:0:0:
256,192,229152,1,8,0:0:0:0:
256,192,229227,1,8,0:0:0:0:
256,192,229302,1,0,0:0:0:0:
256,192,229377,1,0,0:0:0:0:
256,192,229452,1,8,0:0:0:0:
256,192,229527,1,8,0:0:0:0:
256,192,229602,1,0,0:0:0:0:
256,192,229677,1,0,0:0:0:0:
256,192,229752,1,8,0:0:0:0:
256,192,229827,1,8,0:0:0:0:
256,192,229902,1,0,0:0:0:0:
256,192,229977,1,8,0:0:0:0:
256,192,230052,1,8,0:0:0:0:
256,192,230127,1,0,0:0:0:0:
256,192,230202,1,8,0:0:0:0:
256,192,230277,1,8,0:0:0:0:
256,192,230352,1,8,0:0:0:0:
256,192,230427,1,8,0:0:0:0:
256,192,230502,1,0,0:0:0:0:
256,192,230577,1,0,0:0:0:0:
256,192,230652,1,8,0:0:0:0:
256,192,230727,1,0,0:0:0:0:
256,192,230802,1,8,0:0:0:0:
256,192,230952,1,0,0:0:0:0:
256,192,231027,1,0,0:0:0:0:
256,192,231102,1,0,0:0:0:0:
256,192,231252,1,0,0:0:0:0:
256,192,231402,1,12,0:0:0:0:
256,192,231552,1,8,0:0:0:0:
256,192,231702,1,0,0:0:0:0:
256,192,231777,1,0,0:0:0:0:
256,192,231852,1,8,0:0:0:0:
256,192,232002,1,0,0:0:0:0:
256,192,232077,1,0,0:0:0:0:
256,192,232152,1,8,0:0:0:0:
256,192,232227,1,8,0:0:0:0:
256,192,232302,1,8,0:0:0:0:
256,192,232377,1,0,0:0:0:0:
256,192,232452,1,8,0:0:0:0:
256,192,232602,1,0,0:0:0:0:
256,192,232752,1,8,0:0:0:0:
256,192,232827,1,8,0:0:0:0:
256,192,232902,1,8,0:0:0:0:
256,192,232977,1,0,0:0:0:0:
256,192,233052,1,8,0:0:0:0:
256,192,233127,1,8,0:0:0:0:
256,192,233202,1,0,0:0:0:0:
256,192,233352,1,8,0:0:0:0:
256,192,233502,1,0,0:0:0:0:
256,192,233577,1,0,0:0:0:0:
256,192,233652,1,8,0:0:0:0:
256,192,233727,1,8,0:0:0:0:
256,192,233802,1,0,0:0:0:0:
256,192,233877,1,8,0:0:0:0:
256,192,233952,1,8,0:0:0:0:
256,192,234027,1,8,0:0:0:0:
256,192,234102,1,0,0:0:0:0:
256,192,234177,1,0,0:0:0:0:
256,192,234252,1,8,0:0:0:0:
256,192,234402,1,8,0:0:0:0:
256,192,234477,1,0,0:0:0:0:
256,192,234552,1,8,0:0:0:0:
256,192,234702,1,0,0:0:0:0:
256,192,234777,1,8,0:0:0:0:
256,192,234852,1,8,0:0:0:0:
256,192,235002,1,0,0:0:0:0:
256,192,235152,1,8,0:0:0:0:
256,192,235227,1,8,0:0:0:0:
256,192,235302,1,0,0:0:0:0:
256,192,235377,1,0,0:0:0:0:
256,192,235452,1,8,0:0:0:0:
256,192,235527,1,8,0:0:0:0:
256,192,235602,1,0,0:0:0:0:
256,192,235677,1,8,0:0:0:0:
256,192,235752,1,8,0:0:0:0:
256,192,235827,1,0,0:0:0:0:
256,192,235902,1,8,0:0:0:0:
256,192,236052,1,8,0:0:0:0:
256,192,236202,1,4,0:0:0:0:
256,192,236352,1,8,0:0:0:0:
256,192,236427,1,0,0:0:0:0:
256,192,236502,1,0,0:0:0:0:
256,192,236577,1,0,0:0:0:0:
256,192,236652,1,8,0:0:0:0:
256,192,236727,1,8,0:0:0:0:
256,192,236802,1,8,0:0:0:0:
256,192,236877,1,0,0:0:0:0:
256,192,236952,1,8,0:0:0:0:
256,192,237027,1,8,0:0:0:0:
256,192,237102,1,0,0:0:0:0:
256,192,237177,1,0,0:0:0:0:
256,192,237252,1,8,0:0:0:0:
256,192,237402,1,8,0:0:0:0:
256,192,237477,1,8,0:0:0:0:
256,192,237552,1,8,0:0:0:0:
256,192,237702,1,0,0:0:0:0:
256,192,237777,1,0,0:0:0:0:
256,192,237852,1,8,0:0:0:0:
256,192,238002,1,0,0:0:0:0:
256,192,238152,1,8,0:0:0:0:
256,192,238227,1,8,0:0:0:0:
256,192,238302,1,0,0:0:0:0:
256,192,238377,1,8,0:0:0:0:
256,192,238452,1,8,0:0:0:0:
256,192,238602,1,0,0:0:0:0:
256,192,238677,1,8,0:0:0:0:
256,192,238752,1,0,0:0:0:0:
256,192,238827,1,0,0:0:0:0:
256,192,238902,1,8,0:0:0:0:
256,192,238977,1,0,0:0:0:0:
256,192,239052,1,0,0:0:0:0:
256,192,239127,1,8,0:0:0:0:
256,192,239202,1,0,0:0:0:0:
256,192,239277,1,0,0:0:0:0:
256,192,239352,1,8,0:0:0:0:
256,192,239427,1,0,0:0:0:0:
256,192,239502,1,8,0:0:0:0:
256,192,239577,1,8,0:0:0:0:
256,192,239652,1,0,0:0:0:0:
256,192,239727,1,0,0:0:0:0:
256,192,239802,1,8,0:0:0:0:
256,192,239877,1,0,0:0:0:0:
256,192,239952,1,8,0:0:0:0:
256,192,240027,1,8,0:0:0:0:
256,192,240102,1,0,0:0:0:0:
256,192,240177,1,8,0:0:0:0:
256,192,240252,1,0,0:0:0:0:
256,192,240327,1,0,0:0:0:0:
256,192,240402,1,8,0:0:0:0:
256,192,240477,1,8,0:0:0:0:
256,192,240552,1,0,0:0:0:0:
256,192,240627,1,8,0:0:0:0:
256,192,240702,1,0,0:0:0:0:
256,192,240777,1,0,0:0:0:0:
256,192,240852,1,8,0:0:0:0:
256,192,240927,1,0,0:0:0:0:
256,192,241002,1,8,0:0:0:0:
256,192,241152,1,8,0:0:0:0:
256,192,241302,1,0,0:0:0:0:
256,192,241377,1,0,0:0:0:0:
256,192,241452,1,8,0:0:0:0:
256,192,241602,1,0,0:0:0:0:
256,192,241752,1,8,0:0:0:0:
256,192,241827,1,0,0:0:0:0:
256,192,241902,1,0,0:0:0:0:
256,192,241977,1,0,0:0:0:0:
256,192,242052,1,8,0:0:0:0:
256,192,242202,1,0,0:0:0:0:
256,192,242352,1,8,0:0:0:0:
256,192,242502,1,0,0:0:0:0:
256,192,242577,1,0,0:0:0:0:
256,192,242652,1,8,0:0:0:0:
256,192,242727,1,0,0:0:0:0:
256,192,242802,1,8,0:0:0:0:
256,192,242952,1,8,0:0:0:0:
256,192,243102,1,0,0:0:0:0:
256,192,243177,1,0,0:0:0:0:
256,192,243252,1,8,0:0:0:0:
256,192,243402,1,8,0:0:0:0:
256,192,243477,1,0,0:0:0:0:
256,192,243552,1,8,0:0:0:0:
256,192,243627,1,8,0:0:0:0:
256,192,243702,1,0,0:0:0:0:
256,192,243777,1,0,0:0:0:0:
256,192,243852,1,8,0:0:0:0:
256,192,243927,1,8,0:0:0:0:
256,192,244002,1,0,0:0:0:0:
256,192,244077,1,0,0:0:0:0:
256,192,244152,1,8,0:0:0:0:
256,192,244227,1,0,0:0:0:0:
256,192,244302,1,0,0:0:0:0:
256,192,244377,1,8,0:0:0:0:
256,192,244452,1,8,0:0:0:0:
256,192,244527,1,8,0:0:0:0:
256,192,244602,1,0,0:0:0:0:
256,192,244752,1,8,0:0:0:0:
256,192,244902,1,0,0:0:0:0:
256,192,244977,1,0,0:0:0:0:
256,192,245052,1,8,0:0:0:0:
256,192,245127,1,8,0:0:0:0:
256,192,245202,1,0,0:0:0:0:
256,192,245352,1,8,0:0:0:0:
256,192,245502,1,8,0:0:0:0:
256,192,245577,1,8,0:0:0:0:
256,192,245652,1,8,0:0:0:0:
256,192,245727,1,8,0:0:0:0:
256,192,245802,1,0,0:0:0:0:
256,192,245952,1,8,0:0:0:0:
256,192,246102,1,0,0:0:0:0:
256,192,246177,1,0,0:0:0:0:
256,192,246252,1,8,0:0:0:0:
256,192,246327,1,0,0:0:0:0:
256,192,246402,1,8,0:0:0:0:
256,192,246477,1,8,0:0:0:0:
256,192,246552,1,8,0:0:0:0:
256,192,246702,1,0,0:0:0:0:
256,192,246777,1,8,0:0:0:0:
256,192,246852,1,8,0:0:0:0:
256,192,246927,1,0,0:0:0:0:
256,192,247002,1,0,0:0:0:0:
256,192,247152,1,8,0:0:0:0:
256,192,247302,1,8,0:0:0:0:
256,192,247377,1,0,0:0:0:0:
256,192,247452,1,8,0:0:0:0:
256,192,247527,1,8,0:0:0:0:
256,192,247602,1,0,0:0:0:0:
256,192,247752,1,8,0:0:0:0:
256,192,247902,1,8,0:0:0:0:
256,192,247977,1,0,0:0:0:0:
256,192,248052,1,8,0:0:0:0:
256,192,248202,1,4,0:0:0:0:
256,192,248352,12,0,249252,0:0:0:0:
256,192,249402,5,12,0:0:0:0:
256,192,249702,1,12,0:0:0:0:
256,192,250002,1,8,0:0:0:0:
256,192,250077,1,0,0:0:0:0:
256,192,250152,1,8,0:0:0:0:
256,192,250227,1,8,0:0:0:0:
256,192,250302,1,0,0:0:0:0:
256,192,250377,1,0,0:0:0:0:
256,192,250452,1,8,0:0:0:0:
256,192,250527,1,8,0:0:0:0:
256,192,250602,1,0,0:0:0:0:
256,192,250752,1,8,0:0:0:0:
256,192,250902,1,8,0:0:0:0:
256,192,250977,1,0,0:0:0:0:
256,192,251052,1,8,0:0:0:0:
256,192,251127,1,8,0:0:0:0:
256,192,251202,1,0,0:0:0:0:
256,192,251352,1,8,0:0:0:0:
256,192,251427,1,0,0:0:0:0:
256,192,251502,1,8,0:0:0:0:
256,192,251577,1,0,0:0:0:0:
256,192,251652,1,8,0:0:0:0:
256,192,251802,1,0,0:0:0:0:
256,192,251952,1,8,0:0:0:0:
256,192,252102,1,0,0:0:0:0:
256,192,252177,1,8,0:0:0:0:
256,192,252252,1,8,0:0:0:0:
256,192,252327,1,0,0:0:0:0:
256,192,252402,1,8,0:0:0:0:
256,192,252552,1,8,0:0:0:0:
256,192,252627,1,8,0:0:0:0:
256,192,252702,1,0,0:0:0:0:
256,192,252777,1,0,0:0:0:0:
256,192,252852,1,8,0:0:0:0:
256,192,252927,1,0,0:0:0:0:
256,192,253002,1,8,0:0:0:0:
256,192,253077,1,8,0:0:0:0:
256,192,253152,1,0,0:0:0:0:
256,192,253227,1,8,0:0:0:0:
256,192,253302,1,0,0:0:0:0:
256,192,253377,1,0,0:0:0:0:
256,192,253452,1,8,0:0:0:0:
256,192,253527,1,0,0:0:0:0:
256,192,253602,1,8,0:0:0:0:
256,192,253677,1,8,0:0:0:0:
256,192,253752,1,0,0:0:0:0:
256,192,253827,1,8,0:0:0:0:
256,192,253902,1,8,0:0:0:0:
256,192,253977,1,0,0:0:0:0:
256,192,254052,1,8,0:0:0:0:
256,192,254127,1,8,0:0:0:0:
256,192,254202,1,0,0:0:0:0:
256,192,254277,1,0,0:0:0:0:
256,192,254352,1,8,0:0:0:0:
256,192,254502,1,0,0:0:0:0:
256,192,254577,1,8,0:0:0:0:
256,192,254652,1,8,0:0:0:0:
256,192,254802,1,0,0:0:0:0:
256,192,254952,1,8,0:0:0:0:
256,192,255102,1,0,0:0:0:0:
256,192,255177,1,0,0:0:0:0:
256,192,255252,1,8,0:0:0:0:
256,192,255402,1,4,0:0:0:0:
256,192,255552,1,8,0:0:0:0:
256,192,255627,1,0,0:0:0:0:
256,192,255702,1,0,0:0:0:0:
256,192,255777,1,8,0:0:0:0:
256,192,255852,1,8,0:0:0:0:
256,192,255927,1,8,0:0:0:0:
256,192,256002,1,0,0:0:0:0:
256,192,256077,1,0,0:0:0:0:
256,192,256152,1,8,0:0:0:0:
256,192,256227,1,8,0:0:0:0:
256,192,256302,1,0,0:0:0:0:
256,192,256377,1,0,0:0:0:0:
256,192,256452,1,8,0:0:0:0:
256,192,256602,1,4,0:0:0:0:
256,192,256752,1,8,0:0:0:0:
256,192,256827,1,0,0:0:0:0:
256,192,256902,1,0,0:0:0:0:
256,192,256977,1,0,0:0:0:0:
256,192,257052,1,8,0:0:0:0:
256,192,257127,1,0,0:0:0:0:
256,192,257202,1,8,0:0:0:0:
256,192,257277,1,8,0:0:0:0:
256,192,257352,1,0,0:0:0:0:
256,192,257427,1,8,0:0:0:0:
256,192,257502,1,0,0:0:0:0:
256,192,257577,1,0,0:0:0:0:
256,192,257652,1,8,0:0:0:0:
256,192,257802,1,8,0:0:0:0:
256,192,257952,1,0,0:0:0:0:
256,192,258027,1,8,0:0:0:0:
256,192,258102,1,0,0:0:0:0:
256,192,258252,1,0,0:0:0:0:
256,192,258402,2,0,L|64:64,1,210
256,192,259002,1,0,0:0:0:0:
256,192,259077,1,0,0:0:0:0:
256,192,259152,1,8,0:0:0:0:
256,192,259227,1,8,0:0:0:0:
256,192,259302,1,0,0:0:0:0:
256,192,259377,1,8,0:0:0:0:
256,192,259452,1,8,0:0:0:0:
256,192,259527,1,0,0:0:0:0:
256,192,259602,1,8,0:0:0:0:
256,192,259677,1,0,0:0:0:0:
256,192,259752,1,0,0:0:0:0:
256,192,259827,1,8,0:0:0:0:
256,192,259902,5,0,0:0:0:0:
256,192,259977,1,0,0:0:0:0:
256,192,260052,1,8,0:0:0:0:
256,192,260202,1,4,0:0:0:0:
256,192,260352,12,0,261252,0:0:0:0:
256,192,261402,6,0,L|256:128,12,35
256,192,262602,5,4,0:0:0:0:
256,192,262752,1,8,0:0:0:0:
256,192,262902,1,0,0:0:0:0:
256,192,262977,1,0,0:0:0:0:
256,192,263052,1,8,0:0:0:0:
256,192,263127,1,0,0:0:0:0:
256,192,263202,1,8,0:0:0:0:
256,192,263352,1,8,0:0:0:0:
256,192,263502,1,0,0:0:0:0:
256,192,263577,1,0,0:0:0:0:
256,192,263652,1,8,0:0:0:0:
256,192,263727,1,8,0:0:0:0:
256,192,263802,1,0,0:0:0:0:
256,192,263877,1,0,0:0:0:0:
256,192,263952,1,8,0:0:0:0:
256,192,264102,1,0,0:0:0:0:
256,192,264177,1,0,0:0:0:0:
256,192,264252,1,8,0:0:0:0:
256,192,264327,1,0,0:0:0:0:
256,192,264402,1,0,0:0:0:0:
256,192,264477,1,0,0:0:0:0:
256,192,264552,5,8,0:0:0:0:
256,192,264702,1,8,0:0:0:0:
256,192,264777,1,8,0:0:0:0:
256,192,264852,1,8,0:0:0:0:
256,192,264927,1,8,0:0:0:0:
256,192,265002,1,0,0:0:0:0:
256,192,265152,1,8,0:0:0:0:
256,192,265302,1,0,0:0:0:0:
256,192,265377,1,0,0:0:0:0:
256,192,265452,1,8,0:0:0:0:
256,192,265527,1,0,0:0:0:0:
256,192,265602,1,0,0:0:0:0:
256,192,265752,1,8,0:0:0:0:
256,192,265827,1,8,0:0:0:0:
256,192,265902,1,0,0:0:0:0:
256,192,265977,1,0,0:0:0:0:
256,192,266052,1,8,0:0:0:0:
256,192,266202,1,0,0:0:0:0:
256,192,266352,1,8,0:0:0:0:
256,192,266502,1,0,0:0:0:0:
256,192,266577,1,0,0:0:0:0:
256,192,266652,1,8,0:0:0:0:
256,192,266802,1,0,0:0:0:0:
256,192,266952,1,8,0:0:0:0:
256,192,267102,1,0,0:0:0:0:
256,192,267177,1,0,0:0:0:0:
256,192,267252,1,8,0:0:0:0:
256,192,267327,1,8,0:0:0:0:
256,192,267402,1,0,0:0:0:0:
256,192,267477,1,0,0:0:0:0:
256,192,267552,1,8,0:0:0:0:
256,192,267627,1,0,0:0:0:0:
256,192,267702,1,8,0:0:0:0:
256,192,267777,1,8,0:0:0:0:
256,192,267852,1,0,0:0:0:0:
256,192,267927,1,0,0:0:0:0:
256,192,268002,1,8,0:0:0:0:
256,192,268152,1,0,0:0:0:0:
256,192,268227,1,8,0:0:0:0:
256,192,268302,1,8,0:0:0:0:
256,192,268377,1,8,0:0:0:0:
256,192,268452,1,0,0:0:0:0:
256,192,268527,1,0,0:0:0:0:
256,192,268602,1,8,0:0:0:0:
256,192,268677,1,8,0:0:0:0:
256,192,268752,1,0,0:0:0:0:
256,192,268827,1,0,0:0:0:0:
256,192,268902,1,8,0:0:0:0:
256,192,268977,1,0,0:0:0:0:
256,192,269052,1,0,0:0:0:0:
256,192,269127,1,0,0:0:0:0:
256,192,269202,1,8,0:0:0:0:
256,192,269352,2,0,L|128:96,1,140
256,192,269802,1,4,0:0:0:0:
256,192,269952,1,8,0:0:0:0:
256,192,270027,1,0,0:0:0:0:
256,192,270102,1,0,0:0:0:0:
256,192,270177,1,0,0:0:0:0:
256,192,270252,1,8,0:0:0:0:
256,192,270327,1,0,0:0:0:0:
256,192,270402,1,0,0:0:0:0:
256,192,270477,1,0,0:0:0:0:
256,192,270552,1,8,0:0:0:0:
256,192,270627,1,0,0:0:0:0:
256,192,270702,1,8,0:0:0:0:
256,192,270777,1,0,0:0:0:0:
256,192,270852,1,8,0:0:0:0:
256,192,270927,1,8,0:0:0:0:
256,192,271002,1,0,0:0:0:0:
256,192,271152,1,8,0:0:0:0:
256,192,271227,1,0,0:0:0:0:
256,192,271302,1,0,0:0:0:0:
256,192,271377,1,0,0:0:0:0:
256,192,271452,1,8,0:0:0:0:
256,192,271527,1,0,0:0:0:0:
256,192,271602,1,0,0:0:0:0:
256,192,271677,1,0,0:0:0:0:
256,192,271752,1,8,0:0:0:0:
256,192,271827,1,8,0:0:0:0:
256,192,271902,1,0,0:0:0:0:
256,192,271977,1,0,0:0:0:0:
256,192,272052,1,8,0:0:0:0:
256,192,272202,1,4,0:0:0:0:
256,192,272352,1,8,0:0:0:0:
256,192,272502,1,0,0:0:0:0:
256,192,272577,1,0,0:0:0:0:
256,192,272652,1,8,0:0:0:0:
256,192,272802,1,0,0:0:0:0:
256,192,272952,1,8,0:0:0:0:
256,192,273027,1,8,0:0:0:0:
256,192,273102,1,0,0:0:0:0:
256,192,273177,1,0,0:0:0:0:
256,192,273252,1,8,0:0:0:0:
256,192,273402,1,4,0:0:0:0:
256,192,273552,1,8,0:0:0:0:
256,192,273702,1,0,0:0:0:0:
256,192,273777,1,0,0:0:0:0:
256,192,273852,1,8,0:0:0:0:
256,192,274002,1,0,0:0:0:0:
256,192,274152,1,8,0:0:0:0:
256,192,274302,1,8,0:0:0:0:
256,192,274377,1,0,0:0:0:0:
256,192,274452,1,8,0:0:0:0:
256,192,274602,1,4,0:0:0:0:
256,192,274752,1,8,0:0:0:0:
256,192,274827,1,0,0:0:0:0:
256,192,274902,1,0,0:0:0:0:
256,192,274977,1,0,0:0:0:0:
256,192,275052,1,8,0:0:0:0:
256,192,275127,1,0,0:0:0:0:
256,192,275202,1,0,0:0:0:0:
256,192,275277,1,0,0:0:0:0:
256,192,275352,1,8,0:0:0:0:
256,192,275427,1,8,0:0:0:0:
256,192,275502,1,0,0:0:0:0:
256,192,275577,1,0,0:0:0:0:
256,192,275652,1,8,0:0:0:0:
256,192,275727,1,8,0:0:0:0:
256,192,275802,1,0,0:0:0:0:
256,192,275952,1,8,0:0:0:0:
256,192,276027,1,0,0:0:0:0:
256,192,276102,1,0,0:0:0:0:
256,192,276177,1,0,0:0:0:0:
256,192,276252,1,8,0:0:0:0:
256,192,276327,1,0,0:0:0:0:
256,192,276402,1,0,0:0:0:0:
256,192,276477,1,0,0:0:0:0:
256,192,276552,1,8,0:0:0:0:
256,192,276627,1,8,0:0:0:0:
256,192,276702,1,0,0:0:0:0:
256,192,276777,1,0,0:0:0:0:
256,192,276852,1,8,0:0:0:0:
256,192,277002,1,4,0:0:0:0:
256,192,277152,1,8,0:0:0:0:
256,192,277302,1,0,0:0:0:0:
256,192,277377,1,0,0:0:0:0:
256,192,277452,1,8,0:0:0:0:
256,192,277602,1,0,0:0:0:0:
256,192,277752,1,8,0:0:0:0:
256,192,277827,1,8,0:0:0:0:
256,192,277902,1,0,0:0:0:0:
256,192,277977,1,0,0:0:0:0:
256,192,278052,1,8,0:0:0:0:
256,192,278202,1,8,0:0:0:0:
256,192,278277,1,8,0:0:0:0:
256,192,278352,1,0,0:0:0:0:
256,192,278502,1,8,0:0:0:0:
256,192,278652,1,8,0:0:0:0:
256,192,278727,1,8,0:0:0:0:
256,192,278802,1,0,0:0:0:0:
256,192,278877,1,8,0:0:0:0:
256,192,278952,1,8,0:0:0:0:
256,192,279027,1,0,0:0:0:0:
256,192,279102,1,0,0:0:0:0:
256,192,279177,1,8,0:0:0:0:
256,192,279252,1,0,0:0:0:0:
256,192,279402,1,4,0:0:0:0:
256,192,279552,1,8,0:0:0:0:
256,192,279702,1,0,0:0:0:0:
256,192,279777,1,0,0:0:0:0:
256,192,279852,1,8,0:0:0:0:
256,192,279927,1,0,0:0:0:0:
256,192,280002,1,0,0:0:0:0:
256,192,280152,1,8,0:0:0:0:
256,192,280302,1,8,0:0:0:0:
256,192,280377,1,0,0:0:0:0:
256,192,280452,1,8,0:0:0:0:
256,192,280527,1,8,0:0:0:0:
256,192,280602,1,0,0:0:0:0:
256,192,280752,1,8,0:0:0:0:
256,192,280902,1,0,0:0:0:0:
256,192,280977,1,0,0:0:0:0:
256,192,281052,1,8,0:0:0:0:
256,192,281127,1,8,0:0:0:0:
256,192,281202,1,0,0:0:0:0:
256,192,281352,1,8,0:0:0:0:
256,192,281502,1,0,0:0:0:0:
256,192,281577,1,0,0:0:0:0:
256,192,281652,1,8,0:0:0:0:
256,192,281802,1,4,0:0:0:0:
256,192,281952,1,8,0:0:0:0:
256,192,282102,1,0,0:0:0:0:
256,192,282177,1,0,0:0:0:0:
256,192,282252,1,8,0:0:0:0:
256,192,282327,1,0,0:0:0:0:
256,192,282402,1,8,0:0:0:0:
256,192,282552,1,8,0:0:0:0:
256,192,282702,1,0,0:0:0:0:
256,192,282777,1,0,0:0:0:0:
256,192,282852,1,8,0:0:0:0:
256,192,283002,1,0,0:0:0:0:
256,192,283152,1,8,0:0:0:0:
256,192,283227,1,8,0:0:0:0:
256,192,283302,1,0,0:0:0:0:
256,192,283377,1,0,0:0:0:0:
256,192,283452,1,8,0:0:0:0:
256,192,283602,1,0,0:0:0:0:
256,192,283752,1,8,0:0:0:0:
256,192,283902,1,0,0:0:0:0:
256,192,284052,1,0,0:0:0:0:
256,192,284202,1,8,0:0:0:0:
256,192,284277,1,0,0:0:0:0:
256,192,284352,1,8,0:0:0:0:
256,192,284427,1,8,0:0:0:0:
256,192,284502,1,0,0:0:0:0:
256,192,284577,1,0,0:0:0:0:
256,192,284652,1,8,0:0:0:0:
256,192,284727,1,8,0:0:0:0:
256,192,284802,1,0,0:0:0:0:
256,192,284877,1,0,0:0:0:0:
256,192,284952,1,8,0:0:0:0:
256,192,285027,1,0,0:0:0:0:
256,192,285102,1,0,0:0:0:0:
256,192,285177,1,0,0:0:0:0:
256,192,285252,1,8,0:0:0:0:
256,192,285327,1,0,0:0:0:0:
256,192,285402,1,0,0:0:0:0:
256,192,285477,1,0,0:0:0:0:
256,192,285552,1,8,0:0:0:0:
256,192,285627,1,8,0:0:0:0:
256,192,285702,1,0,0:0:0:0:
256,192,285777,1,0,0:0:0:0:
256,192,285852,1,8,0:0:0:0:
256,192,285927,1,8,0:0:0:0:
256,192,286002,1,0,0:0:0:0:
256,192,286077,1,0,0:0:0:0:
256,192,286152,1,8,0:0:0:0:
256,192,286227,1,0,0:0:0:0:
256,192,286302,1,0,0:0:0:0:
256,192,286377,1,0,0:0:0:0:
256,192,286452,1,8,0:0:0:0:
256,192,286602,1,12,0:0:0:0:
256,192,286752,1,0,0:0:0:0:
256,192,286902,1,12,0:0:0:0:
256,192,287052,1,0,0:0:0:0:
256,192,287202,1,12,0:0:0:0:
256,192,287352,1,0,0:0:0:0:
256,192,287502,1,12,0:0:0:0:
256,192,287652,1,0,0:0:0:0:
256,192,287802,1,12,0:0:0:0:
256,192,287952,1,0,0:0:0:0:
256,192,288027,1,0,0:0:0:0:
256,192,288102,1,8,0:0:0:0:
256,192,288177,1,8,0:0:0:0:
256,192,288252,1,0,0:0:0:0:
256,192,288327,1,0,0:0:0:0:
256,192,288402,1,8,0:0:0:0:
256,192,288477,1,8,0:0:0:0:
256,192,288552,1,0,0:0:0:0:
256,192,288627,1,8,0:0:0:0:
256,192,288702,1,8,0:0:0:0:
256,192,288777,1,8,0:0:0:0:
256,192,288852,1,0,0:0:0:0:
256,192,289002,1,4,0:0:0:0:
256,192,289152,1,8,0:0:0:0:
256,192,289302,1,8,0:0:0:0:
256,192,289377,1,0,0:0:0:0:
256,192,289452,1,8,0:0:0:0:
256,192,289527,1,8,0:0:0:0:
256,192,289602,1,0,0:0:0:0:
256,192,289752,1,8,0:0:0:0:
256,192,289827,1,0,0:0:0:0:
256,192,289902,1,0,0:0:0:0:
256,192,289977,1,0,0:0:0:0:
256,192,290052,1,8,0:0:0:0:
256,192,290202,1,0,0:0:0:0:
256,192,290352,1,8,0:0:0:0:
256,192,290427,1,8,0:0:0:0:
256,192,290502,1,0,0:0:0:0:
256,192,290577,1,0,0:0:0:0:
256,192,290652,1,8,0:0:0:0:
256,192,290802,1,0,0:0:0:0:
256,192,290952,1,8,0:0:0:0:
256,192,291102,1,0,0:0:0:0:
256,192,291177,1,0,0:0:0:0:
256,192,291252,1,8,0:0:0:0:
256,192,291327,1,8,0:0:0:0:
256,192,291402,1,0,0:0:0:0:
256,192,291552,1,8,0:0:0:0:
256,192,291702,1,8,0:0:0:0:
256,192,291777,1,0,0:0:0:0:
256,192,291852,1,8,0:0:0:0:
256,192,291927,1,0,0:0:0:0:
256,192,292002,1,0,0:0:0:0:
256,192,292152,1,8,0:0:0:0:
256,192,292227,1,0,0:0:0:0:
256,192,292302,1,0,0:0:0:0:
256,192,292377,1,0,0:0:0:0:
256,192,292452,1,8,0:0:0:0:
256,192,292527,1,0,0:0:0:0:
256,192,292602,1,0,0:0:0:0:
256,192,292752,1,8,0:0:0:0:
256,192,292902,1,8,0:0:0:0:
256,192,292977,1,0,0:0:0:0:
256,192,293052,1,8,0:0:0:0:
256,192,293202,1,8,0:0:0:0:
256,192,293277,1,8,0:0:0:0:
256,192,293352,1,0,0:0:0:0:
256,192,293427,1,0,0:0:0:0:
256,192,293502,1,8,0:0:0:0:
256,192,293577,1,0,0:0:0:0:
256,192,293652,1,0,0:0:0:0:
256,192,293802,1,4,0:0:0:0:
256,192,293952,1,8,0:0:0:0:
256,192,294102,1,8,0:0:0:0:
256,192,294177,1,0,0:0:0:0:
256,192,294252,1,8,0:0:0:0:
256,192,294327,1,8,0:0:0:0:
256,192,294402,1,0,0:0:0:0:
256,192,294552,1,8,0:0:0:0:
256,192,294627,1,0,0:0:0:0:
256,192,294702,1,0,0:0:0:0:
256,192,294777,1,0,0:0:0:0:
256,192,294852,1,8,0:0:0:0:
256,192,295002,1,0,0:0:0:0:
256,192,295152,1,8,0:0:0:0:
256,192,295227,1,8,0:0:0:0:
256,192,295302,1,0,0:0:0:0:
256,192,295377,1,0,0:0:0:0:
256,192,295452,1,8,0:0:0:0:
256,192,295602,1,0,0:0:0:0:
256,192,295752,1,8,0:0:0:0:
256,192,295902,1,0,0:0:0:0:
256,192,295977,1,0,0:0:0:0:
256,192,296052,1,8,0:0:0:0:
256,192,296127,1,8,0:0:0:0:
256,192,296202,1,0,0:0:0:0:
256,192,296352,1,8,0:0:0:0:
256,192,296502,1,0,0:0:0:0:
256,192,296577,1,0,0:0:0:0:
256,192,296652,1,8,0:0:0:0:
256,192,296727,1,0,0:0:0:0:
256,192,296802,1,8,0:0:0:0:
256,192,296952,1,8,0:0:0:0:
256,192,297027,1,8,0:0:0:0:
256,192,297102,1,0,0:0:0:0:
256,192,297177,1,0,0:0:0:0:
256,192,297252,1,8,0:0:0:0:
256,192,297327,1,8,0:0:0:0:
256,192,297402,1,0,0:0:0:0:
256,192,297552,1,8,0:0:0:0:
256,192,297702,1,0,0:0:0:0:
256,192,297777,1,8,0:0:0:0:
256,192,297852,1,0,0:0:0:0:
256,192,298002,1,8,0:0:0:0:
256,192,298152,1,8,0:0:0:0:
256,192,298227,1,8,0:0:0:0:
256,192,298302,1,0,0:0:0:0:
256,192,298452,1,8,0:0:0:0:
256,192,298602,1,4,0:0:0:0:
256,192,299052,1,4,0:0:0:0:
256,192,299502,1,4,0:0:0:0:
256,192,299952,1,0,0:0:0:0:
256,192,300102,1,0,0:0:0:0:
256,192,300252,1,0,0:0:0:0:
256,192,300402,1,0,0:0:0:0:
256,192,300552,1,0,0:0:0:0:
256,192,301002,1,12,0:0:0:0:
256,192,301302,1,12,0:0:0:0:
256,192,301452,2,4,L|0:64,1,280
