osu file format v14

[General]
AudioFilename: audio.mp3
AudioLeadIn: 0
PreviewTime: 268624
Countdown: 0
SampleSet: Normal
StackLeniency: 0.2
Mode: 0
LetterboxInBreaks: 0
WidescreenStoryboard: 1

[Editor]
Bookmarks: 14824,17224,46024,65224,77824,97024,116224,120874,135424,221824,241024,260224
DistanceSpacing: 0.2
BeatDivisor: 8
GridSize: 32
TimelineZoom: 2.500004

[Metadata]
Title:Extraction Zone
TitleUnicode:Extraction Zone
Artist:DragonForce
ArtistUnicode:DragonForce
Creator:Kloyd
Version:Legend
Source:
Tags:rice Herman Li deathstream extra insane speedmetal Maximum Overload callionet Intensity english
BeatmapID:2246145
BeatmapSetID:1073266

[Difficulty]
HPDrainRate:5.5
CircleSize:5
OverallDifficulty:8
ApproachRate:8
SliderMultiplier:1.6
SliderTickRate:1

[Events]
//Background and Video events
0,0,"bg.png",0,0
//Break Periods
//Storyboard Layer 0 (Background)
//Storyboard Layer 1 (Fail)
//Storyboard Layer 2 (Pass)
//Storyboard Layer 3 (Foreground)
//Storyboard Layer 4 (Overlay)
//Storyboard Sound Samples

[TimingPoints]
304,300,4,1,0,60,1,0
304,-200,4,1,0,60,0,0
4504,-200,4,1,0,70,0,0
5104,-100,4,1,0,80,0,0
14704,-100,4,1,0,80,0,0
17104,-100,4,1,0,80,0,0
43504,291.26213592233,4,1,0,75,1,0
43795,300,4,1,0,75,1,0
45595,309.278350515464,4,1,0,75,1,0
45749,-100,4,1,0,80,0,1
45904,300,4,1,0,80,1,1
62779,-100,4,1,0,60,0,1
63154,-100,4,1,0,80,0,1
63229,-100,4,1,0,60,0,1
63604,-100,4,1,0,80,0,1
63679,-100,4,1,0,60,0,1
63904,-100,4,1,0,80,0,1
63979,-100,4,1,0,60,0,1
65104,-100,4,1,0,80,0,0
73654,297.029702970297,4,1,0,70,1,0
73802,297.029702970297,4,1,0,70,1,0
74693,303.79746835443,4,1,0,60,1,0
75604,300,4,1,0,60,1,0
76504,-133.333333333333,4,1,0,60,0,0
76804,-133.333333333333,4,1,0,50,0,0
77104,-200,4,1,0,60,0,0
77704,300,4,1,0,70,1,0
77704,-100,4,1,0,80,0,0
96754,-100,4,1,0,80,0,1
113779,-100,4,1,0,60,0,1
114154,-100,4,1,0,80,0,1
114229,-100,4,1,0,60,0,1
114604,-100,4,1,0,80,0,1
114679,-100,4,1,0,60,0,1
116104,600,4,1,0,75,1,0
125712,600,4,2,0,40,1,0
126762,-100,4,2,0,30,0,0
126912,-100,4,2,0,50,0,0
129162,-100,4,2,0,30,0,0
129312,-100,4,2,0,50,0,0
133362,-100,4,2,0,30,0,0
133512,-100,4,2,0,50,0,0
136362,-100,4,2,0,30,0,0
136512,-100,4,2,0,50,0,0
138162,-100,4,2,0,30,0,0
138312,-100,4,2,0,50,0,0
138762,-100,4,2,0,30,0,0
138912,-100,4,2,0,50,0,0
140562,-100,4,2,0,30,0,0
140712,-100,4,2,0,50,0,0
143412,-100,4,2,0,30,0,0
143562,-100,4,2,0,50,0,0
145962,-100,4,2,0,30,0,0
146112,-100,4,2,0,50,0,0
148362,-100,4,2,0,30,0,0
148512,-100,4,2,0,50,0,0
150162,-100,4,2,0,30,0,0
150312,-100,4,2,0,50,0,0
152562,-100,4,2,0,30,0,0
152712,-100,4,2,0,50,0,0
157362,-100,4,2,0,30,0,0
157512,-100,4,2,0,50,0,0
161706,300,4,1,0,70,1,0
162156,-100,4,1,0,60,0,0
162606,287.081339712919,4,1,0,70,1,0
162606,-100,4,1,0,50,0,0
163180,320.855614973262,4,1,0,70,1,0
163500,303.030303030303,4,1,0,70,1,0
163500,-100,4,1,0,60,0,0
163803,-100,4,1,0,70,0,0
164106,300,4,1,0,80,1,0
164106,-100,4,1,0,80,0,0
171381,-100,4,1,0,60,0,0
171756,-100,4,1,0,80,0,0
171831,-100,4,1,0,60,0,0
172206,-100,4,1,0,80,0,0
172281,-100,4,1,0,60,0,0
172506,-100,4,1,0,80,0,0
172581,-100,4,1,0,60,0,0
172806,-100,4,1,0,80,0,0
172881,-100,4,1,0,60,0,0
173106,-100,4,1,0,80,0,0
173181,-100,4,1,0,60,0,0
173406,-100,4,1,0,80,0,0
173481,-100,4,1,0,60,0,0
173706,-100,4,1,0,80,0,0
180906,-100,4,1,0,80,0,0
180981,-100,4,1,0,60,0,0
181356,-100,4,1,0,80,0,0
181431,-100,4,1,0,60,0,0
181806,-100,4,1,0,80,0,0
182706,285.714285714286,4,1,0,80,1,0
183306,300,4,1,0,80,1,0
183306,-100,4,1,0,80,0,0
183381,-100,4,1,0,60,0,0
183906,-100,4,1,0,80,0,0
183981,-100,4,1,0,60,0,0
184506,-100,4,1,0,80,0,0
184581,-100,4,1,0,60,0,0
185106,-100,4,1,0,80,0,0
190506,-100,4,1,0,80,0,0
190581,-100,4,1,0,60,0,0
190956,-100,4,1,0,80,0,0
191031,-100,4,1,0,60,0,0
191406,-100,4,1,0,80,0,0
191481,-100,4,1,0,60,0,0
191856,-100,4,1,0,80,0,0
191931,-100,4,1,0,60,0,0
192306,-100,4,1,0,80,0,0
200106,-100,4,1,0,80,0,0
200181,-100,4,1,0,60,0,0
200556,-100,4,1,0,80,0,0
200631,-100,4,1,0,60,0,0
201006,-100,4,1,0,80,0,0
201081,-100,4,1,0,60,0,0
201456,-100,4,1,0,80,0,0
201531,-100,4,1,0,60,0,0
201906,-100,4,1,0,80,0,0
201981,-100,4,1,0,60,0,0
202206,-100,4,1,0,80,0,0
202281,-100,4,1,0,60,0,0
202506,600,4,1,0,80,1,0
213304,-100,4,1,0,50,0,0
213754,-100,4,1,0,60,0,0
214204,-100,4,1,0,70,0,0
215704,-100,4,1,0,50,0,0
216154,-100,4,1,0,60,0,0
216604,-100,4,1,0,70,0,0
216896,300,4,1,0,50,1,0
217196,-100,4,1,0,50,0,0
217496,-100,4,1,0,55,0,0
218096,-100,4,1,0,60,0,0
218696,-100,4,1,0,65,0,0
219296,-100,4,1,0,70,0,0
219896,-100,4,1,0,75,0,0
220496,-100,4,1,0,80,0,0
221696,-100,4,1,0,80,0,1
238496,-100,4,1,0,80,0,1
238571,-100,4,1,0,60,0,1
238946,-100,4,1,0,80,0,1
239021,-100,4,1,0,60,0,1
239396,-100,4,1,0,80,0,1
239471,-100,4,1,0,60,0,1
239696,-100,4,1,0,80,0,1
239771,-100,4,1,0,60,0,1
239996,-100,4,1,0,80,0,1
240071,-100,4,1,0,60,0,1
240296,-100,4,1,0,80,0,1
240371,-100,4,1,0,60,0,1
240596,-100,4,1,0,80,0,1
240671,-100,4,1,0,60,0,1
240896,-100,4,1,0,80,0,1
258896,-100,4,1,0,80,0,1
258971,-100,4,1,0,60,0,1
259346,-100,4,1,0,80,0,1
259421,-100,4,1,0,60,0,1
259796,-100,4,1,0,80,0,1
259871,-100,4,1,0,60,0,1
260096,-100,4,1,0,60,0,0
262346,-100,4,1,0,80,0,0
267296,-100,4,1,0,80,0,0
267371,-100,4,1,0,60,0,0
267746,-100,4,1,0,80,0,0
267821,-100,4,1,0,60,0,0
268196,-100,4,1,0,80,0,0
268271,-100,4,1,0,60,0,0
268496,-100,4,1,0,80,0,0
268571,-100,4,1,0,60,0,0
268796,-100,4,1,0,80,0,0
268871,-100,4,1,0,60,0,0
269096,-100,4,1,0,80,0,0
269171,-100,4,1,0,60,0,0
269396,-100,4,1,0,80,0,0
269471,-100,4,1,0,60,0,0
269546,-100,4,1,0,80,0,1
287696,-100,4,1,0,80,0,1
287771,-100,4,1,0,60,0,1
288896,-100,4,1,0,80,0,0
299846,-100,4,1,0,70,0,0
300146,-100,4,1,0,60,0,0
300446,-100,4,1,0,50,0,0
300896,-100,4,1,0,80,0,0
301946,-100,4,1,0,5,0,0

[Colours]
Combo1 : 224,224,224
Combo2 : 122,122,122
Combo3 : 87,87,87
Combo4 : 188,188,188

[HitObjects]
0,47,304,6,0,P|54:35|131:29,1,120,4|0,1:0|1:0,0:0:0:0:
176,84,904,2,0,P|179:123|164:160,1,80,0|0,1:0|1:0,0:0:0:0:
29,245,1504,5,4,1:0:0:0:
118,29,2104,1,4,1:0:0:0:
260,214,2704,5,4,1:0:0:0:
180,204,3004,1,0,1:0:0:0:
105,231,3304,1,0,1:0:0:0:
59,296,3604,1,0,1:0:0:0:
47,375,3904,6,0,L|173:358,1,120,4|0,1:0|1:0,0:0:0:0:
184,365,4429,1,0,1:0:0:0:
201,373,4504,2,0,P|177:308|202:244,1,140,4|0,1:0|0:0,0:0:0:0:
266,194,5104,5,4,1:0:0:0:
266,194,5254,2,2,P|343:204|421:234,1,160,0|2,0:0|0:0,0:0:0:0:
490,195,5704,2,0,P|498:233|498:284,1,80,2|0,0:0|0:0,0:0:0:0:
438,327,6004,2,0,P|400:314|365:295,1,80,2|0,0:0|0:0,0:0:0:0:
432,79,6304,5,6,0:0:0:0:
432,79,6454,1,0,0:0:0:0:
432,79,6604,2,2,P|470:92|505:111,1,80,0|2,0:0|0:0,0:0:0:0:
498,274,6904,5,2,0:0:0:0:
498,274,7054,1,0,0:0:0:0:
397,339,7204,1,0,0:0:0:0:
359,323,7279,1,0,0:0:0:0:
333,292,7354,1,2,0:0:0:0:
321,253,7429,1,0,0:0:0:0:
327,212,7504,6,0,P|338:174|356:139,1,80,6|0,0:0|0:0,0:0:0:0:
280,112,7804,2,0,P|268:73|250:38,1,80,2|0,0:0|0:0,0:0:0:0:
172,21,8104,1,2,0:0:0:0:
127,87,8254,1,0,0:0:0:0:
46,91,8404,2,0,P|28:56|24:17,1,80,2|0,0:0|0:0,0:0:0:0:
24,17,8629,1,0,0:0:0:0:
24,17,8704,5,6,0:0:0:0:
103,25,8854,1,0,0:0:0:0:
138,96,9004,2,2,P|130:135|124:181,1,80,0|2,0:0|0:0,0:0:0:0:
120,335,9304,5,6,0:0:0:0:
120,335,9379,1,0,0:0:0:0:
120,335,9454,1,0,0:0:0:0:
120,335,9529,1,0,0:0:0:0:
120,335,9604,2,0,L|32:353,1,80,2|0,0:0|0:0,0:0:0:0:
4,195,9904,5,4,0:0:0:0:
4,195,10054,2,2,P|81:198|128:259,1,160,0|2,0:0|0:0,0:0:0:0:
207,268,10504,2,0,P|205:311|196:354,1,80,2|0,0:0|0:0,0:0:0:0:
118,362,10804,1,2,0:0:0:0:
43,333,10954,1,0,0:0:0:0:
68,175,11104,5,6,0:0:0:0:
68,175,11254,1,0,0:0:0:0:
68,174,11404,2,2,P|81:137|99:101,1,80,0|2,0:0|0:0,0:0:0:0:
206,17,11704,5,2,0:0:0:0:
206,17,11854,1,0,0:0:0:0:
240,132,12004,1,0,0:0:0:0:
269,159,12079,1,0,0:0:0:0:
307,168,12154,1,2,0:0:0:0:
345,158,12229,1,0,0:0:0:0:
370,125,12304,2,0,P|367:86|361:46,1,80,6|0,0:0|0:0,0:0:0:0:
291,6,12604,6,0,P|284:45|289:84,1,80,2|0,0:0|0:0,0:0:0:0:
356,125,12904,2,0,P|325:99|288:84,1,80,6|0,0:0|0:0,0:0:0:0:
220,123,13204,2,0,P|257:109|288:84,1,80,2|0,0:0|0:0,0:0:0:0:
370,19,13504,5,4,0:0:0:0:
370,19,13654,1,4,0:0:0:0:
496,222,14104,1,4,0:0:0:0:
496,222,14254,1,4,0:0:0:0:
314,379,14704,5,4,0:0:0:0:
256,192,14779,12,0,16804,2:0:0:0:
373,39,16954,5,0,0:0:0:0:
373,39,17104,2,0,P|388:79|397:121,1,80,4|2,0:0|0:0,0:0:0:0:
466,153,17404,2,0,P|458:195|445:236,1,80,0|2,0:0|0:0,0:0:0:0:
451,311,17704,1,2,0:0:0:0:
376,283,17854,1,0,0:0:0:0:
318,339,18004,2,2,P|281:351|241:351,1,80,0|2,0:0|0:0,0:0:0:0:
124,324,18304,5,4,0:0:0:0:
52,287,18454,2,0,P|53:325|63:371,1,80,2|0,0:0|0:0,0:0:0:0:
173,275,18754,2,2,P|122:215|45:205,1,160,4|0,0:0|0:0,0:0:0:0:
45,205,19129,1,0,0:0:0:0:
45,205,19204,1,0,0:0:0:0:
0,143,19354,1,0,0:0:0:0:
22,24,19504,6,0,P|61:17|101:15,1,80,4|2,0:0|0:0,0:0:0:0:
126,91,19804,2,0,P|165:89|205:81,1,80,0|2,0:0|0:0,0:0:0:0:
255,20,20104,2,2,P|228:94|235:173,1,160,0|0,0:0|0:0,0:0:0:0:
235,173,20554,1,2,0:0:0:0:
216,291,20704,5,4,0:0:0:0:
289,258,20854,2,2,P|348:259|423:332,1,160,0|2,0:0|0:0,0:0:0:0:
420,323,21229,1,0,0:0:0:0:
420,323,21304,1,4,0:0:0:0:
343,347,21454,1,2,0:0:0:0:
285,243,21604,1,6,0:0:0:0:
380,169,21754,1,0,0:0:0:0:
380,169,21904,6,0,P|416:177|458:184,1,80,4|2,0:0|0:0,0:0:0:0:
508,121,22204,1,0,0:0:0:0:
476,47,22354,1,2,0:0:0:0:
400,20,22504,2,0,P|399:62|407:109,1,80,2|0,0:0|0:0,0:0:0:0:
415,179,22804,2,2,P|374:167|327:162,1,80,0|2,0:0|0:0,0:0:0:0:
257,72,23104,5,4,0:0:0:0:
193,122,23254,2,0,P|154:118|115:108,1,80,2|0,0:0|0:0,0:0:0:0:
0,26,23554,2,2,P|39:94|28:175,1,160,4|2,0:0|0:0,0:0:0:0:
108,160,24004,1,2,0:0:0:0:
74,232,24154,1,0,0:0:0:0:
249,329,24304,5,4,0:0:0:0:
249,329,24379,1,0,0:0:0:0:
249,329,24454,1,0,0:0:0:0:
249,329,24529,1,0,0:0:0:0:
249,329,24604,1,2,0:0:0:0:
237,249,24754,1,2,0:0:0:0:
395,225,24904,5,4,0:0:0:0:
395,225,24979,1,0,0:0:0:0:
395,225,25054,1,0,0:0:0:0:
395,225,25129,1,0,0:0:0:0:
395,225,25204,1,2,0:0:0:0:
315,237,25354,1,2,0:0:0:0:
292,78,25504,5,4,0:0:0:0:
292,78,25579,1,0,0:0:0:0:
292,78,25654,1,0,0:0:0:0:
292,78,25729,1,0,0:0:0:0:
292,78,25804,1,2,0:0:0:0:
304,158,25954,1,2,0:0:0:0:
144,178,26104,5,4,0:0:0:0:
144,178,26179,1,0,0:0:0:0:
144,178,26254,1,0,0:0:0:0:
144,178,26329,1,0,0:0:0:0:
144,178,26404,2,0,L|200:171,1,40,2|0,0:0|0:0,0:0:0:0:
223,167,26554,2,0,L|230:223,1,40,2|0,0:0|0:0,0:0:0:0:
235,266,26704,5,4,0:0:0:0:
173,316,26854,1,2,0:0:0:0:
92,314,27004,2,0,P|56:299|27:271,1,80,0|2,0:0|0:0,0:0:0:0:
3,194,27304,1,2,0:0:0:0:
27,117,27454,1,0,0:0:0:0:
7,39,27604,2,0,L|91:27,1,80,0|2,0:0|0:0,0:0:0:0:
205,6,27904,5,4,0:0:0:0:
243,75,28054,2,2,P|315:44|394:51,1,160,0|2,0:0|0:0,0:0:0:0:
469,22,28504,2,0,L|456:101,1,80,2|0,0:0|0:0,0:0:0:0:
456,101,28729,1,0,0:0:0:0:
456,101,28804,1,4,0:0:0:0:
389,144,28954,1,0,0:0:0:0:
483,217,29104,6,0,P|489:256|491:309,1,80,4|2,0:0|0:0,0:0:0:0:
496,376,29404,2,0,P|460:357|419:358,1,80,0|2,0:3|0:0,0:0:0:0:
358,307,29704,1,2,0:0:0:0:
334,383,29854,1,0,0:0:0:0:
260,351,30004,1,2,0:0:0:0:
188,384,30154,1,2,0:0:0:0:
127,280,30304,5,4,0:0:0:0:
96,353,30454,2,2,P|46:352|0:258,1,160,0|2,0:0|0:0,0:0:0:0:
13,185,30904,2,0,P|12:146|-9:94,2,80,2|0|4,0:0|0:0|0:0,0:0:0:0:
129,213,31354,1,0,0:0:0:0:
129,213,31429,1,0,0:0:0:0:
129,213,31504,6,0,P|113:249|112:289,1,80,4|2,0:0|0:0,0:0:0:0:
164,349,31804,1,0,0:0:0:0:
232,307,31954,1,2,0:0:0:0:
231,227,32104,1,2,0:0:0:0:
231,227,32254,1,0,0:0:0:0:
306,201,32404,1,2,0:0:0:0:
306,201,32554,1,2,0:0:0:0:
309,331,32704,5,4,0:0:0:0:
356,265,32854,2,0,P|395:271|430:290,1,80,2|0,0:0|0:0,0:0:0:0:
462,363,33154,2,2,P|454:290|505:212,1,160,4|2,0:0|0:0,0:0:0:0:
508,138,33604,1,2,0:0:0:0:
508,138,33679,1,0,0:0:0:0:
508,138,33754,1,0,0:0:0:0:
389,245,33904,5,4,0:0:0:0:
389,245,33979,1,0,0:0:0:0:
389,245,34054,1,0,0:0:0:0:
389,245,34129,1,0,0:0:0:0:
389,245,34204,1,2,0:0:0:0:
427,174,34354,1,2,0:0:0:0:
299,77,34504,5,4,0:0:0:0:
299,77,34579,1,0,0:0:0:0:
299,77,34654,1,0,0:0:0:0:
299,77,34729,1,0,0:0:0:0:
299,77,34804,1,2,0:0:0:0:
377,90,34954,1,2,0:0:0:0:
246,220,35104,5,4,0:0:0:0:
246,220,35179,1,0,0:0:0:0:
246,220,35254,1,0,0:0:0:0:
246,220,35329,1,0,0:0:0:0:
246,220,35404,1,2,0:0:0:0:
233,139,35554,1,2,0:0:0:0:
377,90,35704,5,4,0:0:0:0:
389,245,35854,1,0,0:0:0:0:
389,245,35929,1,0,0:0:0:0:
389,245,36004,1,0,0:0:0:0:
233,139,36154,1,0,0:0:0:0:
319,169,36304,6,0,P|396:164|445:102,1,160,6|0,0:0|0:0,0:0:0:0:
428,23,36754,1,2,0:0:0:0:
348,11,36904,2,0,P|308:12|258:27,1,80,2|0,0:0|0:0,0:0:0:0:
192,0,37204,2,2,P|193:40|208:90,1,80,0|2,0:0|0:0,0:0:0:0:
244,147,37504,1,4,0:0:0:0:
286,214,37654,2,0,P|285:253|274:292,1,80,2|0,0:0|0:0,0:0:0:0:
225,355,37954,1,6,0:0:0:0:
190,240,38104,5,0,0:0:0:0:
130,344,38254,1,0,0:0:0:0:
130,344,38329,1,0,0:0:0:0:
130,344,38404,1,0,0:0:0:0:
112,225,38554,1,0,0:0:0:0:
55,330,38704,5,6,0:0:0:0:
55,330,38854,1,0,0:0:0:0:
13,259,39004,2,2,P|12:220|23:182,1,80,0|2,0:0|0:0,0:0:0:0:
76,122,39304,1,2,0:0:0:0:
134,177,39454,1,0,0:0:0:0:
206,142,39604,1,0,0:0:0:0:
269,190,39754,1,2,0:0:0:0:
381,146,39904,5,4,0:0:0:0:
381,146,40054,2,0,L|475:138,1,80,2|0,0:0|0:0,0:0:0:0:
310,80,40354,2,2,P|350:147|351:226,1,160,4|2,0:0|0:0,0:0:0:0:
340,265,40729,1,0,0:0:0:0:
320,299,40804,1,2,0:0:0:0:
285,319,40879,1,0,0:0:0:0:
245,318,40954,1,0,0:0:0:0:
213,292,41029,1,0,0:0:0:0:
202,252,41104,6,0,P|204:213|215:174,1,80,6|0,0:0|0:0,0:0:0:0:
286,137,41404,2,0,P|284:97|273:58,1,80,2|0,0:0|0:0,0:0:0:0:
217,0,41704,1,0,0:0:0:0:
167,62,41854,1,2,0:0:0:0:
110,118,42004,2,0,P|70:118|33:104,1,80,0|2,0:0|0:0,0:0:0:0:
0,31,42304,2,0,P|27:90|22:186,2,160,6|2|6,0:0|0:0|0:0,0:0:0:0:
0,31,43054,1,0,0:0:0:0:
77,12,43204,1,6,0:0:0:0:
110,118,43354,1,0,0:0:0:0:
110,118,43429,1,0,0:0:0:0:
110,118,43504,5,6,0:0:0:0:
0,289,43650,1,0,0:0:0:0:
0,192,43794,1,0,0:0:0:0:
0,192,43870,1,0,0:0:0:0:
0,192,43945,2,0,L|45:206,1,40
115,225,44095,5,4,0:0:0:0:
186,153,44245,1,0,1:0:0:0:
186,153,44320,1,0,1:0:0:0:
186,153,44395,1,0,1:0:0:0:
186,153,44470,1,0,1:0:0:0:
186,153,44545,2,0,L|232:158,1,40,0|0,1:0|1:0,1:0:0:0:
300,237,44695,5,4,0:0:0:0:
329,120,44845,1,0,0:0:0:0:
446,93,44995,1,6,0:0:0:0:
479,115,45070,1,0,0:0:0:0:
492,152,45145,1,0,0:0:0:0:
489,191,45220,1,0,0:0:0:0:
458,216,45295,2,0,L|413:224,3,40,6|0|0|0,0:0|0:0|0:0|0:0,0:0:0:0:
362,255,45595,2,0,P|357:274|358:293,1,40,6|0,0:0|0:0,0:0:0:0:
388,368,45749,1,0,0:0:0:0:
388,368,45826,1,0,0:0:0:0:
388,368,45904,6,0,P|352:357|301:368,1,80,6|0,0:0|0:0,0:0:0:0:
196,364,46204,1,0,0:0:0:0:
170,333,46279,1,0,0:0:0:0:
131,321,46354,1,0,0:0:0:0:
91,326,46429,1,0,0:0:0:0:
63,355,46504,1,0,0:0:0:0:
29,332,46579,1,0,0:0:0:0:
20,292,46654,1,0,0:0:0:0:
37,255,46729,1,0,0:0:0:0:
70,233,46804,1,2,0:0:0:0:
156,98,46954,6,0,L|166:261,1,160,6|0,0:0|0:0,0:0:0:0:
236,295,47404,1,0,0:0:0:0:
274,282,47479,1,0,0:0:0:0:
312,290,47554,1,0,0:0:0:0:
341,317,47629,1,0,0:0:0:0:
355,354,47704,1,0,0:0:0:0:
392,368,47779,1,0,0:0:0:0:
431,362,47854,1,0,0:0:0:0:
457,331,47929,1,0,0:0:0:0:
462,291,48004,1,4,0:0:0:0:
438,214,48154,1,2,0:0:0:0:
413,122,48304,6,0,P|453:119|490:106,1,80,6|0,0:0|0:0,0:0:0:0:
475,26,48604,2,0,P|435:29|397:42,1,80,2|0,0:0|0:0,0:0:0:0:
332,90,48904,2,2,P|267:47|188:47,1,160,4|2,0:0|0:0,0:0:0:0:
68,24,49354,6,2,L|93:188,1,160,4|0,0:0|0:0,0:0:0:0:
32,235,49804,1,6,0:0:0:0:
8,267,49879,1,0,0:0:0:0:
1,306,49954,1,0,0:0:0:0:
3,345,50029,1,0,0:0:0:0:
20,380,50104,2,0,L|59:370,3,40,6|0|0|0,0:0|0:0|0:0|0:0,0:0:0:0:
121,380,50404,2,0,L|160:370,1,40,6|0,0:0|0:0,0:0:0:0:
221,381,50554,6,0,P|199:306|219:229,1,160,6|0,0:0|0:0,0:0:0:0:
299,237,51004,1,0,0:0:0:0:
334,255,51079,1,0,0:0:0:0:
372,244,51154,1,0,0:0:0:0:
396,212,51229,1,0,0:0:0:0:
398,172,51304,1,0,0:0:0:0:
382,134,51379,1,0,0:0:0:0:
392,95,51454,1,0,0:0:0:0:
427,77,51529,1,0,0:0:0:0:
465,86,51604,1,6,0:0:0:0:
469,204,51754,6,0,P|401:164|322:156,1,160,6|0,0:0|0:0,0:0:0:0:
250,192,52204,1,0,0:0:0:0:
210,185,52279,1,0,0:0:0:0:
170,192,52354,1,0,0:0:0:0:
144,223,52429,1,0,0:0:0:0:
132,261,52504,1,0,0:0:0:0:
98,282,52579,1,0,0:0:0:0:
58,286,52654,1,0,0:0:0:0:
24,264,52729,1,0,0:0:0:0:
12,225,52804,1,4,0:0:0:0:
11,143,52954,1,2,0:0:0:0:
67,37,53104,6,0,P|76:75|77:115,1,80,6|0,0:0|0:0,0:0:0:0:
11,143,53404,2,0,P|1:104|0:64,1,80,2|0,0:0|0:0,0:0:0:0:
67,37,53704,2,2,P|135:76|214:74,1,160,4|2,0:0|0:0,0:0:0:0:
287,41,54154,2,0,L|279:91,1,40,2|0,0:0|0:0,0:0:0:0:
267,159,54304,5,4,0:0:0:0:
267,159,54379,1,0,0:0:0:0:
267,159,54454,1,0,0:0:0:0:
278,238,54604,1,0,0:0:0:0:
384,133,54754,5,4,0:0:0:0:
384,133,54829,1,0,0:0:0:0:
384,133,54904,1,0,0:0:0:0:
395,212,55054,1,0,0:0:0:0:
501,107,55204,5,4,0:0:0:0:
501,107,55279,1,0,0:0:0:0:
501,107,55354,2,0,L|493:157,1,40
484,210,55504,5,6,0:0:0:0:
506,286,55654,1,0,0:0:0:0:
444,338,55804,2,0,P|405:333|369:316,1,80,2|0,0:0|0:0,0:0:0:0:
356,237,56104,2,2,P|342:315|300:382,1,160,4|2,0:0|0:0,0:0:0:0:
193,325,56554,6,0,P|116:317|52:362,2,160,6|2|2,0:0|0:0|0:0,0:0:0:0:
265,362,57304,1,0,0:0:0:0:
253,282,57454,1,0,0:0:0:0:
253,282,57529,1,0,0:0:0:0:
253,282,57604,1,2,0:0:0:0:
241,202,57754,1,0,0:0:0:0:
176,302,57904,6,2,P|98:287|18:286,1,160,4|2,0:0|0:0,0:0:0:0:
20,207,58354,2,0,P|40:135|5:50,1,160,6|2,0:0|0:0,0:0:0:0:
11,57,58804,1,4,0:0:0:0:
122,13,58954,6,0,P|125:54|113:91,1,80,2|0,0:0|0:0,0:0:0:0:
42,123,59254,2,0,P|76:99|114:90,1,80,2|0,0:0|0:0,0:0:0:0:
176,135,59554,1,6,0:0:0:0:
176,135,59704,2,0,P|138:117|112:88,1,80
201,6,60004,2,0,P|232:32|250:67,1,80,6|0,0:0|0:3,0:3:0:0:
257,187,60304,6,0,P|298:127|386:99,1,160,6|2,0:0|0:0,0:0:0:0:
417,29,60754,2,2,P|474:83|496:159,1,160,4|2,0:0|0:0,0:0:0:0:
446,222,61204,1,0,0:0:0:0:
383,271,61354,2,0,P|344:259|299:251,1,80,6|0,0:0|0:0,0:0:0:0:
236,291,61654,1,2,0:0:0:0:
300,337,61804,1,0,0:0:0:0:
379,339,61954,2,0,P|364:257|357:168,2,160,6|2|0,0:0|0:0|0:0,0:0:0:0:
461,251,62704,5,6,0:0:0:0:
474,288,62779,1,0,0:0:0:0:
472,327,62854,2,0,P|459:348|437:365,3,40
408,352,63154,5,6,0:0:0:0:
368,345,63229,1,0,0:0:0:0:
331,361,63304,2,0,P|308:361|280:353,3,40
257,334,63604,2,0,P|234:334|206:342,3,40,6|0|0|0,0:0|0:0|0:0|0:0,0:0:0:0:
182,358,63904,5,4,0:0:0:0:
143,348,63979,1,0,0:0:0:0:
103,343,64054,1,0,0:0:0:0:
63,348,64129,1,0,0:0:0:0:
28,368,64204,1,6,0:0:0:0:
45,331,64279,1,0,0:0:0:0:
50,291,64354,1,0,0:0:0:0:
44,251,64429,1,0,0:0:0:0:
16,222,64504,2,0,L|22:174,3,40,6|0|0|0,0:0|0:0|0:0|0:0,0:0:0:0:
48,153,64804,2,0,L|42:105,3,40,6|0|0|0,0:0|0:0|0:0|0:0,0:0:0:0:
34,49,65104,5,4,0:0:0:0:
116,136,65254,1,0,0:0:0:0:
151,22,65404,2,0,P|192:28|234:30,1,80
309,16,65704,1,0,0:0:0:0:
385,37,65854,1,0,0:0:0:0:
463,19,66004,1,0,0:0:0:0:
463,19,66154,6,2,P|496:90|495:170,1,160,4|2,0:0|0:0,0:0:0:0:
415,160,66604,1,0,0:0:0:0:
337,140,66754,2,2,P|255:148|179:163,1,160,4|2,0:0|0:0,0:0:0:0:
105,131,67204,1,2,0:0:0:0:
153,194,67354,1,0,0:0:0:0:
126,310,67504,5,4,0:0:0:0:
75,200,67654,1,0,0:0:0:0:
5,300,67804,2,0,P|6:339|16:378,1,80
96,372,68104,1,0,0:0:0:0:
175,364,68254,2,0,P|213:372|261:375,1,80
373,368,68554,6,2,P|424:308|435:230,1,160,4|2,0:0|0:0,0:0:0:0:
464,156,69004,1,0,0:0:0:0:
374,191,69154,1,2,0:0:0:0:
374,191,69229,1,0,0:0:0:0:
374,191,69304,1,4,0:0:0:0:
293,178,69454,1,2,0:0:0:0:
279,100,69604,1,6,0:0:0:0:
351,62,69754,1,0,0:0:0:0:
408,118,69904,2,0,P|447:118|483:100,1,80,4|0,0:0|0:0,0:0:0:0:
393,18,70204,6,0,P|323:50|303:125,1,160
326,202,70654,2,0,L|236:187,1,80
126,194,70954,6,2,P|75:253|68:332,1,160,0|2,0:0|0:0,0:0:0:0:
131,381,71404,1,0,0:0:0:0:
131,381,71554,2,2,P|182:321|189:242,1,160,0|2,0:0|0:0,0:0:0:0:
242,182,72004,1,0,0:0:0:0:
308,227,72154,1,0,0:0:0:0:
290,345,72304,5,0,0:0:0:0:
380,265,72454,1,0,0:0:0:0:
404,381,72604,2,0,P|442:371|482:368,1,80
500,290,72904,1,0,0:0:0:0:
463,218,73054,2,0,P|424:228|384:231,1,80
275,283,73354,6,2,P|196:262|117:268,1,160,0|2,0:0|0:0,0:0:0:0:
82,280,73729,1,0,0:0:0:0:
52,307,73802,1,2,0:0:0:0:
39,344,73876,1,0,0:0:0:0:
49,382,73950,1,0,0:0:0:0:
87,371,74024,1,0,0:0:0:0:
116,343,74099,6,0,P|123:325|127:305,3,40,0|0|2|0,0:0|0:0|0:0|0:0,0:0:0:0:
116,267,74396,1,2,0:0:0:0:
106,228,74470,1,0,0:0:0:0:
119,190,74544,1,0,0:0:0:0:
149,164,74618,1,0,0:0:0:0:
184,148,74693,6,0,P|111:178|33:171,1,160,4|0,0:0|2:0,0:0:0:0:
95,1,75148,2,0,P|158:48|191:120,1,160,4|0,0:0|2:0,0:0:0:0:
12,153,75604,2,0,P|21:74|67:9,1,160,4|0,0:0|2:0,0:0:0:0:
67,9,76054,5,0,0:0:0:0:
134,52,76204,1,0,0:0:0:0:
212,34,76354,1,0,0:0:0:0:
282,71,76504,6,0,L|275:131,1,60.0000022888184,0|0,0:0|0:0,0:0:0:0:
223,181,76804,2,0,L|230:241,1,60.0000022888184,0|0,0:0|0:0,0:0:0:0:
293,262,77104,6,0,L|288:306,1,40,0|0,2:0|2:0,2:0:0:0:
230,327,77404,6,0,L|238:368,1,40,0|0,2:0|2:0,2:0:0:0:
358,373,77704,5,4,0:0:0:0:
425,330,77854,1,2,0:0:0:0:
502,350,78004,2,0,P|509:308|505:261,1,80,0|2,0:0|0:0,0:0:0:0:
482,194,78304,1,2,0:0:0:0:
482,194,78454,1,0,0:0:0:0:
406,166,78604,1,2,0:0:0:0:
338,209,78754,1,0,0:0:0:0:
290,144,78904,5,4,0:0:0:0:
320,28,79054,2,2,P|396:6|475:17,1,160
487,137,79504,1,6,0:0:0:0:
423,185,79654,1,0,0:0:0:0:
423,185,79729,1,0,0:0:0:0:
423,185,79804,1,0,0:0:0:0:
343,177,79954,1,0,0:0:0:0:
262,88,80104,6,0,P|269:128|270:172,1,80,4|2,0:0|0:0,0:0:0:0:
259,247,80404,1,0,0:0:0:0:
193,293,80554,1,2,0:0:0:0:
114,279,80704,1,2,0:0:0:0:
114,279,80854,1,0,0:0:0:0:
35,265,81004,1,0,0:0:0:0:
22,343,81154,1,2,0:0:0:0:
100,356,81304,5,4,0:0:0:0:
193,292,81454,2,2,P|203:214|169:143,1,160,0|2,0:0|0:0,0:0:0:0:
188,64,81904,2,0,P|153:46|113:40,1,80,6|0,0:0|0:0,0:0:0:0:
37,63,82204,1,6,0:0:0:0:
37,63,82279,1,0,0:0:0:0:
37,63,82354,1,0,0:0:0:0:
16,181,82504,6,0,P|47:161|97:153,1,80,4|2,0:0|0:0,0:0:0:0:
161,117,82804,1,0,0:0:0:0:
141,194,82954,1,2,0:0:0:0:
76,240,83104,1,2,0:0:0:0:
11,104,83254,1,0,0:0:0:0:
11,104,83404,2,2,L|93:111,1,80,0|2,0:0|0:0,0:0:0:0:
199,59,83704,5,4,0:0:0:0:
264,159,83854,1,2,0:0:0:0:
380,128,84004,1,0,0:0:0:0:
306,97,84154,1,6,0:0:0:0:
222,221,84304,5,0,0:0:0:0:
325,160,84454,1,0,0:0:0:0:
436,205,84604,1,0,0:0:0:0:
411,281,84754,1,0,0:0:0:0:
299,235,84904,5,4,0:0:0:0:
299,235,84979,1,0,0:0:0:0:
299,235,85054,1,0,0:0:0:0:
299,235,85129,1,0,0:0:0:0:
299,235,85204,1,2,0:0:0:0:
260,165,85354,1,2,0:0:0:0:
228,355,85504,5,4,0:0:0:0:
228,355,85579,1,0,0:0:0:0:
228,355,85654,1,0,0:0:0:0:
228,355,85729,1,0,0:0:0:0:
228,355,85804,1,2,0:0:0:0:
298,316,85954,1,2,0:0:0:0:
108,284,86104,5,4,0:0:0:0:
108,284,86179,1,0,0:0:0:0:
108,284,86254,1,0,0:0:0:0:
108,284,86329,1,0,0:0:0:0:
108,284,86404,1,2,0:0:0:0:
147,354,86554,1,2,0:0:0:0:
179,164,86704,5,4,0:0:0:0:
179,164,86779,1,0,0:0:0:0:
179,164,86854,1,0,0:0:0:0:
179,164,86929,1,0,0:0:0:0:
179,164,87004,1,2,0:0:0:0:
109,203,87154,1,2,0:0:0:0:
3,142,87304,6,2,P|5:65|63:14,1,160,4|0,0:0|0:0,0:0:0:0:
136,47,87754,1,2,0:0:0:0:
215,36,87904,2,0,P|231:72|237:111,1,80,2|0,0:0|0:0,0:0:0:0:
269,184,88204,1,0,0:0:0:0:
209,237,88354,1,2,0:0:0:0:
98,189,88504,5,4,0:0:0:0:
29,232,88654,2,2,P|-4:302|4:381,1,160,0|2,0:0|0:0,0:0:0:0:
76,345,89104,1,0,0:0:0:0:
146,382,89254,1,0,0:0:0:0:
146,382,89329,1,0,0:0:0:0:
146,382,89404,2,0,L|226:372,1,80,4|0,0:0|0:0,0:0:0:0:
332,317,89704,5,6,0:0:0:0:
407,344,89854,1,0,0:0:0:0:
476,303,90004,2,0,P|481:264|482:218,1,80,0|2,0:3|0:0,0:0:0:0:
509,147,90304,2,0,P|473:129|433:129,1,80,2|0,0:0|0:0,0:0:0:0:
362,166,90604,1,2,0:0:0:0:
292,205,90754,1,2,0:0:0:0:
186,146,90904,5,4,0:0:0:0:
186,146,91054,2,2,P|165:78|218:6,1,160,0|2,0:0|0:0,0:0:0:0:
291,15,91504,1,0,0:0:0:0:
322,88,91654,1,0,0:0:0:0:
352,114,91729,1,0,0:0:0:0:
391,120,91804,1,4,0:0:0:0:
428,106,91879,1,0,0:0:0:0:
457,78,91954,1,0,0:0:0:0:
461,38,92029,1,0,0:0:0:0:
441,3,92104,6,0,P|401:9|366:28,1,80,6|0,0:0|0:0,0:0:0:0:
291,15,92404,2,0,P|267:47|255:85,1,80,2|0,0:0|0:0,0:0:0:0:
185,125,92704,1,2,0:0:0:0:
223,195,92854,1,0,0:0:0:0:
226,274,93004,1,2,0:0:0:0:
173,333,93154,1,2,0:0:0:0:
53,346,93304,6,0,L|30:183,2,160,6|2|6,0:0|0:0|0:0,0:0:0:0:
126,313,94054,1,0,0:0:0:0:
196,350,94204,1,2,0:0:0:0:
265,310,94354,1,0,0:0:0:0:
377,350,94504,5,4,0:0:0:0:
459,263,94654,1,2,0:0:0:0:
459,263,94729,1,0,0:0:0:0:
459,263,94804,2,0,P|462:302|450:340,1,80,4|0,0:0|0:0,0:0:0:0:
307,361,95104,5,4,0:0:0:0:
298,180,95254,1,2,0:0:0:0:
357,270,95404,1,4,0:0:0:0:
357,270,95479,1,0,0:0:0:0:
357,270,95554,1,0,0:0:0:0:
210,335,95704,5,4,0:0:0:0:
152,229,95854,1,0,0:0:0:0:
152,229,95929,1,0,0:0:0:0:
152,229,96004,2,0,P|138:266|140:306,1,80,2|0,0:0|0:0,0:0:0:0:
270,244,96304,2,0,P|271:205|260:167,1,80,6|0,0:0|0:0,0:0:0:0:
235,135,96529,1,0,0:0:0:0:
199,117,96604,2,0,L|156:132,1,40,0|0,0:0|0:0,0:0:0:0:
85,162,96754,6,0,P|29:107|22:27,1,160,6|0,0:0|0:0,0:0:0:0:
99,13,97204,1,0,0:0:0:0:
138,12,97279,1,0,0:0:0:0:
170,34,97354,1,0,0:0:0:0:
192,66,97429,1,0,0:0:0:0:
206,103,97504,1,0,0:0:0:0:
236,129,97579,1,0,0:0:0:0:
273,144,97654,1,0,0:0:0:0:
307,123,97729,1,0,0:0:0:0:
318,84,97804,1,2,0:0:0:0:
422,24,97954,6,0,P|397:58|423:173,1,160,6|0,0:0|0:0,0:0:0:0:
482,213,98404,1,0,0:0:0:0:
493,174,98479,1,0,0:0:0:0:
473,139,98554,1,0,0:0:0:0:
434,127,98629,1,0,0:0:0:0:
395,136,98704,1,0,0:0:0:0:
373,169,98779,1,0,0:0:0:0:
375,208,98854,1,0,0:0:0:0:
390,244,98929,1,0,0:0:0:0:
427,258,99004,1,0,0:0:0:0:
458,331,99154,1,2,0:0:0:0:
340,359,99304,6,0,P|323:324|321:284,1,80,6|0,0:0|0:0,0:0:0:0:
390,244,99604,2,2,P|407:279|409:319,1,80,0|0,0:0|0:0,0:0:0:0:
339,360,99904,2,2,P|261:357|205:303,1,160,4|0,0:0|0:0,0:0:0:0:
155,194,100354,6,0,P|169:271|136:343,1,160,6|0,0:0|0:0,0:0:0:0:
56,346,100804,1,6,0:0:0:0:
29,315,100879,1,0,0:0:0:0:
20,275,100954,1,0,0:0:0:0:
25,235,101029,1,0,0:0:0:0:
40,198,101104,2,0,P|48:177|64:161,3,40,6|0|0|0,0:0|0:0|0:0|0:0,0:0:0:0:
116,134,101404,2,0,L|159:146,1,40,6|0,0:0|0:0,0:0:0:0:
218,140,101554,6,0,P|237:65|198:-2,1,160,6|0,0:0|0:0,0:0:0:0:
123,27,102004,1,0,0:0:0:0:
104,62,102079,1,0,0:0:0:0:
64,70,102154,1,0,0:0:0:0:
26,56,102229,1,0,0:0:0:0:
14,17,102304,1,0,0:0:0:0:
45,41,102379,1,0,0:0:0:0:
47,80,102454,1,0,0:0:0:0:
34,118,102529,1,0,0:0:0:0:
7,148,102604,1,2,0:0:0:0:
15,266,102754,6,0,P|77:218|155:205,1,160,6|0,0:0|0:0,0:0:0:0:
235,212,103204,1,0,0:0:0:0:
266,236,103279,1,0,0:0:0:0:
280,273,103354,1,0,0:0:0:0:
281,312,103429,1,0,0:0:0:0:
264,348,103504,1,0,0:0:0:0:
227,332,103579,1,0,0:0:0:0:
187,330,103654,1,0,0:0:0:0:
149,344,103729,1,0,0:0:0:0:
134,381,103804,1,0,0:0:0:0:
54,376,103954,1,2,0:0:0:0:
14,265,104104,6,0,P|15:226|34:191,1,80,6|0,0:0|0:0,0:0:0:0:
21,112,104404,2,0,P|60:112|95:131,1,80,2|0,0:0|0:0,0:0:0:0:
113,209,104704,2,2,P|192:213|267:188,1,160,4|0,0:0|0:0,0:0:0:0:
346,176,105154,2,0,L|333:124,1,40,2|0,0:0|0:0,0:0:0:0:
323,73,105304,5,4,0:0:0:0:
362,80,105379,1,0,0:0:0:0:
400,70,105454,1,0,0:0:0:0:
427,41,105529,1,0,0:0:0:0:
439,2,105604,1,0,0:0:0:0:
194,6,105754,5,4,0:0:0:0:
186,44,105829,1,0,0:0:0:0:
196,82,105904,1,0,0:0:0:0:
225,110,105979,1,0,0:0:0:0:
264,121,106054,1,0,0:0:0:0:
427,41,106204,5,4,0:0:0:0:
387,43,106279,1,0,0:0:0:0:
353,62,106354,1,0,0:0:0:0:
334,97,106429,1,0,0:0:0:0:
330,135,106504,2,0,P|331:174|338:214,1,80,6|0,0:0|0:0,0:0:0:0:
406,266,106804,2,0,P|405:305|398:345,1,80,2|0,0:0|0:0,0:0:0:0:
319,364,107104,1,2,0:0:0:0:
248,325,107254,1,0,0:0:0:0:
180,368,107404,1,2,0:0:0:0:
95,281,107554,6,0,P|24:310|3:384,2,160,6|2|2,0:0|0:0|0:0,0:0:0:0:
147,219,108304,1,0,0:0:0:0:
218,266,108454,1,0,0:0:0:0:
218,266,108529,1,0,0:0:0:0:
218,266,108604,1,6,0:0:0:0:
291,236,108754,1,0,0:0:0:0:
397,291,108904,6,0,P|434:278|464:252,1,80,6|0,0:0|0:0,0:0:0:0:
498,179,109204,1,2,0:0:0:0:
473,102,109354,2,0,P|417:45|340:25,1,160,2|2,0:0|0:0,0:0:0:0:
341,25,109804,1,0,0:0:0:0:
221,8,109954,6,0,P|219:47|232:86,1,80,6|0,0:0|0:0,0:0:0:0:
304,116,110254,2,0,P|270:94|231:85,1,80,2|0,0:0|0:0,0:0:0:0:
169,133,110554,1,2,0:0:0:0:
169,133,110704,2,0,P|204:114|231:85,1,80,4|0,0:0|0:0,0:0:0:0:
139,15,111004,2,0,P|117:48|108:87,1,80,2|0,0:0|0:0,0:0:0:0:
5,148,111304,6,2,P|80:168|122:234,1,160,4|0,0:0|0:0,0:0:0:0:
88,306,111754,2,0,P|154:265|232:275,1,160,2|2,0:0|0:0,0:0:0:0:
297,321,112204,1,4,0:0:0:0:
412,354,112354,6,0,P|411:311|400:272,1,80,6|0,0:0|0:0,0:0:0:0:
349,214,112654,1,2,0:0:0:0:
327,136,112804,1,0,0:0:0:0:
347,57,112954,2,0,P|407:7|485:4,2,160,2|2|0,0:0|0:0|0:0,0:0:0:0:
230,28,113704,5,6,0:0:0:0:
194,45,113779,1,0,0:0:0:0:
154,43,113854,2,0,P|137:36|116:34,3,40
76,26,114154,5,6,0:0:0:0:
59,62,114229,1,0,0:0:0:0:
61,102,114304,2,0,P|68:120|69:140,3,40
46,173,114604,2,0,P|46:196|54:224,3,40,6|0|0|0,0:0|0:0|0:0|0:0,0:0:0:0:
30,247,114904,5,4,0:0:0:0:
68,257,114979,1,0,0:0:0:0:
101,278,115054,1,0,0:0:0:0:
119,313,115129,1,0,0:0:0:0:
129,351,115204,1,6,0:0:0:0:
168,359,115279,1,0,0:0:0:0:
205,350,115354,1,0,0:0:0:0:
235,324,115429,1,0,0:0:0:0:
246,285,115504,2,0,L|292:301,3,40,6|0|0|0,0:0|0:0|0:0|0:0,0:0:0:0:
321,285,115804,5,6,0:0:0:0:
256,138,115954,1,0,0:0:0:0:
256,138,116029,1,0,0:0:0:0:
256,138,116104,5,4,0:0:0:0:
256,192,116254,12,2,120304,0:0:0:0:
256,192,120454,5,2,0:0:0:0:
256,192,120904,2,0,P|256:247|242:313,1,120,2|0,0:0|0:0,0:0:0:0:
125,335,121804,2,0,P|125:280|139:214,1,120,2|0,0:0|0:0,0:0:0:0:
182,104,122704,1,2,0:0:0:0:
182,104,122854,1,2,0:0:0:0:
256,192,123304,12,0,125554,0:0:0:0:
232,83,125712,6,0,L|390:101,1,160,4|8,1:2|0:0,0:0:0:0:
390,101,126762,1,0,1:0:0:0:
464,72,126912,2,0,P|482:51|486:-7,2,80,0|0|8,1:0|1:0|0:0,0:0:0:0:
390,101,127662,1,2,0:0:0:0:
390,101,127812,2,0,L|396:150,1,40,2|2,0:0|0:0,0:0:0:0:
486,215,128112,6,0,P|428:217|389:260,1,120,0|0,1:0|0:0,0:0:0:0:
308,266,128712,2,0,P|313:285|317:304,1,40,8|0,0:0|0:0,0:0:0:0:
371,365,129012,2,0,P|375:345|382:326,1,40,8|0,0:0|1:0,0:0:0:0:
382,326,129312,5,0,1:0:0:0:
225,358,129612,1,0,1:0:0:0:
97,261,129912,1,8,0:0:0:0:
73,337,130062,1,2,0:0:0:0:
73,337,130212,2,0,L|122:327,1,40,2|2,0:0|0:0,0:0:0:0:
170,223,130512,6,0,P|141:170|92:137,1,120,0|0,1:0|0:0,0:0:0:0:
92,137,131112,1,8,0:0:0:0:
5,332,131412,2,0,P|62:318|107:279,1,120,0|2,1:0|0:0,0:0:0:0:
107,279,132012,1,0,1:0:0:0:
13,128,132312,1,8,0:0:0:0:
13,128,132462,2,0,L|3:181,1,40,2|2,0:0|0:0,0:0:0:0:
5,167,132912,6,0,P|63:172|115:143,1,120,0|0,1:0|1:0,0:0:0:0:
192,121,133512,2,0,P|184:95|182:67,1,40,8|0,0:0|0:0,0:0:0:0:
183,1,133812,2,0,P|157:9|129:11,1,40,0|0,0:0|1:0,0:0:0:0:
63,6,134112,1,0,1:0:0:0:
90,81,134262,1,0,0:0:0:0:
11,66,134412,1,0,1:0:0:0:
63,6,134712,1,8,0:0:0:0:
63,6,134862,1,2,0:0:0:0:
47,164,135162,1,2,0:0:0:0:
47,164,135312,6,0,P|122:140|202:143,1,160,4|8,1:2|0:0,0:0:0:0:
202,143,136362,1,0,1:0:0:0:
271,103,136512,2,0,P|272:58|252:20,2,80,0|0|8,1:0|1:0|0:0,0:0:0:0:
202,143,137262,1,2,0:0:0:0:
202,143,137562,1,2,0:0:0:0:
133,184,137712,6,0,P|105:237|106:301,1,120,0|0,1:0|1:0,0:0:0:0:
90,374,138312,2,0,P|108:365|127:362,1,40,8|0,0:0|0:0,0:0:0:0:
182,303,138612,2,0,P|201:304|220:311,1,40,8|0,0:0|1:0,0:0:0:0:
281,260,138912,2,0,L|304:355,1,80,0|0,1:0|1:0,0:0:0:0:
299,337,139512,1,8,0:0:0:0:
299,337,139662,1,2,0:0:0:0:
395,209,139962,1,2,0:0:0:0:
386,328,140112,6,0,P|444:318|490:281,1,120,0|0,1:0|1:0,0:0:0:0:
490,280,140712,1,8,0:0:0:0:
356,131,141012,6,0,P|320:179|315:237,1,120,0|8,1:0|0:0,0:0:0:0:
315,237,141612,1,0,1:0:0:0:
475,117,141912,1,8,0:0:0:0:
475,117,142062,2,0,L|422:107,1,40,2|2,1:2|0:0,0:0:0:0:
435,109,142512,5,0,1:0:0:0:
387,44,142662,2,0,P|347:41|309:52,1,80,0|0,0:0|1:0,0:0:0:0:
229,47,143112,2,0,L|236:93,1,40,8|0,0:0|0:0,0:0:0:0:
329,161,143412,2,0,L|322:121,1,40,0|0,1:0|0:0,0:0:0:0:
309,52,143712,5,0,1:0:0:0:
203,332,144012,1,0,1:0:0:0:
256,192,144312,1,8,0:0:0:0:
256,192,144462,1,2,0:0:0:0:
256,192,144762,1,2,0:0:0:0:
300,303,144912,2,0,P|349:331|464:324,1,160,4|8,1:2|0:0,0:0:0:0:
450,329,145962,1,0,1:0:0:0:
501,267,146112,2,0,P|482:232|449:210,1,80,0|0,1:0|1:0,0:0:0:0:
292,245,146712,1,8,0:0:0:0:
292,245,146862,1,2,0:0:0:0:
292,245,147162,1,2,0:0:0:0:
382,164,147312,6,0,P|385:105|369:47,1,120,0|0,1:0|1:0,0:0:0:0:
302,2,147912,2,0,P|277:15|250:20,1,40,8|0,0:0|0:0,0:0:0:0:
197,60,148212,2,0,P|172:46|145:42,1,40,8|0,0:0|1:0,0:0:0:0:
84,18,148512,2,0,P|47:30|7:29,2,80,0|0|8,1:0|1:0|0:0,0:0:0:0:
84,18,149262,1,2,0:0:0:0:
84,18,149562,1,2,0:0:0:0:
6,108,149712,6,0,P|42:154|41:213,1,120,0|0,1:0|1:0,0:0:0:0:
77,284,150312,1,8,0:0:0:0:
0,262,150462,1,0,0:0:0:0:
19,339,150612,2,0,P|74:319|135:326,1,120,0|0,1:0|0:0,0:0:0:0:
210,352,151212,2,0,L|206:303,1,40,0|0,1:0|0:0,0:0:0:0:
203,231,151512,1,8,0:0:0:0:
203,231,151662,1,2,0:0:0:0:
203,231,152112,5,0,1:0:0:0:
296,156,152262,2,0,L|280:237,1,80,0|0,0:0|1:0,0:0:0:0:
286,314,152712,1,8,0:0:0:0:
348,364,152862,1,0,0:0:0:0:
422,333,153012,2,0,L|429:293,1,40,0|0,1:0|0:0,0:0:0:0:
458,217,153312,2,0,P|475:207|494:204,1,40,0|0,1:0|1:0,0:0:0:0:
494,204,153612,1,0,1:0:0:0:
487,364,153912,1,8,0:0:0:0:
487,364,154062,1,2,0:0:0:0:
397,15,154512,6,0,L|406:99,1,80,4|0,1:2|0:0,0:0:0:0:
435,168,154962,2,0,P|473:158|517:140,2,80,0|0|0,1:0|1:0|1:0,0:0:0:0:
330,105,155712,1,0,1:0:0:0:
310,101,155787,1,2,0:0:0:0:
290,100,155862,1,0,0:0:0:0:
270,106,155937,1,2,0:0:0:0:
252,115,156012,1,0,1:0:0:0:
235,126,156087,1,2,0:0:0:0:
222,141,156162,1,0,0:0:0:0:
213,159,156237,1,2,0:0:0:0:
209,178,156312,6,0,L|177:165,3,20,0|2|0|2,0:0|0:0|0:0|0:0,0:0:0:0:
160,151,156612,2,0,L|128:164,3,20,0|2|0|2,0:0|0:0|0:0|0:0,0:0:0:0:
114,128,156912,6,0,L|87:245,1,120,0|0,1:0|1:0,0:0:0:0:
19,292,157512,2,0,P|29:309|44:321,1,40,8|0,0:0|0:0,0:0:0:0:
96,383,157812,2,0,P|115:382|134:375,1,40,8|0,0:0|1:0,0:0:0:0:
214,364,158112,2,0,P|238:335|245:292,1,80,0|0,1:0|1:0,0:0:0:0:
226,135,158712,1,8,0:0:0:0:
226,135,158862,1,2,0:0:0:0:
225,135,159312,6,0,P|192:183|185:242,4,120,0|0|0|0|0,1:0|1:0|1:0|1:0|1:0,0:0:0:0:
301,107,161262,2,0,P|312:70|303:32,1,80,2|2,0:0|0:0,0:0:0:0:
226,8,161706,5,4,0:0:0:0:
226,8,161856,1,0,0:0:0:0:
226,8,162006,1,0,0:0:0:0:
129,135,162156,1,4,0:0:0:0:
129,135,162456,1,0,0:0:0:0:
11,26,162606,1,4,0:0:0:0:
11,26,163036,5,0,0:0:0:0:
88,4,163180,1,4,0:0:0:0:
71,82,163340,1,0,0:0:0:0:
11,26,163500,5,4,0:0:0:0:
148,54,163651,1,0,0:0:0:0:
189,191,163804,1,4,0:0:0:0:
28,233,163954,1,0,0:0:0:0:
28,233,164031,1,0,0:0:0:0:
28,233,164106,6,2,P|2:296|129:353,1,240,4|0,0:0|0:0,0:0:0:0:
177,291,164706,1,0,0:0:0:0:
177,291,164856,1,2,0:0:0:0:
253,266,165006,1,4,0:0:0:0:
304,327,165156,1,2,0:0:0:0:
420,297,165306,6,2,P|461:213|362:137,1,240,4|0,0:0|0:0,0:0:0:0:
288,104,165906,1,0,0:0:0:0:
313,179,166056,1,2,0:0:0:0:
388,206,166206,1,4,0:0:0:0:
464,181,166356,1,2,0:0:0:0:
479,20,166506,6,2,P|369:13|287:104,1,240,0|2,0:0|0:0,0:0:0:0:
330,215,167106,1,4,0:0:0:0:
287,103,167256,1,0,0:0:0:0:
248,216,167406,6,2,P|105:223|31:67,1,320,4|2,0:0|0:0,0:0:0:0:
76,18,168156,1,0,0:0:0:0:
143,61,168306,1,4,0:0:0:0:
143,61,168381,1,0,0:0:0:0:
143,61,168456,1,2,0:0:0:0:
159,139,168606,1,0,0:0:0:0:
125,211,168756,1,2,0:0:0:0:
4,316,168906,6,2,P|74:279|200:369,1,240,4|0,0:0|0:0,0:0:0:0:
124,364,169506,1,4,0:0:0:0:
166,228,169656,1,2,0:0:0:0:
124,364,169806,1,2,0:0:0:0:
261,328,169956,2,2,P|336:319|413:359,2,160,4|0|0,0:0|0:0|0:0,0:0:0:0:
198,290,170706,2,0,P|215:213|276:163,1,160,6|0,0:0|0:0,0:0:0:0:
351,135,171156,1,2,0:0:0:0:
447,261,171306,5,4,0:0:0:0:
460,298,171381,1,0,0:0:0:0:
460,338,171456,1,0,0:0:0:0:
424,357,171531,1,0,0:0:0:0:
383,356,171606,2,0,P|366:346|347:342,3,40,2|0|4|0,0:0|0:0|0:0|0:0,0:0:0:0:
313,319,171906,5,0,0:0:0:0:
286,289,171981,1,0,0:0:0:0:
246,283,172056,1,0,0:0:0:0:
213,305,172131,1,0,0:0:0:0:
201,343,172206,2,0,P|185:355|161:357,3,40,6|0|0|0,0:0|0:0|0:0|0:0,0:0:0:0:
126,367,172506,5,4,0:0:0:0:
87,376,172581,1,0,0:0:0:0:
51,356,172656,1,0,0:0:0:0:
30,321,172731,1,0,0:0:0:0:
24,281,172806,1,6,0:0:0:0:
43,246,172881,1,0,0:0:0:0:
78,228,172956,1,0,0:0:0:0:
117,222,173031,1,0,0:0:0:0:
155,233,173106,5,6,0:0:0:0:
187,256,173181,1,0,0:0:0:0:
226,257,173256,1,0,0:0:0:0:
259,235,173331,1,0,0:0:0:0:
280,201,173406,1,6,0:0:0:0:
280,161,173481,1,0,0:0:0:0:
270,122,173556,1,0,0:0:0:0:
240,95,173631,1,0,0:0:0:0:
199,95,173706,6,2,P|129:130|49:129,1,160,0|0,0:0|0:0,0:0:0:0:
2,63,174156,1,2,0:0:0:0:
15,203,174306,1,4,0:0:0:0:
130,122,174456,1,2,0:0:0:0:
2,63,174606,6,2,P|136:200|325:166,1,400,4|0,0:0|0:0,0:0:0:0:
405,178,175506,2,0,L|390:93,1,80,2|0,0:0|0:0,0:0:0:0:
354,28,175806,1,6,0:0:0:0:
392,37,175881,1,0,0:0:0:0:
431,35,175956,1,0,0:0:0:0:
469,23,176031,1,0,0:0:0:0:
498,0,176106,6,2,P|472:74|489:151,1,160,4|2,0:0|0:0,0:0:0:0:
496,231,176556,1,0,0:0:0:0:
496,231,176631,1,0,0:0:0:0:
496,231,176706,2,0,L|416:220,1,80,6|0,0:0|0:0,0:0:0:0:
341,247,177006,1,2,0:0:0:0:
300,315,177156,2,2,P|349:374|427:378,2,160,4|2|0,0:0|0:0|0:0,0:0:0:0:
281,196,177906,1,6,0:0:0:0:
400,177,178056,1,0,0:0:0:0:
419,296,178206,1,2,0:0:0:0:
300,315,178356,1,2,0:0:0:0:
281,196,178506,5,6,0:0:0:0:
277,184,178606,1,0,0:0:0:0:
274,173,178706,1,0,0:0:0:0:
271,162,178806,2,2,P|222:156|182:146,1,80,0|2,0:0|0:0,0:0:0:0:
112,145,179106,1,2,0:0:0:0:
33,161,179256,1,0,0:0:0:0:
0,234,179406,1,6,0:0:0:0:
25,309,179556,1,2,0:0:0:0:
156,245,179706,5,0,0:0:0:0:
75,240,179856,1,2,0:0:0:0:
111,312,180006,1,0,0:0:0:0:
156,245,180156,1,2,0:0:0:0:
180,361,180306,2,2,P|258:372|333:331,1,160,4|0,0:0|0:0,0:0:0:0:
342,258,180756,1,2,0:0:0:0:
474,346,180906,5,6,0:0:0:0:
474,346,180981,1,0,0:0:0:0:
474,346,181056,2,0,P|482:325|485:300,3,40
463,273,181356,5,6,0:0:0:0:
463,273,181431,1,0,0:0:0:0:
463,273,181506,2,0,P|459:251|464:225,3,40
445,195,181806,6,2,P|446:136|470:78,1,120,4|0,0:0|2:0,0:0:0:0:
492,48,182106,1,0,0:0:0:0:
417,20,182256,1,2,0:0:0:0:
339,38,182406,1,4,0:0:0:0:
286,98,182556,1,2,0:0:0:0:
286,98,182631,1,0,0:0:0:0:
286,98,182706,5,6,0:0:0:0:
315,173,182848,1,2,0:0:0:0:
253,224,182991,1,4,0:0:0:0:
185,180,183134,1,2,0:0:0:0:
206,103,183306,5,6,0:0:0:0:
193,64,183381,1,0,0:0:0:0:
163,37,183456,1,0,0:0:0:0:
123,41,183531,1,0,0:0:0:0:
90,64,183606,2,0,P|76:72|51:77,3,40,0|0|2|0,0:0|0:0|0:0|0:0,0:0:0:0:
12,76,183906,5,6,0:0:0:0:
5,115,183981,1,0,0:0:0:0:
26,148,184056,1,0,0:0:0:0:
63,162,184131,1,0,0:0:0:0:
102,162,184206,1,0,0:0:0:0:
134,185,184281,1,0,0:0:0:0:
149,222,184356,1,2,0:0:0:0:
142,261,184431,1,0,0:0:0:0:
119,294,184506,6,0,P|100:295|78:285,3,40,6|0|0|0,0:0|0:0|0:0|0:0,0:0:0:0:
53,256,184806,1,0,0:0:0:0:
17,273,184881,1,0,0:0:0:0:
9,312,184956,1,2,0:0:0:0:
20,350,185031,1,0,0:0:0:0:
58,360,185106,6,2,P|152:291|268:306,1,240,4|0,0:0|0:0,0:0:0:0:
341,341,185706,5,6,0:0:0:0:
417,317,185856,1,2,0:0:0:0:
480,365,186006,1,0,0:0:0:0:
480,365,186156,1,2,0:0:0:0:
471,203,186306,5,2,0:0:0:0:
408,251,186456,1,2,0:0:0:0:
332,227,186606,1,0,0:0:0:0:
332,227,186756,1,2,0:0:0:0:
404,83,186906,5,4,0:0:0:0:
404,83,186981,1,0,0:0:0:0:
404,83,187056,1,2,0:0:0:0:
404,83,187131,1,0,0:0:0:0:
404,83,187206,1,0,0:0:0:0:
468,123,187356,1,2,0:0:0:0:
332,227,187506,5,4,0:0:0:0:
332,227,187581,1,0,0:0:0:0:
332,227,187656,1,2,0:0:0:0:
332,227,187731,1,0,0:0:0:0:
332,227,187806,1,0,0:0:0:0:
287,115,187956,1,2,0:0:0:0:
404,83,188106,5,4,0:0:0:0:
404,83,188406,1,0,0:0:0:0:
473,42,188556,1,2,0:0:0:0:
480,121,188706,2,2,P|434:183|361:164,1,160,0|2,0:0|0:0,0:0:0:0:
282,159,189156,2,0,P|278:121|293:82,1,80,2|0,0:0|0:0,0:0:0:0:
299,3,189456,2,0,P|267:26|226:32,1,80,2|0,0:0|0:0,0:0:0:0:
155,67,189756,2,0,P|191:82|217:115,1,80,2|0,0:0|0:0,0:0:0:0:
214,193,190056,1,0,0:0:0:0:
172,261,190206,1,2,0:0:0:0:
92,255,190356,1,2,0:0:0:0:
31,106,190506,5,6,0:0:0:0:
14,69,190581,1,0,0:0:0:0:
29,31,190656,1,0,0:0:0:0:
66,17,190731,1,0,0:0:0:0:
105,23,190806,2,0,P|117:38|121:58,1,40
112,121,190956,5,6,0:0:0:0:
122,159,191031,1,0,0:0:0:0:
157,178,191106,1,0,0:0:0:0:
196,170,191181,1,0,0:0:0:0:
219,136,191256,2,0,P|220:117|215:97,1,40
194,36,191406,5,6,0:0:0:0:
219,5,191481,1,0,0:0:0:0:
258,2,191556,1,0,0:0:0:0:
294,19,191631,1,0,0:0:0:0:
307,56,191706,2,0,P|316:73|332:84,1,40
396,75,191856,5,6,0:0:0:0:
428,51,191931,1,0,0:0:0:0:
467,55,192006,1,0,0:0:0:0:
492,86,192081,1,0,0:0:0:0:
491,125,192156,1,0,0:0:0:0:
462,152,192231,1,0,0:0:0:0:
421,145,192306,2,0,P|362:151|315:186,1,120,6|0,0:0|2:0,0:0:0:0:
251,193,192606,2,0,P|240:251|262:306,1,120,2|0,0:0|2:0,0:0:0:0:
313,367,192906,5,4,0:0:0:0:
313,367,193056,1,0,0:0:0:0:
391,351,193206,1,2,0:0:0:0:
464,382,193356,1,0,0:0:0:0:
512,318,193506,1,0,0:0:0:0:
471,249,193656,1,2,0:0:0:0:
392,269,193806,2,0,P|353:269|314:258,1,80,0|2,0:0|0:0,0:0:0:0:
213,192,194106,5,4,0:0:0:0:
213,192,194256,1,0,0:0:0:0:
234,269,194406,1,2,0:0:0:0:
187,334,194556,1,0,0:0:0:0:
120,289,194706,1,0,0:0:0:0:
44,314,194856,1,2,0:0:0:0:
111,357,195006,1,0,0:0:0:0:
187,334,195156,1,2,0:0:0:0:
128,221,195306,6,0,P|89:228|49:229,1,80,4|2,0:0|0:0,0:0:0:0:
15,157,195606,1,0,0:0:0:0:
30,78,195756,1,2,0:0:0:0:
92,28,195906,2,0,P|129:41|164:60,1,80,2|2,0:0|0:0,0:0:0:0:
216,137,196206,1,0,0:0:0:0:
267,75,196356,1,2,0:0:0:0:
392,101,196506,6,0,P|398:146|387:186,1,80,6|0,0:0|0:0,0:0:0:0:
390,180,196806,1,2,0:0:0:0:
336,63,196956,2,0,P|371:35|412:24,1,80,2|0,0:0|0:0,0:0:0:0:
404,24,197256,1,2,0:0:0:0:
504,107,197406,2,0,P|486:148|457:178,1,80,2|0,0:0|0:0,0:0:0:0:
324,135,197706,5,4,0:0:0:0:
256,178,197856,1,2,0:0:0:0:
237,255,198006,1,0,0:0:0:0:
235,334,198156,2,2,L|405:315,1,160,4|0,0:0|0:0,0:0:0:0:
473,325,198606,1,2,0:0:0:0:
473,325,198681,1,0,0:0:0:0:
473,325,198756,2,0,P|476:305|470:286,1,40
452,224,198906,5,4,0:0:0:0:
387,174,199056,2,0,P|385:135|397:97,1,80,2|0,0:0|0:0,0:0:0:0:
477,8,199356,2,2,P|505:73|503:164,1,160,4|2,0:0|0:0,0:0:0:0:
452,224,199806,5,2,0:0:0:0:
452,224,199881,1,0,0:0:0:0:
451,224,199956,2,0,P|437:235|417:239,1,40
352,234,200106,5,4,0:0:0:0:
315,218,200181,1,0,0:0:0:0:
275,218,200256,1,0,0:0:0:0:
245,245,200331,1,0,0:0:0:0:
240,284,200406,1,2,0:0:0:0:
226,321,200481,1,0,0:0:0:0:
194,345,200556,1,4,0:0:0:0:
158,363,200631,1,0,0:0:0:0:
118,360,200706,5,0,0:0:0:0:
79,349,200781,1,0,0:0:0:0:
53,318,200856,1,0,0:0:0:0:
43,279,200931,1,0,0:0:0:0:
58,242,201006,1,6,0:0:0:0:
90,218,201081,1,0,0:0:0:0:
129,212,201156,1,0,0:0:0:0:
162,233,201231,1,0,0:0:0:0:
199,245,201306,5,0,0:0:0:0:
238,247,201381,1,0,0:0:0:0:
272,226,201456,1,4,0:0:0:0:
285,188,201531,1,0,0:0:0:0:
283,148,201606,1,2,0:0:0:0:
258,116,201681,1,0,0:0:0:0:
222,97,201756,1,0,0:0:0:0:
182,103,201831,1,0,0:0:0:0:
151,129,201906,5,6,0:0:0:0:
117,150,201981,1,0,0:0:0:0:
77,150,202056,1,0,0:0:0:0:
40,133,202131,1,0,0:0:0:0:
20,98,202206,1,6,0:0:0:0:
27,58,202281,1,0,0:0:0:0:
57,32,202356,1,0,0:0:0:0:
96,24,202431,1,0,0:0:0:0:
129,45,202506,5,4,0:0:0:0:
256,192,202656,12,0,204606,2:0:0:0:
256,192,204906,12,0,207006,2:0:0:0:
256,192,207306,12,0,211506,2:0:0:0:
327,49,211806,5,0,2:0:0:0:
327,49,212106,2,0,P|382:145|489:114,1,240,4|0,0:0|2:0,0:0:0:0:
491,34,213306,5,0,0:0:0:0:
311,192,213756,1,0,0:0:0:0:
489,352,214206,1,0,0:0:0:0:
490,192,214506,6,0,P|367:206|309:303,1,240,4|0,0:0|0:0,0:0:0:0:
325,376,215556,1,0,0:0:0:0:
325,376,215706,5,0,0:0:0:0:
199,276,216006,1,0,0:0:0:0:
199,276,216156,1,0,0:0:0:0:
61,358,216456,1,0,0:0:0:0:
61,358,216606,1,0,0:0:0:0:
0,125,216896,5,4,0:0:0:0:
215,18,217196,1,0,0:0:0:0:
215,18,217346,1,0,0:0:0:0:
135,26,217496,1,4,0:0:0:0:
135,26,217646,1,0,0:0:0:0:
119,104,217796,1,0,0:0:0:0:
119,104,217946,1,0,0:0:0:0:
154,218,218096,5,4,0:0:0:0:
230,193,218246,1,0,0:0:0:0:
306,216,218396,1,0,0:0:0:0:
351,281,218546,1,0,0:0:0:0:
339,360,218696,5,4,0:0:0:0:
266,298,218846,1,0,0:0:0:0:
306,216,218996,1,0,0:0:0:0:
401,222,219146,1,0,0:0:0:0:
424,314,219296,5,4,0:0:0:0:
424,314,219446,1,0,0:0:0:0:
266,298,219596,1,0,0:0:0:0:
266,298,219746,1,0,0:0:0:0:
358,169,219896,1,4,0:0:0:0:
358,169,220046,1,0,0:0:0:0:
342,360,220196,5,4,0:0:0:0:
276,215,220346,1,0,0:0:0:0:
434,231,220496,1,4,0:0:0:0:
434,231,221696,5,4,0:0:0:0:
471,217,221771,1,0,0:0:0:0:
489,181,221846,1,0,0:0:0:0:
500,142,221921,1,0,0:0:0:0:
487,104,221996,1,2,0:0:0:0:
460,74,222071,1,0,0:0:0:0:
422,60,222146,1,0,0:0:0:0:
382,68,222221,1,0,0:0:0:0:
351,94,222296,1,0,0:0:0:0:
346,133,222371,1,0,0:0:0:0:
322,165,222446,1,2,0:0:0:0:
283,174,222521,1,0,0:0:0:0:
243,174,222596,1,4,0:0:0:0:
208,154,222671,1,0,0:0:0:0:
188,119,222746,1,2,0:0:0:0:
195,79,222821,1,0,0:0:0:0:
224,52,222896,5,4,0:0:0:0:
217,91,222971,1,0,0:0:0:0:
182,110,223046,1,0,0:0:0:0:
142,108,223121,1,0,0:0:0:0:
112,80,223196,1,2,0:0:0:0:
102,41,223271,1,0,0:0:0:0:
68,18,223346,1,0,0:0:0:0:
28,20,223421,1,0,0:0:0:0:
4,52,223496,1,0,0:0:0:0:
10,91,223571,1,0,0:0:0:0:
32,123,223646,1,2,0:0:0:0:
34,162,223721,1,0,0:0:0:0:
22,200,223796,2,0,P|18:219|8:236,3,40,4|0|2|0,0:0|0:0|0:0|0:0,0:0:0:0:
11,303,224096,5,4,0:0:0:0:
48,289,224171,1,0,0:0:0:0:
87,292,224246,1,0,0:0:0:0:
122,310,224321,1,0,0:0:0:0:
140,345,224396,1,2,0:0:0:0:
176,360,224471,1,0,0:0:0:0:
215,359,224546,1,0,0:0:0:0:
251,341,224621,1,0,0:0:0:0:
264,303,224696,1,0,0:0:0:0:
251,265,224771,1,0,0:0:0:0:
217,242,224846,1,2,0:0:0:0:
192,210,224921,1,0,0:0:0:0:
189,170,224996,1,4,0:0:0:0:
202,132,225071,1,0,0:0:0:0:
237,113,225146,1,2,0:0:0:0:
275,123,225221,1,0,0:0:0:0:
296,156,225296,5,4,0:0:0:0:
302,195,225371,1,0,0:0:0:0:
284,230,225446,1,0,0:0:0:0:
258,260,225521,1,0,0:0:0:0:
255,299,225596,1,2,0:0:0:0:
282,328,225671,1,0,0:0:0:0:
321,331,225746,1,0,0:0:0:0:
354,308,225821,1,0,0:0:0:0:
362,268,225896,1,0,0:0:0:0:
388,238,225971,1,0,0:0:0:0:
426,226,226046,1,2,0:0:0:0:
461,244,226121,1,0,0:0:0:0:
481,278,226196,2,0,P|482:299|474:320,3,40,4|0|2|0,0:0|0:0|0:0|0:0,0:0:0:0:
426,360,226496,5,6,0:0:0:0:
390,341,226571,1,0,0:0:0:0:
367,307,226646,1,0,0:0:0:0:
362,268,226721,1,0,0:0:0:0:
369,228,226796,1,0,0:0:0:0:
392,195,226871,1,0,0:0:0:0:
426,174,226946,1,2,0:0:0:0:
463,161,227021,1,0,0:0:0:0:
502,162,227096,2,0,P|502:143|497:123,3,40,6|0|0|0,0:0|0:0|0:0|0:0,0:0:0:0:
510,85,227396,2,0,P|496:70|479:59,3,40,0|0|2|0,0:0|0:0|0:0|0:0,0:0:0:0:
458,24,227696,6,0,P|419:22|380:33,1,80,6|0,0:0|0:0,0:0:0:0:
280,108,227996,2,0,P|319:110|358:99,1,80,0|2,0:0|0:0,0:0:0:0:
197,79,228296,1,6,0:0:0:0:
134,128,228446,1,0,0:0:0:0:
56,106,228596,1,0,0:0:0:0:
56,106,228671,1,0,0:0:0:0:
56,106,228746,1,2,0:0:0:0:
184,5,228896,5,6,0:0:0:0:
210,34,228971,1,0,0:0:0:0:
225,71,229046,1,0,0:0:0:0:
227,110,229121,1,0,0:0:0:0:
219,149,229196,1,0,0:0:0:0:
200,184,229271,1,0,0:0:0:0:
174,214,229346,1,6,0:0:0:0:
134,222,229421,1,0,0:0:0:0:
93,214,229496,2,0,P|92:195|96:175,3,40
126,109,229796,1,6,0:0:0:0:
126,109,229871,1,0,0:0:0:0:
126,109,229946,1,0,0:0:0:0:
126,109,230021,1,0,0:0:0:0:
126,109,230096,6,0,P|69:95|16:120,2,120,4|2|2,0:0|0:0|0:0,0:0:0:0:
203,201,230696,2,2,P|174:312|66:352,1,240,4|0,0:0|0:0,0:0:0:0:
28,236,231296,6,2,P|140:270|198:372,1,240,4|0,0:0|0:0,0:0:0:0:
275,349,231896,2,0,L|293:272,1,80,2|0,0:0|0:0,0:0:0:0:
351,216,232196,1,2,0:0:0:0:
429,201,232346,2,2,P|491:247|507:324,1,160,4|2,0:0|0:0,0:0:0:0:
442,372,232796,1,0,0:0:0:0:
284,249,232946,2,2,P|292:172|362:140,1,160,4|0,0:0|0:0,0:0:0:0:
407,74,233396,1,2,0:0:0:0:
483,95,233546,1,0,0:0:0:0:
505,212,233696,5,4,0:0:0:0:
505,251,233771,1,0,0:0:0:0:
489,287,233846,1,0,0:0:0:0:
451,299,233921,1,0,0:0:0:0:
411,293,233996,2,0,P|410:312|405:332,3,40,2|0|0|0,0:0|0:0|0:0|0:0,0:0:0:0:
372,356,234296,5,4,0:0:0:0:
332,361,234371,1,0,0:0:0:0:
299,338,234446,1,0,0:0:0:0:
294,298,234521,1,0,0:0:0:0:
311,260,234596,2,0,P|310:241|307:221,3,40,2|0|0|0,0:0|0:0|0:0|0:0,0:0:0:0:
284,188,234896,5,4,0:0:0:0:
246,174,234971,1,0,0:0:0:0:
208,186,235046,1,0,0:0:0:0:
186,220,235121,1,0,0:0:0:0:
189,259,235196,1,2,0:0:0:0:
204,296,235271,1,0,0:0:0:0:
202,335,235346,1,0,0:0:0:0:
185,371,235421,1,0,0:0:0:0:
146,382,235496,1,6,0:0:0:0:
106,379,235571,1,0,0:0:0:0:
72,356,235646,1,0,0:0:0:0:
67,316,235721,1,0,0:0:0:0:
81,278,235796,2,0,P|48:262|3:247,1,80,6|0,0:0|0:0,0:0:0:0:
39,132,236096,5,6,0:0:0:0:
76,118,236171,1,0,0:0:0:0:
114,128,236246,1,0,0:0:0:0:
139,158,236321,1,0,0:0:0:0:
144,197,236396,1,0,0:0:0:0:
166,229,236471,1,0,0:0:0:0:
205,231,236546,1,2,0:0:0:0:
241,215,236621,1,0,0:0:0:0:
251,176,236696,5,6,0:0:0:0:
235,139,236771,1,0,0:0:0:0:
232,99,236846,1,0,0:0:0:0:
246,61,236921,1,0,0:0:0:0:
271,29,236996,1,0,0:0:0:0:
308,14,237071,1,0,0:0:0:0:
347,10,237146,1,2,0:0:0:0:
386,16,237221,1,0,0:0:0:0:
417,40,237296,6,0,P|425:57|426:80,3,40,6|0|0|0,0:0|0:0|0:0|0:0,0:0:0:0:
453,108,237596,2,0,P|451:126|440:147,3,40,0|0|2|0,0:0|0:0|0:0|0:0,0:0:0:0:
433,184,237896,1,6,0:0:0:0:
433,184,237971,1,0,0:0:0:0:
433,184,238046,1,0,0:0:0:0:
433,184,238121,1,0,0:0:0:0:
433,184,238196,2,0,L|338:165,1,80,6|0,0:0|0:0,0:0:0:0:
285,69,238496,5,6,0:0:0:0:
255,41,238571,1,0,0:0:0:0:
216,31,238646,1,0,0:0:0:0:
176,27,238721,1,0,0:0:0:0:
136,32,238796,1,0,0:0:0:0:
101,52,238871,1,0,0:0:0:0:
73,80,238946,1,6,0:0:0:0:
56,116,239021,1,0,0:0:0:0:
52,155,239096,1,0,0:0:0:0:
58,194,239171,1,0,0:0:0:0:
88,220,239246,1,0,0:0:0:0:
126,230,239321,1,0,0:0:0:0:
165,225,239396,1,6,0:0:0:0:
197,201,239471,1,0,0:0:0:0:
212,164,239546,1,0,0:0:0:0:
210,124,239621,1,0,0:0:0:0:
179,95,239696,6,0,P|159:99|142:113,3,40,6|0|0|0,0:0|0:0|0:0|0:0,0:0:0:0:
104,116,239996,2,0,P|96:135|99:157,3,40,2|0|0|0,0:0|0:0|0:0|0:0,0:0:0:0:
84,191,240296,2,0,P|97:207|117:215,3,40,6|0|0|0,0:0|0:0|0:0|0:0,0:0:0:0:
154,210,240596,1,2,0:0:0:0:
120,232,240671,1,0,0:0:0:0:
103,268,240746,1,0,0:0:0:0:
99,307,240821,1,0,0:0:0:0:
113,344,240896,6,0,P|155:335|196:331,1,80,6|2,0:0|0:0,0:0:0:0:
265,364,241196,1,0,0:0:0:0:
318,303,241346,2,2,P|396:313|454:365,1,160,0|2,0:0|0:0,0:0:0:0:
454,365,241796,1,0,0:0:0:0:
506,305,241946,2,2,L|492:145,1,160,4|2,0:0|0:0,0:0:0:0:
412,133,242396,2,2,P|430:99|462:75,1,80,0|2,0:0|0:0,0:0:0:0:
503,10,242696,2,0,P|437:51|359:42,1,160,6|0,0:0|0:0,0:0:0:0:
286,6,243146,1,2,0:0:0:0:
239,116,243296,5,6,0:0:0:0:
214,84,243371,1,0,0:0:0:0:
180,62,243446,1,0,0:0:0:0:
140,55,243521,1,0,0:0:0:0:
100,62,243596,1,0,0:0:0:0:
65,81,243671,1,0,0:0:0:0:
41,113,243746,1,2,0:0:0:0:
30,151,243821,1,0,0:0:0:0:
30,190,243896,1,0,0:0:0:0:
48,225,243971,1,0,0:0:0:0:
81,246,244046,1,0,0:0:0:0:
120,250,244121,1,0,0:0:0:0:
159,244,244196,1,2,0:0:0:0:
195,259,244271,1,0,0:0:0:0:
215,293,244346,1,0,0:0:0:0:
215,333,244421,1,0,0:0:0:0:
200,370,244496,6,2,P|167:365|112:361,1,80,4|2,0:0|0:0,0:0:0:0:
120,361,244796,1,0,0:0:0:0:
7,341,244946,2,2,P|39:277|119:249,1,160,4|2,0:0|0:0,0:0:0:0:
223,241,245396,1,4,0:0:0:0:
240,319,245546,1,2,0:0:0:0:
305,218,245696,5,6,0:0:0:0:
341,234,245771,1,0,0:0:0:0:
380,237,245846,1,0,0:0:0:0:
418,224,245921,1,0,0:0:0:0:
450,201,245996,1,0,0:0:0:0:
468,165,246071,1,0,0:0:0:0:
472,125,246146,1,2,0:0:0:0:
456,88,246221,1,0,0:0:0:0:
419,71,246296,5,2,0:0:0:0:
397,104,246371,1,0,0:0:0:0:
398,143,246446,1,0,0:0:0:0:
407,181,246521,1,0,0:0:0:0:
429,213,246596,1,2,0:0:0:0:
454,244,246671,1,0,0:0:0:0:
470,280,246746,1,2,0:0:0:0:
468,319,246821,1,0,0:0:0:0:
454,356,246896,6,0,P|415:353|377:340,1,80,6|0,0:0|0:0,0:0:0:0:
359,303,247121,2,0,P|319:305|281:318,1,80,2|0,0:0|0:0,0:0:0:0:
262,352,247346,2,2,L|276:191,1,160,4|2,0:0|0:0,0:0:0:0:
168,255,247796,2,2,L|155:166,1,80,4|2,0:0|0:0,0:0:0:0:
44,50,248096,6,2,B|310:9|168:337|533:212,1,560,4|0,0:0|0:0,0:0:0:0:
390,30,249296,6,0,P|373:69|371:118,1,80,6|0,0:0|0:0,0:0:0:0:
438,205,249596,2,0,P|454:168|458:129,1,80,2|0,0:0|0:0,0:0:0:0:
464,12,249896,1,6,0:0:0:0:
424,9,249971,1,0,0:0:0:0:
390,30,250046,1,0,0:0:0:0:
367,63,250121,1,0,0:0:0:0:
359,102,250196,1,2,0:0:0:0:
325,123,250271,1,0,0:0:0:0:
285,126,250346,1,0,0:0:0:0:
250,105,250421,1,0,0:0:0:0:
230,68,250496,6,2,P|163:26|34:182,1,320,4|0,0:0|0:0,0:0:0:0:
7,250,251246,1,2,0:0:0:0:
82,224,251396,1,4,0:0:0:0:
127,289,251546,1,2,0:0:0:0:
200,192,251696,6,2,P|352:214|427:349,1,320,4|0,0:0|0:0,0:0:0:0:
352,376,252446,1,0,0:0:0:0:
293,271,252596,1,4,0:0:0:0:
293,271,252671,1,0,0:0:0:0:
293,271,252746,1,0,0:0:0:0:
293,271,252821,1,0,0:0:0:0:
293,271,252896,5,6,0:0:0:0:
312,235,252971,1,0,0:0:0:0:
344,211,253046,1,0,0:0:0:0:
384,211,253121,1,0,0:0:0:0:
422,223,253196,1,2,0:0:0:0:
460,212,253271,1,0,0:0:0:0:
480,177,253346,1,0,0:0:0:0:
478,137,253421,1,0,0:0:0:0:
463,99,253496,6,0,P|440:99|414:105,3,40,6|0|0|0,0:0|0:0|0:0|0:0,0:0:0:0:
386,118,253796,1,2,0:0:0:0:
394,78,253871,1,0,0:0:0:0:
388,38,253946,1,0,0:0:0:0:
353,17,254021,1,0,0:0:0:0:
313,12,254096,6,2,L|292:135,1,120,4|0,0:0|0:0,0:0:0:0:
294,170,254396,1,2,0:0:0:0:
259,149,254471,1,0,0:0:0:0:
219,152,254546,1,0,0:0:0:0:
187,177,254621,1,0,0:0:0:0:
180,216,254696,2,2,P|82:222|32:343,1,240,4|0,0:0|0:0,0:0:0:0:
191,370,255296,5,4,0:0:0:0:
206,332,255371,1,0,0:0:0:0:
189,295,255446,1,2,0:0:0:0:
152,278,255521,1,0,0:0:0:0:
113,288,255596,1,0,0:0:0:0:
73,283,255671,1,0,0:0:0:0:
46,253,255746,1,2,0:0:0:0:
43,213,255821,1,0,0:0:0:0:
66,180,255896,1,6,0:0:0:0:
104,169,255971,1,0,0:0:0:0:
130,139,256046,1,0,0:0:0:0:
131,99,256121,1,0,0:0:0:0:
109,65,256196,2,0,P|88:67|62:81,3,40,2|0|0|0,0:0|0:0|0:0|0:0,0:0:0:0:
1,62,256496,5,4,0:0:0:0:
1,101,256571,1,0,0:0:0:0:
24,133,256646,1,2,0:0:0:0:
59,151,256721,1,0,0:0:0:0:
98,158,256796,1,0,0:0:0:0:
137,153,256871,1,0,0:0:0:0:
173,135,256946,1,2,0:0:0:0:
196,102,257021,1,0,0:0:0:0:
201,62,257096,5,6,0:0:0:0:
226,93,257171,1,0,0:0:0:0:
262,110,257246,1,0,0:0:0:0:
301,106,257321,1,0,0:0:0:0:
337,90,257396,1,2,0:0:0:0:
355,54,257471,1,0,0:0:0:0:
351,14,257546,1,0,0:0:0:0:
351,14,257621,1,0,0:0:0:0:
351,14,257696,6,2,P|396:119|515:137,1,240,4|0,0:0|0:0,0:0:0:0:
467,70,258221,1,0,0:0:0:0:
467,70,258296,2,2,P|404:168|418:285,1,240,4|2,0:0|0:0,0:0:0:0:
503,369,258896,5,6,0:0:0:0:
468,349,258971,1,0,0:0:0:0:
428,346,259046,1,0,0:0:0:0:
388,351,259121,1,0,0:0:0:0:
354,372,259196,1,0,0:0:0:0:
331,338,259271,1,0,0:0:0:0:
298,315,259346,1,6,0:0:0:0:
258,316,259421,1,0,0:0:0:0:
226,340,259496,5,0,0:0:0:0:
187,351,259571,1,0,0:0:0:0:
147,346,259646,1,0,0:0:0:0:
119,317,259721,1,0,0:0:0:0:
94,285,259796,1,6,0:0:0:0:
54,283,259871,1,0,0:0:0:0:
26,312,259946,1,0,0:0:0:0:
23,351,260021,1,0,0:0:0:0:
23,351,260096,5,4,0:0:0:0:
256,192,260171,12,0,262196,2:0:0:0:
180,121,262346,5,0,0:0:0:0:
180,121,262496,2,0,P|176:161|166:201,1,80,6|0,0:0|0:0,0:0:0:0:
96,159,262796,2,0,P|89:198|88:239,1,80,2|0,0:0|0:0,0:0:0:0:
58,312,263096,1,0,0:0:0:0:
58,312,263246,1,2,0:0:0:0:
135,292,263396,1,0,0:0:0:0:
193,346,263546,1,2,0:0:0:0:
302,297,263696,5,4,0:0:0:0:
364,347,263846,2,2,P|441:352|495:297,1,160,0|2,0:0|0:0,0:0:0:0:
484,218,264296,1,0,0:0:0:0:
410,186,264446,1,0,0:0:0:0:
380,111,264596,1,4,0:0:0:0:
400,76,264671,1,0,0:0:0:0:
434,54,264746,1,0,0:0:0:0:
472,63,264821,1,0,0:0:0:0:
507,80,264896,6,0,P|507:119|492:156,1,80,6|0,0:0|0:0,0:0:0:0:
410,186,265196,2,0,P|370:186|333:171,1,80,2|0,0:0|0:0,0:0:0:0:
284,107,265496,1,0,0:0:0:0:
284,107,265646,1,2,0:0:0:0:
216,150,265796,1,0,0:0:0:0:
224,229,265946,1,2,0:0:0:0:
272,292,266096,2,0,L|362:301,1,80,6|0,0:0|0:0,0:0:0:0:
249,363,266396,2,0,L|169:370,1,80,2|0,0:0|0:0,0:0:0:0:
97,334,266696,1,6,0:0:0:0:
25,370,266846,1,0,0:0:0:0:
0,212,266996,1,2,0:0:0:0:
0,212,267071,1,0,0:0:0:0:
0,212,267146,1,0,0:0:0:0:
0,212,267221,1,0,0:0:0:0:
0,212,267296,6,0,P|19:216|39:218,1,40,6|0,0:0|0:0,0:0:0:0:
116,196,267446,2,0,L|109:142,5,40
76,80,267896,6,0,P|95:75|115:73,1,40,6|0,0:0|0:0,0:0:0:0:
194,93,268046,2,0,L|199:53,3,40,6|0|0|0,0:0|0:0|0:0|0:0,0:0:0:0:
266,10,268346,2,0,P|285:8|304:14,1,40
346,82,268496,5,6,0:0:0:0:
384,91,268571,1,0,0:0:0:0:
422,81,268646,1,0,0:0:0:0:
452,55,268721,1,0,0:0:0:0:
465,17,268796,2,0,P|483:25|500:44,3,40,6|0|0|0,0:0|0:0|0:0|0:0,0:0:0:0:
500,103,269096,2,0,P|498:122|504:141,3,40,6|0|0|0,0:0|0:0|0:0|0:0,0:0:0:0:
502,205,269396,2,0,L|463:199,1,40,6|0,0:0|0:0,0:0:0:0:
400,178,269546,6,0,P|359:245|384:323,1,160,6|0,0:0|0:0,0:0:0:0:
496,355,269996,1,0,0:0:0:0:
460,335,270071,1,0,0:0:0:0:
421,322,270146,1,0,0:0:0:0:
380,319,270221,1,0,0:0:0:0:
341,329,270296,1,0,0:0:0:0:
308,352,270371,1,0,0:0:0:0:
268,356,270446,1,0,0:0:0:0:
230,342,270521,1,0,0:0:0:0:
208,307,270596,1,2,0:0:0:0:
99,357,270746,6,0,P|113:280|86:191,1,160,6|0,0:0|0:0,0:0:0:0:
8,115,271196,1,0,0:0:0:0:
12,75,271271,1,0,0:0:0:0:
34,41,271346,1,0,0:0:0:0:
72,30,271421,1,0,0:0:0:0:
111,31,271496,1,0,0:0:0:0:
145,50,271571,1,0,0:0:0:0:
165,84,271646,1,0,0:0:0:0:
164,123,271721,1,0,0:0:0:0:
140,155,271796,1,0,0:0:0:0:
62,175,271946,1,2,0:0:0:0:
13,284,272096,6,0,P|10:318|23:364,1,80,6|0,0:0|0:0,0:0:0:0:
101,347,272396,2,0,P|104:313|91:267,1,80,2|0,0:0|0:0,0:0:0:0:
37,210,272696,2,2,P|107:239|203:229,1,160,4|0,0:0|0:0,0:0:0:0:
306,262,273146,6,2,L|276:89,1,160,4|0,0:0|0:0,0:0:0:0:
325,39,273596,1,6,0:0:0:0:
361,22,273671,1,0,0:0:0:0:
400,22,273746,1,0,0:0:0:0:
435,40,273821,1,0,0:0:0:0:
460,70,273896,2,0,L|455:110,3,40,6|0|0|0,0:0|0:0|0:0|0:0,0:0:0:0:
484,166,274196,2,0,L|479:206,1,40,6|0,0:0|0:0,0:0:0:0:
439,256,274346,6,0,P|461:319|390:377,1,160,6|0,0:0|0:0,0:0:0:0:
281,367,274796,1,0,0:0:0:0:
251,339,274871,1,0,0:0:0:0:
243,299,274946,1,0,0:0:0:0:
251,259,275021,1,0,0:0:0:0:
273,225,275096,1,0,0:0:0:0:
309,209,275171,1,0,0:0:0:0:
348,213,275246,1,0,0:0:0:0:
386,202,275321,1,0,0:0:0:0:
410,170,275396,1,2,0:0:0:0:
358,61,275546,6,0,P|294:38|213:88,1,160,6|0,0:0|0:0,0:0:0:0:
182,194,275996,1,0,0:0:0:0:
191,232,276071,1,0,0:0:0:0:
183,271,276146,1,0,0:0:0:0:
164,306,276221,1,0,0:0:0:0:
130,327,276296,1,0,0:0:0:0:
90,320,276371,1,0,0:0:0:0:
67,287,276446,1,0,0:0:0:0:
73,247,276521,1,0,0:0:0:0:
103,221,276596,1,0,0:0:0:0:
182,194,276746,1,2,0:0:0:0:
193,73,276896,6,0,P|168:43|131:29,1,80,6|0,0:0|0:0,0:0:0:0:
74,86,277196,2,0,P|90:122|122:144,1,80,2|0,0:0|0:0,0:0:0:0:
256,50,277496,2,0,P|308:27|412:53,1,160,6|0,0:0|0:0,0:0:0:0:
463,103,277946,1,2,0:0:0:0:
417,213,278096,5,6,0:0:0:0:
417,213,278171,1,0,0:0:0:0:
417,213,278246,2,0,L|329:192,1,80
226,308,278546,1,6,0:0:0:0:
226,308,278621,1,0,0:0:0:0:
226,308,278696,2,0,L|314:287,1,80
339,271,278921,1,0,0:0:0:0:
378,274,278996,1,2,0:0:0:0:
408,299,279071,1,0,0:0:0:0:
416,338,279146,1,0,0:0:0:0:
402,375,279221,1,0,0:0:0:0:
361,379,279296,6,0,P|326:361|287:362,1,80,4|0,0:0|0:0,0:0:0:0:
226,308,279596,2,0,P|188:320|160:348,1,80,2|0,0:0|0:0,0:0:0:0:
82,366,279896,2,0,P|48:344|29:309,1,80,6|0,0:0|0:0,0:0:0:0:
22,228,280196,1,2,0:0:0:0:
87,127,280346,2,0,P|108:199|127:293,2,160,4|2|2,0:0|0:0|0:0,0:0:0:0:
18,83,281096,1,4,0:0:0:0:
38,5,281246,1,0,0:0:0:0:
38,5,281321,1,0,0:0:0:0:
38,5,281396,1,2,0:0:0:0:
117,9,281546,1,0,0:0:0:0:
169,117,281696,6,2,P|247:124|322:85,1,160,4|0,0:0|0:0,0:0:0:0:
421,28,282146,2,0,P|419:67|413:107,1,80,2|4,0:0|0:0,0:0:0:0:
477,154,282446,2,0,P|442:133|412:107,1,80,2|0,0:0|0:0,0:0:0:0:
340,141,282746,2,0,P|375:121|412:107,1,80,6|0,0:0|0:0,0:0:0:0:
471,226,283046,2,0,P|435:245|398:259,1,80,2|0,0:0|0:0,0:0:0:0:
320,240,283346,1,2,0:0:0:0:
205,203,283496,1,4,0:0:0:0:
181,235,283571,1,0,0:0:0:0:
178,274,283646,1,0,0:0:0:0:
189,312,283721,1,0,0:0:0:0:
215,341,283796,2,0,L|197:379,3,40,6|0|0|0,0:0|0:0|0:0|0:0,0:0:0:0:
131,374,284096,6,0,P|109:342|72:330,1,80,6|0,0:0|0:0,0:0:0:0:
11,278,284396,1,0,0:0:0:0:
45,205,284546,2,2,P|105:204|161:293,1,160,0|2,0:0|0:0,0:0:0:0:
211,341,284996,1,0,0:0:0:0:
330,350,285146,2,2,P|384:295|392:216,1,160,4|2,0:0|0:0,0:0:0:0:
344,153,285596,1,0,0:0:0:0:
273,115,285746,2,0,L|195:134,1,80,2|0,0:0|0:0,0:0:0:0:
122,166,286046,2,0,L|44:147,1,80,6|0,0:0|0:0,0:0:0:0:
44,147,286346,1,0,0:0:0:0:
116,12,286496,6,0,P|136:45|136:85,1,80,6|0,0:0|0:0,0:0:0:0:
7,213,286796,2,0,P|16:174|44:146,1,80,4|0,0:0|0:0,0:0:0:0:
191,284,287096,2,0,P|163:312|125:322,1,80,6|0,0:0|0:0,0:0:0:0:
195,133,287396,2,0,P|234:132|268:151,1,80,4|0,0:0|0:0,0:0:0:0:
348,337,287696,5,6,0:0:0:0:
385,349,287771,1,0,0:0:0:0:
424,341,287846,1,0,0:0:0:0:
459,323,287921,1,0,0:0:0:0:
481,290,287996,1,6,0:0:0:0:
484,250,288071,1,0,0:0:0:0:
469,212,288146,1,0,0:0:0:0:
437,187,288221,1,0,0:0:0:0:
397,182,288296,5,6,0:0:0:0:
367,206,288371,1,0,0:0:0:0:
327,212,288446,1,0,0:0:0:0:
288,199,288521,1,0,0:0:0:0:
272,161,288596,1,6,0:0:0:0:
346,19,288746,1,0,0:0:0:0:
346,19,288821,1,0,0:0:0:0:
346,19,288896,6,2,L|431:42,1,80,4|2,0:0|0:0,0:0:0:0:
496,72,289196,1,2,0:0:0:0:
496,72,289271,1,0,0:0:0:0:
496,72,289346,1,0,0:0:0:0:
499,151,289496,1,0,0:0:0:0:
437,202,289646,1,2,0:0:0:0:
365,166,289796,1,0,0:0:0:0:
352,46,289946,6,2,P|286:3|209:15,1,160,4|2,0:0|0:0,0:0:0:0:
153,73,290396,1,0,0:0:0:0:
171,215,290546,2,2,P|108:262|30:260,1,160,4|2,0:0|0:0,0:0:0:0:
2,185,290996,1,0,0:0:0:0:
34,111,291146,1,0,0:0:0:0:
135,47,291296,6,2,L|148:135,1,80,4|2,0:0|0:0,0:0:0:0:
159,205,291596,1,2,0:0:0:0:
159,205,291671,1,0,0:0:0:0:
159,205,291746,1,0,0:0:0:0:
83,179,291896,1,0,0:0:0:0:
32,241,292046,2,0,P|24:277|40:321,1,80,2|0,0:0|0:0,0:0:0:0:
169,376,292346,6,2,P|220:317|225:239,1,160,6|2,0:0|0:0,0:0:0:0:
181,171,292796,1,0,0:0:0:0:
219,101,292946,1,2,0:0:0:0:
219,101,293021,1,0,0:0:0:0:
219,101,293096,1,4,0:0:0:0:
297,114,293246,1,2,0:0:0:0:
313,192,293396,1,4,0:0:0:0:
242,230,293546,1,2,0:0:0:0:
269,346,293696,6,2,P|304:366|357:364,1,80,4|2,0:0|0:0,0:0:0:0:
419,344,293996,1,2,0:0:0:0:
419,344,294071,1,0,0:0:0:0:
419,344,294146,1,0,0:0:0:0:
384,271,294296,1,0,0:0:0:0:
422,201,294446,1,2,0:0:0:0:
310,245,294596,1,0,0:0:0:0:
310,245,294671,1,0,0:0:0:0:
310,245,294746,6,2,P|248:258|169:189,1,160,4|2,0:0|0:0,0:0:0:0:
156,125,295196,1,0,0:0:0:0:
244,11,295346,2,2,P|303:30|350:128,1,160,4|2,0:0|0:0,0:0:0:0:
315,183,295796,1,0,0:0:0:0:
315,183,295871,1,0,0:0:0:0:
315,183,295946,1,0,0:0:0:0:
435,182,296096,6,2,P|459:151|465:112,1,80,4|2,0:0|0:0,0:0:0:0:
463,32,296396,1,2,0:0:0:0:
463,32,296471,1,0,0:0:0:0:
463,32,296546,1,0,0:0:0:0:
387,6,296696,1,0,0:0:0:0:
323,54,296846,2,0,L|336:139,1,80,2|0,0:0|0:0,0:0:0:0:
392,265,297146,6,2,P|329:312|251:309,1,160,4|2,0:0|0:0,0:0:0:0:
193,254,297596,1,4,0:0:0:0:
158,233,297671,1,0,0:0:0:0:
118,229,297746,1,2,0:0:0:0:
84,250,297821,1,0,0:0:0:0:
66,285,297896,1,2,0:0:0:0:
10,178,298046,1,2,0:0:0:0:
10,178,298121,1,0,0:0:0:0:
10,178,298196,1,0,0:0:0:0:
94,42,298346,1,2,0:0:0:0:
94,42,298421,1,0,0:0:0:0:
94,42,298496,6,0,P|175:57|209:131,1,160,6|0,0:0|2:0,0:0:0:0:
134,307,298946,2,0,P|106:235|144:169,1,160,6|0,0:0|2:0,0:0:0:0:
345,141,299396,2,0,P|291:203|210:196,1,160,6|0,0:0|2:0,0:0:0:0:
257,4,299846,5,0,0:0:0:0:
259,99,299996,1,0,0:0:0:0:
345,140,300146,1,0,0:0:0:0:
437,115,300296,1,0,0:0:0:0:
458,21,300446,1,0,0:0:0:0:
255,372,300896,5,4,0:0:0:0:
255,372,301196,2,2,B|111:164|378:195|254:3,1,400,6|0,0:0|0:0,0:0:0:0:
