osu file format v14

[General]
AudioFilename: audio.mp3
AudioLeadIn: 0
PreviewTime: 45124
Countdown: 0
SampleSet: Soft
StackLeniency: 0.3
Mode: 0
LetterboxInBreaks: 0
WidescreenStoryboard: 1

[Editor]
Bookmarks: 217024
DistanceSpacing: 1.3
BeatDivisor: 4
GridSize: 4
TimelineZoom: 1.3

[Metadata]
Title:Extraction Zone
TitleUnicode:Extraction Zone
Artist:DragonForce
ArtistUnicode:DragonForce
Creator:09kami
Version:Legend
Source:
Tags:rice Herman Li deathstream extra insane speedmetal Maximum Overload
BeatmapID:1007522
BeatmapSetID:471344

[Difficulty]
HPDrainRate:6
CircleSize:5
OverallDifficulty:9
ApproachRate:9.5
SliderMultiplier:1.60000000596046
SliderTickRate:1

[Events]
//Background and Video events
0,0,"bg.png",0,0
//Break Periods
//Storyboard Layer 0 (Background)
//Storyboard Layer 1 (Fail)
//Storyboard Layer 2 (Pass)
//Storyboard Layer 3 (Foreground)
//Storyboard Sound Samples

[TimingPoints]
424,300,4,2,1,60,1,0
424,-200,4,2,1,60,0,0
4024,-400,4,2,1,60,0,0
5224,-100,4,2,1,60,0,0
45124,-100,4,2,1,80,0,1
45874,-100,4,2,1,90,0,1
46324,-100,4,2,1,80,0,1
46474,-100,4,2,1,70,0,1
46624,-100,4,2,1,60,0,1
46924,-100,4,2,1,80,0,1
47074,-100,4,2,1,90,0,1
47524,-100,4,2,1,80,0,1
47674,-100,4,2,1,70,0,1
47824,-100,4,2,1,60,0,1
48124,-100,4,2,1,80,0,1
50674,-100,4,2,1,90,0,1
51124,-100,4,2,1,80,0,1
51274,-100,4,2,1,70,0,1
51424,-100,4,2,1,60,0,1
51724,-100,4,2,1,80,0,1
51874,-100,4,2,1,90,0,1
52324,-100,4,2,1,80,0,1
52474,-100,4,2,1,70,0,1
52624,-100,4,2,1,60,0,1
52924,-100,4,2,1,80,0,1
66274,-133.333333333333,4,2,1,60,0,0
67624,-100,4,2,1,60,0,0
68374,-133.333333333333,4,2,1,60,0,0
70024,-100,4,2,1,60,0,0
70774,-133.333333333333,4,2,1,60,0,0
72424,-100,4,2,1,60,0,0
73174,-133.333333333333,4,2,1,60,0,0
74899,-133.333333333333,4,2,1,5,0,0
75274,-133.333333333333,4,2,1,60,0,0
75349,-133.333333333333,4,2,1,5,0,0
75724,-133.333333333333,4,2,1,40,0,0
75799,-133.333333333333,4,2,1,5,0,0
76174,-133.333333333333,4,2,1,80,0,0
76924,-100,4,2,1,30,0,0
77224,-125,4,2,1,20,0,0
77524,-166.666666666667,4,2,1,10,0,0
77824,300,4,2,1,80,1,0
77824,-100,4,2,1,80,0,0
96124,-100,4,2,1,80,0,1
96874,-100,4,2,1,90,0,1
97324,-100,4,2,1,80,0,1
97474,-100,4,2,1,70,0,1
97624,-100,4,2,1,60,0,1
97924,-100,4,2,1,80,0,1
98074,-100,4,2,1,90,0,1
98524,-100,4,2,1,80,0,1
98674,-100,4,2,1,70,0,1
98824,-100,4,2,1,60,0,1
99124,-100,4,2,1,80,0,1
101674,-100,4,2,1,90,0,1
102124,-100,4,2,1,80,0,1
102274,-100,4,2,1,70,0,1
102424,-100,4,2,1,60,0,1
102724,-100,4,2,1,80,0,1
102874,-100,4,2,1,90,0,1
103324,-100,4,2,1,80,0,1
103474,-100,4,2,1,70,0,1
103624,-100,4,2,1,60,0,1
103924,-100,4,2,1,80,0,1
116224,600,4,2,1,50,1,0
125824,-66.6666666666667,4,2,1,50,0,0
145024,-100,4,2,1,50,0,0
147424,-66.6666666666667,4,2,1,50,0,0
155824,-66.6666666666667,4,2,1,50,0,0
157024,-66.6666666666667,4,2,1,60,0,0
161824,300,4,2,1,70,1,0
161824,-100,4,2,1,70,0,0
164224,300,4,2,1,80,1,0
164224,-100,4,2,1,80,0,0
183424,-100,4,2,1,80,0,0
202324,-100,4,2,1,80,0,0
202624,600,4,2,1,80,1,0
202699,-100,4,2,1,10,0,0
207124,-100,4,2,1,5,0,0
207424,-100,4,2,1,15,0,0
212224,-100,4,2,1,80,0,0
217024,300,4,2,1,80,1,0
217024,-200,4,2,1,80,0,0
221824,-90.9090909090909,4,2,1,80,0,1
231424,-90.9090909090909,4,2,1,80,0,0
236224,-90.9090909090909,4,2,1,80,0,1
238324,-133.333333333333,4,2,1,80,0,1
238624,-90.9090909090909,4,2,1,80,0,1
241024,-90.9090909090909,4,2,1,80,0,0
248224,-90.9090909090909,4,2,1,80,0,1
254224,-133.333333333333,4,2,1,80,0,1
254524,-90.9090909090909,4,2,1,80,0,1
257824,-66.6666666666667,4,2,1,80,0,0
258424,-133.333333333333,4,2,1,80,0,0
259024,-90.9090909090909,4,2,1,60,0,0
259174,-90.9090909090909,4,2,1,55,0,0
259324,-90.9090909090909,4,2,1,50,0,0
259474,-90.9090909090909,4,2,1,45,0,0
259624,-90.9090909090909,4,2,1,40,0,0
259924,-90.9090909090909,4,2,1,35,0,0
260224,-90.9090909090909,4,2,1,60,0,0
262624,-90.9090909090909,4,2,1,70,0,0
268924,-90.9090909090909,4,2,1,80,0,1
269674,-90.9090909090909,4,2,1,90,0,1
270124,-90.9090909090909,4,2,1,80,0,1
270274,-90.9090909090909,4,2,1,70,0,1
270424,-90.9090909090909,4,2,1,60,0,1
270724,-90.9090909090909,4,2,1,80,0,1
270874,-90.9090909090909,4,2,1,90,0,1
271324,-90.9090909090909,4,2,1,80,0,1
271474,-90.9090909090909,4,2,1,70,0,1
271624,-90.9090909090909,4,2,1,60,0,1
271924,-90.9090909090909,4,2,1,80,0,1
274474,-90.9090909090909,4,2,1,90,0,1
274924,-90.9090909090909,4,2,1,80,0,1
275074,-90.9090909090909,4,2,1,70,0,1
275224,-90.9090909090909,4,2,1,60,0,1
275524,-90.9090909090909,4,2,1,80,0,1
275674,-90.9090909090909,4,2,1,90,0,1
276124,-90.9090909090909,4,2,1,80,0,1
276274,-90.9090909090909,4,2,1,70,0,1
276424,-90.9090909090909,4,2,1,60,0,1
276724,-90.9090909090909,4,2,1,80,0,1
289024,-100,4,2,1,60,0,0
298699,-100,4,2,1,5,0,0
299074,-76.9230769230769,4,2,1,80,0,0
299149,-76.9230769230769,4,2,1,5,0,0
299524,-62.5,4,2,1,70,0,0
299599,-62.5,4,2,1,5,0,0
299974,-100,4,2,1,60,0,0
301774,-100,4,2,1,20,0,0
301924,-100,4,2,1,5,0,0

[Colours]
Combo1 : 128,128,192
Combo2 : 104,104,104
Combo3 : 0,124,185

[HitObjects]
96,120,424,6,0,B|124:120|124:120|188:136|188:136|220:136,1,120.000000447035,8|0,0:0|0:0,0:0:0:0:
464,88,1024,6,0,L|452:180,1,80.0000002980232,2|0,0:0|0:0,0:0:0:0:
320,304,1624,6,0,L|308:136,1,160.000000596046,8|2,0:0|0:0,0:0:0:0:
308,144,2824,5,12,0:0:0:0:
272,160,3124,1,4,0:0:0:0:
251,153,3424,1,6,0:0:0:0:
233,156,3724,1,4,0:0:0:0:
223,155,4024,6,0,L|212:130,1,20.0000000745057,8|0,0:0|0:0,0:0:0:0:
52,168,4624,2,0,P|33:199|25:228,1,60.0000002235172,2|0,0:0|0:0,0:0:0:0:
76,336,5224,5,4,0:0:0:0:
108,324,5299,1,0,0:0:0:0:
144,324,5374,1,0,0:0:0:0:
180,336,5449,1,0,0:0:0:0:
216,348,5524,1,2,0:0:0:0:
252,348,5599,1,0,0:0:0:0:
288,340,5674,1,0,0:0:0:0:
316,316,5749,1,0,0:0:0:0:
332,284,5824,1,4,0:0:0:0:
328,248,5899,1,0,0:0:0:0:
308,216,5974,1,0,0:0:0:0:
292,184,6049,1,0,0:0:0:0:
288,148,6124,1,2,0:0:0:0:
304,116,6199,1,0,0:0:0:0:
332,92,6274,1,0,0:0:0:0:
368,84,6349,1,0,0:0:0:0:
387,118,6424,5,4,0:0:0:0:
389,157,6499,1,0,0:0:0:0:
373,194,6574,1,0,0:0:0:0:
339,215,6649,1,0,0:0:0:0:
299,222,6724,1,2,0:0:0:0:
260,211,6799,1,0,0:0:0:0:
230,183,6874,1,0,0:0:0:0:
222,143,6949,1,0,0:0:0:0:
204,107,7024,1,4,0:0:0:0:
176,78,7099,1,0,0:0:0:0:
137,66,7174,1,0,0:0:0:0:
97,66,7249,1,0,0:0:0:0:
60,82,7324,1,2,0:0:0:0:
33,112,7399,1,0,0:0:0:0:
22,150,7474,1,0,0:0:0:0:
20,189,7549,1,0,0:0:0:0:
50,180,7624,5,4,0:0:0:0:
81,179,7699,1,0,0:0:0:0:
111,189,7774,1,0,0:0:0:0:
138,205,7849,1,0,0:0:0:0:
167,217,7924,1,2,0:0:0:0:
197,227,7999,1,0,0:0:0:0:
228,224,8074,1,0,0:0:0:0:
259,222,8149,1,0,0:0:0:0:
288,209,8224,1,4,0:0:0:0:
314,191,8299,1,0,0:0:0:0:
342,176,8374,1,0,0:0:0:0:
373,171,8449,1,0,0:0:0:0:
405,171,8524,1,2,0:0:0:0:
435,181,8599,1,0,0:0:0:0:
459,201,8674,1,0,0:0:0:0:
472,230,8749,1,0,0:0:0:0:
441,249,8824,5,4,0:0:0:0:
407,262,8899,1,0,0:0:0:0:
371,262,8974,1,0,0:0:0:0:
337,250,9049,1,0,0:0:0:0:
303,237,9124,1,2,0:0:0:0:
269,224,9199,1,0,0:0:0:0:
233,220,9274,1,0,0:0:0:0:
197,223,9349,1,0,0:0:0:0:
164,239,9424,1,4,0:0:0:0:
135,260,9499,1,0,0:0:0:0:
99,264,9574,1,0,0:0:0:0:
63,257,9649,1,0,0:0:0:0:
29,243,9724,1,2,0:0:0:0:
13,210,9799,1,0,0:0:0:0:
6,174,9874,2,0,L|18:134,1,40.0000001490115
88,24,10024,5,12,0:0:0:0:
114,48,10099,1,0,0:0:0:0:
143,68,10174,1,0,0:0:0:0:
177,77,10249,1,0,0:0:0:0:
212,78,10324,1,2,0:0:0:0:
246,69,10399,1,0,0:0:0:0:
274,46,10474,1,0,0:0:0:0:
300,22,10549,1,0,0:0:0:0:
335,14,10624,1,4,0:0:0:0:
370,16,10699,1,0,0:0:0:0:
404,26,10774,1,0,0:0:0:0:
425,54,10849,1,0,0:0:0:0:
425,89,10924,1,2,0:0:0:0:
406,120,10999,1,0,0:0:0:0:
372,134,11074,1,0,0:0:0:0:
336,120,11149,1,0,0:0:0:0:
300,118,11224,5,4,0:0:0:0:
327,139,11299,1,0,0:0:0:0:
346,171,11374,1,0,0:0:0:0:
351,206,11449,1,0,0:0:0:0:
348,243,11524,1,2,0:0:0:0:
333,276,11599,1,0,0:0:0:0:
305,296,11674,1,0,0:0:0:0:
270,302,11749,1,0,0:0:0:0:
233,298,11824,1,4,0:0:0:0:
203,276,11899,1,0,0:0:0:0:
184,244,11974,1,0,0:0:0:0:
178,209,12049,1,0,0:0:0:0:
159,177,12124,1,2,0:0:0:0:
135,148,12199,1,0,0:0:0:0:
99,141,12274,1,0,0:0:0:0:
64,146,12349,1,0,0:0:0:0:
43,173,12424,5,4,0:0:0:0:
70,178,12499,1,0,0:0:0:0:
98,183,12574,1,0,0:0:0:0:
126,188,12649,1,0,0:0:0:0:
154,192,12724,1,2,0:0:0:0:
182,197,12799,1,0,0:0:0:0:
210,202,12874,1,0,0:0:0:0:
238,207,12949,1,0,0:0:0:0:
265,212,13024,1,4,0:0:0:0:
293,217,13099,1,0,0:0:0:0:
321,221,13174,1,0,0:0:0:0:
349,226,13249,1,0,0:0:0:0:
377,231,13324,1,2,0:0:0:0:
405,236,13399,1,0,0:0:0:0:
433,241,13474,1,0,0:0:0:0:
461,246,13549,1,0,0:0:0:0:
484,265,13624,6,0,L|462:360,1,80.000000298023,12|0,0:0|0:0,0:0:0:0:
28,80,14224,6,0,L|40:164,1,80.000000298023,12|0,0:0|0:0,0:0:0:0:
256,192,14824,12,0,17074,0:0:0:0:
112,144,17224,5,12,0:0:0:0:
180,328,17374,1,0,0:0:0:0:
76,296,17524,1,4,0:0:0:0:
88,272,17599,1,0,0:0:0:0:
100,248,17674,1,0,0:0:0:0:
344,224,17824,2,0,L|364:316,1,80.000000298023,2|0,0:0|0:0,0:0:0:0:
236,256,18124,1,4,0:0:0:0:
240,228,18199,1,0,0:0:0:0:
244,200,18274,1,0,0:0:0:0:
436,124,18424,6,0,B|396:120|396:120|340:136|340:136|304:128,1,120.000000447034,12|0,0:0|0:0,0:0:0:0:
208,128,18724,2,0,P|247:108|265:73,1,80.000000298023,4|0,0:0|0:0,0:0:0:0:
76,44,19024,1,2,0:0:0:0:
112,144,19174,1,0,0:0:0:0:
88,272,19324,1,4,0:0:0:0:
112,284,19399,1,0,0:0:0:0:
136,296,19474,1,0,0:0:0:0:
160,308,19549,1,0,0:0:0:0:
184,320,19624,2,0,B|272:320,1,80.000000298023,8|0,0:0|0:0,0:0:0:0:
456,336,19924,5,4,0:0:0:0:
428,344,19999,1,0,0:0:0:0:
400,352,20074,1,0,0:0:0:0:
380,256,20224,1,2,0:0:0:0:
350,256,20299,1,0,0:0:0:0:
321,256,20374,1,0,0:0:0:0:
327,159,20524,1,4,0:0:0:0:
298,151,20599,1,0,0:0:0:0:
270,143,20674,1,0,0:0:0:0:
299,51,20824,5,8,0:0:0:0:
248,224,20974,1,8,0:0:0:0:
420,160,21124,1,4,0:0:0:0:
184,64,21274,2,0,L|200:152,1,80.000000298023,0|2,0:0|0:0,0:0:0:0:
457,310,21574,2,0,L|472:232,2,80.000000298023,0|2|0,0:0|0:0|0:0,0:0:0:0:
309,363,22024,5,8,0:0:0:0:
179,290,22174,2,0,L|170:235,1,40.0000001490115
235,121,22324,2,0,P|244:168|229:204,1,80.000000298023,4|0,0:0|0:0,0:0:0:0:
15,366,22624,6,0,L|141:349,1,120.000000447034,10|0,0:0|0:0,0:0:0:0:
18,189,22924,2,0,P|16:229|27:268,1,80.000000298023,4|0,0:0|0:0,0:0:0:0:
216,184,23224,5,8,0:0:0:0:
216,184,23374,2,0,P|256:180|308:200,1,80.000000298023,0|4,0:0|0:0,0:0:0:0:
353,326,23674,2,0,P|329:293|320:238,1,80.000000298023,0|2,0:0|0:0,0:0:0:0:
407,136,23974,2,0,P|390:172|347:207,1,80.000000298023,0|4,0:0|0:0,0:0:0:0:
361,199,24274,1,0,0:0:0:0:
484,56,24424,5,10,0:0:0:0:
480,104,24499,1,0,0:0:0:0:
476,152,24574,1,0,0:0:0:0:
472,200,24649,1,0,0:0:0:0:
468,248,24724,2,0,L|391:229,1,80.000000298023
192,148,25024,5,12,0:0:0:0:
196,196,25099,1,0,0:0:0:0:
200,244,25174,1,0,0:0:0:0:
204,292,25249,1,0,0:0:0:0:
208,340,25324,2,0,L|289:325,1,80.000000298023
348,96,25624,5,10,0:0:0:0:
301,84,25699,1,0,0:0:0:0:
254,73,25774,1,0,0:0:0:0:
207,62,25849,1,0,0:0:0:0:
160,51,25924,2,0,L|126:128,1,80.000000298023
12,289,26224,5,12,0:0:0:0:
59,277,26299,1,0,0:0:0:0:
106,266,26374,1,0,0:0:0:0:
153,255,26449,1,0,0:0:0:0:
200,244,26524,2,0,L|237:153,1,80.000000298023
332,324,26824,5,8,0:0:0:0:
416,140,26974,1,0,0:0:0:0:
248,140,27124,1,4,0:0:0:0:
272,248,27274,1,0,0:0:0:0:
120,292,27424,5,2,0:0:0:0:
152,116,27574,1,0,0:0:0:0:
300,48,27724,1,4,0:0:0:0:
306,75,27799,1,0,0:0:0:0:
313,102,27874,1,0,0:0:0:0:
320,130,27949,1,0,0:0:0:0:
323,159,28024,2,0,P|357:179|375:224,1,80.000000298023,8|8,0:0|0:0,0:0:0:0:
332,324,28249,1,0,0:0:0:0:
332,324,28324,2,0,P|384:292|412:296,1,80.000000298023,4|0,0:0|0:0,0:0:0:0:
256,356,28624,6,0,L|156:348,1,80.000000298023,2|0,0:0|0:0,0:0:0:0:
32,200,28924,2,0,L|132:192,1,80.000000298023,4|0,0:0|0:0,0:0:0:0:
88,312,29224,5,8,0:0:0:0:
120,80,29374,1,0,0:0:0:0:
260,144,29524,1,4,0:0:0:0:
220,264,29674,1,0,0:0:0:0:
52,132,29824,5,2,0:0:0:0:
80,140,29899,1,0,0:0:0:0:
108,148,29974,1,0,0:0:0:0:
139,143,30049,1,0,0:0:0:0:
167,133,30124,1,4,0:0:0:0:
269,74,30274,1,0,0:0:0:0:
392,132,30424,6,0,L|356:216,1,80.000000298023,8|8,0:0|0:0,0:0:0:0:
464,312,30724,1,4,0:0:0:0:
460,284,30799,1,0,0:0:0:0:
456,256,30874,2,0,L|452:216,1,40.0000001490115
500,144,31024,5,2,0:0:0:0:
316,120,31174,1,0,0:0:0:0:
224,264,31324,5,0,0:0:0:0:
40,288,31474,1,4,0:0:0:0:
120,360,31624,6,0,L|136:280,1,80.000000298023,8|0,0:0|0:0,0:0:0:0:
64,140,31924,1,4,0:0:0:0:
68,168,31999,1,0,0:0:0:0:
72,196,32074,1,0,0:0:0:0:
224,148,32224,2,0,L|244:64,1,80.000000298023,2|0,0:0|0:0,0:0:0:0:
60,112,32524,1,4,0:0:0:0:
64,140,32599,1,0,0:0:0:0:
68,168,32674,1,0,0:0:0:0:
72,196,32749,1,0,0:0:0:0:
76,224,32824,6,0,L|168:208,1,80.000000298023,8|8,0:0|0:0,0:0:0:0:
224,148,33049,1,0,0:0:0:0:
224,148,33124,2,0,L|272:156,1,40.0000001490115,4|0,0:0|0:0,0:0:0:0:
312,208,33274,1,0,0:0:0:0:
352,16,33424,1,2,0:0:0:0:
480,60,33574,1,0,0:0:0:0:
440,168,33724,1,4,0:0:0:0:
512,344,33874,1,0,0:0:0:0:
420,284,34024,5,12,0:0:0:0:
372,292,34099,1,0,0:0:0:0:
324,300,34174,1,0,0:0:0:0:
276,308,34249,1,0,0:0:0:0:
228,316,34324,2,0,L|266:237,1,80.000000298023
40,136,34624,5,10,0:0:0:0:
88,136,34699,1,0,0:0:0:0:
137,136,34774,1,0,0:0:0:0:
185,137,34849,1,0,0:0:0:0:
234,137,34924,2,0,L|208:51,1,80.000000298023
404,28,35224,5,12,0:0:0:0:
396,76,35299,1,0,0:0:0:0:
388,124,35374,1,0,0:0:0:0:
382,172,35449,1,0,0:0:0:0:
374,220,35524,2,0,L|358:312,1,80.000000298023
118,328,35824,5,10,0:0:0:0:
110,280,35899,1,0,0:0:0:0:
102,232,35974,1,0,0:0:0:0:
96,184,36049,1,0,0:0:0:0:
88,136,36124,2,0,L|177:175,1,80.000000298023
396,76,36424,6,0,B|360:52|304:96|264:68,1,120.000000447034,8|0,0:0|0:0,0:0:0:0:
176,32,36724,2,0,P|204:80|204:124,1,80.000000298023,2|0,0:0|0:0,0:0:0:0:
160,172,36949,1,0,0:0:0:0:
160,172,37024,2,0,L|184:256,1,80.000000298023,8|0,0:0|0:0,0:0:0:0:
110,280,37249,1,0,0:0:0:0:
110,280,37324,2,0,L|172:336,1,80.000000298023,2|0,0:0|0:0,0:0:0:0:
52,352,37624,5,8,0:0:0:0:
284,288,37774,1,0,0:0:0:0:
312,296,37849,1,0,0:0:0:0:
340,304,37924,1,4,0:0:0:0:
368,312,37999,1,0,0:0:0:0:
396,320,38074,2,0,P|416:312|428:296,1,40.0000001490115
412,176,38224,2,0,P|396:191|391:210,1,40.0000001490115,8|0,0:0|0:0,0:0:0:0:
424,328,38374,2,0,P|444:320|456:304,1,40.0000001490115
440,184,38524,2,0,P|424:199|419:218,1,40.0000001490115,4|0,0:0|0:0,0:0:0:0:
452,336,38674,2,0,P|472:328|484:312,1,40.0000001490115
336,208,38824,6,0,B|288:220|288:220|264:208|264:208|212:220,1,120.000000447034,8|0,0:0|0:0,0:0:0:0:
156,304,39124,2,0,P|146:253|154:220,1,80.000000298023,2|0,0:0|0:0,0:0:0:0:
90,192,39349,1,0,0:0:0:0:
90,192,39424,2,0,P|111:145|136:122,1,80.000000298023,8|0,0:0|0:0,0:0:0:0:
101,62,39649,1,0,0:0:0:0:
101,62,39724,2,0,P|145:35|179:31,1,80.000000298023,2|0,0:0|0:0,0:0:0:0:
392,52,40024,5,8,0:0:0:0:
408,272,40174,1,8,0:0:0:0:
228,224,40324,1,4,0:0:0:0:
264,84,40474,2,0,L|336:128,1,80.000000298023,0|8,0:0|0:0,0:0:0:0:
488,108,40774,1,0,0:0:0:0:
472,140,40849,1,0,0:0:0:0:
460,172,40924,1,4,0:0:0:0:
460,208,40999,1,0,0:0:0:0:
472,240,41074,2,0,L|416:252,1,40.0000001490115
286,263,41224,6,0,P|334:251|382:271,1,80.000000298023,8|0,0:0|0:0,0:0:0:0:
324,368,41524,1,2,0:0:0:0:
324,368,41599,1,0,0:0:0:0:
324,368,41674,1,0,0:0:0:0:
288,192,41824,1,8,0:0:0:0:
260,185,41899,1,0,0:0:0:0:
232,188,41974,1,0,0:0:0:0:
131,281,42124,1,2,0:0:0:0:
103,276,42199,1,0,0:0:0:0:
77,262,42274,1,0,0:0:0:0:
48,136,42424,5,12,0:0:0:0:
76,132,42499,1,0,0:0:0:0:
104,128,42574,2,0,L|152:120,1,40.0000001490115
216,80,42724,5,12,0:0:0:0:
244,84,42799,1,0,0:0:0:0:
272,88,42874,2,0,L|320:96,1,40.0000001490115
400,80,43024,5,12,0:0:0:0:
394,107,43099,1,0,0:0:0:0:
388,135,43174,2,0,L|376:182,1,40.0000001490115
288,192,43324,5,12,0:0:0:0:
294,219,43399,1,0,0:0:0:0:
300,247,43474,2,0,L|311:294,1,40.0000001490115
388,312,43624,5,2,0:0:0:0:
193,241,43774,1,0,0:0:0:0:
285,182,43924,5,0,0:0:0:0:
294,218,43999,1,0,0:0:0:0:
302,256,44074,2,0,L|317:320,1,40.0000001490115
388,312,44224,5,2,0:0:0:0:
133,292,44374,1,0,0:0:0:0:
284,174,44524,5,0,0:0:0:0:
294,218,44599,1,0,0:0:0:0:
304,265,44674,2,0,L|323:339,1,40.0000001490115
388,312,44824,5,6,0:0:0:0:
88,356,44974,1,6,0:0:0:0:
58,227,45124,5,4,0:0:0:0:
62,215,45199,1,0,0:0:0:0:
72,202,45274,1,2,0:0:0:0:
84,193,45349,1,0,0:0:0:0:
100,180,45424,1,4,0:0:0:0:
119,145,45499,1,0,0:0:0:0:
122,106,45574,1,2,0:0:0:0:
108,70,45649,1,0,0:0:0:0:
69,64,45724,1,4,0:0:0:0:
38,90,45799,1,0,0:0:0:0:
43,130,45874,5,12,0:0:0:0:
88,151,45949,1,4,0:0:0:0:
140,145,46024,1,4,0:0:0:0:
184,121,46099,1,4,0:0:0:0:
236,121,46174,1,4,0:0:0:0:
280,145,46249,1,4,0:0:0:0:
300,173,46324,5,4,0:0:0:0:
312,209,46399,1,4,0:0:0:0:
308,245,46474,1,4,0:0:0:0:
292,277,46549,1,4,0:0:0:0:
264,301,46624,6,0,L|248:253,1,40.0000001490115
174,212,46774,2,0,L|175:162,1,40.0000001490115
185,60,46924,6,0,L|132:62,1,40.0000001490115,2|0,0:0|0:0,0:0:0:0:
256,100,47074,5,8,0:0:0:0:
288,120,47149,1,4,0:0:0:0:
324,136,47224,1,4,0:0:0:0:
364,144,47299,1,4,0:0:0:0:
404,144,47374,1,4,0:0:0:0:
440,124,47449,1,4,0:0:0:0:
456,88,47524,1,4,0:0:0:0:
444,48,47599,1,4,0:0:0:0:
408,32,47674,2,0,L|388:84,1,40.0000001490115
452,152,47824,6,0,L|436:220,1,40.0000001490115,2|0,0:0|0:0,0:0:0:0:
375,295,47974,2,0,L|391:227,1,40.0000001490115,2|0,0:0|0:0,0:0:0:0:
492,268,48124,5,0,0:0:0:0:
313,339,48274,1,0,0:0:0:0:
424,352,48424,5,8,0:0:0:0:
420,312,48499,1,0,0:0:0:0:
400,276,48574,1,0,0:0:0:0:
368,252,48649,1,0,0:0:0:0:
328,240,48724,1,2,0:0:0:0:
288,252,48799,1,0,0:0:0:0:
256,272,48874,1,0,0:0:0:0:
220,292,48949,1,0,0:0:0:0:
180,296,49024,1,2,0:0:0:0:
140,284,49099,1,0,0:0:0:0:
112,256,49174,1,0,0:0:0:0:
104,216,49249,1,0,0:0:0:0:
116,176,49324,1,2,0:0:0:0:
148,152,49399,1,0,0:0:0:0:
196,148,49474,5,8,0:0:0:0:
240,168,49549,1,0,0:0:0:0:
264,212,49624,1,0,0:0:0:0:
268,260,49699,1,0,0:0:0:0:
240,300,49774,1,0,0:0:0:0:
196,316,49849,1,0,0:0:0:0:
168,316,49924,5,4,0:0:0:0:
140,312,49999,1,0,0:0:0:0:
116,300,50074,1,0,0:0:0:0:
96,280,50149,1,0,0:0:0:0:
80,244,50224,5,4,0:0:0:0:
80,204,50299,1,0,0:0:0:0:
92,168,50374,1,0,0:0:0:0:
120,136,50449,1,0,0:0:0:0:
156,120,50524,1,4,0:0:0:0:
196,120,50599,1,0,0:0:0:0:
232,136,50674,5,8,0:0:0:0:
264,160,50749,1,4,0:0:0:0:
308,180,50824,1,4,0:0:0:0:
356,188,50899,1,4,0:0:0:0:
404,184,50974,1,4,0:0:0:0:
444,160,51049,1,4,0:0:0:0:
468,116,51124,1,4,0:0:0:0:
464,68,51199,1,4,0:0:0:0:
432,32,51274,1,4,0:0:0:0:
384,20,51349,1,4,0:0:0:0:
340,44,51424,6,0,L|348:96,1,40.0000001490115
410,144,51574,2,0,L|402:196,1,40.0000001490115
450,257,51724,6,0,L|494:261,1,40.0000001490115,2|0,0:0|0:0,0:0:0:0:
397,306,51874,5,8,0:0:0:0:
351,300,51949,1,4,0:0:0:0:
316,316,52024,1,4,0:0:0:0:
280,340,52099,1,4,0:0:0:0:
236,344,52174,1,4,0:0:0:0:
196,328,52249,1,4,0:0:0:0:
172,292,52324,1,4,0:0:0:0:
172,248,52399,1,4,0:0:0:0:
196,212,52474,1,4,0:0:0:0:
236,192,52549,1,0,0:0:0:0:
268,160,52624,1,0,0:0:0:0:
276,116,52699,1,0,0:0:0:0:
260,76,52774,1,0,0:0:0:0:
220,56,52849,1,0,0:0:0:0:
178,69,52924,6,0,L|117:77,1,40.0000001490115,2|0,0:0|0:0,0:0:0:0:
51,10,53074,2,0,L|107:2,1,40.0000001490115,2|0,0:0|0:0,0:0:0:0:
288,40,53224,5,8,0:0:0:0:
304,84,53299,1,0,0:0:0:0:
316,132,53374,1,0,0:0:0:0:
312,180,53449,1,0,0:0:0:0:
284,220,53524,1,0,0:0:0:0:
264,264,53599,1,0,0:0:0:0:
260,312,53674,1,0,0:0:0:0:
280,356,53749,1,0,0:0:0:0:
328,364,53824,1,4,0:0:0:0:
368,336,53899,1,0,0:0:0:0:
376,288,53974,1,0,0:0:0:0:
360,244,54049,1,0,0:0:0:0:
360,196,54124,1,0,0:0:0:0:
384,156,54199,1,0,0:0:0:0:
405,112,54274,5,8,0:0:0:0:
393,73,54349,1,0,0:0:0:0:
358,52,54424,1,0,0:0:0:0:
318,52,54499,1,0,0:0:0:0:
290,81,54574,1,0,0:0:0:0:
295,120,54649,1,0,0:0:0:0:
321,156,54724,1,4,0:0:0:0:
353,179,54799,1,0,0:0:0:0:
382,206,54874,1,0,0:0:0:0:
398,242,54949,1,0,0:0:0:0:
399,281,55024,5,0,0:0:0:0:
259,227,55174,1,0,0:0:0:0:
100,176,55324,6,0,L|104:232,1,40.0000001490115,4|0,0:0|0:0,0:0:0:0:
200,320,55474,2,0,L|188:264,1,40.0000001490115
172,128,55624,5,4,0:0:0:0:
104,332,55774,1,0,0:0:0:0:
28,244,55924,1,2,0:0:0:0:
60,244,55999,1,0,0:0:0:0:
92,244,56074,1,0,0:0:0:0:
259,227,56224,5,4,0:0:0:0:
200,320,56374,1,0,0:0:0:0:
144,173,56524,2,0,L|124:131,1,40.0000001490115,2|0,0:0|0:0,0:0:0:0:
91,73,56674,2,0,L|3:81,2,80.000000298023,0|4|0,0:0|0:0|0:0,0:0:0:0:
262,22,57124,5,2,0:0:0:0:
258,54,57199,1,0,0:0:0:0:
254,86,57274,2,0,L|246:150,1,40.0000001490115
396,169,57424,2,0,L|390:90,1,80.000000298023,4|0,0:0|0:0,0:0:0:0:
156,204,57724,2,0,L|164:260,1,40.0000001490115,2|0,0:0|0:0,0:0:0:0:
271,343,57874,2,0,L|277:304,1,40.0000001490115
172,312,58024,5,4,0:0:0:0:
284,176,58174,1,0,0:0:0:0:
120,132,58324,1,2,0:0:0:0:
128,100,58399,1,0,0:0:0:0:
136,68,58474,1,0,0:0:0:0:
400,40,58624,5,4,0:0:0:0:
320,240,58774,1,0,0:0:0:0:
112,164,58924,1,2,0:0:0:0:
120,132,58999,1,0,0:0:0:0:
128,100,59074,1,0,0:0:0:0:
136,68,59149,1,0,0:0:0:0:
144,36,59224,6,0,P|200:24|232:40,1,80.000000298023,4|0,0:0|0:0,0:0:0:0:
284,176,59524,1,6,0:0:0:0:
252,172,59599,1,0,0:0:0:0:
220,168,59674,1,0,0:0:0:0:
172,312,59824,1,4,0:0:0:0:
384,284,59974,1,0,0:0:0:0:
352,116,60124,6,0,L|364:172,1,40.0000001490115,2|0,0:0|0:0,0:0:0:0:
440,176,60274,2,0,L|428:232,1,40.0000001490115
384,284,60424,5,8,0:0:0:0:
352,296,60499,1,0,0:0:0:0:
320,296,60574,1,0,0:0:0:0:
288,292,60649,1,0,0:0:0:0:
260,272,60724,1,0,0:0:0:0:
232,256,60799,1,0,0:0:0:0:
204,244,60874,1,0,0:0:0:0:
172,240,60949,1,0,0:0:0:0:
140,248,61024,1,2,0:0:0:0:
112,264,61099,1,0,0:0:0:0:
96,292,61174,1,0,0:0:0:0:
96,324,61249,1,0,0:0:0:0:
112,352,61324,1,0,0:0:0:0:
140,368,61399,1,0,0:0:0:0:
172,364,61474,1,0,0:0:0:0:
200,344,61549,1,0,0:0:0:0:
218,308,61624,5,8,0:0:0:0:
209,268,61699,1,0,0:0:0:0:
183,237,61774,1,0,0:0:0:0:
147,218,61849,1,0,0:0:0:0:
111,200,61924,1,0,0:0:0:0:
87,167,61999,1,0,0:0:0:0:
85,127,62074,1,0,0:0:0:0:
96,88,62149,1,0,0:0:0:0:
123,59,62224,1,2,0:0:0:0:
162,52,62299,1,0,0:0:0:0:
198,68,62374,1,0,0:0:0:0:
222,99,62449,1,0,0:0:0:0:
228,138,62524,1,0,0:0:0:0:
214,175,62599,1,0,0:0:0:0:
179,194,62674,1,0,0:0:0:0:
139,194,62749,1,0,0:0:0:0:
87,172,62824,5,8,0:0:0:0:
61,121,62899,1,4,0:0:0:0:
73,66,62974,1,4,0:0:0:0:
118,32,63049,1,4,0:0:0:0:
173,24,63124,1,4,0:0:0:0:
219,55,63199,1,4,0:0:0:0:
251,100,63274,1,12,0:0:0:0:
289,140,63349,1,4,0:0:0:0:
340,161,63424,1,4,0:0:0:0:
395,157,63499,1,4,0:0:0:0:
441,126,63574,1,4,0:0:0:0:
460,73,63649,1,4,0:0:0:0:
444,35,63724,5,12,0:0:0:0:
414,14,63799,1,4,0:0:0:0:
386,10,63874,1,4,0:0:0:0:
366,15,63949,1,4,0:0:0:0:
329,45,64024,5,2,0:0:0:0:
321,92,64099,1,0,0:0:0:0:
341,135,64174,1,0,0:0:0:0:
384,154,64249,1,0,0:0:0:0:
431,152,64324,5,2,0:0:0:0:
468,122,64399,1,0,0:0:0:0:
479,75,64474,1,0,0:0:0:0:
461,30,64549,1,0,0:0:0:0:
421,2,64624,5,2,0:0:0:0:
371,1,64699,1,0,0:0:0:0:
326,19,64774,1,0,0:0:0:0:
294,55,64849,1,0,0:0:0:0:
255,84,64924,5,2,0:0:0:0:
209,96,64999,1,0,0:0:0:0:
161,90,65074,1,0,0:0:0:0:
122,61,65149,1,0,0:0:0:0:
92,22,65224,6,0,P|51:14|-4:22,1,80.000000298023,10|0,0:0|0:0,0:0:0:0:
5,243,65524,1,2,0:0:0:0:
180,174,65674,2,0,L|230:186,1,40.0000001490115
289,204,65824,5,2,0:0:0:0:
229,326,65974,2,0,L|233:274,2,40.0000001490115,0|0|8,0:0|0:0|0:0,0:0:0:0:
360,176,66274,6,0,L|360:308,1,120.000005024671,10|0,0:0|0:0,0:0:0:0:
360,296,66724,1,8,0:0:0:0:
448,64,66874,2,0,L|448:196,1,120.000005024671,6|0,0:0|0:0,0:0:0:0:
448,184,67324,1,4,0:0:0:0:
448,184,67474,1,4,0:0:0:0:
476,352,67624,6,0,L|388:360,1,80.000000298023,2|0,0:0|0:0,0:0:0:0:
120,372,67924,1,2,0:0:0:0:
120,372,68074,2,0,L|128:324,1,40.0000001490115
144,248,68224,1,2,0:0:0:0:
44,116,68374,6,0,L|52:188,1,60.0000025123357,0|2,0:0|0:0,0:0:0:0:
232,336,68674,2,0,B|232:300|232:300|252:256|252:256|252:216,1,120.000005024671,10|2,0:0|0:0,0:0:0:0:
52,248,69124,1,8,0:0:0:0:
152,88,69274,1,4,0:0:0:0:
72,320,69424,1,2,0:0:0:0:
152,88,69574,1,8,0:0:0:0:
120,372,69724,1,4,0:0:0:0:
152,88,69874,1,2,0:0:0:0:
232,336,70024,6,0,L|240:252,1,80.000000298023,8|0,0:0|0:0,0:0:0:0:
397,202,70324,1,2,0:0:0:0:
397,202,70474,2,0,L|336:186,1,40.0000001490115
275,171,70624,1,2,0:0:0:0:
333,360,70774,6,0,L|325:288,1,60.0000025123357,0|2,0:0|0:0,0:0:0:0:
468,216,71074,2,0,B|476:192|476:192|464:136|464:136|472:96,1,120.000005024671,12|2,0:0|0:0,0:0:0:0:
284,136,71524,1,4,0:0:0:0:
284,136,71674,2,0,B|259:141|259:141|205:122|205:122|164:125,1,120.000005024671,2|2,0:0|0:0,0:0:0:0:
167,125,72124,1,4,0:0:0:0:
167,125,72274,1,2,0:0:0:0:
44,64,72424,6,0,L|64:144,1,80.000000298023,2|0,0:0|0:0,0:0:0:0:
348,80,72724,1,6,0:0:0:0:
220,24,72874,2,0,L|220:64,2,40.0000001490115,0|0|8,0:0|0:0|0:0,0:0:0:0:
348,248,73174,6,0,L|356:180,1,60.0000025123357,2|2,0:0|0:0,0:0:0:0:
204,244,73474,2,0,L|220:380,1,120.000005024671,12|2,0:0|0:0,0:0:0:0:
396,324,73924,1,4,0:0:0:0:
120,304,74074,1,8,0:0:0:0:
396,324,74224,1,2,0:0:0:0:
76,224,74374,1,4,0:0:0:0:
396,324,74524,1,8,0:0:0:0:
88,128,74674,1,2,0:0:0:0:
396,324,74824,6,0,L|360:332,1,30.0000012561679,6|0,0:0|0:0,0:0:0:0:
180,36,75274,6,0,L|216:44,1,30.0000012561679,10|0,0:0|0:0,0:0:0:0:
28,348,75724,6,0,L|24:312,1,30.0000012561679,6|0,0:0|0:0,0:0:0:0:
24,318,76174,5,2,0:0:0:0:
331,287,76324,1,2,0:0:0:0:
44,207,76474,1,2,0:0:0:0:
336,176,76624,1,2,0:0:0:0:
134,123,76774,1,2,0:0:0:0:
352,52,76924,6,0,L|269:69,1,80.000000298023
268,99,77224,6,0,L|328:76,1,64.0000002384184
305,105,77524,6,0,L|266:138,1,47.9999987139701
416,316,77824,5,4,0:0:0:0:
388,200,77974,1,0,0:0:0:0:
480,104,78124,1,2,0:0:0:0:
476,132,78199,1,0,0:0:0:0:
472,160,78274,1,0,0:0:0:0:
320,112,78424,6,0,P|268:112|232:128,1,80.000000298023,4|0,0:0|0:0,0:0:0:0:
200,236,78724,2,0,L|252:248,2,40.0000001490115,2|0|0,0:0|0:0|0:0,0:0:0:0:
370,311,79024,6,0,P|319:331|279:333,1,80.000000298023,4|0,0:0|0:0,0:0:0:0:
191,251,79324,2,0,L|199:300,2,40.0000001490115,2|0|0,0:0|0:0|0:0,0:0:0:0:
74,295,79624,1,4,0:0:0:0:
74,295,79774,1,0,0:0:0:0:
12,184,79924,1,2,0:0:0:0:
16,156,79999,1,0,0:0:0:0:
22,128,80074,1,2,0:0:0:0:
28,100,80149,1,0,0:0:0:0:
34,71,80224,6,0,P|82:51|122:59,1,80.000000298023,4|0,0:0|0:0,0:0:0:0:
244,112,80524,2,0,L|204:120,2,40.0000001490115,2|0|0,0:0|0:0|0:0,0:0:0:0:
200,236,80824,1,4,0:0:0:0:
200,236,80899,1,0,0:0:0:0:
200,236,80974,1,0,0:0:0:0:
368,216,81124,1,2,0:0:0:0:
368,216,81199,1,0,0:0:0:0:
368,216,81274,1,0,0:0:0:0:
462,293,81424,6,0,L|445:381,1,80.000000298023,4|0,0:0|0:0,0:0:0:0:
292,333,81724,1,2,0:0:0:0:
296,152,81874,2,0,P|344:148|376:124,2,80.000000298023,0|4|0,0:0|0:0|0:0,0:0:0:0:
192,48,82324,5,2,0:0:0:0:
196,76,82399,1,0,0:0:0:0:
200,104,82474,2,0,L|208:168,1,40.0000001490115
280,236,82624,2,0,P|245:255|206:257,1,80.000000298023,4|0,0:0|0:0,0:0:0:0:
384,208,82924,2,0,P|423:214|454:239,1,80.000000298023,2|0,0:0|0:0,0:0:0:0:
368,324,83224,5,4,0:0:0:0:
296,152,83374,1,0,0:0:0:0:
440,84,83524,1,2,0:0:0:0:
436,112,83599,1,0,0:0:0:0:
432,140,83674,1,0,0:0:0:0:
208,292,83824,6,0,L|200:204,1,80.000000298023,4|2,0:0|0:0,0:0:0:0:
52,176,84124,1,2,0:0:0:0:
52,176,84274,1,0,0:0:0:0:
52,176,84424,2,0,P|96:192|132:176,1,80.000000298023,4|2,0:0|0:0,0:0:0:0:
21,38,84724,2,0,P|59:12|100:12,1,80.000000298023,2|0,0:0|0:0,0:0:0:0:
92,96,85024,5,12,0:0:0:0:
140,104,85099,1,0,0:0:0:0:
188,112,85174,1,0,0:0:0:0:
236,120,85249,1,0,0:0:0:0:
284,128,85324,2,0,L|305:47,1,80.000000298023
388,232,85624,5,10,0:0:0:0:
340,240,85699,1,0,0:0:0:0:
292,248,85774,1,0,0:0:0:0:
244,256,85849,1,0,0:0:0:0:
196,264,85924,2,0,L|172:186,1,80.000000298023
86,346,86224,5,12,0:0:0:0:
67,301,86299,1,0,0:0:0:0:
48,256,86374,1,0,0:0:0:0:
30,211,86449,1,0,0:0:0:0:
11,166,86524,2,0,L|98:198,1,80.000000298023
86,346,86824,5,10,0:0:0:0:
128,324,86899,1,0,0:0:0:0:
176,320,86974,1,2,0:0:0:0:
220,332,87049,1,0,0:0:0:0:
260,360,87124,1,0,0:0:0:0:
308,372,87199,1,0,0:0:0:0:
356,372,87274,1,2,0:0:0:0:
400,356,87349,1,0,0:0:0:0:
436,324,87424,6,0,P|432:260|392:208,1,120.000000447034,6|0,0:0|0:0,0:0:0:0:
340,132,87724,2,0,P|396:152|428:140,1,80.000000298023,8|0,0:0|0:0,0:0:0:0:
380,48,87949,1,0,0:0:0:0:
380,48,88024,6,0,P|315:45|260:79,1,120.000000447034,4|0,0:0|0:0,0:0:0:0:
179,123,88324,2,0,P|204:69|196:36,1,80.000000298023,8|0,0:0|0:0,0:0:0:0:
100,88,88549,1,0,0:0:0:0:
100,88,88624,6,0,L|108:136,1,40.0000001490115,2|0,0:0|0:0,0:0:0:0:
176,200,88774,2,0,L|168:248,1,40.0000001490115
92,96,88924,2,0,L|100:144,1,40.0000001490115,8|0,0:0|0:0,0:0:0:0:
168,208,89074,2,0,L|160:256,1,40.0000001490115
84,104,89224,2,0,L|92:152,1,40.0000001490115,4|0,0:0|0:0,0:0:0:0:
160,216,89374,2,0,L|152:264,1,40.0000001490115
76,112,89524,2,0,L|84:160,1,40.0000001490115,8|0,0:0|0:0,0:0:0:0:
152,224,89674,2,0,L|144:272,1,40.0000001490115
64,352,89824,6,0,P|127:361|186:333,1,120.000000447034,2|0,0:0|0:0,0:0:0:0:
280,288,90124,2,0,P|248:338|253:372,1,80.000000298023,8|0,0:0|0:0,0:0:0:0:
356,320,90349,1,0,0:0:0:0:
356,320,90424,6,0,P|361:255|330:198,1,120.000000447034,4|0,0:0|0:0,0:0:0:0:
296,108,90724,2,0,P|343:143|377:142,1,80.000000298023,8|0,0:0|0:0,0:0:0:0:
496,216,91024,5,2,0:0:0:0:
361,366,91174,1,0,0:0:0:0:
204,263,91324,2,0,P|164:259|125:267,1,80.000000298023,10|0,0:0|0:0,0:0:0:0:
326,217,91624,2,0,B|323:205|323:205|345:155|345:155|344:114,1,80.000000298023,2|0,0:0|0:0,0:0:0:0:
444,32,91924,1,10,0:0:0:0:
444,32,91999,1,0,0:0:0:0:
444,32,92074,2,0,L|488:44,1,40.0000001490115
340,20,92224,6,0,P|276:40|208:24,1,120.000000447034,8|0,0:0|0:0,0:0:0:0:
100,92,92524,2,0,P|174:106|232:96,1,120.000000447034,2|0,0:0|0:0,0:0:0:0:
251,181,92824,1,4,0:0:0:0:
136,344,92974,1,0,0:0:0:0:
248,252,93124,2,0,P|268:288|268:330,1,80.000000298023,2|0,0:0|0:0,0:0:0:0:
60,304,93424,6,0,L|64:260,2,40.0000001490115,12|0|0,0:0|0:0|0:0,0:0:0:0:
172,192,93724,2,0,L|168:148,2,40.0000001490115,12|0|0,0:0|0:0|0:0,0:0:0:0:
24,140,94024,6,0,L|28:96,2,40.0000001490115,10|0|0,0:0|0:0|0:0,0:0:0:0:
248,68,94324,2,0,L|244:24,2,40.0000001490115,10|0|0,0:0|0:0|0:0,0:0:0:0:
108,92,94624,6,0,L|112:148,1,40.0000001490115,2|0,0:0|0:0,0:0:0:0:
165,200,94774,1,0,0:0:0:0:
180,224,94849,1,0,0:0:0:0:
192,248,94924,2,0,P|223:222|271:219,1,80.000000298023,10|0,0:0|0:0,0:0:0:0:
368,332,95224,2,0,P|336:306|288:303,1,80.000000298023,8|2,0:0|0:0,0:0:0:0:
212,352,95524,5,4,0:0:0:0:
184,344,95599,1,4,0:0:0:0:
156,336,95674,2,4,L|96:320,1,40.0000001490115
44,196,95824,6,4,L|96:212,1,40.0000001490115
202,133,95974,2,4,L|240:148,1,40.0000001490115
368,96,96124,5,2,0:0:0:0:
380,108,96199,1,0,0:0:0:0:
388,120,96274,1,0,0:0:0:0:
392,136,96349,1,0,0:0:0:0:
396,152,96424,1,2,0:0:0:0:
396,168,96499,1,0,0:0:0:0:
388,184,96574,1,0,0:0:0:0:
376,196,96649,1,0,0:0:0:0:
360,204,96724,1,2,0:0:0:0:
344,208,96799,1,0,0:0:0:0:
300,192,96874,5,8,0:0:0:0:
268,156,96949,1,4,0:0:0:0:
256,108,97024,1,4,0:0:0:0:
272,64,97099,1,4,0:0:0:0:
308,32,97174,1,4,0:0:0:0:
356,20,97249,1,4,0:0:0:0:
404,28,97324,1,4,0:0:0:0:
444,56,97399,1,4,0:0:0:0:
468,96,97474,1,4,0:0:0:0:
476,144,97549,1,4,0:0:0:0:
460,188,97624,5,0,0:0:0:0:
436,217,97699,1,0,0:0:0:0:
426,246,97774,1,0,0:0:0:0:
423,270,97849,1,0,0:0:0:0:
429,292,97924,5,2,0:0:0:0:
446,313,97999,1,0,0:0:0:0:
488,334,98074,5,8,0:0:0:0:
500,281,98149,1,4,0:0:0:0:
484,236,98224,1,4,0:0:0:0:
451,201,98299,1,4,0:0:0:0:
408,181,98374,1,4,0:0:0:0:
361,177,98449,1,4,0:0:0:0:
315,193,98524,1,4,0:0:0:0:
276,222,98599,1,4,0:0:0:0:
245,259,98674,1,4,0:0:0:0:
206,288,98749,1,4,0:0:0:0:
158,292,98824,1,0,0:0:0:0:
111,275,98899,1,0,0:0:0:0:
78,240,98974,1,0,0:0:0:0:
58,195,99049,1,0,0:0:0:0:
65,147,99124,6,0,P|80:106|111:67,1,80.000000298023,2|2,0:0|0:0,0:0:0:0:
242,17,99424,2,0,L|213:187,1,160.000000596046,2|2,0:0|0:0,0:0:0:0:
320,242,99874,1,2,0:0:0:0:
405,120,100024,2,0,L|449:124,2,40.0000001490115
284,163,100324,1,2,0:0:0:0:
404,224,100474,5,12,0:0:0:0:
420,224,100549,1,0,0:0:0:0:
436,220,100624,1,0,0:0:0:0:
448,212,100699,1,0,0:0:0:0:
464,208,100774,1,0,0:0:0:0:
480,212,100849,1,0,0:0:0:0:
484,172,100924,5,2,0:0:0:0:
456,144,100999,1,0,0:0:0:0:
420,128,101074,1,0,0:0:0:0:
380,124,101149,1,0,0:0:0:0:
340,132,101224,5,2,0:0:0:0:
311,153,101299,1,0,0:0:0:0:
285,168,101374,1,0,0:0:0:0:
263,173,101449,1,0,0:0:0:0:
230,171,101524,1,2,0:0:0:0:
205,159,101599,1,0,0:0:0:0:
176,122,101674,5,8,0:0:0:0:
188,70,101749,1,4,0:0:0:0:
228,38,101824,1,4,0:0:0:0:
280,34,101899,1,4,0:0:0:0:
332,46,101974,1,4,0:0:0:0:
368,86,102049,1,4,0:0:0:0:
388,134,102124,1,4,0:0:0:0:
392,186,102199,1,4,0:0:0:0:
384,238,102274,1,4,0:0:0:0:
352,278,102349,1,4,0:0:0:0:
300,290,102424,5,0,0:0:0:0:
270,277,102499,1,0,0:0:0:0:
240,265,102574,1,0,0:0:0:0:
209,254,102649,1,0,0:0:0:0:
174,244,102724,5,2,0:0:0:0:
138,248,102799,1,0,0:0:0:0:
105,283,102874,5,8,0:0:0:0:
101,330,102949,1,4,0:0:0:0:
127,370,103024,1,4,0:0:0:0:
174,377,103099,1,4,0:0:0:0:
218,358,103174,1,4,0:0:0:0:
261,338,103249,1,4,0:0:0:0:
308,328,103324,1,4,0:0:0:0:
355,334,103399,1,4,0:0:0:0:
398,355,103474,1,4,0:0:0:0:
444,365,103549,1,0,0:0:0:0:
489,349,103624,1,0,0:0:0:0:
511,306,103699,1,0,0:0:0:0:
511,258,103774,1,0,0:0:0:0:
496,212,103849,1,0,0:0:0:0:
463,176,103924,5,2,0:0:0:0:
319,132,104074,1,2,0:0:0:0:
178,197,104224,6,0,B|161:276|195:374,1,160.000000596046,2|2,0:0|0:0,0:0:0:0:
332,254,104674,1,0,0:0:0:0:
294,72,104824,2,0,B|256:77|209:55,1,80.000000298023,2|2,0:0|0:0,0:0:0:0:
94,105,105124,1,0,0:0:0:0:
65,247,105274,5,2,0:0:0:0:
76,292,105349,1,0,0:0:0:0:
116,320,105424,1,8,0:0:0:0:
164,324,105499,1,4,0:0:0:0:
208,304,105574,1,4,0:0:0:0:
248,276,105649,1,4,0:0:0:0:
296,264,105724,1,4,0:0:0:0:
344,260,105799,1,4,0:0:0:0:
392,268,105874,1,4,0:0:0:0:
436,292,105949,1,4,0:0:0:0:
472,324,106024,2,0,L|436:362,3,40.0000001490115
328,374,106324,5,2,0:0:0:0:
319,362,106399,1,0,0:0:0:0:
319,346,106474,1,2,0:0:0:0:
323,330,106549,1,0,0:0:0:0:
331,318,106624,5,4,0:0:0:0:
421,221,106774,1,0,0:0:0:0:
320,128,106924,1,2,0:0:0:0:
320,156,106999,1,0,0:0:0:0:
320,184,107074,1,0,0:0:0:0:
420,92,107224,6,0,L|376:76,1,40.0000001490115,4|0,0:0|0:0,0:0:0:0:
284,32,107374,2,0,L|246:45,1,40.0000001490115
168,76,107524,1,2,0:0:0:0:
172,104,107599,1,0,0:0:0:0:
176,132,107674,2,0,L|188:192,1,40.0000001490115
116,224,107824,2,0,L|104:316,1,80.000000298023,4|0,0:0|0:0,0:0:0:0:
232,364,108124,5,2,0:0:0:0:
228,336,108199,1,0,0:0:0:0:
224,308,108274,1,0,0:0:0:0:
105,303,108424,1,4,0:0:0:0:
36,184,108574,1,0,0:0:0:0:
172,104,108724,5,2,0:0:0:0:
176,132,108799,1,0,0:0:0:0:
180,160,108874,1,0,0:0:0:0:
304,192,109024,1,4,0:0:0:0:
260,28,109174,1,0,0:0:0:0:
416,48,109324,1,2,0:0:0:0:
408,76,109399,1,0,0:0:0:0:
396,104,109474,1,0,0:0:0:0:
314,271,109624,6,0,L|303:191,1,80.000000298023,4|0,0:0|0:0,0:0:0:0:
472,160,109924,1,2,0:0:0:0:
468,188,109999,1,0,0:0:0:0:
464,216,110074,1,0,0:0:0:0:
314,271,110224,2,0,L|316:188,1,80.000000298023,4|0,0:0|0:0,0:0:0:0:
468,188,110524,1,2,0:0:0:0:
464,216,110599,1,0,0:0:0:0:
460,244,110674,1,0,0:0:0:0:
456,272,110749,1,0,0:0:0:0:
452,300,110824,2,0,L|466:381,1,80.000000298023,4|0,0:0|0:0,0:0:0:0:
360,344,111124,5,2,0:0:0:0:
344,340,111199,1,0,0:0:0:0:
328,340,111274,1,2,0:0:0:0:
312,344,111349,1,0,0:0:0:0:
264,352,111424,5,8,0:0:0:0:
216,360,111499,1,0,0:0:0:0:
168,348,111574,1,2,0:0:0:0:
136,316,111649,1,0,0:0:0:0:
116,272,111724,1,10,0:0:0:0:
120,224,111799,1,0,0:0:0:0:
151,188,111874,1,0,0:0:0:0:
197,177,111949,1,0,0:0:0:0:
239,154,112024,1,8,0:0:0:0:
261,111,112099,1,0,0:0:0:0:
261,63,112174,1,0,0:0:0:0:
234,23,112249,1,0,0:0:0:0:
190,3,112324,1,8,0:0:0:0:
142,4,112399,1,0,0:0:0:0:
99,27,112474,1,0,0:0:0:0:
74,68,112549,1,0,0:0:0:0:
76,115,112624,5,8,0:0:0:0:
99,156,112699,1,0,0:0:0:0:
141,178,112774,1,0,0:0:0:0:
188,175,112849,1,0,0:0:0:0:
225,145,112924,1,0,0:0:0:0:
267,123,112999,1,0,0:0:0:0:
314,115,113074,1,0,0:0:0:0:
361,123,113149,1,0,0:0:0:0:
405,140,113224,1,8,0:0:0:0:
437,175,113299,1,0,0:0:0:0:
435,202,113374,5,0,0:0:0:0:
419,225,113449,1,0,0:0:0:0:
394,238,113524,1,0,0:0:0:0:
366,245,113599,1,0,0:0:0:0:
338,241,113674,1,0,0:0:0:0:
311,231,113749,1,0,0:0:0:0:
277,191,113824,5,8,0:0:0:0:
279,139,113899,1,4,0:0:0:0:
322,110,113974,1,4,0:0:0:0:
371,125,114049,1,4,0:0:0:0:
422,129,114124,1,6,0:0:0:0:
460,94,114199,1,4,0:0:0:0:
461,42,114274,1,4,0:0:0:0:
427,1,114349,1,4,0:0:0:0:
375,0,114424,1,6,0:0:0:0:
326,17,114499,1,4,0:0:0:0:
289,53,114574,1,4,0:0:0:0:
242,76,114649,1,4,0:0:0:0:
193,94,114724,1,6,0:0:0:0:
141,89,114799,1,4,0:0:0:0:
101,55,114874,1,4,0:0:0:0:
83,6,114949,1,4,0:0:0:0:
122,37,115024,5,2,0:0:0:0:
141,89,115099,1,0,0:0:0:0:
154,144,115174,1,2,0:0:0:0:
150,198,115249,1,0,0:0:0:0:
139,254,115324,1,0,0:0:0:0:
113,305,115399,1,0,0:0:0:0:
73,344,115474,1,2,0:0:0:0:
19,359,115549,1,0,0:0:0:0:
52,311,115624,5,14,0:0:0:0:
109,286,115699,1,4,0:0:0:0:
169,280,115774,1,4,0:0:0:0:
231,282,115849,1,4,0:0:0:0:
291,293,115924,1,4,0:0:0:0:
351,286,115999,1,4,0:0:0:0:
407,261,116074,1,4,0:0:0:0:
426,204,116149,1,4,0:0:0:0:
403,145,116224,5,4,0:0:0:0:
256,192,116374,12,0,123124,0:0:0:0:
256,192,123424,12,0,125524,0:0:0:0:
148,196,125824,6,0,B|188:144|252:168|260:232|324:244|372:188,1,240.000010049343,8|4,0:0|0:0,0:0:0:0:
456,120,126724,1,0,0:0:0:0:
372,72,127024,2,8,L|384:136,2,60.0000025123357
444,196,127624,5,2,0:0:0:0:
448,208,127774,1,2,0:0:0:0:
452,220,127924,2,0,L|436:280,1,60.0000025123357,2|0,0:0|0:0,0:0:0:0:
376,320,128224,2,0,B|298:337|253:227|136:292,1,240.000010049343,8|4,0:0|0:0,0:0:0:0:
36,336,129124,6,8,L|48:272,2,60.0000025123357
36,336,129724,1,4,0:0:0:0:
108,232,130024,2,0,L|100:168,1,60.0000025123357,2|0,0:0|0:0,0:0:0:0:
44,124,130324,2,0,L|52:60,1,60.0000025123357,2|0,0:0|0:0,0:0:0:0:
116,28,130624,6,0,B|156:16|184:64|236:48,1,120.000005024671,8|0,0:0|0:0,0:0:0:0:
240,44,131074,1,4,0:0:0:0:
248,40,131224,1,4,0:0:0:0:
432,88,131524,6,0,B|392:76|364:124|312:108,1,120.000005024671,8|0,0:0|0:0,0:0:0:0:
312,104,131974,1,4,0:0:0:0:
307,97,132124,2,0,L|318:160,1,60.0000025123357,4|0,0:0|0:0,0:0:0:0:
380,220,132424,2,0,B|404:256|356:312|377:342,1,120.000005024671,8|0,0:0|0:0,0:0:0:0:
68,316,133024,6,0,B|96:264|168:280|184:340|240:356|292:312,1,240.000010049343,8|4,0:0|0:0,0:0:0:0:
280,224,133924,6,0,L|276:104,1,120.000005024671,4|8,0:0|0:0,0:0:0:0:
367,58,134524,2,0,P|389:109|375:190,2,120.000005024671,4|4|4,0:0|0:0|0:0,0:0:0:0:
276,104,135274,1,0,0:0:0:0:
230,186,135424,6,0,B|245:212|245:212|235:273|235:273|247:298|247:298|219:313|219:313|136:256|104:284|104:284|116:248|88:216|100:176,1,360.000015074014,12|4,0:0|0:0,0:0:0:0:
24,28,136624,2,0,B|24:68|4:100|20:148,1,120.000005024671,8|4,0:0|0:0,0:0:0:0:
164,130,137224,5,2,0:0:0:0:
164,142,137374,1,2,0:0:0:0:
164,152,137524,2,0,L|164:216,1,60.0000025123357,2|0,0:0|0:0,0:0:0:0:
104,244,137824,2,0,P|132:300|128:360,1,120.000005024671,8|4,0:0|0:0,0:0:0:0:
200,284,138424,6,0,P|250:246|310:240,1,120.000005024671,8|4,0:0|0:0,0:0:0:0:
305,239,139024,1,8,0:0:0:0:
404,292,139324,2,0,L|396:164,1,120.000005024671,8|4,0:0|0:0,0:0:0:0:
395,164,139774,1,2,0:0:0:0:
456,96,140074,1,2,0:0:0:0:
454,85,140224,6,0,B|402:41|326:73|326:73|254:21|162:65,1,300.000012561679,8|4,0:0|0:0,0:0:0:0:
120,152,141124,6,0,B|80:216|80:216|92:120|45:50|45:50|116:80,1,300.000012561679,8|4,0:0|0:0,0:0:0:0:
99,73,142024,1,4,0:0:0:0:
106,76,142174,1,2,0:0:0:0:
392,306,142624,6,0,L|404:248,1,60.0000025123357,2|0,0:0|0:0,0:0:0:0:
320,140,142924,2,0,L|332:212,2,60.0000025123357,4|0|4,0:0|0:0|0:0,0:0:0:0:
396,228,143374,2,0,L|384:286,1,60.0000025123357,0|4,0:0|0:0,0:0:0:0:
384,286,143824,5,2,0:0:0:0:
168,216,144124,5,2,0:0:0:0:
248,100,144424,5,2,0:0:0:0:
248,100,144574,1,2,0:0:0:0:
488,32,145024,6,0,L|468:284,1,240.000000894069,8|0,0:0|0:0,0:0:0:0:
469,279,146074,1,0,0:0:0:0:
468,289,146224,1,4,0:0:0:0:
419,344,146524,1,0,0:0:0:0:
468,289,146824,1,6,0:0:0:0:
469,279,146974,1,4,0:0:0:0:
497,211,147274,1,0,0:0:0:0:
497,203,147424,6,0,P|404:180|380:188,1,120.000005024671,8|0,0:0|0:0,0:0:0:0:
378,192,148024,1,0,0:0:0:0:
373,201,148324,1,4,0:0:0:0:
332,344,148624,6,0,L|216:316,1,120.000005024671
215,315,149224,1,6,0:0:0:0:
206,313,149374,1,4,0:0:0:0:
199,312,149524,2,0,L|127:292,1,60.0000025123357
57,300,149824,6,0,P|81:268|73:124,1,180.000007537007,8|0,0:0|0:0,0:0:0:0:
92,68,150424,2,0,L|148:96,1,60.0000025123357
172,160,150724,2,0,P|228:128|344:160,1,180.000007537007,4|0,0:0|0:0,0:0:0:0:
380,104,151324,2,0,L|416:160,1,60.0000025123357
417,162,151624,1,6,0:0:0:0:
421,169,151774,1,4,0:0:0:0:
416,352,152224,6,0,L|424:292,1,60.0000025123357,8|0,0:0|0:0,0:0:0:0:
360,264,152524,2,0,L|352:204,1,60.0000025123357,4|0,0:0|0:0,0:0:0:0:
352,204,152824,1,4,0:0:0:0:
416,352,153124,6,0,L|424:292,1,60.0000025123357,8|0,0:0|0:0,0:0:0:0:
360,264,153424,2,0,L|352:204,1,60.0000025123357,4|0,0:0|0:0,0:0:0:0:
352,204,153724,1,4,0:0:0:0:
352,204,154024,1,6,0:0:0:0:
352,204,154174,1,4,0:0:0:0:
80,208,154624,6,0,P|152:272|288:240,1,240.000010049343,8|0,0:0|0:0,0:0:0:0:
284,244,155524,1,4,0:0:0:0:
284,244,155824,5,4,0:0:0:0:
280,232,155899,1,0,0:0:0:0:
280,220,155974,1,0,0:0:0:0:
284,208,156049,1,0,0:0:0:0:
292,195,156124,1,2,0:0:0:0:
303,184,156199,1,0,0:0:0:0:
309,170,156274,1,0,0:0:0:0:
309,155,156349,1,0,0:0:0:0:
300,142,156424,5,4,0:0:0:0:
287,134,156499,1,0,0:0:0:0:
275,123,156574,1,0,0:0:0:0:
269,108,156649,1,0,0:0:0:0:
268,91,156724,1,2,0:0:0:0:
267,78,156799,1,0,0:0:0:0:
271,63,156874,1,0,0:0:0:0:
280,51,156949,1,0,0:0:0:0:
289,39,157024,6,0,P|349:27|405:67,1,120.000005024671,8|0,0:0|0:0,0:0:0:0:
269,228,157624,2,0,P|228:182|235:113,1,120.000005024671,8|0,0:0|0:0,0:0:0:0:
443,151,158224,2,0,P|423:208|360:237,1,120.000005024671,4|0,0:0|0:0,0:0:0:0:
152,119,158824,1,6,0:0:0:0:
152,119,158974,1,4,0:0:0:0:
40,336,159424,6,0,B|88:288|180:336|268:384|348:328,1,300.000012561679,8|0,0:0|0:0,0:0:0:0:
289,277,160324,1,4,0:0:0:0:
289,277,160474,1,0,0:0:0:0:
356,252,160624,2,0,P|408:282|446:328,1,120.000005024671,4|0,0:0|0:0,0:0:0:0:
446,329,161224,1,6,0:0:0:0:
446,329,161374,1,4,0:0:0:0:
446,329,161824,5,8,0:0:0:0:
420,316,161899,1,0,0:0:0:0:
392,312,161974,1,0,0:0:0:0:
364,312,162049,1,0,0:0:0:0:
336,320,162124,1,0,0:0:0:0:
312,332,162199,1,0,0:0:0:0:
288,344,162274,1,0,0:0:0:0:
260,344,162349,1,0,0:0:0:0:
232,336,162424,1,2,0:0:0:0:
212,316,162499,1,0,0:0:0:0:
204,288,162574,1,0,0:0:0:0:
212,260,162649,1,0,0:0:0:0:
232,240,162724,1,0,0:0:0:0:
260,236,162799,1,0,0:0:0:0:
284,224,162874,1,2,0:0:0:0:
304,204,162949,1,0,0:0:0:0:
308,176,163024,5,0,0:0:0:0:
300,148,163099,1,0,0:0:0:0:
284,128,163174,1,0,0:0:0:0:
260,112,163249,1,0,0:0:0:0:
232,108,163324,1,2,0:0:0:0:
204,112,163399,1,0,0:0:0:0:
180,128,163474,1,0,0:0:0:0:
164,152,163549,1,0,0:0:0:0:
156,180,163624,6,0,L|240:176,1,80.000000298023,2|0,0:0|0:0,0:0:0:0:
336,272,163924,1,4,0:0:0:0:
308,268,163999,1,4,0:0:0:0:
280,264,164074,1,4,0:0:0:0:
157,347,164224,6,0,B|217:295|321:403|401:347,1,240.000000894069,8|4,0:0|0:0,0:0:0:0:
433,175,164824,2,4,L|341:194,1,80.000000298023
437,287,165124,1,2,0:0:0:0:
437,287,165274,1,2,0:0:0:0:
512,189,165424,6,0,L|511:149,1,40.0000001490115,4|0,0:0|0:0,0:0:0:0:
448,100,165574,1,4,0:0:0:0:
420,96,165649,1,4,0:0:0:0:
392,100,165724,1,4,0:0:0:0:
368,116,165799,1,0,0:0:0:0:
344,128,165874,1,4,0:0:0:0:
316,132,165949,1,0,0:0:0:0:
288,124,166024,5,6,0:0:0:0:
213,49,166174,1,0,0:0:0:0:
113,54,166324,2,0,P|84:96|89:137,1,80.000000298023,2|0,0:0|0:0,0:0:0:0:
125,337,166624,6,0,P|189:291|212:216,1,160.000000596046,8|4,0:0|0:0,0:0:0:0:
212,216,167074,1,4,0:0:0:0:
48,244,167224,2,0,P|92:236|128:252,1,80.000000298023,2|0,0:0|0:0,0:0:0:0:
208,320,167524,2,0,B|248:352|312:356|344:292|384:252|484:276|508:320,1,320.000001192092,8|4,0:0|0:0,0:0:0:0:
503,313,168274,1,0,0:0:0:0:
503,313,168424,2,0,L|496:232,1,80.000000298023,2|0,0:0|0:0,0:0:0:0:
424,152,168724,5,4,0:0:0:0:
420,180,168799,1,4,0:0:0:0:
416,208,168874,1,4,0:0:0:0:
412,236,168949,1,4,0:0:0:0:
408,264,169024,2,0,P|332:280|256:252,1,160.000000596046,12|0,0:0|0:0,0:0:0:0:
256,252,169474,1,0,0:0:0:0:
168,180,169624,5,2,0:0:0:0:
312,132,169774,1,0,0:0:0:0:
360,344,169924,1,2,0:0:0:0:
208,324,170074,2,0,P|248:200|208:92,1,240.000000894069,4|0,0:0|0:0,0:0:0:0:
209,92,170824,6,0,L|126:94,1,80.000000298023,6|0,0:0|0:0,0:0:0:0:
281,52,171124,1,2,0:0:0:0:
281,52,171274,1,0,0:0:0:0:
312,132,171424,5,12,0:0:0:0:
344,168,171499,1,4,0:0:0:0:
360,212,171574,1,4,0:0:0:0:
356,260,171649,1,4,0:0:0:0:
308,256,171724,1,4,0:0:0:0:
260,264,171799,1,4,0:0:0:0:
224,296,171874,1,4,0:0:0:0:
212,344,171949,1,4,0:0:0:0:
184,304,172024,1,6,0:0:0:0:
144,280,172099,1,4,0:0:0:0:
96,276,172174,1,4,0:0:0:0:
52,300,172249,1,4,0:0:0:0:
52,252,172324,1,4,0:0:0:0:
76,212,172399,1,4,0:0:0:0:
112,184,172474,1,4,0:0:0:0:
160,176,172549,1,4,0:0:0:0:
112,169,172624,5,8,0:0:0:0:
71,142,172699,1,0,0:0:0:0:
51,98,172774,1,0,0:0:0:0:
61,51,172849,1,8,0:0:0:0:
93,15,172924,1,0,0:0:0:0:
139,2,172999,1,0,0:0:0:0:
183,18,173074,1,8,0:0:0:0:
218,50,173149,1,0,0:0:0:0:
257,76,173224,1,2,0:0:0:0:
304,82,173299,1,0,0:0:0:0:
350,72,173374,1,0,0:0:0:0:
384,38,173449,1,0,0:0:0:0:
409,78,173524,1,4,0:0:0:0:
416,125,173599,1,4,0:0:0:0:
396,169,173674,1,4,0:0:0:0:
383,215,173749,1,4,0:0:0:0:
394,261,173824,6,0,P|475:304|447:209,1,240.000000894069,6|0,0:0|0:0,0:0:0:0:
278,268,174424,2,0,L|190:292,1,80.000000298023,4|0,0:0|0:0,0:0:0:0:
0,272,174724,2,0,B|44:332|44:332|96:304|80:248|80:248|24:204|24:204|24:164|24:164|64:136,1,320.000001192092,10|4,0:0|0:0,0:0:0:0:
171,246,175624,5,2,0:0:0:0:
171,246,175774,1,0,0:0:0:0:
171,246,175924,5,2,0:0:0:0:
204,212,175999,1,4,0:0:0:0:
252,200,176074,1,4,0:0:0:0:
300,208,176149,1,4,0:0:0:0:
340,236,176224,2,0,P|384:272|492:244,1,160.000000596046,12|0,0:0|0:0,0:0:0:0:
420,172,176674,1,0,0:0:0:0:
318,327,176824,2,0,L|396:348,1,80.000000298023,2|0,0:0|0:0,0:0:0:0:
497,75,177124,5,0,0:0:0:0:
500,80,177274,2,0,L|316:112,1,160.000000596046,8|0,0:0|0:0,0:0:0:0:
192,24,177724,5,0,0:0:0:0:
212,152,177874,1,0,0:0:0:0:
336,196,178024,5,2,0:0:0:0:
316,324,178174,1,0,0:0:0:0:
456,292,178324,2,0,L|372:256,1,80.000000298023,2|0,0:0|0:0,0:0:0:0:
200,320,178624,6,0,L|252:348,2,53.3333335320153,8|0|0,0:0|0:0|0:0,0:0:0:0:
152,328,178924,2,0,P|164:276|152:240,1,80.000000298023,4|0,0:0|0:0,0:0:0:0:
204,192,179224,2,0,P|175:146|141:129,1,80.000000298023,6|0,0:0|0:0,0:0:0:0:
144,58,179524,2,0,P|92:45|56:57,1,80.000000298023
64,184,179824,6,0,P|113:204|150:199,1,80.000000298023,12|0,0:0|0:0,0:0:0:0:
188,258,180124,2,0,P|237:238|260:207,1,80.000000298023,4|0,0:0|0:0,0:0:0:0:
331,223,180424,1,2,0:0:0:0:
331,223,180524,1,0,0:0:0:0:
331,223,180624,1,0,0:0:0:0:
331,223,180724,2,0,P|351:173|346:136,1,80.000000298023,4|0,0:0|0:0,0:0:0:0:
160,40,181024,5,8,0:0:0:0:
152,68,181099,1,0,0:0:0:0:
148,96,181174,1,0,0:0:0:0:
152,124,181249,1,0,0:0:0:0:
168,148,181324,1,0,0:0:0:0:
188,168,181399,1,0,0:0:0:0:
204,192,181474,1,8,0:0:0:0:
212,220,181549,1,0,0:0:0:0:
212,248,181624,1,0,0:0:0:0:
200,272,181699,1,0,0:0:0:0:
176,288,181774,1,0,0:0:0:0:
148,292,181849,1,0,0:0:0:0:
120,284,181924,6,0,P|96:270|79:246,2,53.3333335320153,10|0|0,0:0|0:0|0:0,0:0:0:0:
226,346,182224,2,0,B|246:338|246:338|310:337|310:337|332:326,1,106.666667064031
439,265,182524,6,0,P|463:279|480:303,2,53.3333335320153,2|0|0,0:0|0:0|0:0,0:0:0:0:
257,193,182824,2,0,L|199:203,2,53.3333335320153
372,66,183124,6,0,L|443:72,2,53.3333335320153,0|0|8,0:0|0:0|0:0,0:0:0:0:
316,164,183424,5,6,0:0:0:0:
348,200,183499,1,4,0:0:0:0:
396,208,183574,1,4,0:0:0:0:
444,196,183649,1,4,0:0:0:0:
476,160,183724,1,4,0:0:0:0:
484,112,183799,1,4,0:0:0:0:
472,64,183874,1,4,0:0:0:0:
432,36,183949,1,4,0:0:0:0:
384,28,184024,5,6,0:0:0:0:
344,44,184099,1,4,0:0:0:0:
320,76,184174,1,4,0:0:0:0:
312,112,184249,1,4,0:0:0:0:
316,144,184324,1,4,0:0:0:0:
332,168,184399,1,4,0:0:0:0:
348,184,184474,1,4,0:0:0:0:
360,192,184549,1,4,0:0:0:0:
396,224,184624,5,2,0:0:0:0:
420,264,184699,1,0,0:0:0:0:
416,312,184774,1,2,0:0:0:0:
388,352,184849,1,0,0:0:0:0:
344,368,184924,1,2,0:0:0:0:
296,360,184999,1,0,0:0:0:0:
260,328,185074,1,0,0:0:0:0:
224,296,185149,1,0,0:0:0:0:
179,277,185224,6,0,B|125:271|115:317|31:335|31:335|86:330|106:364|139:364|139:364|153:353,1,280.00000104308,8|0,0:0|0:0,0:0:0:0:
174,352,185824,5,4,0:0:0:0:
156,216,185974,1,0,0:0:0:0:
296,208,186124,5,6,0:0:0:0:
332,76,186274,1,0,0:0:0:0:
500,72,186424,5,4,0:0:0:0:
372,22,186574,1,0,0:0:0:0:
349,160,186724,5,6,0:0:0:0:
214,182,186874,1,0,0:0:0:0:
200,48,187024,5,4,0:0:0:0:
120,72,187174,1,0,0:0:0:0:
120,72,187249,1,0,0:0:0:0:
120,72,187324,2,0,L|130:158,1,80.000000298023,6|0,0:0|0:0,0:0:0:0:
209,252,187624,5,4,0:0:0:0:
288,228,187774,1,0,0:0:0:0:
288,228,187849,1,0,0:0:0:0:
288,228,187924,2,0,L|278:314,1,80.000000298023,6|0,0:0|0:0,0:0:0:0:
140,360,188224,6,0,L|132:320,2,40.0000001490115
76,268,188524,5,2,0:0:0:0:
112,132,188674,1,0,0:0:0:0:
248,176,188824,5,2,0:0:0:0:
244,32,188974,1,0,0:0:0:0:
372,84,189124,1,4,0:0:0:0:
372,84,189274,2,0,L|352:252,1,160.000000596046,2|0,0:0|0:0,0:0:0:0:
284,316,189724,1,4,0:0:0:0:
284,316,189874,2,0,B|332:268|396:364|448:316,1,160.000000596046,2|0,0:0|0:0,0:0:0:0:
476,176,190324,2,0,L|452:264,1,80.000000298023,4|2,0:0|0:0,0:0:0:0:
353,242,190624,5,8,0:0:0:0:
320,220,190699,1,0,0:0:0:0:
280,212,190774,1,0,0:0:0:0:
240,212,190849,1,0,0:0:0:0:
204,228,190924,1,0,0:0:0:0:
176,260,190999,1,0,0:0:0:0:
164,300,191074,5,8,0:0:0:0:
164,260,191149,1,0,0:0:0:0:
152,220,191224,1,0,0:0:0:0:
132,184,191299,1,0,0:0:0:0:
108,152,191374,1,0,0:0:0:0:
72,136,191449,1,0,0:0:0:0:
32,132,191524,5,8,0:0:0:0:
72,124,191599,1,0,0:0:0:0:
112,124,191674,1,0,0:0:0:0:
152,128,191749,1,0,0:0:0:0:
188,140,191824,2,0,P|212:147|231:163,1,40.0000001490115
322,208,191974,5,8,0:0:0:0:
360,220,192049,1,0,0:0:0:0:
402,217,192124,1,0,0:0:0:0:
435,196,192199,1,0,0:0:0:0:
454,163,192274,1,0,0:0:0:0:
451,121,192349,1,0,0:0:0:0:
422,81,192424,5,8,0:0:0:0:
375,72,192499,1,0,0:0:0:0:
330,91,192574,1,0,0:0:0:0:
309,135,192649,1,0,0:0:0:0:
314,190,192724,5,8,0:0:0:0:
342,238,192799,1,0,0:0:0:0:
373,284,192874,1,8,0:0:0:0:
377,339,192949,1,0,0:0:0:0:
341,382,193024,6,0,P|306:354|302:312,1,80.000000298023,6|0,0:0|0:0,0:0:0:0:
244,185,193324,2,0,P|242:228|211:256,1,80.000000298023,2|0,0:0|0:0,0:0:0:0:
131,359,193624,2,0,P|170:339|210:355,2,80.000000298023,4|0|2,0:0|0:0|0:0,0:0:0:0:
131,359,194074,1,0,0:0:0:0:
84,178,194224,6,0,L|-22:157,1,80.000000298023,4|0,0:0|0:0,0:0:0:0:
163,93,194524,1,2,0:0:0:0:
163,93,194674,2,0,L|156:133,1,40.0000001490115
124,232,194824,2,0,P|172:216|204:228,1,80.000000298023,4|0,0:0|0:0,0:0:0:0:
268,140,195124,2,0,P|316:156|348:144,1,80.000000298023,2|0,0:0|0:0,0:0:0:0:
424,64,195424,5,8,0:0:0:0:
400,208,195574,1,0,0:0:0:0:
268,216,195724,5,4,0:0:0:0:
300,348,195874,1,0,0:0:0:0:
420,304,196024,5,8,0:0:0:0:
224,280,196174,1,0,0:0:0:0:
354,108,196324,5,0,0:0:0:0:
135,62,196474,1,4,0:0:0:0:
456,52,196624,6,0,L|440:140,1,80.000000298023,2|0,0:0|0:0,0:0:0:0:
209,201,196924,2,0,L|223:279,1,80.000000298023,2|0,0:0|0:0,0:0:0:0:
416,352,197224,6,0,L|432:264,1,80.000000298023,2|0,0:0|0:0,0:0:0:0:
288,120,197524,2,0,L|273:41,1,80.000000298023,2|0,0:0|0:0,0:0:0:0:
111,48,197824,5,2,0:0:0:0:
15,136,197974,1,4,0:0:0:0:
61,249,198124,1,2,0:0:0:0:
196,200,198274,1,4,0:0:0:0:
212,196,198349,1,4,0:0:0:0:
228,196,198424,1,4,0:0:0:0:
244,200,198499,1,4,0:0:0:0:
256,208,198574,1,4,0:0:0:0:
280,332,198724,1,2,0:0:0:0:
301,268,198874,1,4,0:0:0:0:
209,361,199024,5,2,0:0:0:0:
116,264,199174,1,4,0:0:0:0:
144,336,199324,1,2,0:0:0:0:
148,196,199474,1,4,0:0:0:0:
156,184,199549,1,4,0:0:0:0:
160,168,199624,1,4,0:0:0:0:
160,152,199699,1,4,0:0:0:0:
156,136,199774,1,4,0:0:0:0:
47,67,199924,1,2,0:0:0:0:
125,72,200074,1,4,0:0:0:0:
16,136,200224,5,10,0:0:0:0:
24,164,200299,1,0,0:0:0:0:
44,184,200374,1,0,0:0:0:0:
68,196,200449,1,0,0:0:0:0:
96,200,200524,1,0,0:0:0:0:
124,192,200599,1,0,0:0:0:0:
148,176,200674,1,0,0:0:0:0:
176,168,200749,1,0,0:0:0:0:
204,168,200824,1,8,0:0:0:0:
232,176,200899,1,0,0:0:0:0:
256,188,200974,1,0,0:0:0:0:
280,204,201049,1,0,0:0:0:0:
296,228,201124,1,0,0:0:0:0:
304,256,201199,1,0,0:0:0:0:
304,284,201274,1,0,0:0:0:0:
296,312,201349,1,0,0:0:0:0:
264,348,201424,5,10,0:0:0:0:
216,360,201499,1,4,0:0:0:0:
172,340,201574,1,4,0:0:0:0:
148,300,201649,1,4,0:0:0:0:
152,252,201724,1,4,0:0:0:0:
180,212,201799,1,4,0:0:0:0:
228,200,201874,1,4,0:0:0:0:
276,208,201949,1,4,0:0:0:0:
312,240,202024,1,8,0:0:0:0:
336,284,202099,1,4,0:0:0:0:
380,308,202174,1,4,0:0:0:0:
428,312,202249,1,4,0:0:0:0:
472,292,202324,5,4,0:0:0:0:
501,249,202399,1,4,0:0:0:0:
502,197,202474,1,4,0:0:0:0:
475,152,202549,1,4,0:0:0:0:
424,139,202624,5,6,0:0:0:0:
256,192,202699,12,0,207274,0:0:0:0:
256,192,207424,12,0,211924,0:0:0:0:
356,220,212224,6,0,B|368:180|368:180|416:216|416:216|404:276|404:276|376:300|376:300|372:340,1,240.000000894069,8|4,0:0|0:0,0:0:0:0:
184,328,213424,2,0,B|216:320|216:320|268:340|268:340|300:332,2,120.000000447034,2|2|2,0:0|0:0|0:0,0:0:0:0:
120,224,214624,6,0,B|108:184|108:184|60:220|60:220|72:280|72:280|100:304|100:304|104:344,1,240.000000894069,8|4,0:0|0:0,0:0:0:0:
298,332,215824,2,0,B|268:340|268:340|216:320|216:320|184:328,2,120.000000447034,2|2|2,0:0|0:0|0:0,0:0:0:0:
264,260,217024,5,2,0:0:0:0:
264,244,217174,1,0,0:0:0:0:
264,228,217324,1,4,0:0:0:0:
264,212,217474,1,0,0:0:0:0:
272,192,217624,5,2,0:0:0:0:
256,172,217774,1,0,0:0:0:0:
292,148,217924,1,4,0:0:0:0:
244,108,218074,1,0,0:0:0:0:
312,84,218224,1,2,0:0:0:0:
228,44,218374,1,0,0:0:0:0:
336,20,218524,5,4,0:0:0:0:
162,44,218674,1,0,0:0:0:0:
384,128,218824,1,2,0:0:0:0:
130,211,218974,1,0,0:0:0:0:
390,319,219124,2,0,L|339:343,1,40.0000001490115,4|0,0:0|0:0,0:0:0:0:
93,355,219424,5,2,0:0:0:0:
298,295,219574,1,2,0:0:0:0:
47,240,219724,1,2,0:0:0:0:
350,191,219874,1,2,0:0:0:0:
34,122,220024,5,2,0:0:0:0:
386,82,220174,1,2,0:0:0:0:
36,17,220324,2,0,L|84:8,1,40.0000001490115,2|2,0:0|0:0,0:0:0:0:
462,174,220624,6,0,B|500:242|486:290|486:290|448:311,1,160.000000596046,10|4,0:0|0:0,0:0:0:0:
385,312,221824,5,4,0:0:0:0:
358,277,221899,1,0,0:0:0:0:
317,258,221974,1,0,0:0:0:0:
273,253,222049,1,0,0:0:0:0:
231,267,222124,1,2,0:0:0:0:
202,300,222199,1,0,0:0:0:0:
168,324,222274,1,0,0:0:0:0:
124,330,222349,1,0,0:0:0:0:
81,320,222424,1,8,0:0:0:0:
49,289,222499,1,0,0:0:0:0:
34,247,222574,1,0,0:0:0:0:
40,203,222649,1,0,0:0:0:0:
65,166,222724,1,2,0:0:0:0:
105,149,222799,1,0,0:0:0:0:
148,151,222874,1,0,0:0:0:0:
187,171,222949,1,0,0:0:0:0:
229,183,223024,5,4,0:0:0:0:
271,178,223099,1,0,0:0:0:0:
309,156,223174,1,0,0:0:0:0:
327,116,223249,1,0,0:0:0:0:
326,71,223324,1,2,0:0:0:0:
293,42,223399,1,0,0:0:0:0:
251,29,223474,1,0,0:0:0:0:
209,42,223549,1,0,0:0:0:0:
185,78,223624,1,8,0:0:0:0:
188,122,223699,1,0,0:0:0:0:
218,152,223774,1,0,0:0:0:0:
254,176,223849,1,0,0:0:0:0:
297,175,223924,1,2,0:0:0:0:
338,160,223999,1,0,0:0:0:0:
381,160,224074,1,0,0:0:0:0:
417,184,224149,1,0,0:0:0:0:
431,225,224224,5,4,0:0:0:0:
419,267,224299,1,0,0:0:0:0:
391,301,224374,1,0,0:0:0:0:
347,307,224449,1,0,0:0:0:0:
303,299,224524,1,2,0:0:0:0:
277,263,224599,1,0,0:0:0:0:
272,219,224674,1,0,0:0:0:0:
292,179,224749,1,0,0:0:0:0:
315,142,224824,1,8,0:0:0:0:
324,99,224899,1,0,0:0:0:0:
304,59,224974,1,0,0:0:0:0:
267,33,225049,1,0,0:0:0:0:
223,28,225124,1,2,0:0:0:0:
180,39,225199,1,0,0:0:0:0:
150,71,225274,1,0,0:0:0:0:
139,113,225349,1,0,0:0:0:0:
146,156,225424,5,4,0:0:0:0:
171,191,225499,1,0,0:0:0:0:
206,215,225574,1,0,0:0:0:0:
248,230,225649,1,0,0:0:0:0:
291,235,225724,1,2,0:0:0:0:
332,224,225799,1,0,0:0:0:0:
366,195,225874,1,0,0:0:0:0:
383,154,225949,1,0,0:0:0:0:
374,111,226024,1,8,0:0:0:0:
343,78,226099,1,0,0:0:0:0:
300,63,226174,1,8,0:0:0:0:
256,68,226249,1,0,0:0:0:0:
219,92,226324,1,2,0:0:0:0:
202,132,226399,1,0,0:0:0:0:
199,176,226474,1,0,0:0:0:0:
219,214,226549,1,0,0:0:0:0:
261,248,226624,5,6,0:0:0:0:
311,261,226699,1,0,0:0:0:0:
365,259,226774,1,0,0:0:0:0:
409,234,226849,1,0,0:0:0:0:
434,185,226924,1,2,0:0:0:0:
442,135,226999,1,0,0:0:0:0:
431,84,227074,1,0,0:0:0:0:
399,41,227149,1,0,0:0:0:0:
350,21,227224,1,6,0:0:0:0:
298,12,227299,1,0,0:0:0:0:
247,22,227374,1,0,0:0:0:0:
209,56,227449,1,0,0:0:0:0:
192,106,227524,1,2,0:0:0:0:
192,158,227599,1,0,0:0:0:0:
217,204,227674,1,0,0:0:0:0:
231,254,227749,1,0,0:0:0:0:
213,303,227824,5,8,0:0:0:0:
163,327,227899,1,0,0:0:0:0:
110,327,227974,1,0,0:0:0:0:
68,294,228049,1,0,0:0:0:0:
44,246,228124,1,2,0:0:0:0:
48,193,228199,1,0,0:0:0:0:
71,145,228274,1,0,0:0:0:0:
117,119,228349,1,0,0:0:0:0:
169,114,228424,1,4,0:0:0:0:
218,132,228499,1,0,0:0:0:0:
259,164,228574,1,0,0:0:0:0:
309,180,228649,1,0,0:0:0:0:
361,184,228724,1,2,0:0:0:0:
411,167,228799,1,0,0:0:0:0:
455,139,228874,1,0,0:0:0:0:
473,89,228949,1,0,0:0:0:0:
473,36,229024,6,0,L|358:31,1,88.0000030133723,4|0,0:0|0:0,0:0:0:0:
64,134,229324,2,0,L|151:137,1,88.0000030133723,4|0,0:0|0:0,0:0:0:0:
394,102,229624,5,4,0:0:0:0:
196,74,229774,1,4,0:0:0:0:
304,216,229924,5,4,0:0:0:0:
316,228,229999,1,4,0:0:0:0:
324,244,230074,1,4,0:0:0:0:
328,260,230149,1,4,0:0:0:0:
324,276,230224,2,0,B|296:304|296:304|200:312,1,132.000004520058,4|0,0:0|0:0,0:0:0:0:
144,344,230524,2,0,B|168:328|168:328|248:344,1,88.0000030133723,2|0,0:0|0:0,0:0:0:0:
64,340,230824,2,0,L|53:297,7,44.0000015066861,4|4|4|4|2|0|0|0,0:0|0:0|0:0|0:0|0:0|0:0|0:0|0:0,0:0:0:0:
104,232,231424,6,0,L|104:180,7,44.0000015066861,8|0|0|0|2|0|0|0,0:0|0:0|0:0|0:0|0:0|0:0|0:0|0:0,0:0:0:0:
176,160,232024,2,0,L|188:112,1,44.0000015066861,4|0,0:0|0:0,0:0:0:0:
260,112,232174,2,0,P|301:95|348:97,1,88.0000030133723,0|2,0:0|0:0,0:0:0:0:
420,146,232399,1,0,0:0:0:0:
420,146,232474,2,0,L|407:89,1,44.0000015066861,0|8,0:0|0:0,0:0:0:0:
389,30,232624,2,0,P|352:29|288:8,1,88.0000030133723,4|0,0:0|0:0,0:0:0:0:
492,44,232924,6,0,L|488:96,1,44.0000015066861,2|0,0:0|0:0,0:0:0:0:
484,156,233074,1,0,0:0:0:0:
400,248,233224,2,0,L|388:152,1,88.0000030133723,4|0,0:0|0:0,0:0:0:0:
476,232,233524,6,0,L|472:284,1,44.0000015066861,2|0,0:0|0:0,0:0:0:0:
468,344,233674,1,0,0:0:0:0:
351,314,233824,5,8,0:0:0:0:
324,329,233899,1,0,0:0:0:0:
294,336,233974,1,0,0:0:0:0:
263,340,234049,1,0,0:0:0:0:
232,340,234124,1,2,0:0:0:0:
201,337,234199,1,0,0:0:0:0:
171,328,234274,2,0,L|120:305,1,44.0000015066861
109,206,234424,5,4,0:0:0:0:
112,175,234499,1,0,0:0:0:0:
128,149,234574,1,0,0:0:0:0:
154,132,234649,1,0,0:0:0:0:
184,126,234724,1,2,0:0:0:0:
214,129,234799,1,0,0:0:0:0:
240,142,234874,2,0,L|242:194,1,44.0000015066861
356,233,235024,5,8,0:0:0:0:
356,233,235174,2,0,L|349:179,1,44.0000015066861
350,72,235324,6,0,L|425:70,2,58.6666686755815,2|0|0,0:0|0:0|0:0,0:0:0:0:
259,69,235624,5,4,0:0:0:0:
230,75,235699,1,0,0:0:0:0:
206,96,235774,1,0,0:0:0:0:
191,125,235849,1,0,0:0:0:0:
184,156,235924,2,0,P|148:85|135:78,1,88.0000030133723,2|0,0:0|0:0,0:0:0:0:
44,168,236224,5,2,0:0:0:0:
40,200,236299,1,0,0:0:0:0:
44,232,236374,1,0,0:0:0:0:
56,260,236449,1,0,0:0:0:0:
76,284,236524,1,2,0:0:0:0:
100,300,236599,1,0,0:0:0:0:
128,308,236674,1,0,0:0:0:0:
160,304,236749,1,0,0:0:0:0:
188,288,236824,1,2,0:0:0:0:
216,276,236899,1,0,0:0:0:0:
248,276,236974,1,0,0:0:0:0:
280,280,237049,1,0,0:0:0:0:
308,292,237124,1,2,0:0:0:0:
332,312,237199,1,0,0:0:0:0:
348,336,237274,1,0,0:0:0:0:
352,368,237349,1,0,0:0:0:0:
360,340,237424,5,4,0:0:0:0:
372,312,237499,1,0,0:0:0:0:
388,284,237574,1,0,0:0:0:0:
408,260,237649,1,0,0:0:0:0:
436,244,237724,1,2,0:0:0:0:
456,220,237799,1,0,0:0:0:0:
468,192,237874,1,0,0:0:0:0:
472,160,237949,1,0,0:0:0:0:
456,116,238024,5,4,0:0:0:0:
416,88,238099,1,4,0:0:0:0:
368,80,238174,1,4,0:0:0:0:
324,96,238249,1,0,0:0:0:0:
299,134,238324,6,0,P|281:181|239:217,1,90.0000037685036,2|0,0:0|0:0,0:0:0:0:
98,195,238624,5,8,0:0:0:0:
57,167,238699,1,0,0:0:0:0:
39,119,238774,1,0,0:0:0:0:
43,67,238849,1,0,0:0:0:0:
81,31,238924,1,2,0:0:0:0:
133,21,238999,1,0,0:0:0:0:
186,29,239074,1,0,0:0:0:0:
223,66,239149,1,0,0:0:0:0:
242,114,239224,1,8,0:0:0:0:
240,167,239299,1,0,0:0:0:0:
225,217,239374,1,0,0:0:0:0:
225,269,239449,1,0,0:0:0:0:
249,315,239524,1,2,0:0:0:0:
292,346,239599,1,0,0:0:0:0:
342,359,239674,1,0,0:0:0:0:
394,351,239749,1,0,0:0:0:0:
430,314,239824,5,8,0:0:0:0:
441,261,239899,1,0,0:0:0:0:
425,211,239974,1,8,0:0:0:0:
385,175,240049,1,0,0:0:0:0:
333,162,240124,1,0,0:0:0:0:
281,175,240199,1,0,0:0:0:0:
252,219,240274,1,0,0:0:0:0:
208,250,240349,1,0,0:0:0:0:
156,257,240424,1,8,0:0:0:0:
105,241,240499,1,0,0:0:0:0:
64,206,240574,1,8,0:0:0:0:
55,154,240649,1,0,0:0:0:0:
75,105,240724,1,0,0:0:0:0:
122,83,240799,1,0,0:0:0:0:
175,85,240874,1,0,0:0:0:0:
210,123,240949,1,0,0:0:0:0:
219,170,241024,5,4,0:0:0:0:
219,170,241099,1,0,0:0:0:0:
219,170,241174,1,0,0:0:0:0:
123,299,241324,5,2,0:0:0:0:
123,299,241399,1,0,0:0:0:0:
123,299,241474,1,0,0:0:0:0:
24,176,241624,5,8,0:0:0:0:
102,37,241774,5,0,0:0:0:0:
102,37,241849,1,0,0:0:0:0:
102,37,241924,1,2,0:0:0:0:
102,37,241999,1,0,0:0:0:0:
102,37,242074,1,0,0:0:0:0:
255,28,242224,5,4,0:0:0:0:
255,28,242299,1,0,0:0:0:0:
255,28,242374,1,0,0:0:0:0:
376,120,242524,6,0,L|364:216,1,88.0000030133723,2|0,0:0|0:0,0:0:0:0:
192,160,242824,6,0,L|212:340,1,176.000006026745,8|2,0:0|0:0,0:0:0:0:
211,334,243199,1,0,0:0:0:0:
211,334,243274,1,0,0:0:0:0:
416,344,243424,6,0,L|384:308,1,44.0000015066861,4|0,0:0|0:0,0:0:0:0:
264,240,243574,2,0,L|300:212,1,44.0000015066861
356,80,243724,6,0,L|368:128,1,44.0000015066861,2|0,0:0|0:0,0:0:0:0:
224,84,243874,2,0,L|184:60,1,44.0000015066861
52,76,244024,6,0,L|64:124,1,44.0000015066861,8|0,0:0|0:0,0:0:0:0:
152,220,244174,2,0,L|168:172,1,44.0000015066861
36,296,244324,6,0,L|80:284,1,44.0000015066861,2|0,0:0|0:0,0:0:0:0:
208,372,244474,2,0,L|156:344,1,44.0000015066861
80,356,244624,5,6,0:0:0:0:
196,288,244774,1,0,0:0:0:0:
320,320,244924,5,6,0:0:0:0:
436,252,245074,1,0,0:0:0:0:
488,352,245224,6,0,P|444:328|400:328,1,88.0000030133723,6|0,0:0|0:0,0:0:0:0:
264,248,245524,2,0,P|307:244|345:222,1,88.0000030133723,6|0,0:0|0:0,0:0:0:0:
296,44,245824,6,0,L|300:96,1,44.0000015066861,8|0,0:0|0:0,0:0:0:0:
216,80,245974,2,0,L|212:132,1,44.0000015066861
368,88,246124,6,0,L|385:137,1,44.0000015066861,2|0,0:0|0:0,0:0:0:0:
156,156,246274,2,0,L|138:205,1,44.0000015066861
320,186,246424,6,0,L|349:229,1,44.0000015066861,8|0,0:0|0:0,0:0:0:0:
72,224,246574,2,0,L|42:267,1,44.0000015066861
264,248,246724,6,0,L|303:281,1,44.0000015066861,2|0,0:0|0:0,0:0:0:0:
76,324,246874,2,0,L|46:367,1,44.0000015066861
144,348,247024,6,0,P|204:332|280:352,1,132.000004520058,6|0,0:0|0:0,0:0:0:0:
427,326,247324,2,0,P|391:354|322:362,1,88.0000030133723,6|0,0:0|0:0,0:0:0:0:
439,236,247624,2,0,P|435:192|441:148,1,88.0000030133723,6|0,0:0|0:0,0:0:0:0:
457,34,247924,2,0,P|462:77|458:121,1,88.0000030133723,6|0,0:0|0:0,0:0:0:0:
382,129,248224,5,12,0:0:0:0:
372,136,248299,1,4,0:0:0:0:
360,140,248374,1,4,0:0:0:0:
340,140,248449,1,4,0:0:0:0:
320,136,248524,1,4,0:0:0:0:
296,120,248599,1,4,0:0:0:0:
268,104,248674,1,4,0:0:0:0:
228,96,248749,1,4,0:0:0:0:
188,104,248824,1,6,0:0:0:0:
148,128,248899,1,4,0:0:0:0:
128,172,248974,1,4,0:0:0:0:
136,228,249049,1,4,0:0:0:0:
176,268,249124,1,4,0:0:0:0:
236,284,249199,1,4,0:0:0:0:
296,256,249274,1,4,0:0:0:0:
364,244,249349,1,4,0:0:0:0:
428,276,249424,5,6,0:0:0:0:
432,288,249499,1,4,0:0:0:0:
432,308,249574,1,6,0:0:0:0:
420,328,249649,1,4,0:0:0:0:
392,340,249724,1,4,0:0:0:0:
360,336,249799,1,4,0:0:0:0:
332,308,249874,1,4,0:0:0:0:
328,268,249949,1,4,0:0:0:0:
348,220,250024,1,6,0:0:0:0:
392,188,250099,1,4,0:0:0:0:
428,140,250174,1,6,0:0:0:0:
428,80,250249,1,4,0:0:0:0:
384,24,250324,1,4,0:0:0:0:
311,9,250399,1,4,0:0:0:0:
226,23,250474,1,4,0:0:0:0:
143,64,250549,1,4,0:0:0:0:
59,128,250624,6,0,B|1:99|1:99|17:83|10:49|10:49|51:39|65:82|126:53|126:53|83:90|69:153|69:153|83:182|78:245,1,440.000015066861,8|4,0:0|0:0,0:0:0:0:
187,250,251524,1,2,0:0:0:0:
24,307,251674,1,2,0:0:0:0:
136,328,251824,5,4,0:0:0:0:
148,340,251899,1,4,0:0:0:0:
164,348,251974,1,4,0:0:0:0:
180,352,252049,1,4,0:0:0:0:
196,352,252124,1,4,0:0:0:0:
212,348,252199,1,0,0:0:0:0:
228,340,252274,1,0,0:0:0:0:
244,336,252349,1,0,0:0:0:0:
260,336,252424,1,0,0:0:0:0:
276,340,252499,1,0,0:0:0:0:
292,348,252574,5,4,0:0:0:0:
320,360,252649,1,4,0:0:0:0:
352,360,252724,1,4,0:0:0:0:
380,348,252799,1,4,0:0:0:0:
400,324,252874,1,4,0:0:0:0:
404,292,252949,1,4,0:0:0:0:
388,244,253024,5,2,0:0:0:0:
356,204,253099,1,0,0:0:0:0:
312,176,253174,1,0,0:0:0:0:
260,168,253249,1,0,0:0:0:0:
208,180,253324,1,2,0:0:0:0:
168,212,253399,1,0,0:0:0:0:
144,260,253474,1,0,0:0:0:0:
144,312,253549,1,0,0:0:0:0:
168,355,253624,6,0,L|224:338,3,44.0000015066861,2|0|0|0,0:0|0:0|0:0|0:0,0:0:0:0:
294,263,253924,2,0,L|350:246,3,44.0000015066861,2|0|0|0,0:0|0:0|0:0|0:0,0:0:0:0:
450,173,254224,6,0,P|456:122|433:71,1,90.0000037685036,2|0,0:0|0:0,0:0:0:0:
287,32,254524,5,4,0:0:0:0:
263,68,254599,1,4,0:0:0:0:
255,112,254674,1,4,0:0:0:0:
267,156,254749,1,4,0:0:0:0:
289,191,254824,2,0,P|299:206|305:236,3,44.0000015066861,2|0|0|0,0:0|0:0|0:0|0:0,0:0:0:0:
258,313,255124,2,0,P|262:334|274:353,3,44.0000015066861,2|0|0|0,0:0|0:0|0:0|0:0,0:0:0:0:
372,356,255424,5,2,0:0:0:0:
424,352,255499,1,0,0:0:0:0:
464,316,255574,1,0,0:0:0:0:
472,264,255649,1,0,0:0:0:0:
452,216,255724,1,2,0:0:0:0:
412,184,255799,1,0,0:0:0:0:
360,176,255874,1,0,0:0:0:0:
312,200,255949,1,0,0:0:0:0:
276,240,256024,1,2,0:0:0:0:
248,284,256099,1,0,0:0:0:0:
204,312,256174,1,0,0:0:0:0:
152,312,256249,1,0,0:0:0:0:
104,292,256324,1,2,0:0:0:0:
72,248,256399,1,0,0:0:0:0:
72,196,256474,2,0,L|120:204,1,44.0000015066861
272,264,256624,5,12,0:0:0:0:
244,308,256699,1,4,0:0:0:0:
200,336,256774,1,4,0:0:0:0:
148,336,256849,1,4,0:0:0:0:
100,316,256924,1,6,0:0:0:0:
68,272,256999,1,4,0:0:0:0:
56,220,257074,1,4,0:0:0:0:
64,168,257149,1,4,0:0:0:0:
100,128,257224,1,12,0:0:0:0:
152,112,257299,1,4,0:0:0:0:
204,120,257374,1,4,0:0:0:0:
252,144,257449,1,4,0:0:0:0:
292,180,257524,1,6,0:0:0:0:
340,196,257599,1,4,0:0:0:0:
392,192,257674,1,4,0:0:0:0:
440,168,257749,1,4,0:0:0:0:
464,124,257824,6,0,B|437:83|437:83|368:63|311:49|245:77,1,240.000010049343,8|8,0:0|0:0,0:0:0:0:
118,229,258274,1,0,0:0:0:0:
118,229,258424,6,8,L|239:217,1,120.000005024671
368,340,259024,5,4,0:0:0:0:
324,312,259099,1,4,0:0:0:0:
272,300,259174,1,4,0:0:0:0:
220,308,259249,1,4,0:0:0:0:
172,328,259324,1,4,0:0:0:0:
120,320,259399,1,4,0:0:0:0:
80,288,259474,1,4,0:0:0:0:
64,237,259549,1,4,0:0:0:0:
75,185,259624,5,4,0:0:0:0:
108,156,259699,1,4,0:0:0:0:
149,141,259774,1,4,0:0:0:0:
193,141,259849,1,4,0:0:0:0:
233,157,259924,1,4,0:0:0:0:
268,155,259999,5,4,0:0:0:0:
297,136,260074,1,4,0:0:0:0:
314,105,260149,1,4,0:0:0:0:
301,72,260224,5,6,0:0:0:0:
256,192,260299,12,0,262324,0:0:0:0:
184,92,262624,6,0,P|188:156|152:220,1,132.000004520058,4|0,0:0|0:0,0:0:0:0:
76,284,262924,2,0,P|128:280|168:300,1,88.0000030133723,2|0,0:0|0:0,0:0:0:0:
256,224,263224,6,0,P|304:244|348:228,1,88.0000030133723,8|0,0:0|0:0,0:0:0:0:
432,172,263524,2,0,L|372:180,2,44.0000015066861,2|0|0,0:0|0:0|0:0,0:0:0:0:
500,340,263824,5,6,0:0:0:0:
472,348,263899,1,0,0:0:0:0:
444,356,263974,1,0,0:0:0:0:
416,293,264124,5,6,0:0:0:0:
384,293,264199,1,0,0:0:0:0:
352,293,264274,1,0,0:0:0:0:
291,365,264424,5,6,0:0:0:0:
259,361,264499,1,0,0:0:0:0:
227,357,264574,1,0,0:0:0:0:
177,301,264724,5,6,0:0:0:0:
131,300,264799,1,0,0:0:0:0:
88,297,264874,1,0,0:0:0:0:
24,240,265024,6,0,P|62:188|66:115,1,132.000004520058,4|0,0:0|0:0,0:0:0:0:
84,40,265324,2,0,P|125:71|169:76,1,88.0000030133723,2|0,0:0|0:0,0:0:0:0:
312,42,265624,6,0,P|260:51|232:88,1,88.0000030133723,8|0,0:0|0:0,0:0:0:0:
252,248,265924,2,0,L|299:203,1,44.0000015066861,2|0,0:0|0:0,0:0:0:0:
368,232,266074,2,0,L|415:187,1,44.0000015066861
384,84,266224,5,4,0:0:0:0:
384,84,266374,2,0,L|392:132,1,44.0000015066861
192,144,266524,5,2,0:0:0:0:
192,144,266674,2,0,L|184:192,1,44.0000015066861
324,288,266824,5,8,0:0:0:0:
324,288,266974,2,0,L|326:336,1,44.0000015066861
96,352,267124,5,2,0:0:0:0:
96,352,267274,2,0,L|98:303,1,44.0000015066861
48,240,267424,5,6,0:0:0:0:
32,116,267574,1,0,0:0:0:0:
32,116,267649,1,0,0:0:0:0:
32,116,267724,2,0,L|88:120,1,44.0000015066861
128,64,267874,5,6,0:0:0:0:
280,104,268024,1,0,0:0:0:0:
280,104,268099,1,0,0:0:0:0:
280,104,268174,2,0,L|296:152,1,44.0000015066861
368,192,268324,5,6,0:0:0:0:
328,384,268474,1,4,0:0:0:0:
328,384,268549,1,4,0:0:0:0:
327,383,268624,6,4,P|294:353|251:346,1,88.0000030133723
432,288,268924,5,2,0:0:0:0:
432,288,269074,2,0,L|424:240,1,44.0000015066861
488,148,269224,5,2,0:0:0:0:
488,148,269374,1,0,0:0:0:0:
488,148,269524,2,0,L|480:196,1,44.0000015066861
424,244,269674,5,14,0:0:0:0:
376,224,269749,1,4,0:0:0:0:
324,216,269824,1,4,0:0:0:0:
272,224,269899,1,4,0:0:0:0:
232,256,269974,1,4,0:0:0:0:
196,296,270049,1,4,0:0:0:0:
148,316,270124,5,4,0:0:0:0:
100,320,270199,1,4,0:0:0:0:
60,300,270274,1,4,0:0:0:0:
40,268,270349,1,4,0:0:0:0:
44,232,270424,1,0,0:0:0:0:
60,208,270499,1,0,0:0:0:0:
84,200,270574,1,0,0:0:0:0:
104,204,270649,1,0,0:0:0:0:
120,212,270724,5,2,0:0:0:0:
128,228,270799,1,0,0:0:0:0:
132,244,270874,5,12,0:0:0:0:
136,296,270949,1,4,0:0:0:0:
160,344,271024,1,4,0:0:0:0:
208,368,271099,1,4,0:0:0:0:
260,372,271174,1,4,0:0:0:0:
308,352,271249,1,4,0:0:0:0:
344,312,271324,5,4,0:0:0:0:
356,264,271399,1,4,0:0:0:0:
348,220,271474,1,4,0:0:0:0:
328,184,271549,1,4,0:0:0:0:
320,148,271624,1,0,0:0:0:0:
328,120,271699,1,0,0:0:0:0:
348,104,271774,1,0,0:0:0:0:
368,104,271849,1,0,0:0:0:0:
384,112,271924,5,2,0:0:0:0:
404,152,271999,1,0,0:0:0:0:
404,196,272074,1,2,0:0:0:0:
376,232,272149,1,0,0:0:0:0:
336,252,272224,5,8,0:0:0:0:
284,256,272299,1,0,0:0:0:0:
236,236,272374,1,0,0:0:0:0:
192,204,272449,1,0,0:0:0:0:
140,192,272524,1,2,0:0:0:0:
88,208,272599,1,0,0:0:0:0:
56,252,272674,1,0,0:0:0:0:
52,304,272749,1,0,0:0:0:0:
84,344,272824,1,8,0:0:0:0:
132,364,272899,1,0,0:0:0:0:
184,365,272974,1,0,0:0:0:0:
235,353,273049,1,0,0:0:0:0:
277,322,273124,1,2,0:0:0:0:
303,276,273199,1,0,0:0:0:0:
307,223,273274,6,0,L|285:158,5,44.0000015066861,8|0|0|0|0|0,0:0|0:0|0:0|0:0|0:0|0:0,0:0:0:0:
376,131,273724,6,0,L|445:120,3,44.0000015066861,2|0|0|0,0:0|0:0|0:0|0:0,0:0:0:0:
446,27,274024,2,0,L|377:16,3,44.0000015066861,2|0|0|0,0:0|0:0|0:0|0:0,0:0:0:0:
292,68,274324,6,0,L|313:123,1,44.0000015066861,2|0,0:0|0:0,0:0:0:0:
410,211,274474,5,12,0:0:0:0:
438,256,274549,1,4,0:0:0:0:
446,308,274624,1,4,0:0:0:0:
418,354,274699,1,4,0:0:0:0:
367,363,274774,1,4,0:0:0:0:
314,356,274849,1,4,0:0:0:0:
271,327,274924,5,4,0:0:0:0:
234,301,274999,1,4,0:0:0:0:
196,287,275074,1,4,0:0:0:0:
156,287,275149,1,4,0:0:0:0:
122,297,275224,1,0,0:0:0:0:
96,320,275299,1,0,0:0:0:0:
90,345,275374,1,0,0:0:0:0:
101,368,275449,1,0,0:0:0:0:
115,377,275524,5,2,0:0:0:0:
132,376,275599,1,0,0:0:0:0:
149,374,275674,5,12,0:0:0:0:
190,338,275749,1,4,0:0:0:0:
214,292,275824,1,4,0:0:0:0:
230,242,275899,1,4,0:0:0:0:
234,190,275974,1,4,0:0:0:0:
225,138,276049,1,4,0:0:0:0:
201,92,276124,5,4,0:0:0:0:
167,63,276199,1,4,0:0:0:0:
134,50,276274,1,4,0:0:0:0:
98,46,276349,1,4,0:0:0:0:
72,53,276424,1,0,0:0:0:0:
51,69,276499,1,0,0:0:0:0:
39,87,276574,1,0,0:0:0:0:
35,108,276649,1,0,0:0:0:0:
49,127,276724,5,0,0:0:0:0:
96,150,276799,1,0,0:0:0:0:
148,142,276874,1,0,0:0:0:0:
192,113,276949,1,0,0:0:0:0:
237,86,277024,5,8,0:0:0:0:
289,77,277099,1,0,0:0:0:0:
341,81,277174,1,0,0:0:0:0:
389,100,277249,1,0,0:0:0:0:
426,137,277324,1,2,0:0:0:0:
452,182,277399,1,0,0:0:0:0:
452,234,277474,1,0,0:0:0:0:
436,284,277549,1,0,0:0:0:0:
404,326,277624,1,10,0:0:0:0:
357,350,277699,1,0,0:0:0:0:
305,350,277774,1,0,0:0:0:0:
258,322,277849,1,0,0:0:0:0:
235,278,277924,6,0,P|228:246|232:222,1,44.0000015066861,2|0,0:0|0:0,0:0:0:0:
406,104,278074,5,2,0:0:0:0:
440,149,278149,1,0,0:0:0:0:
457,203,278224,1,4,0:0:0:0:
449,259,278299,1,4,0:0:0:0:
425,310,278374,1,4,0:0:0:0:
386,351,278449,1,4,0:0:0:0:
329,359,278524,1,4,0:0:0:0:
273,345,278599,1,4,0:0:0:0:
237,300,278674,1,4,0:0:0:0:
209,250,278749,1,4,0:0:0:0:
165,212,278824,1,4,0:0:0:0:
110,194,278899,1,4,0:0:0:0:
53,200,278974,1,4,0:0:0:0:
17,245,279049,1,0,0:0:0:0:
3,300,279124,6,0,P|46:305|89:297,1,88.0000030133723
259,179,279424,2,0,L|310:189,1,44.0000015066861,4|0,0:0|0:0,0:0:0:0:
381,239,279574,2,0,L|401:153,1,88.0000030133723,0|2,0:0|0:0,0:0:0:0:
293,31,279874,2,0,L|249:27,1,44.0000015066861
162,73,280024,6,0,P|160:117|179:155,1,88.0000030133723,4|0,0:0|0:0,0:0:0:0:
283,272,280324,2,0,L|267:324,1,44.0000015066861,2|0,0:0|0:0,0:0:0:0:
200,352,280474,6,0,L|104:340,1,88.0000030133723,0|4,0:0|0:0,0:0:0:0:
323,189,280774,2,0,L|288:279,1,88.0000030133723,0|2,0:0|0:0,0:0:0:0:
49,256,281074,2,0,B|59:239|20:190|33:172,2,88.0000030133723,0|4|0,0:0|0:0|0:0,0:0:0:0:
168,72,281524,5,2,0:0:0:0:
168,72,281599,1,0,0:0:0:0:
168,72,281674,1,0,0:0:0:0:
344,80,281824,1,4,0:0:0:0:
261,228,281974,1,0,0:0:0:0:
415,194,282124,1,2,0:0:0:0:
402,168,282199,1,0,0:0:0:0:
386,142,282274,1,0,0:0:0:0:
336,260,282424,6,0,L|344:368,1,88.0000030133723,4|0,0:0|0:0,0:0:0:0:
184,352,282724,1,2,0:0:0:0:
186,323,282799,1,0,0:0:0:0:
188,292,282874,2,0,L|192:240,1,44.0000015066861
240,156,283024,2,0,P|184:184|152:176,1,88.0000030133723,4|0,0:0|0:0,0:0:0:0:
36,124,283324,6,0,L|48:184,1,44.0000015066861,2|0,0:0|0:0,0:0:0:0:
20,252,283474,1,0,0:0:0:0:
48,236,283549,1,0,0:0:0:0:
80,232,283624,1,4,0:0:0:0:
108,240,283699,1,0,0:0:0:0:
136,256,283774,1,0,0:0:0:0:
164,264,283849,1,0,0:0:0:0:
196,260,283924,2,0,P|248:256|324:216,1,132.000004520058,2|0,0:0|0:0,0:0:0:0:
408,112,284224,5,8,0:0:0:0:
400,144,284299,1,0,0:0:0:0:
396,176,284374,1,0,0:0:0:0:
400,208,284449,1,0,0:0:0:0:
412,236,284524,1,0,0:0:0:0:
424,264,284599,1,0,0:0:0:0:
428,296,284674,1,0,0:0:0:0:
432,328,284749,1,0,0:0:0:0:
416,356,284824,6,0,L|368:336,1,44.0000015066861,2|0,0:0|0:0,0:0:0:0:
280,380,284974,2,0,L|220:384,3,44.0000015066861
220,256,285274,5,0,0:0:0:0:
206,229,285349,1,0,0:0:0:0:
200,197,285424,1,8,0:0:0:0:
212,167,285499,1,0,0:0:0:0:
228,143,285574,1,0,0:0:0:0:
234,115,285649,1,0,0:0:0:0:
230,83,285724,1,0,0:0:0:0:
216,56,285799,1,0,0:0:0:0:
190,45,285874,1,0,0:0:0:0:
158,46,285949,1,0,0:0:0:0:
128,64,286024,1,2,0:0:0:0:
121,93,286099,1,0,0:0:0:0:
128,116,286174,5,0,0:0:0:0:
136,132,286249,1,0,0:0:0:0:
148,144,286324,1,0,0:0:0:0:
164,152,286399,1,0,0:0:0:0:
180,156,286474,1,0,0:0:0:0:
196,156,286549,1,0,0:0:0:0:
212,148,286624,5,12,0:0:0:0:
260,124,286699,1,4,0:0:0:0:
312,112,286774,1,4,0:0:0:0:
364,116,286849,1,4,0:0:0:0:
412,136,286924,1,4,0:0:0:0:
452,172,286999,1,4,0:0:0:0:
464,224,287074,1,12,0:0:0:0:
460,276,287149,1,4,0:0:0:0:
440,324,287224,1,4,0:0:0:0:
396,356,287299,1,4,0:0:0:0:
344,364,287374,1,4,0:0:0:0:
292,348,287449,1,4,0:0:0:0:
260,308,287524,5,12,0:0:0:0:
232,268,287599,1,0,0:0:0:0:
200,240,287674,1,4,0:0:0:0:
164,224,287749,1,0,0:0:0:0:
120,221,287824,5,6,0:0:0:0:
79,238,287899,1,0,0:0:0:0:
59,277,287974,1,4,0:0:0:0:
61,320,288049,1,0,0:0:0:0:
83,357,288124,5,2,0:0:0:0:
124,372,288199,1,0,0:0:0:0:
167,370,288274,1,0,0:0:0:0:
206,350,288349,1,0,0:0:0:0:
231,314,288424,1,2,0:0:0:0:
271,297,288499,1,0,0:0:0:0:
314,302,288574,1,0,0:0:0:0:
353,321,288649,1,0,0:0:0:0:
394,335,288724,1,2,0:0:0:0:
437,327,288799,1,0,0:0:0:0:
470,297,288874,1,0,0:0:0:0:
483,255,288949,1,0,0:0:0:0:
482,215,289024,6,0,L|390:207,1,80.000000298023,2|2,0:0|0:0,0:0:0:0:
425,78,289324,1,2,0:0:0:0:
425,78,289474,1,0,0:0:0:0:
258,19,289624,5,0,0:0:0:0:
268,224,289774,2,0,L|264:172,1,40.0000001490115,8|0,0:0|0:0,0:0:0:0:
332,96,289924,1,0,0:0:0:0:
332,96,289999,1,0,0:0:0:0:
332,96,290074,2,0,B|294:98|294:98|212:135|212:135|162:136,1,160.000000596046,8|0,0:0|0:0,0:0:0:0:
56,288,290524,5,2,0:0:0:0:
56,288,290599,1,0,0:0:0:0:
56,288,290674,2,0,P|100:268|140:276,1,80.000000298023,6|0,0:0|0:0,0:0:0:0:
296,320,290974,2,0,P|252:340|212:332,1,80.000000298023
418,289,291274,1,0,0:0:0:0:
256,48,291424,6,0,L|168:56,1,80.000000298023,2|2,0:0|0:0,0:0:0:0:
221,336,291724,1,2,0:0:0:0:
221,336,291874,2,0,L|229:288,1,40.0000001490115
240,228,292024,1,0,0:0:0:0:
92,91,292174,6,0,L|105:172,1,80.000000298023,8|0,0:0|0:0,0:0:0:0:
340,248,292474,2,0,B|340:204|340:204|372:144|372:144|376:92,1,160.000000596046,8|2,0:0|0:0,0:0:0:0:
192,144,292924,1,4,0:0:0:0:
416,44,293074,1,2,0:0:0:0:
192,56,293224,1,4,0:0:0:0:
432,176,293374,1,2,0:0:0:0:
204,240,293524,1,4,0:0:0:0:
424,336,293674,1,2,0:0:0:0:
271,140,293824,6,0,L|171:144,1,80.000000298023,2|2,0:0|0:0,0:0:0:0:
184,356,294124,1,2,0:0:0:0:
232,248,294274,2,0,L|217:285,1,40.0000001490115
304,320,294424,1,0,0:0:0:0:
388,88,294574,6,0,L|395:167,1,80.000000298023,8|0,0:0|0:0,0:0:0:0:
425,361,294874,2,0,B|433:337|433:337|425:245|425:245|449:197,1,160.000000596046,8|2,0:0|0:0,0:0:0:0:
304,320,295324,1,0,0:0:0:0:
304,320,295474,2,0,B|256:328|256:328|202:309|202:309|144:312,1,160.000000596046,6|0,0:0|0:0,0:0:0:0:
147,312,295924,1,0,0:0:0:0:
147,312,296074,1,0,0:0:0:0:
425,361,296224,6,0,L|466:290,1,80.000000298023,2|2,0:0|0:0,0:0:0:0:
228,216,296524,1,2,0:0:0:0:
349,138,296674,2,0,L|349:178,2,40.0000001490115
80,228,296974,6,0,L|96:136,1,80.000000298023,8|0,0:0|0:0,0:0:0:0:
228,216,297274,2,0,L|252:376,1,160.000000596046,8|2,0:0|0:0,0:0:0:0:
384,336,297724,1,4,0:0:0:0:
438,131,297874,1,2,0:0:0:0:
162,56,298024,1,4,0:0:0:0:
228,282,298174,1,2,0:0:0:0:
6,371,298324,1,4,0:0:0:0:
31,185,298474,1,2,0:0:0:0:
162,31,298624,6,0,L|192:25,1,30.0000012561679,8|0,0:0|0:0,0:0:0:0:
257,111,299074,6,0,L|315:124,1,51.999997813344,10|0,0:0|0:0,0:0:0:0:
300,224,299524,6,0,L|362:282,1,64.0000002384184,14|0,0:0|0:0,0:0:0:0:
440,132,299974,5,0,0:0:0:0:
364,152,300124,1,0,0:0:0:0:
300,224,300274,1,0,0:0:0:0:
184,204,300424,1,0,0:0:0:0:
152,20,300574,1,0,0:0:0:0:
52,268,301024,5,2,0:0:0:0:
52,268,301324,6,0,B|192:364|260:272|324:172|448:276,1,400.000001490115,6|0,0:0|0:0,0:0:0:0:
