osu file format v14

[General]
AudioFilename: audio.mp3
AudioLeadIn: 0
PreviewTime: 39380
Countdown: 0
SampleSet: Normal
StackLeniency: 0.5
Mode: 0
LetterboxInBreaks: 0
WidescreenStoryboard: 0

[Editor]
Bookmarks: 10369,17889,38180,59734,78219,98859,108072
DistanceSpacing: 1.15
BeatDivisor: 4
GridSize: 16
TimelineZoom: 2

[Metadata]
Title:Dragonforce Likes Fire
TitleUnicode:Dragonforce Likes Fire
Artist:DragonForce
ArtistUnicode:DragonForce
Creator:Daxxel
Version:incineration
Source:GHX
Tags:
BeatmapID:1771565
BeatmapSetID:847074

[Difficulty]
HPDrainRate:6
CircleSize:4.2
OverallDifficulty:8.7
ApproachRate:9.4
SliderMultiplier:1.4
SliderTickRate:1

[Events]
//Background and Video events
Video,0,"Dragonforce Likes Fire.mp4"
0,0,"holydragondude.png",0,0
//Break Periods
//Storyboard Layer 0 (Background)
//Storyboard Layer 1 (Fail)
//Storyboard Layer 2 (Pass)
//Storyboard Layer 3 (Foreground)
//Storyboard Sound Samples

[TimingPoints]
769,300,4,1,2,60,1,0
2869,-200,4,1,3,40,0,0
3169,-200,4,1,3,60,0,0
5569,-200,4,1,4,60,0,0
7969,-200,4,1,5,60,0,0
9169,-100,4,1,1,60,0,0
10369,300,4,1,1,52,1,0
10819,307.692307692308,4,1,1,55,1,0
11588,307.692307692308,4,1,1,55,1,0
12357,300,4,1,1,55,1,0
12657,300,4,1,1,55,1,0
13407,750,4,1,1,40,1,0
13407,-50,4,1,1,40,0,0
14907,750,4,1,1,40,1,0
14907,-66.6666666666667,4,1,1,40,0,0
15844,326.086956521739,4,1,1,50,1,0
16659,307.692307692308,4,1,1,55,1,0
17889,300,4,1,1,55,1,0
18489,300,4,1,1,55,1,0
18789,300,4,1,1,55,1,0
19389,300,4,1,1,55,1,0
19689,300,4,1,1,55,1,0
20589,300,4,1,1,55,1,0
20889,300,4,1,1,55,1,0
21189,300,4,1,1,55,1,0
21489,300,4,1,1,55,1,0
21789,300,4,1,1,55,1,0
21939,300,4,1,1,55,1,0
22989,300,4,1,1,55,1,0
23589,300,4,1,1,55,1,0
23739,300,4,1,1,55,1,0
24789,300,4,1,1,55,1,0
25689,300,4,1,1,55,1,0
25989,300,4,1,1,55,1,0
27189,300,4,1,1,55,1,0
28089,300,4,1,1,55,1,0
28839,300,4,1,1,55,1,0
29889,300,4,1,1,55,1,0
30489,300,4,1,1,55,1,0
30564,300,4,1,1,55,1,0
31164,300,4,1,1,55,1,0
32064,300,4,1,1,55,1,0
34989,277.777777777778,4,1,1,55,1,0
35405,277.777777777778,4,1,1,55,1,0
36376,277.777777777778,4,1,1,55,1,0
37209,277.777777777778,4,1,1,55,1,0
37764,277.777777777778,4,1,1,55,1,0
38180,300,4,1,1,55,1,0
38480,300,4,1,1,55,1,0
38780,300,4,1,1,55,1,0
39380,300,4,1,1,55,1,0
40580,300,4,1,1,55,1,0
41780,300,4,1,5,75,1,0
41855,-100,4,1,1,55,0,0
43880,300,4,1,1,45,1,0
45680,309.278350515464,4,1,1,55,1,0
46453,309.278350515464,4,1,1,55,1,0
46762,309.278350515464,4,1,1,55,1,0
47071,309.278350515464,4,1,1,55,1,0
48308,309.278350515464,4,1,1,55,1,0
48771,309.278350515464,4,1,1,55,1,0
49234,300,4,1,1,55,1,0
49534,300,4,1,1,55,1,0
50584,300,4,1,1,55,1,0
51184,300,4,1,1,55,1,0
51409,-100,4,1,1,27,0,0
51859,300,4,1,1,38,1,0
52609,300,4,1,1,38,1,0
53434,300,4,1,1,55,1,0
54034,300,4,1,1,55,1,0
55234,300,4,1,1,55,1,0
55534,300,4,1,1,55,1,0
55834,300,4,1,1,55,1,0
56809,300,4,1,1,55,1,0
57409,-121.951219512195,4,1,1,55,0,0
58984,300,4,1,1,55,1,0
59284,300,4,1,1,55,1,0
59734,300,4,1,1,55,1,0
61009,300,4,1,1,55,1,0
61309,300,4,1,1,55,1,0
61309,-153.846153846153,4,1,1,55,0,0
62584,300,4,1,1,55,1,0
64234,307.692307692308,4,1,1,50,1,0
65772,307.692307692308,4,1,1,55,1,0
66541,500,4,1,1,55,1,0
66541,-66.6666666666667,4,1,1,55,0,0
67317,363.636363636364,4,1,1,55,1,0
68563,363.636363636364,4,1,1,55,1,0
68563,-111.111111111111,4,1,1,55,0,0
69653,-111.111111111111,4,1,1,5,0,0
69835,600,4,1,1,55,1,0
71435,600,4,1,1,55,1,0
71769,413.793103448276,4,1,1,30,1,0
71769,-125,4,1,1,30,0,0
72355,461.538461538462,4,1,1,40,1,0
73278,461.538461538462,4,1,1,50,1,0
75124,413.793103448276,4,1,1,55,1,0
75744,300,4,1,1,55,1,0
76194,300,4,1,1,55,1,0
77019,300,4,1,1,55,1,0
78219,300,4,1,1,55,1,0
78519,300,4,1,1,55,1,0
78819,300,4,1,1,55,1,0
79419,300,4,1,1,55,1,0
80019,461.538461538462,4,1,1,55,1,0
80942,461.538461538462,4,1,1,55,1,0
81557,461.538461538462,4,1,1,55,1,0
81557,-66.6666666666667,4,1,1,55,0,0
81634,461.538461538462,4,1,1,55,1,0
81634,-55.5555555555556,4,1,1,55,0,0
82557,722.89156626506,4,1,1,55,1,0
83279,722.89156626506,4,1,1,12,1,0
83519,722.89156626506,4,1,1,30,1,0
83519,-125,4,1,1,30,0,0
84723,722.89156626506,4,1,1,16,1,0
84963,722.89156626506,4,1,1,30,1,0
85514,722.89156626506,4,1,1,30,1,0
85714,300,4,1,1,55,1,0
85714,-142.857142857143,4,1,1,50,0,0
86614,300,4,1,1,55,1,0
87214,300,4,1,1,55,1,0
88710,310.880829015544,4,1,1,55,1,0
88787,310.880829015544,4,1,1,55,1,0
91818,625,4,1,1,55,1,0
91818,-71.4285714285714,4,1,1,55,0,0
92687,652.173913043478,4,1,1,55,1,0
93921,652.173913043478,4,1,1,55,1,0
94464,-100,4,1,1,20,0,0
94573,-100,4,1,1,40,0,0
94790,-100,4,1,1,8,0,0
94899,769.230769230768,4,1,1,40,1,0
95156,600,4,1,1,55,1,0
96009,300,4,1,1,55,1,0
96159,300,4,1,1,55,1,0
96759,300,4,1,1,55,1,0
97359,300,4,1,1,55,1,0
97659,300,4,1,1,55,1,0
98109,300,4,1,1,55,1,0
98559,300,4,1,1,55,1,0
98859,300,4,1,1,55,1,0
99009,300,4,1,1,55,1,0
99459,324.324324324324,4,1,1,55,1,0
100107,480,4,1,1,55,1,0
100587,480,4,1,1,55,1,0
100707,480,4,1,1,55,1,0
101187,480,4,1,1,55,1,0
101307,480,4,1,1,55,1,0
101787,315.789473684211,4,1,1,55,1,0
102734,315.789473684211,4,1,1,55,1,0
103681,315.789473684211,4,1,1,55,1,0
103996,300,4,1,1,55,1,0
104146,-250,4,1,1,55,0,0
105796,300,4,1,1,55,1,0
106846,272.727272727273,4,1,1,55,1,0
107800,272.727272727273,4,1,1,55,1,0
108072,272.727272727273,4,1,1,55,1,0
108344,272.727272727273,4,1,1,65,1,0
108616,272.727272727273,4,1,1,75,1,0
108888,272.727272727273,4,1,1,65,1,0
109160,272.727272727273,4,1,1,72,1,0
109432,272.727272727273,4,1,1,80,1,0
109704,272.727272727273,4,1,5,95,1,0
109772,-100,4,1,1,95,0,0

[Colours]
Combo1 : 53,53,53
Combo2 : 7,155,243
Combo3 : 40,40,255
Combo4 : 153,4,9
Combo5 : 225,98,4
Combo6 : 159,159,159
Combo7 : 221,194,4
Combo8 : 206,0,103

[HitObjects]
128,108,769,117,8,0:0:0:0:
128,108,2869,70,0,L|129:121,6,8.75
185,155,3169,1,8,0:0:0:0:
185,155,5569,38,0,B|183:216|216:253|247:250|247:250|345:273|353:153|260:119|272:305|272:305|320:283|365:302,1,490,8|0,0:0|0:0,0:0:0:0:
384,319,7969,1,8,0:0:0:0:
150,98,9169,70,0,L|104:88,3,35,8|0|0|0,0:0|0:0|0:0|0:0,0:0:0:0:
203,166,9469,1,8,0:0:0:0:
202,179,9544,1,0,0:0:0:0:
201,192,9619,1,0,0:0:0:0:
201,206,9694,1,0,0:0:0:0:
204,221,9769,6,0,L|228:258,1,35,8|0,0:0|0:0,0:0:0:0:
214,324,9919,2,0,L|257:333,1,35
332,293,10069,1,0,0:0:0:0:
356,282,10144,1,0,0:0:0:0:
381,278,10219,1,0,0:0:0:0:
407,282,10294,1,0,0:0:0:0:
430,291,10369,38,0,L|438:342,3,35,8|0|0|0,0:0|0:0|0:0|0:0,0:0:0:0:
453,210,10669,1,2,0:0:0:0:
459,182,10744,1,0,0:0:0:0:
464,155,10819,1,0,0:0:0:0:
216,218,11126,5,2,0:0:0:0:
231,194,11203,1,0,0:0:0:0:
233,166,11280,1,0,0:0:0:0:
222,140,11357,1,0,0:0:0:0:
211,114,11434,1,8,0:0:0:0:
213,86,11511,1,0,0:0:0:0:
228,62,11588,101,2,0:0:0:0:
270,92,11664,1,0,0:0:0:0:
321,100,11741,1,0,0:0:0:0:
371,85,11818,1,0,0:0:0:0:
409,50,11895,1,0,0:0:0:0:
459,39,11971,1,0,0:0:0:0:
500,70,12048,1,2,0:0:0:0:
504,121,12125,1,0,0:0:0:0:
468,157,12202,1,2,0:0:0:0:
451,205,12280,1,0,0:0:0:0:
461,247,12357,6,0,L|400:256,3,35,8|0|0|0,0:0|0:0|0:0|0:0,0:0:0:0:
318,309,12657,101,8,0:0:0:0:
313,281,12732,1,0,0:0:0:0:
309,253,12807,1,0,0:0:0:0:
304,226,12882,1,0,0:0:0:0:
299,197,12957,1,2,0:0:0:0:
294,169,13032,1,2,0:0:0:0:
289,140,13107,1,2,0:0:0:0:
264,148,13182,1,0,0:0:0:0:
238,152,13257,1,8,0:0:0:0:
212,151,13332,1,0,0:0:0:0:
186,146,13407,6,0,B|112:128|104:40|104:40|96:128|24:144,1,280
44,263,14907,2,0,B|160:227|114:313|249:278,1,210.000008010865
334,220,15844,101,2,0:0:0:0:
361,214,15925,1,2,0:0:0:0:
387,222,16007,1,2,0:0:0:0:
407,241,16088,1,2,0:0:0:0:
416,267,16170,1,8,0:0:0:0:
411,294,16251,1,0,0:0:0:0:
393,313,16333,1,2,0:0:0:0:
365,293,16414,1,2,0:0:0:0:
331,286,16496,1,2,0:0:0:0:
296,292,16577,1,0,0:0:0:0:
267,310,16659,6,0,B|215:313|215:313|182:293,1,70,2|0,0:0|0:0,0:0:0:0:
191,128,16966,2,0,P|205:173|189:212,1,70,8|0,0:0|0:0,0:0:0:0:
62,207,17274,1,2,0:0:0:0:
115,68,17428,1,0,0:0:0:0:
140,62,17505,1,0,0:0:0:0:
165,53,17582,2,0,L|208:57,1,35,8|0,0:0|0:0,0:0:0:0:
277,113,17735,2,0,L|311:109,1,35
420,46,17889,6,0,L|429:106,3,35,8|0|0|0,0:0|0:0|0:0|0:0,0:0:0:0:
377,159,18189,2,0,L|368:219,3,35,8|0|0|0,0:0|0:0|0:0|0:0,0:0:0:0:
438,263,18489,2,0,P|398:294|356:290,1,70,2|0,0:0|0:0,0:0:0:0:
289,236,18789,5,2,0:0:0:0:
260,205,18864,1,0,0:0:0:0:
220,189,18939,1,0,0:0:0:0:
177,195,19014,1,0,0:0:0:0:
141,219,19089,1,8,0:0:0:0:
99,232,19164,1,0,0:0:0:0:
56,221,19239,2,8,P|43:213|30:186,1,35
51,63,19389,1,2,0:0:0:0:
151,115,19539,1,0,0:0:0:0:
178,109,19614,1,0,0:0:0:0:
205,102,19689,102,0,L|274:107,1,70,2|8,0:0|0:0,0:0:0:0:
451,202,19989,2,0,L|381:207,1,70,2|8,0:0|0:0,0:0:0:0:
266,216,20289,1,2,0:0:0:0:
357,322,20439,1,8,0:0:0:0:
451,202,20589,6,0,L|461:145,3,35,2|0|0|0,0:0|0:0|0:0|0:0,0:0:0:0:
368,108,20889,1,2,0:0:0:0:
337,124,20964,1,0,0:0:0:0:
303,129,21039,1,0,0:0:0:0:
269,122,21114,1,0,0:0:0:0:
240,97,21189,1,2,0:0:0:0:
198,86,21264,1,0,0:0:0:0:
160,105,21339,1,0,0:0:0:0:
144,145,21414,1,0,0:0:0:0:
158,185,21489,1,2,0:0:0:0:
173,216,21564,1,0,0:0:0:0:
169,250,21639,1,2,0:0:0:0:
146,276,21714,1,0,0:0:0:0:
113,284,21789,101,2,0:0:0:0:
83,174,21939,2,0,B|100:154|100:154|143:144,1,70,8|0,0:0|0:0,0:0:0:0:
335,210,22239,2,0,B|317:229|317:229|274:239,1,70,8|0,0:0|0:0,0:0:0:0:
297,84,22539,2,0,L|386:93,1,70,8|0,0:0|0:0,0:0:0:0:
469,183,22839,1,8,0:0:0:0:
404,320,22989,5,2,0:0:0:0:
380,345,23064,1,0,0:0:0:0:
348,359,23139,1,0,0:0:0:0:
314,358,23214,1,0,0:0:0:0:
283,342,23289,1,2,0:0:0:0:
259,317,23364,1,0,0:0:0:0:
227,303,23439,1,8,0:0:0:0:
193,304,23514,1,0,0:0:0:0:
162,320,23589,1,8,0:0:0:0:
130,334,23664,1,0,0:0:0:0:
95,340,23739,101,0,0:0:0:0:
110,308,23814,1,0,0:0:0:0:
122,275,23889,1,2,0:0:0:0:
128,241,23964,1,2,0:0:0:0:
131,206,24039,1,2,0:0:0:0:
128,171,24114,1,2,0:0:0:0:
121,137,24189,1,2,0:0:0:0:
107,105,24264,1,2,0:0:0:0:
84,76,24339,5,2,0:0:0:0:
29,199,24489,1,8,0:0:0:0:
237,121,24639,1,2,0:0:0:0:
135,20,24789,2,0,P|161:41|196:47,1,70,2|0,0:0|0:0,0:0:0:0:
349,21,25089,2,0,P|316:33|294:60,1,70,8|0,0:0|0:0,0:0:0:0:
324,218,25389,2,0,L|338:145,1,70,2|0,0:0|0:0,0:0:0:0:
225,35,25614,101,0,0:0:0:0:
229,63,25689,1,0,0:0:0:0:
233,92,25764,1,0,0:0:0:0:
237,121,25839,1,0,0:0:0:0:
233,150,25914,1,0,0:0:0:0:
229,179,25989,5,8,0:0:0:0:
230,217,26064,1,8,0:0:0:0:
250,251,26139,1,8,0:0:0:0:
282,272,26214,1,8,0:0:0:0:
321,276,26289,1,2,0:0:0:0:
357,261,26364,1,2,0:0:0:0:
383,232,26439,1,2,0:0:0:0:
391,194,26514,1,2,0:0:0:0:
382,156,26589,101,2,0:0:0:0:
350,120,26664,1,2,0:0:0:0:
345,73,26739,1,2,0:0:0:0:
366,31,26814,1,2,0:0:0:0:
408,9,26889,1,8,0:0:0:0:
455,13,26964,1,0,0:0:0:0:
491,44,27039,1,0,0:0:0:0:
504,90,27114,1,0,0:0:0:0:
488,135,27189,6,0,L|475:191,1,35,8|0,0:0|0:0,0:0:0:0:
425,271,27339,1,8,0:0:0:0:
389,266,27414,1,0,0:0:0:0:
354,262,27489,1,2,0:0:0:0:
320,258,27564,1,2,0:0:0:0:
285,254,27639,1,2,0:0:0:0:
250,251,27714,1,2,0:0:0:0:
215,248,27789,2,0,L|175:242,3,35,8|0|0|0,0:0|0:0|0:0|0:0,0:0:0:0:
101,282,28089,101,2,0:0:0:0:
99,264,28164,1,0,0:0:0:0:
98,247,28239,1,0,0:0:0:0:
96,229,28314,1,0,0:0:0:0:
95,212,28389,1,2,0:0:0:0:
93,194,28464,1,0,0:0:0:0:
92,177,28539,1,2,0:0:0:0:
91,159,28614,1,0,0:0:0:0:
88,141,28689,2,0,L|97:88,1,35,8|0,0:0|0:0,0:0:0:0:
162,64,28839,5,0,0:0:0:0:
184,86,28914,1,0,0:0:0:0:
212,98,28989,1,2,0:0:0:0:
244,99,29064,1,0,0:0:0:0:
273,88,29139,1,0,0:0:0:0:
296,67,29214,1,0,0:0:0:0:
319,46,29289,1,8,0:0:0:0:
348,35,29364,1,0,0:0:0:0:
380,36,29439,1,2,0:0:0:0:
408,48,29514,1,0,0:0:0:0:
431,71,29589,1,2,0:0:0:0:
415,102,29664,1,0,0:0:0:0:
410,136,29739,1,8,0:0:0:0:
417,170,29814,1,0,0:0:0:0:
434,201,29889,102,0,L|439:250,3,35,2|0|0|0,0:0|0:0|0:0|0:0,0:0:0:0:
366,279,30189,2,0,L|361:327,3,35,8|0|0|0,0:0|0:0|0:0|0:0,0:0:0:0:
290,256,30489,6,0,L|247:262,1,35,2|0,0:0|0:0,0:0:0:0:
218,306,30714,2,0,L|148:296,1,70
81,246,31014,1,8,0:0:0:0:
12,330,31164,102,0,P|44:345|79:343,1,70
108,115,31464,2,0,P|79:134|63:165,1,70,2|0,0:0|0:0,0:0:0:0:
247,305,31764,2,0,P|243:270|225:241,1,70,8|0,0:0|0:0,0:0:0:0:
81,246,32064,5,8,0:0:0:0:
308,188,32289,1,2,0:0:0:0:
181,347,32514,1,2,0:0:0:0:
375,235,32664,101,2,0:0:0:0:
408,207,32739,1,0,0:0:0:0:
425,168,32814,1,0,0:0:0:0:
423,124,32889,1,0,0:0:0:0:
400,88,32964,1,8,0:0:0:0:
408,46,33039,1,0,0:0:0:0:
441,19,33114,1,0,0:0:0:0:
484,21,33189,1,0,0:0:0:0:
508,46,33264,5,2,0:0:0:0:
512,79,33339,1,0,0:0:0:0:
509,113,33414,1,2,0:0:0:0:
485,138,33489,1,0,0:0:0:0:
454,169,33564,1,8,0:0:0:0:
438,209,33639,1,8,0:0:0:0:
440,252,33714,1,8,0:0:0:0:
460,291,33789,1,8,0:0:0:0:
438,318,33864,101,2,0:0:0:0:
407,334,33939,1,2,0:0:0:0:
373,339,34014,1,2,0:0:0:0:
340,330,34089,1,2,0:0:0:0:
311,316,34164,5,8,0:0:0:0:
279,314,34239,1,10,0:0:0:0:
250,323,34314,1,10,0:0:0:0:
222,346,34389,1,10,0:0:0:0:
195,358,34464,1,2,0:0:0:0:
167,360,34539,1,2,0:0:0:0:
141,352,34614,1,2,0:0:0:0:
113,339,34689,1,2,0:0:0:0:
94,330,34764,101,8,0:0:0:0:
73,328,34839,1,2,0:0:0:0:
55,334,34914,1,2,0:0:0:0:
25,353,34989,6,0,B|15:308|15:308|18:284,1,70,2|0,0:0|0:0,0:0:0:0:
96,192,35266,1,8,0:0:0:0:
60,92,35405,102,0,B|25:90|25:90|-10:107,2,70,2|0|0,0:0|0:0|0:0,0:0:0:0:
164,152,35821,2,0,L|213:157,3,35,8|0|0|0,0:0|0:0|0:0|0:0,0:0:0:0:
244,213,36099,2,0,L|278:209,3,35,0|0|2|0,0:0|0:0|0:0|0:0,0:0:0:0:
349,187,36376,5,2,0:0:0:0:
352,210,36445,1,0,0:0:0:0:
355,233,36514,1,0,0:0:0:0:
359,256,36584,1,0,0:0:0:0:
391,277,36653,101,2,0:0:0:0:
387,300,36722,1,0,0:0:0:0:
384,323,36791,1,0,0:0:0:0:
380,346,36861,1,0,0:0:0:0:
352,369,36931,5,2,0:0:0:0:
319,380,37000,1,0,0:0:0:0:
284,379,37069,1,0,0:0:0:0:
251,367,37139,1,0,0:0:0:0:
221,339,37209,102,0,L|229:262,1,70,8|0,0:0|0:0,0:0:0:0:
143,162,37486,2,0,L|150:231,1,70,2|0,0:0|0:0,0:0:0:0:
223,125,37764,2,0,P|200:93|169:78,1,70,8|0,0:0|0:0,0:0:0:0:
60,148,38041,1,2,0:0:0:0:
100,288,38180,22,0,P|135:288|163:268,1,70,2|0,0:0|0:0,0:0:0:0:
223,125,38480,2,0,L|214:78,3,35,8|0|0|0,0:0|0:0|0:0|0:0,0:0:0:0:
308,118,38780,5,8,0:0:0:0:
306,144,38855,1,0,0:0:0:0:
304,170,38930,1,0,0:0:0:0:
302,196,39005,1,0,0:0:0:0:
289,232,39080,1,2,0:0:0:0:
291,258,39155,1,0,0:0:0:0:
293,284,39230,1,0,0:0:0:0:
295,310,39305,1,0,0:0:0:0:
297,333,39380,101,2,0:0:0:0:
275,353,39455,1,0,0:0:0:0:
248,364,39530,1,0,0:0:0:0:
218,364,39605,1,0,0:0:0:0:
191,351,39680,1,0,0:0:0:0:
171,329,39755,1,0,0:0:0:0:
162,300,39830,1,2,0:0:0:0:
165,271,39905,1,0,0:0:0:0:
186,240,39980,5,0,0:0:0:0:
208,213,40055,1,0,0:0:0:0:
221,180,40130,1,0,0:0:0:0:
223,146,40205,1,0,0:0:0:0:
213,112,40280,2,0,L|203:65,1,35,2|0,0:0|0:0,0:0:0:0:
141,0,40430,2,0,L|130:47,1,35
108,152,40580,1,8,0:0:0:0:
132,158,41780,101,8,0:0:0:0:
149,176,41855,1,0,0:0:0:0:
170,189,41930,1,0,0:0:0:0:
194,196,42005,1,0,0:0:0:0:
219,197,42080,1,8,0:0:0:0:
243,192,42155,1,0,0:0:0:0:
265,181,42230,1,0,0:0:0:0:
284,164,42305,1,0,0:0:0:0:
295,140,42380,5,2,0:0:0:0:
312,122,42455,1,0,0:0:0:0:
333,109,42530,1,0,0:0:0:0:
357,102,42605,1,0,0:0:0:0:
382,101,42680,1,8,0:0:0:0:
406,106,42755,1,0,0:0:0:0:
428,117,42830,1,8,0:0:0:0:
447,134,42905,1,0,0:0:0:0:
459,164,42980,102,0,L|449:228,3,35,8|0|0|0,0:0|0:0|0:0|0:0,0:0:0:0:
384,239,43280,2,0,L|331:277,3,35,8|0|0|0,0:0|0:0|0:0|0:0,0:0:0:0:
284,241,43580,2,0,L|219:231,3,35,8|0|0|0,0:0|0:0|0:0|0:0,0:0:0:0:
162,254,43880,5,8,0:0:0:0:
158,226,43955,1,8,0:0:0:0:
154,198,44030,1,8,0:0:0:0:
151,170,44105,1,8,0:0:0:0:
141,145,44180,1,10,0:0:0:0:
145,117,44255,1,2,0:0:0:0:
149,90,44330,1,2,0:0:0:0:
152,62,44405,1,2,0:0:0:0:
175,34,44480,101,0,0:0:0:0:
205,51,44555,1,0,0:0:0:0:
239,56,44630,1,0,0:0:0:0:
273,48,44705,1,0,0:0:0:0:
301,27,44780,1,2,0:0:0:0:
335,19,44855,1,2,0:0:0:0:
369,24,44930,1,2,0:0:0:0:
400,42,45005,1,2,0:0:0:0:
420,71,45080,2,0,L|411:122,1,35
340,140,45230,6,0,L|349:191,3,35,8|0|8|0,0:0|0:0|0:0|0:0,0:0:0:0:
425,200,45530,2,8,L|416:251,1,35
365,283,45680,102,0,P|342:300|327:300,3,35,2|0|0|0,0:0|0:0|0:0|0:0,0:0:0:0:
277,245,45989,2,0,P|250:233|236:236,3,35,8|0|0|0,0:0|0:0|0:0|0:0,0:0:0:0:
206,300,46298,2,0,L|163:305,1,35,2|0,0:0|0:0,0:0:0:0:
88,292,46453,5,8,0:0:0:0:
84,263,46530,1,0,0:0:0:0:
81,235,46607,1,8,0:0:0:0:
79,208,46684,1,0,0:0:0:0:
65,176,46762,1,8,0:0:0:0:
70,138,46839,1,0,0:0:0:0:
74,101,46916,1,8,0:0:0:0:
76,66,46993,1,0,0:0:0:0:
99,30,47071,102,0,L|165:42,3,35,8|0|0|0,0:0|0:0|0:0|0:0,0:0:0:0:
162,116,47380,2,0,L|228:104,3,35,8|0|0|0,0:0|0:0|0:0|0:0,0:0:0:0:
242,55,47689,2,0,L|308:67,3,35,8|0|0|0,0:0|0:0|0:0|0:0,0:0:0:0:
300,116,47998,2,0,L|366:104,3,35,8|0|0|0,0:0|0:0|0:0|0:0,0:0:0:0:
402,43,48308,5,2,0:0:0:0:
406,77,48385,1,0,0:0:0:0:
411,112,48462,1,0,0:0:0:0:
416,147,48539,1,0,0:0:0:0:
433,186,48617,2,0,L|426:241,1,35,8|0,0:0|0:0,0:0:0:0:
395,292,48771,101,2,0:0:0:0:
363,276,48848,1,0,0:0:0:0:
328,275,48925,1,0,0:0:0:0:
296,286,49002,1,0,0:0:0:0:
264,301,49080,1,8,0:0:0:0:
229,302,49157,1,0,0:0:0:0:
197,291,49234,2,0,L|142:280,1,35,2|0,0:0|0:0,0:0:0:0:
89,218,49384,2,0,L|157:204,1,70,2|0,0:0|0:0,0:0:0:0:
187,208,49609,5,8,0:0:0:0:
122,88,49759,1,8,0:0:0:0:
126,304,49909,1,8,0:0:0:0:
244,134,50059,1,8,0:0:0:0:
31,172,50359,101,8,0:0:0:0:
93,336,50509,2,0,P|145:344|187:314,1,105,2|0,0:0|0:0,0:0:0:0:
165,190,50884,2,0,P|153:158|160:125,1,70,8|0,0:0|0:0,0:0:0:0:
279,89,51184,2,0,B|333:92|333:92|351:84|351:84|405:89,2,122.5,2|2|2,0:0|0:0|0:0,0:0:0:0:
164,32,51859,6,0,P|146:79|160:119,1,70,2|8,0:0|0:0,0:0:0:0:
239,272,52159,2,0,P|257:225|243:185,1,70,2|8,0:0|0:0,0:0:0:0:
120,177,52459,1,2,0:0:0:0:
173,351,52609,101,2,0:0:0:0:
326,314,52759,1,8,0:0:0:0:
153,244,52909,1,2,0:0:0:0:
119,254,52984,1,0,0:0:0:0:
84,256,53059,1,8,0:0:0:0:
40,248,53134,2,0,L|0:255,3,35,0|0|2|2,0:0|0:0|0:0|0:0,0:0:0:0:
30,315,53434,5,2,0:0:0:0:
96,178,53584,1,8,0:0:0:0:
28,51,53734,2,0,P|8:91|20:130,1,70,2|8,0:0|0:0,0:0:0:0:
92,141,54034,101,8,0:0:0:0:
67,179,54109,1,0,0:0:0:0:
67,225,54184,1,8,0:0:0:0:
92,264,54259,1,0,0:0:0:0:
136,279,54334,1,8,0:0:0:0:
162,315,54409,1,0,0:0:0:0:
153,360,54484,1,8,0:0:0:0:
115,384,54559,1,0,0:0:0:0:
69,377,54634,5,8,0:0:0:0:
43,339,54709,1,0,0:0:0:0:
55,295,54784,1,8,0:0:0:0:
54,249,54859,1,0,0:0:0:0:
35,207,54934,1,8,0:0:0:0:
14,166,55009,1,0,0:0:0:0:
19,120,55084,1,8,0:0:0:0:
50,87,55159,1,0,0:0:0:0:
95,88,55234,102,0,P|141:96|182:78,1,70,2|0,0:0|0:0,0:0:0:0:
249,7,55534,1,2,0:0:0:0:
201,72,55684,1,0,0:0:0:0:
285,220,55834,5,8,0:0:0:0:
297,201,55909,1,0,0:0:0:0:
305,181,55984,1,0,0:0:0:0:
308,159,56059,1,0,0:0:0:0:
292,124,56134,1,8,0:0:0:0:
286,98,56209,1,0,0:0:0:0:
287,72,56284,1,0,0:0:0:0:
293,46,56359,1,0,0:0:0:0:
328,24,56434,1,8,0:0:0:0:
359,39,56509,1,8,0:0:0:0:
393,44,56584,1,8,0:0:0:0:
427,37,56659,2,0,L|465:22,1,35,8|8,0:0|0:0,0:0:0:0:
510,14,56809,101,10,0:0:0:0:
505,58,56884,1,0,0:0:0:0:
499,101,56959,1,0,0:0:0:0:
493,144,57034,1,0,0:0:0:0:
455,164,57109,1,10,0:0:0:0:
460,208,57184,1,0,0:0:0:0:
466,251,57259,1,0,0:0:0:0:
472,294,57334,1,0,0:0:0:0:
492,339,57409,6,0,B|482:346|469:347|469:347|458:342|447:352|429:338|429:338|412:343|403:350|403:350|385:336|385:336|373:343|363:332|352:332|340:337|340:337|327:322|321:337|309:337|302:338|302:338|295:324|277:327|277:327|270:335|263:340|263:340|255:332|246:320|246:320|245:322|232:332|222:333|222:333|206:323|189:321|189:321|177:324|156:319|145:327|145:327|133:330|119:325|112:324|112:324|98:327|88:332|88:332|79:335|73:332|73:332|62:338|58:343,1,459.200007006836,10|0,0:0|0:0,0:0:0:0:
21,221,58984,102,0,L|70:232,3,35,8|0|0|0,0:0|0:0|0:0|0:0,0:0:0:0:
120,171,59284,2,0,L|154:163,3,35,8|0|0|0,0:0|0:0|0:0|0:0,0:0:0:0:
199,228,59584,2,0,L|242:232,1,35,2|0,0:0|0:0,0:0:0:0:
331,231,59734,22,0,B|317:178|317:178|328:129,1,105,0|2,0:0|0:0,0:0:0:0:
449,92,60109,1,2,0:0:0:0:
414,218,60259,1,2,0:0:0:0:
312,11,60409,1,2,0:0:0:0:
247,137,60559,2,0,L|240:189,3,35,8|0|0|0,0:0|0:0|0:0|0:0,0:0:0:0:
311,226,60859,2,0,L|318:278,1,35,8|0,0:0|0:0,0:0:0:0:
328,359,61009,5,2,0:0:0:0:
420,257,61159,1,2,0:0:0:0:
184,306,61309,2,0,B|133:321|128:321|128:321|46:273|59:210|130:182|191:228|135:323|135:323|106:356|74:355,1,386.749982295991,2|2,0:0|0:0,0:0:0:0:
10,240,62734,101,0,0:0:0:0:
17,214,62809,1,0,0:0:0:0:
25,190,62884,1,8,0:0:0:0:
0,84,63034,1,2,0:0:0:0:
101,30,63184,1,2,0:0:0:0:
132,44,63259,1,0,0:0:0:0:
167,46,63334,1,2,0:0:0:0:
201,37,63409,1,0,0:0:0:0:
226,17,63484,1,8,0:0:0:0:
258,3,63559,1,0,0:0:0:0:
293,0,63634,1,2,0:0:0:0:
327,9,63709,1,0,0:0:0:0:
353,32,63784,6,0,L|346:85,3,35,2|0|0|0,0:0|0:0|0:0|0:0,0:0:0:0:
386,148,64084,1,8,0:0:0:0:
391,168,64159,1,0,0:0:0:0:
395,186,64234,2,0,B|394:229|394:229|383:253,2,70,2|0|0,0:0|0:0|0:0,0:0:0:0:
295,147,64695,2,0,P|257:155|222:146,1,70
167,88,65003,1,0,0:0:0:0:
78,44,65157,101,8,0:0:0:0:
75,78,65233,1,8,0:0:0:0:
72,113,65310,1,8,0:0:0:0:
59,137,65387,1,8,0:0:0:0:
62,172,65464,1,10,0:0:0:0:
65,207,65541,1,2,0:0:0:0:
79,244,65618,1,2,0:0:0:0:
76,278,65695,1,2,0:0:0:0:
75,317,65772,6,0,L|86:366,3,35,8|0|0|0,0:0|0:0|0:0|0:0,0:0:0:0:
177,323,66079,2,0,L|219:349,3,35,8|0|0|0,0:0|0:0|0:0|0:0,0:0:0:0:
262,268,66387,1,8,0:0:0:0:
261,246,66464,1,8,0:0:0:0:
260,222,66541,102,0,B|254:166|254:166|270:101,2,105.000004005432,2|0|0,0:0|0:0|0:0,0:0:0:0:
416,195,67317,2,0,L|429:126,2,70,8|0|0,0:0|0:0|0:0,0:0:0:0:
335,128,67953,2,0,L|269:137,1,52.5,8|0,0:0|0:0,0:0:0:0:
211,147,68226,2,0,L|215:196,2,35
357,212,68563,6,0,B|298:280|310:358|310:358|264:378|212:347|212:347|166:316|99:336,1,377.999988464356
7,366,69835,2,0,L|20:293,1,70,8|0,0:0|0:0,0:0:0:0:
87,224,70435,2,0,L|133:216,2,46.6666666666667,8|0|0,0:0|0:0|0:0,0:0:0:0:
24,160,71035,2,0,L|32:114,1,46.6666666666667,8|0,0:0|0:0,0:0:0:0:
107,67,71435,1,8,0:0:0:0:
229,91,71769,2,0,B|245:85|259:80|259:80|274:70|281:53|281:53|304:58|304:58|331:55,1,112,2|0,0:0|0:0,0:0:0:0:
385,8,72355,102,0,L|397:92,1,70,2|0,0:0|0:0,0:0:0:0:
393,197,72816,1,0,0:0:0:0:
321,280,73047,1,0,0:0:0:0:
237,201,73278,6,0,B|212:166|215:117|215:117|181:74|120:96|120:96|77:105|34:85,2,280,8|8|8,0:0|0:0|0:0,0:0:0:0:
323,177,75330,1,0,0:0:0:0:
345,91,75537,1,2,0:0:0:0:
286,20,75744,102,8,B|247:32|247:32|218:31,2,70,2|2|8,0:0|0:0|0:0,0:0:0:0:
406,11,76194,1,2,0:0:0:0:
422,31,76269,1,0,0:0:0:0:
433,54,76344,1,8,0:0:0:0:
438,80,76419,1,0,0:0:0:0:
434,107,76494,2,0,L|441:151,3,35,2|0|8|0,0:0|0:0|0:0|0:0,0:0:0:0:
407,220,76794,1,2,0:0:0:0:
411,240,76869,1,0,0:0:0:0:
415,260,76944,1,8,0:0:0:0:
419,283,77019,6,0,L|426:326,3,35,2|0|0|0,0:0|0:0|0:0|0:0,0:0:0:0:
313,225,77319,2,0,L|320:182,3,35,8|0|0|0,0:0|0:0|0:0|0:0,0:0:0:0:
250,269,77619,2,0,L|257:312,3,35,2|0|0|0,0:0|0:0|0:0|0:0,0:0:0:0:
197,235,77919,2,0,L|204:192,3,35,8|0|0|0,0:0|0:0|0:0|0:0,0:0:0:0:
124,251,78219,54,0,L|69:260,3,35,2|0|0|0,0:0|0:0|0:0|0:0,0:0:0:0:
70,192,78519,2,0,L|35:186,3,35,8|0|8|8,0:0|0:0|0:0|0:0,0:0:0:0:
78,103,78819,1,8,0:0:0:0:
100,115,78894,1,0,0:0:0:0:
126,119,78969,1,0,0:0:0:0:
152,114,79044,1,0,0:0:0:0:
174,101,79119,1,8,0:0:0:0:
196,88,79194,1,0,0:0:0:0:
222,83,79269,1,0,0:0:0:0:
248,87,79344,1,0,0:0:0:0:
268,98,79419,6,0,L|260:132,1,35,2|0,0:0|0:0,0:0:0:0:
200,183,79569,2,0,L|207:217,1,35,8|0,0:0|0:0,0:0:0:0:
282,281,79719,1,2,0:0:0:0:
311,283,79794,1,0,0:0:0:0:
340,285,79869,1,8,0:0:0:0:
369,287,79944,1,0,0:0:0:0:
407,277,80019,6,0,P|421:224|402:172,1,93.3333333333333,2|0,0:0|0:0,0:0:0:0:
330,138,80480,1,8,0:0:0:0:
264,182,80634,1,2,0:0:0:0:
191,150,80788,1,2,0:0:0:0:
182,59,80942,102,0,B|228:64|228:64|261:99,1,93.3333333333333,2|0,0:0|0:0,0:0:0:0:
178,226,81403,1,8,0:0:0:0:
223,325,81557,6,0,B|266:345|266:345|327:332,1,105.000004005432,2|2,0:0|0:0,0:0:0:0:
363,273,81941,1,2,0:0:0:0:
346,179,82095,2,0,B|294:206|294:206|276:225,2,83.9999974365235,2|2|2,0:0|0:0|0:0,0:0:0:0:
220,312,82557,6,0,P|188:263|216:177,1,140
283,158,83519,2,0,B|338:172|338:172|466:156,1,186.666666666667
481,65,84843,2,0,L|461:61,1,11.6666666666667
430,36,84963,2,0,P|350:46|318:39,1,105
231,14,85714,70,0,L|236:47,3,24.4999992523194,8|0|0|0,0:0|0:0|0:0|0:0,0:0:0:0:
283,115,86014,2,0,L|278:148,3,24.4999992523194,8|0|0|0,0:0|0:0|0:0|0:0,0:0:0:0:
230,199,86314,2,0,L|186:208,1,24.4999992523194,8|0,0:0|0:0,0:0:0:0:
118,184,86464,1,0,0:0:0:0:
104,178,86539,1,0,0:0:0:0:
84,169,86614,2,0,L|1:177,2,70,8|2|8,0:0|0:0|0:0,0:0:0:0:
174,133,87064,1,0,0:0:0:0:
180,48,87214,5,8,0:0:0:0:
214,22,87289,1,0,0:0:0:0:
257,25,87364,1,2,0:0:0:0:
288,55,87439,1,2,0:0:0:0:
292,98,87514,1,2,0:0:0:0:
269,124,87589,1,2,0:0:0:0:
260,157,87664,1,2,0:0:0:0:
266,191,87739,1,2,0:0:0:0:
289,215,87814,101,10,0:0:0:0:
312,212,87889,1,10,0:0:0:0:
335,209,87964,1,10,0:0:0:0:
358,206,88039,1,10,0:0:0:0:
382,218,88114,5,2,0:0:0:0:
398,219,88189,1,2,0:0:0:0:
414,221,88264,1,2,0:0:0:0:
430,223,88339,1,2,0:0:0:0:
453,204,88414,101,2,0:0:0:0:
464,203,88489,1,2,0:0:0:0:
475,201,88564,1,2,0:0:0:0:
486,200,88639,1,2,0:0:0:0:
511,206,88710,5,2,0:0:0:0:
511,206,89564,5,8,0:0:0:0:
411,146,89719,1,8,0:0:0:0:
366,328,89875,1,8,0:0:0:0:
454,250,90030,2,0,P|421:236|387:236,1,70,2|0,0:0|0:0,0:0:0:0:
268,300,90341,1,8,0:0:0:0:
180,271,90496,1,0,0:0:0:0:
118,192,90652,2,0,P|105:153|111:119,1,70,2|0,0:0|0:0,0:0:0:0:
123,107,90885,1,0,0:0:0:0:
133,94,90963,1,8,0:0:0:0:
233,49,91118,102,0,B|288:56|288:56|322:40|322:40|379:47,1,140,2|2,0:0|0:0,0:0:0:0:
461,75,91584,2,0,P|439:116|445:149,1,70,8|2,0:0|0:0,0:0:0:0:
448,156,91818,6,0,B|360:142|360:142|246:166,1,195.999994018555,2|8,0:0|0:0,0:0:0:0:
186,220,92687,2,0,P|116:211|97:150,1,140,2|8,0:0|0:0,0:0:0:0:
152,76,93773,1,2,0:0:0:0:
176,60,93921,2,0,B|262:77|262:77|289:69,1,116.666666666667,2|2,0:0|0:0,0:0:0:0:
346,31,94573,2,0,L|398:36,1,46.6666666666667,8|0,0:0|0:0,0:0:0:0:
464,80,94899,1,2,0:0:0:0:
476,93,95027,1,2,0:0:0:0:
482,109,95156,2,0,B|467:164|467:164|474:246,1,140,2|8,0:0|0:0,0:0:0:0:
491,337,96009,101,0,0:0:0:0:
400,282,96159,2,0,L|323:293,1,70,8|0,0:0|0:0,0:0:0:0:
261,365,96459,1,8,0:0:0:0:
234,362,96534,1,0,0:0:0:0:
208,360,96609,1,0,0:0:0:0:
182,358,96684,1,0,0:0:0:0:
156,356,96759,1,2,0:0:0:0:
356,98,97359,6,0,P|330:121|296:129,1,70,2|0,0:0|0:0,0:0:0:0:
187,21,97659,2,0,P|220:31|244:56,1,70,8|0,0:0|0:0,0:0:0:0:
219,148,97959,1,2,0:0:0:0:
131,233,98109,2,0,B|173:272|173:272|255:279,1,140,8|0,0:0|0:0,0:0:0:0:
342,304,98559,2,0,L|348:258,1,35,2|0,0:0|0:0,0:0:0:0:
409,153,98709,2,0,L|415:199,1,35
436,329,98859,53,8,0:0:0:0:
322,384,99009,1,0,0:0:0:0:
301,380,99084,1,0,0:0:0:0:
280,377,99159,1,0,0:0:0:0:
247,357,99234,1,0,0:0:0:0:
212,361,99309,1,8,0:0:0:0:
177,366,99384,1,0,0:0:0:0:
142,371,99459,22,0,B|116:364|116:364|112:357,3,35,8|0|0|0,0:0|0:0|0:0|0:0,0:0:0:0:
144,261,99783,2,0,B|151:234|151:234|147:227,3,35,8|0|0|0,0:0|0:0|0:0|0:0,0:0:0:0:
65,178,100107,86,0,B|45:80|45:80|57:41,1,140,2|8,0:0|0:0,0:0:0:0:
138,43,100707,2,0,P|188:56|238:43,1,105,2|0,0:0|0:0,0:0:0:0:
318,41,101187,2,0,B|331:80|331:80|311:178,1,140,2|8,0:0|0:0,0:0:0:0:
236,217,101787,21,2,0:0:0:0:
326,294,101944,2,0,L|373:288,3,35,0|0|8|0,0:0|0:0|0:0|0:0,0:0:0:0:
391,226,102260,2,0,L|432:235,1,35,2|0,0:0|0:0,0:0:0:0:
487,305,102418,1,8,0:0:0:0:
471,336,102496,1,0,0:0:0:0:
443,355,102575,1,0,0:0:0:0:
408,359,102654,1,0,0:0:0:0:
374,341,102734,86,0,L|335:346,3,35,2|0|0|0,0:0|0:0|0:0|0:0,0:0:0:0:
251,371,103049,2,0,L|219:346,3,35,2|0|0|0,0:0|0:0|0:0|0:0,0:0:0:0:
142,305,103364,2,0,L|137:265,3,35,2|0|0|0,0:0|0:0|0:0|0:0,0:0:0:0:
176,195,103681,1,8,0:0:0:0:
177,177,103759,1,0,0:0:0:0:
179,160,103838,1,0,0:0:0:0:
181,142,103917,1,0,0:0:0:0:
183,125,103996,1,8,0:0:0:0:
75,64,104146,22,0,P|9:131|101:129,1,238,2|0,0:0|0:0,0:0:0:0:
172,38,105796,85,2,0:0:0:0:
304,71,105946,1,8,0:0:0:0:
306,79,106021,1,0,0:0:0:0:
308,87,106096,1,2,0:0:0:0:
251,174,106246,1,8,0:0:0:0:
309,271,106396,2,0,L|358:277,3,35,2|0|8|0,0:0|0:0|0:0|0:0,0:0:0:0:
403,227,106696,1,2,0:0:0:0:
420,222,106771,1,0,0:0:0:0:
439,218,106846,22,0,L|478:227,1,35,8|0,0:0|0:0,0:0:0:0:
326,170,106982,2,0,L|287:179,1,35,2|0,0:0|0:0,0:0:0:0:
372,87,107118,2,0,L|411:96,1,35,8|0,0:0|0:0,0:0:0:0:
301,28,107255,1,2,0:0:0:0:
271,45,107323,1,0,0:0:0:0:
236,48,107391,1,8,0:0:0:0:
203,35,107459,1,0,0:0:0:0:
171,23,107528,1,2,0:0:0:0:
136,26,107596,1,0,0:0:0:0:
107,44,107664,1,8,0:0:0:0:
97,77,107732,1,0,0:0:0:0:
106,110,107800,86,0,L|123:164,3,35,8|0|0|0,0:0|0:0|0:0|0:0,0:0:0:0:
159,214,108072,5,8,0:0:0:0:
187,194,108140,1,0,0:0:0:0:
221,187,108208,1,0,0:0:0:0:
255,195,108276,1,0,0:0:0:0:
273,234,108344,5,8,0:0:0:0:
311,259,108412,1,0,0:0:0:0:
357,262,108480,1,0,0:0:0:0:
398,241,108548,1,0,0:0:0:0:
429,211,108616,101,8,0:0:0:0:
396,177,108684,1,0,0:0:0:0:
385,133,108752,1,0,0:0:0:0:
396,88,108820,1,0,0:0:0:0:
426,48,108888,5,8,0:0:0:0:
374,73,108956,1,0,0:0:0:0:
316,71,109024,1,0,0:0:0:0:
267,41,109092,1,0,0:0:0:0:
222,7,109160,101,8,0:0:0:0:
152,1,109228,1,0,0:0:0:0:
92,35,109296,1,0,0:0:0:0:
67,98,109364,1,0,0:0:0:0:
85,160,109432,5,8,0:0:0:0:
127,228,109500,1,0,0:0:0:0:
123,308,109568,1,0,0:0:0:0:
73,371,109636,1,0,0:0:0:0:
0,346,109704,101,8,0:0:0:0:
62,273,109772,1,8,0:0:0:0:
152,242,109840,1,8,0:0:0:0:
245,261,109908,1,8,0:0:0:0:
316,324,109976,1,8,0:0:0:0:
