osu file format v14

[General]
AudioFilename: DragonForce - Defenders.mp3
AudioLeadIn: 0
PreviewTime: 86264
Countdown: 0
SampleSet: None
StackLeniency: 0.7
Mode: 3
LetterboxInBreaks: 0
SpecialStyle: 0
WidescreenStoryboard: 1

[Editor]
Bookmarks: 78685
DistanceSpacing: 1.3
BeatDivisor: 4
GridSize: 16
TimelineZoom: 3.099998

[Metadata]
Title:Defenders
TitleUnicode:Defenders
Artist:DragonForce
ArtistUnicode:DragonForce
Creator:Skalim
Version:Rage!! 6K
Source:
Tags:
BeatmapID:542688
BeatmapSetID:233896

[Difficulty]
HPDrainRate:8
CircleSize:6
OverallDifficulty:7
ApproachRate:5
SliderMultiplier:1.4
SliderTickRate:1

[Events]
//Background and Video events
0,0,"dragon.jpg",0,0
//Break Periods
//Storyboard Layer 0 (Background)
//Storyboard Layer 1 (Fail)
//Storyboard Layer 2 (Pass)
//Storyboard Layer 3 (Foreground)
//Storyboard Sound Samples

[TimingPoints]
370,315.789473684211,4,3,0,10,1,0
5422,-66.6666666666667,4,3,0,10,0,0
6054,-100,4,3,0,10,0,0
6212,-133.333333333333,4,3,0,10,0,0
6370,-222.222222222221,4,3,0,10,0,0
6527,-666.666666666658,4,3,0,10,0,0
6685,-100,4,3,0,10,0,0
25633,-20,4,3,0,10,0,0
25948,-25,4,3,0,10,0,0
26027,-50,4,3,0,10,0,0
26106,-66.6666666666667,4,3,0,10,0,0
26185,-71.4285714285714,4,3,0,10,0,0
26264,-83.3333333333333,4,3,0,10,0,0
26343,-100,4,3,0,10,0,0
26422,-125,4,3,0,10,0,0
26501,-166.666666666667,4,3,0,10,0,0
26580,-250,4,3,0,10,0,0
26659,-142.857142857143,4,3,0,10,0,0
26738,-100,4,3,0,10,0,0
26817,-66.6666666666667,4,3,0,10,0,0
26896,-100,4,3,0,10,0,0
35738,-66.6666666666667,4,3,0,10,0,0
35896,-100,4,3,0,10,0,0
35975,-200,4,3,0,10,0,0
36054,-58.8235294117647,4,3,0,10,0,0
36212,-100,4,3,0,10,0,0
36291,-181.818181818181,4,3,0,10,0,0
36370,-83.3333333333333,4,3,0,10,0,0
36527,-100,4,3,0,10,0,0
36606,-181.818181818181,4,3,0,10,0,0
36685,-66.6666666666667,4,3,0,10,0,0
36843,-100,4,3,0,10,0,0
36922,-181.818181818181,4,3,0,10,0,0
37001,-100,4,3,0,10,0,0
56580,-58.8235294117647,4,3,0,10,0,0
56659,-100,4,3,0,10,0,0
56698,-133.333333333333,4,3,0,10,0,0
56738,-66.6666666666667,4,3,0,10,0,0
56817,-125,4,3,0,10,0,0
56856,-200,4,3,0,10,0,0
56896,-76.9230769230769,4,3,0,10,0,0
56975,-166.666666666667,4,3,0,10,0,0
57014,-250,4,3,0,10,0,0
57054,-90.9090909090908,4,3,0,10,0,0
57133,-166.666666666667,4,3,0,10,0,0
57172,-333.333333333333,4,3,0,10,0,0
57212,-100,4,3,0,10,0,0
87527,-100,4,3,0,10,0,1
110264,-100,4,3,0,10,0,0
110422,-66.6666666666667,4,3,0,10,0,0
110580,-100,4,3,0,10,0,0
110659,-181.818181818181,4,3,0,10,0,0
110738,-100,4,3,0,10,0,0
110896,-66.6666666666667,4,3,0,10,0,0
111054,-100,4,3,0,10,0,0
111133,-181.818181818181,4,3,0,10,0,0
111212,-66.6666666666667,4,3,0,10,0,0
111370,-100,4,3,0,10,0,0
111448,-181.818181818181,4,3,0,10,0,0
111527,-133.333333333333,4,3,0,10,0,0
112791,-100,4,3,0,10,0,0
153212,-100,4,3,0,10,0,1
173422,-100,4,3,0,10,0,0
213843,-181.818181818181,4,3,0,10,0,0
214791,-100,4,3,0,10,0,0
214948,-90.9090909090909,4,3,0,10,0,0
215027,-83.3333333333333,4,3,0,10,0,0
215106,-100,4,3,0,10,0,1
235317,-100,4,3,0,10,0,0
245422,-100,4,3,0,10,0,1
268159,-100,4,3,0,10,0,0
286001,-16.6666666666667,4,3,0,10,0,0
287738,-285.714285714284,4,3,0,10,0,0
288370,-100,4,3,0,10,0,0
308580,-100,4,3,0,10,0,1
328791,-100,4,3,0,10,0,0

[HitObjects]
42,192,370,5,0,0:0:0:0:
213,192,370,1,0,0:0:0:0:
469,192,370,1,0,0:0:0:0:
298,192,370,1,0,0:0:0:0:
42,192,527,1,0,0:0:0:0:
298,192,606,1,0,0:0:0:0:
42,192,685,1,0,0:0:0:0:
298,192,764,1,0,0:0:0:0:
42,192,843,1,0,0:0:0:0:
298,192,922,1,0,0:0:0:0:
42,192,1001,1,0,0:0:0:0:
128,192,1159,1,0,0:0:0:0:
384,192,1238,1,0,0:0:0:0:
128,192,1317,1,0,0:0:0:0:
384,192,1396,1,0,0:0:0:0:
128,192,1475,1,0,0:0:0:0:
384,192,1554,1,0,0:0:0:0:
128,192,1633,1,0,0:0:0:0:
213,192,1791,1,0,0:0:0:0:
469,192,1870,1,0,0:0:0:0:
213,192,1948,1,0,0:0:0:0:
469,192,2027,1,0,0:0:0:0:
213,192,2106,1,0,0:0:0:0:
469,192,2185,1,0,0:0:0:0:
213,192,2264,1,0,0:0:0:0:
298,192,2264,1,0,0:0:0:0:
42,192,2264,128,0,2501:0:0:0:0:
128,192,2264,128,0,2501:0:0:0:0:
384,192,2501,128,0,2738:0:0:0:0:
469,192,2501,128,0,2738:0:0:0:0:
298,192,2738,128,0,2896:0:0:0:0:
213,192,2738,128,0,2896:0:0:0:0:
42,192,2896,128,0,4159:0:0:0:0:
128,192,2896,1,0,0:0:0:0:
469,192,2896,1,0,0:0:0:0:
384,192,2896,1,0,0:0:0:0:
213,192,3054,1,0,0:0:0:0:
469,192,3133,1,0,0:0:0:0:
213,192,3212,1,0,0:0:0:0:
469,192,3291,1,0,0:0:0:0:
213,192,3370,1,0,0:0:0:0:
469,192,3448,1,0,0:0:0:0:
213,192,3527,1,0,0:0:0:0:
469,192,3685,1,0,0:0:0:0:
213,192,3764,1,0,0:0:0:0:
469,192,3843,1,0,0:0:0:0:
213,192,3922,1,0,0:0:0:0:
469,192,4001,1,0,0:0:0:0:
213,192,4080,1,0,0:0:0:0:
384,192,4159,1,0,0:0:0:0:
469,192,4159,128,0,4317:0:0:0:0:
298,192,4159,1,0,0:0:0:0:
128,192,4159,1,0,0:0:0:0:
42,192,4317,128,0,4475:0:0:0:0:
213,192,4317,1,0,0:0:0:0:
298,192,4317,1,0,0:0:0:0:
128,192,4475,128,0,4633:0:0:0:0:
298,192,4475,1,0,0:0:0:0:
384,192,4475,1,0,0:0:0:0:
213,192,4633,128,0,4791:0:0:0:0:
384,192,4633,1,0,0:0:0:0:
469,192,4633,1,0,0:0:0:0:
469,192,4791,1,0,0:0:0:0:
128,192,4791,1,0,0:0:0:0:
42,192,4791,1,0,0:0:0:0:
213,192,4870,1,0,0:0:0:0:
384,192,4948,1,0,0:0:0:0:
128,192,5027,1,0,0:0:0:0:
42,192,5106,1,0,0:0:0:0:
469,192,5106,1,0,0:0:0:0:
384,192,5106,1,0,0:0:0:0:
213,192,5185,1,0,0:0:0:0:
384,192,5264,1,0,0:0:0:0:
128,192,5343,1,0,0:0:0:0:
42,192,5422,1,0,0:0:0:0:
384,192,5422,128,0,6685:0:0:0:0:
298,192,5422,1,0,0:0:0:0:
469,192,5422,1,0,0:0:0:0:
298,192,6685,1,0,0:0:0:0:
469,192,6685,1,0,0:0:0:0:
128,192,6685,1,0,0:0:0:0:
42,192,6843,1,0,0:0:0:0:
469,192,6843,1,0,0:0:0:0:
213,192,6843,1,0,0:0:0:0:
298,192,6922,1,0,0:0:0:0:
469,192,7001,1,0,0:0:0:0:
298,192,7080,1,0,0:0:0:0:
128,192,7080,1,0,0:0:0:0:
42,192,7159,1,0,0:0:0:0:
469,192,7159,1,0,0:0:0:0:
213,192,7159,1,0,0:0:0:0:
298,192,7238,1,0,0:0:0:0:
469,192,7317,1,0,0:0:0:0:
213,192,7317,1,0,0:0:0:0:
469,192,7475,1,0,0:0:0:0:
42,192,7475,1,0,0:0:0:0:
128,192,7475,1,0,0:0:0:0:
298,192,7554,1,0,0:0:0:0:
213,192,7554,1,0,0:0:0:0:
469,192,7633,1,0,0:0:0:0:
298,192,7712,1,0,0:0:0:0:
213,192,7712,1,0,0:0:0:0:
469,192,7791,1,0,0:0:0:0:
128,192,7791,1,0,0:0:0:0:
42,192,7791,1,0,0:0:0:0:
298,192,7870,1,0,0:0:0:0:
469,192,7948,1,0,0:0:0:0:
128,192,7948,1,0,0:0:0:0:
469,192,8106,1,0,0:0:0:0:
42,192,8106,1,0,0:0:0:0:
213,192,8106,1,0,0:0:0:0:
298,192,8185,1,0,0:0:0:0:
469,192,8264,1,0,0:0:0:0:
298,192,8343,1,0,0:0:0:0:
128,192,8343,1,0,0:0:0:0:
469,192,8422,1,0,0:0:0:0:
42,192,8422,1,0,0:0:0:0:
213,192,8422,1,0,0:0:0:0:
298,192,8501,1,0,0:0:0:0:
42,192,8580,128,0,8817:0:0:0:0:
469,192,8580,1,0,0:0:0:0:
128,192,8738,1,0,0:0:0:0:
384,192,8738,1,0,0:0:0:0:
469,192,8817,128,0,9054:0:0:0:0:
298,192,8817,1,0,0:0:0:0:
213,192,8975,1,0,0:0:0:0:
42,192,9054,1,0,0:0:0:0:
298,192,9054,1,0,0:0:0:0:
384,192,9054,128,0,9212:0:0:0:0:
213,192,9212,1,0,0:0:0:0:
298,192,9212,128,0,9370:0:0:0:0:
213,192,9370,1,0,0:0:0:0:
42,192,9370,1,0,0:0:0:0:
469,192,9370,1,0,0:0:0:0:
384,192,9448,1,0,0:0:0:0:
213,192,9527,1,0,0:0:0:0:
384,192,9606,1,0,0:0:0:0:
128,192,9606,1,0,0:0:0:0:
42,192,9685,1,0,0:0:0:0:
213,192,9685,1,0,0:0:0:0:
469,192,9685,1,0,0:0:0:0:
384,192,9764,1,0,0:0:0:0:
213,192,9843,1,0,0:0:0:0:
298,192,9843,1,0,0:0:0:0:
42,192,10001,1,0,0:0:0:0:
213,192,10001,1,0,0:0:0:0:
469,192,10001,1,0,0:0:0:0:
298,192,10080,1,0,0:0:0:0:
384,192,10080,1,0,0:0:0:0:
213,192,10159,1,0,0:0:0:0:
298,192,10238,1,0,0:0:0:0:
384,192,10238,1,0,0:0:0:0:
213,192,10317,1,0,0:0:0:0:
42,192,10317,1,0,0:0:0:0:
469,192,10317,1,0,0:0:0:0:
384,192,10396,1,0,0:0:0:0:
469,192,10475,128,0,10633:0:0:0:0:
42,192,10475,1,0,0:0:0:0:
213,192,10554,1,0,0:0:0:0:
42,192,10633,128,0,10791:0:0:0:0:
384,192,10633,1,0,0:0:0:0:
128,192,10633,1,0,0:0:0:0:
298,192,10712,1,0,0:0:0:0:
128,192,10791,128,0,10948:0:0:0:0:
213,192,10791,1,0,0:0:0:0:
384,192,10870,1,0,0:0:0:0:
213,192,10948,128,0,11106:0:0:0:0:
469,192,10948,1,0,0:0:0:0:
42,192,10948,1,0,0:0:0:0:
298,192,11027,1,0,0:0:0:0:
384,192,11106,128,0,11264:0:0:0:0:
42,192,11106,1,0,0:0:0:0:
128,192,11106,1,0,0:0:0:0:
213,192,11185,1,0,0:0:0:0:
298,192,11185,1,0,0:0:0:0:
469,192,11264,128,0,11422:0:0:0:0:
42,192,11264,1,0,0:0:0:0:
213,192,11343,1,0,0:0:0:0:
298,192,11422,128,0,11580:0:0:0:0:
128,192,11422,1,0,0:0:0:0:
42,192,11422,1,0,0:0:0:0:
469,192,11580,128,0,11738:0:0:0:0:
42,192,11580,1,0,0:0:0:0:
128,192,11580,1,0,0:0:0:0:
213,192,11659,1,0,0:0:0:0:
298,192,11659,1,0,0:0:0:0:
128,192,11738,1,0,0:0:0:0:
384,192,11738,1,0,0:0:0:0:
42,192,11896,1,0,0:0:0:0:
298,192,11896,1,0,0:0:0:0:
469,192,11896,1,0,0:0:0:0:
213,192,11975,1,0,0:0:0:0:
42,192,12054,1,0,0:0:0:0:
213,192,12133,1,0,0:0:0:0:
384,192,12133,1,0,0:0:0:0:
42,192,12212,1,0,0:0:0:0:
469,192,12212,1,0,0:0:0:0:
298,192,12212,1,0,0:0:0:0:
213,192,12291,1,0,0:0:0:0:
42,192,12370,1,0,0:0:0:0:
384,192,12370,1,0,0:0:0:0:
42,192,12527,1,0,0:0:0:0:
298,192,12527,1,0,0:0:0:0:
384,192,12527,1,0,0:0:0:0:
213,192,12606,1,0,0:0:0:0:
469,192,12606,1,0,0:0:0:0:
42,192,12685,1,0,0:0:0:0:
213,192,12764,1,0,0:0:0:0:
469,192,12764,1,0,0:0:0:0:
42,192,12843,1,0,0:0:0:0:
384,192,12843,1,0,0:0:0:0:
298,192,12843,1,0,0:0:0:0:
213,192,12922,1,0,0:0:0:0:
42,192,13001,1,0,0:0:0:0:
384,192,13001,1,0,0:0:0:0:
298,192,13159,1,0,0:0:0:0:
42,192,13159,1,0,0:0:0:0:
469,192,13159,1,0,0:0:0:0:
213,192,13238,1,0,0:0:0:0:
42,192,13317,1,0,0:0:0:0:
384,192,13317,1,0,0:0:0:0:
213,192,13396,1,0,0:0:0:0:
128,192,13396,1,0,0:0:0:0:
42,192,13475,1,0,0:0:0:0:
298,192,13475,1,0,0:0:0:0:
469,192,13475,1,0,0:0:0:0:
213,192,13554,1,0,0:0:0:0:
42,192,13633,1,0,0:0:0:0:
469,192,13633,128,0,13870:0:0:0:0:
128,192,13633,1,0,0:0:0:0:
128,192,13791,1,0,0:0:0:0:
384,192,13791,1,0,0:0:0:0:
42,192,13870,128,0,14106:0:0:0:0:
213,192,13870,1,0,0:0:0:0:
298,192,14027,1,0,0:0:0:0:
128,192,14106,128,0,14264:0:0:0:0:
213,192,14106,1,0,0:0:0:0:
469,192,14106,1,0,0:0:0:0:
213,192,14264,128,0,14422:0:0:0:0:
298,192,14264,1,0,0:0:0:0:
298,192,14422,1,0,0:0:0:0:
469,192,14422,1,0,0:0:0:0:
42,192,14422,1,0,0:0:0:0:
128,192,14501,1,0,0:0:0:0:
298,192,14580,1,0,0:0:0:0:
128,192,14659,1,0,0:0:0:0:
384,192,14659,1,0,0:0:0:0:
298,192,14738,1,0,0:0:0:0:
42,192,14738,1,0,0:0:0:0:
469,192,14738,1,0,0:0:0:0:
128,192,14817,1,0,0:0:0:0:
298,192,14896,1,0,0:0:0:0:
213,192,14896,1,0,0:0:0:0:
42,192,15054,1,0,0:0:0:0:
298,192,15054,1,0,0:0:0:0:
469,192,15054,1,0,0:0:0:0:
128,192,15133,1,0,0:0:0:0:
213,192,15133,1,0,0:0:0:0:
298,192,15212,1,0,0:0:0:0:
128,192,15291,1,0,0:0:0:0:
213,192,15291,1,0,0:0:0:0:
42,192,15370,1,0,0:0:0:0:
469,192,15370,1,0,0:0:0:0:
298,192,15370,1,0,0:0:0:0:
128,192,15448,1,0,0:0:0:0:
469,192,15527,1,0,0:0:0:0:
42,192,15527,128,0,15606:0:0:0:0:
469,192,15685,1,0,0:0:0:0:
42,192,15685,128,0,15764:0:0:0:0:
469,192,15843,1,0,0:0:0:0:
128,192,15843,1,0,0:0:0:0:
42,192,15843,128,0,15922:0:0:0:0:
298,192,15922,1,0,0:0:0:0:
469,192,16001,1,0,0:0:0:0:
128,192,16001,1,0,0:0:0:0:
42,192,16001,128,0,16080:0:0:0:0:
42,192,16159,128,0,16238:0:0:0:0:
213,192,16159,128,0,16238:0:0:0:0:
298,192,16159,128,0,16317:0:0:0:0:
384,192,16159,128,0,16396:0:0:0:0:
469,192,16159,128,0,16712:0:0:0:0:
42,192,16317,128,0,16396:0:0:0:0:
384,192,16475,128,0,16712:0:0:0:0:
42,192,16475,128,0,16791:0:0:0:0:
298,192,16554,128,0,16712:0:0:0:0:
213,192,16633,128,0,16712:0:0:0:0:
298,192,16791,128,0,16870:0:0:0:0:
384,192,16791,128,0,16948:0:0:0:0:
469,192,16791,128,0,17106:0:0:0:0:
128,192,16791,1,0,0:0:0:0:
213,192,16948,1,0,0:0:0:0:
298,192,16948,1,0,0:0:0:0:
42,192,17106,128,0,17422:0:0:0:0:
384,192,17106,1,0,0:0:0:0:
213,192,17264,1,0,0:0:0:0:
298,192,17264,1,0,0:0:0:0:
128,192,17422,128,0,17738:0:0:0:0:
469,192,17422,1,0,0:0:0:0:
298,192,17580,1,0,0:0:0:0:
384,192,17580,1,0,0:0:0:0:
213,192,17738,128,0,18054:0:0:0:0:
469,192,17738,1,0,0:0:0:0:
42,192,17896,1,0,0:0:0:0:
384,192,17896,1,0,0:0:0:0:
128,192,18054,128,0,18370:0:0:0:0:
298,192,18054,1,0,0:0:0:0:
213,192,18212,1,0,0:0:0:0:
384,192,18212,1,0,0:0:0:0:
42,192,18370,128,0,18685:0:0:0:0:
469,192,18370,1,0,0:0:0:0:
128,192,18527,1,0,0:0:0:0:
298,192,18527,1,0,0:0:0:0:
469,192,18685,128,0,19001:0:0:0:0:
213,192,18685,1,0,0:0:0:0:
128,192,18843,1,0,0:0:0:0:
298,192,18843,1,0,0:0:0:0:
384,192,19001,128,0,19317:0:0:0:0:
42,192,19001,1,0,0:0:0:0:
128,192,19159,1,0,0:0:0:0:
213,192,19159,1,0,0:0:0:0:
42,192,19317,1,0,0:0:0:0:
469,192,19317,1,0,0:0:0:0:
213,192,19396,1,0,0:0:0:0:
384,192,19475,1,0,0:0:0:0:
469,192,19475,1,0,0:0:0:0:
128,192,19475,1,0,0:0:0:0:
298,192,19554,1,0,0:0:0:0:
42,192,19633,1,0,0:0:0:0:
469,192,19712,1,0,0:0:0:0:
213,192,19712,1,0,0:0:0:0:
42,192,19791,1,0,0:0:0:0:
384,192,19791,1,0,0:0:0:0:
298,192,19791,1,0,0:0:0:0:
213,192,19870,1,0,0:0:0:0:
128,192,19948,1,0,0:0:0:0:
469,192,19948,1,0,0:0:0:0:
298,192,20027,1,0,0:0:0:0:
42,192,20106,1,0,0:0:0:0:
213,192,20106,1,0,0:0:0:0:
384,192,20106,1,0,0:0:0:0:
469,192,20185,1,0,0:0:0:0:
128,192,20264,1,0,0:0:0:0:
298,192,20343,1,0,0:0:0:0:
213,192,20343,1,0,0:0:0:0:
384,192,20422,1,0,0:0:0:0:
42,192,20422,1,0,0:0:0:0:
469,192,20422,1,0,0:0:0:0:
298,192,20501,1,0,0:0:0:0:
213,192,20580,1,0,0:0:0:0:
42,192,20580,1,0,0:0:0:0:
384,192,20659,1,0,0:0:0:0:
298,192,20738,1,0,0:0:0:0:
42,192,20738,1,0,0:0:0:0:
469,192,20738,1,0,0:0:0:0:
213,192,20817,1,0,0:0:0:0:
128,192,20896,1,0,0:0:0:0:
384,192,20896,1,0,0:0:0:0:
298,192,20975,1,0,0:0:0:0:
213,192,21054,1,0,0:0:0:0:
469,192,21054,1,0,0:0:0:0:
42,192,21054,1,0,0:0:0:0:
298,192,21133,1,0,0:0:0:0:
128,192,21212,1,0,0:0:0:0:
42,192,21212,1,0,0:0:0:0:
469,192,21212,1,0,0:0:0:0:
384,192,21291,1,0,0:0:0:0:
298,192,21291,1,0,0:0:0:0:
128,192,21370,1,0,0:0:0:0:
213,192,21370,1,0,0:0:0:0:
384,192,21448,1,0,0:0:0:0:
42,192,21527,1,0,0:0:0:0:
128,192,21527,1,0,0:0:0:0:
469,192,21527,1,0,0:0:0:0:
298,192,21606,1,0,0:0:0:0:
384,192,21606,1,0,0:0:0:0:
128,192,21685,1,0,0:0:0:0:
213,192,21685,1,0,0:0:0:0:
384,192,21764,1,0,0:0:0:0:
213,192,21843,1,0,0:0:0:0:
42,192,21843,1,0,0:0:0:0:
469,192,21843,1,0,0:0:0:0:
128,192,22001,1,0,0:0:0:0:
469,192,22001,1,0,0:0:0:0:
42,192,22159,128,0,22475:0:0:0:0:
298,192,22159,1,0,0:0:0:0:
128,192,22317,1,0,0:0:0:0:
384,192,22317,1,0,0:0:0:0:
213,192,22475,128,0,22791:0:0:0:0:
298,192,22475,1,0,0:0:0:0:
469,192,22633,1,0,0:0:0:0:
128,192,22633,1,0,0:0:0:0:
298,192,22791,128,0,23106:0:0:0:0:
384,192,22791,1,0,0:0:0:0:
42,192,22948,1,0,0:0:0:0:
213,192,22948,1,0,0:0:0:0:
469,192,23106,128,0,23422:0:0:0:0:
128,192,23106,1,0,0:0:0:0:
213,192,23264,1,0,0:0:0:0:
384,192,23264,1,0,0:0:0:0:
42,192,23422,128,0,23738:0:0:0:0:
298,192,23422,1,0,0:0:0:0:
128,192,23580,1,0,0:0:0:0:
469,192,23580,1,0,0:0:0:0:
213,192,23738,1,0,0:0:0:0:
298,192,23738,1,0,0:0:0:0:
469,192,23817,1,0,0:0:0:0:
298,192,23896,1,0,0:0:0:0:
128,192,23896,1,0,0:0:0:0:
469,192,23975,1,0,0:0:0:0:
128,192,24054,1,0,0:0:0:0:
42,192,24054,1,0,0:0:0:0:
384,192,24133,1,0,0:0:0:0:
42,192,24212,1,0,0:0:0:0:
213,192,24212,1,0,0:0:0:0:
384,192,24291,1,0,0:0:0:0:
128,192,24370,128,0,24448:0:0:0:0:
213,192,24370,128,0,24448:0:0:0:0:
384,192,24448,128,0,24527:0:0:0:0:
298,192,24448,128,0,24527:0:0:0:0:
42,192,24527,128,0,24606:0:0:0:0:
128,192,24527,128,0,24606:0:0:0:0:
469,192,24606,128,0,24685:0:0:0:0:
384,192,24606,128,0,24685:0:0:0:0:
128,192,24685,128,0,24764:0:0:0:0:
213,192,24685,128,0,24764:0:0:0:0:
384,192,24764,128,0,24843:0:0:0:0:
298,192,24764,128,0,24843:0:0:0:0:
128,192,24843,128,0,24922:0:0:0:0:
213,192,24843,128,0,24922:0:0:0:0:
384,192,24922,128,0,25001:0:0:0:0:
298,192,24922,128,0,25001:0:0:0:0:
128,192,25001,128,0,25080:0:0:0:0:
42,192,25001,128,0,25080:0:0:0:0:
384,192,25080,128,0,25159:0:0:0:0:
469,192,25080,128,0,25159:0:0:0:0:
213,192,25159,128,0,25238:0:0:0:0:
42,192,25159,128,0,25238:0:0:0:0:
298,192,25238,128,0,25317:0:0:0:0:
469,192,25238,128,0,25317:0:0:0:0:
42,192,25317,128,0,25396:0:0:0:0:
213,192,25317,128,0,25396:0:0:0:0:
298,192,25396,128,0,25475:0:0:0:0:
469,192,25396,128,0,25475:0:0:0:0:
42,192,25475,128,0,25554:0:0:0:0:
128,192,25475,128,0,25554:0:0:0:0:
469,192,25554,128,0,25633:0:0:0:0:
384,192,25554,128,0,25633:0:0:0:0:
213,192,25633,128,0,26580:0:0:0:0:
298,192,25633,128,0,26580:0:0:0:0:
469,192,26896,1,0,0:0:0:0:
128,192,26896,1,0,0:0:0:0:
42,192,27054,1,0,0:0:0:0:
469,192,27054,1,0,0:0:0:0:
213,192,27054,1,0,0:0:0:0:
298,192,27133,1,0,0:0:0:0:
384,192,27133,1,0,0:0:0:0:
128,192,27212,1,0,0:0:0:0:
298,192,27291,1,0,0:0:0:0:
384,192,27291,1,0,0:0:0:0:
42,192,27370,1,0,0:0:0:0:
213,192,27370,1,0,0:0:0:0:
469,192,27370,1,0,0:0:0:0:
384,192,27448,1,0,0:0:0:0:
298,192,27527,1,0,0:0:0:0:
213,192,27527,1,0,0:0:0:0:
384,192,27685,1,0,0:0:0:0:
42,192,27685,1,0,0:0:0:0:
128,192,27685,1,0,0:0:0:0:
213,192,27764,1,0,0:0:0:0:
298,192,27764,1,0,0:0:0:0:
469,192,27843,1,0,0:0:0:0:
298,192,27922,1,0,0:0:0:0:
213,192,27922,1,0,0:0:0:0:
469,192,28001,1,0,0:0:0:0:
384,192,28001,1,0,0:0:0:0:
42,192,28001,1,0,0:0:0:0:
128,192,28080,1,0,0:0:0:0:
213,192,28159,1,0,0:0:0:0:
298,192,28159,1,0,0:0:0:0:
384,192,28317,1,0,0:0:0:0:
469,192,28317,1,0,0:0:0:0:
42,192,28317,1,0,0:0:0:0:
128,192,28396,1,0,0:0:0:0:
298,192,28396,1,0,0:0:0:0:
42,192,28475,1,0,0:0:0:0:
213,192,28554,1,0,0:0:0:0:
384,192,28554,1,0,0:0:0:0:
42,192,28633,1,0,0:0:0:0:
469,192,28633,1,0,0:0:0:0:
128,192,28633,1,0,0:0:0:0:
384,192,28712,1,0,0:0:0:0:
42,192,28791,128,0,28948:0:0:0:0:
469,192,28791,128,0,28948:0:0:0:0:
298,192,28791,1,0,0:0:0:0:
213,192,28791,1,0,0:0:0:0:
128,192,28948,128,0,29422:0:0:0:0:
384,192,28948,128,0,29422:0:0:0:0:
213,192,28948,1,0,0:0:0:0:
298,192,28948,1,0,0:0:0:0:
42,192,29027,1,0,0:0:0:0:
469,192,29185,1,0,0:0:0:0:
213,192,29264,1,0,0:0:0:0:
298,192,29264,1,0,0:0:0:0:
42,192,29422,1,0,0:0:0:0:
469,192,29422,1,0,0:0:0:0:
128,192,29580,1,0,0:0:0:0:
384,192,29580,1,0,0:0:0:0:
469,192,29580,1,0,0:0:0:0:
42,192,29659,1,0,0:0:0:0:
298,192,29659,1,0,0:0:0:0:
128,192,29738,1,0,0:0:0:0:
469,192,29817,1,0,0:0:0:0:
213,192,29817,1,0,0:0:0:0:
384,192,29896,1,0,0:0:0:0:
128,192,29896,1,0,0:0:0:0:
42,192,29896,1,0,0:0:0:0:
298,192,29975,1,0,0:0:0:0:
128,192,30054,1,0,0:0:0:0:
213,192,30054,1,0,0:0:0:0:
298,192,30212,1,0,0:0:0:0:
384,192,30212,1,0,0:0:0:0:
42,192,30212,1,0,0:0:0:0:
128,192,30291,1,0,0:0:0:0:
469,192,30291,1,0,0:0:0:0:
298,192,30370,1,0,0:0:0:0:
384,192,30448,1,0,0:0:0:0:
42,192,30448,1,0,0:0:0:0:
213,192,30527,1,0,0:0:0:0:
128,192,30527,1,0,0:0:0:0:
469,192,30527,1,0,0:0:0:0:
384,192,30606,1,0,0:0:0:0:
213,192,30685,128,0,31317:0:0:0:0:
298,192,30685,128,0,31317:0:0:0:0:
42,192,30685,1,0,0:0:0:0:
469,192,30685,1,0,0:0:0:0:
128,192,30843,1,0,0:0:0:0:
384,192,30843,1,0,0:0:0:0:
128,192,31080,1,0,0:0:0:0:
384,192,31080,1,0,0:0:0:0:
42,192,31159,1,0,0:0:0:0:
469,192,31159,1,0,0:0:0:0:
384,192,31317,128,0,31948:0:0:0:0:
128,192,31317,128,0,31948:0:0:0:0:
298,192,31475,1,0,0:0:0:0:
213,192,31475,1,0,0:0:0:0:
298,192,31633,1,0,0:0:0:0:
213,192,31633,1,0,0:0:0:0:
42,192,31712,1,0,0:0:0:0:
469,192,31712,1,0,0:0:0:0:
298,192,31791,1,0,0:0:0:0:
213,192,31791,1,0,0:0:0:0:
469,192,31870,1,0,0:0:0:0:
42,192,31870,1,0,0:0:0:0:
213,192,31948,1,0,0:0:0:0:
298,192,31948,1,0,0:0:0:0:
42,192,32106,1,0,0:0:0:0:
213,192,32106,1,0,0:0:0:0:
384,192,32106,1,0,0:0:0:0:
469,192,32185,1,0,0:0:0:0:
128,192,32185,1,0,0:0:0:0:
213,192,32264,1,0,0:0:0:0:
384,192,32343,1,0,0:0:0:0:
42,192,32343,1,0,0:0:0:0:
298,192,32422,1,0,0:0:0:0:
128,192,32422,1,0,0:0:0:0:
469,192,32422,1,0,0:0:0:0:
213,192,32501,1,0,0:0:0:0:
42,192,32580,1,0,0:0:0:0:
384,192,32580,1,0,0:0:0:0:
298,192,32738,1,0,0:0:0:0:
128,192,32738,1,0,0:0:0:0:
469,192,32738,1,0,0:0:0:0:
42,192,32817,1,0,0:0:0:0:
213,192,32817,1,0,0:0:0:0:
128,192,32896,1,0,0:0:0:0:
469,192,32975,1,0,0:0:0:0:
298,192,32975,1,0,0:0:0:0:
384,192,33054,1,0,0:0:0:0:
42,192,33054,1,0,0:0:0:0:
213,192,33054,1,0,0:0:0:0:
128,192,33133,1,0,0:0:0:0:
384,192,33212,1,0,0:0:0:0:
42,192,33212,1,0,0:0:0:0:
384,192,33370,1,0,0:0:0:0:
42,192,33370,1,0,0:0:0:0:
213,192,33370,1,0,0:0:0:0:
128,192,33448,1,0,0:0:0:0:
469,192,33448,1,0,0:0:0:0:
298,192,33527,1,0,0:0:0:0:
42,192,33606,1,0,0:0:0:0:
384,192,33606,1,0,0:0:0:0:
128,192,33685,1,0,0:0:0:0:
469,192,33685,1,0,0:0:0:0:
298,192,33685,1,0,0:0:0:0:
213,192,33764,1,0,0:0:0:0:
42,192,33843,128,0,34001:0:0:0:0:
128,192,33843,1,0,0:0:0:0:
384,192,33843,1,0,0:0:0:0:
469,192,33843,128,0,34001:0:0:0:0:
128,192,34001,128,0,34475:0:0:0:0:
384,192,34001,128,0,34475:0:0:0:0:
213,192,34001,1,0,0:0:0:0:
298,192,34001,1,0,0:0:0:0:
42,192,34080,1,0,0:0:0:0:
469,192,34238,1,0,0:0:0:0:
298,192,34317,1,0,0:0:0:0:
213,192,34317,1,0,0:0:0:0:
42,192,34475,1,0,0:0:0:0:
469,192,34475,1,0,0:0:0:0:
298,192,34633,1,0,0:0:0:0:
213,192,34633,1,0,0:0:0:0:
128,192,34712,1,0,0:0:0:0:
42,192,34791,1,0,0:0:0:0:
213,192,34791,1,0,0:0:0:0:
469,192,34870,1,0,0:0:0:0:
298,192,34870,1,0,0:0:0:0:
128,192,34948,1,0,0:0:0:0:
384,192,35027,1,0,0:0:0:0:
42,192,35106,1,0,0:0:0:0:
469,192,35106,1,0,0:0:0:0:
128,192,35264,1,0,0:0:0:0:
42,192,35264,1,0,0:0:0:0:
384,192,35343,1,0,0:0:0:0:
298,192,35343,1,0,0:0:0:0:
128,192,35422,1,0,0:0:0:0:
213,192,35422,1,0,0:0:0:0:
469,192,35501,1,0,0:0:0:0:
384,192,35501,1,0,0:0:0:0:
42,192,35580,1,0,0:0:0:0:
128,192,35580,1,0,0:0:0:0:
298,192,35659,1,0,0:0:0:0:
213,192,35659,1,0,0:0:0:0:
42,192,35738,128,0,36054:0:0:0:0:
128,192,35738,128,0,36054:0:0:0:0:
384,192,36054,128,0,36370:0:0:0:0:
469,192,36054,128,0,36370:0:0:0:0:
128,192,36370,128,0,36685:0:0:0:0:
213,192,36370,128,0,36685:0:0:0:0:
298,192,36685,128,0,37001:0:0:0:0:
384,192,36685,128,0,37001:0:0:0:0:
213,192,37001,1,0,0:0:0:0:
42,192,37001,128,0,37159:0:0:0:0:
298,192,37159,1,0,0:0:0:0:
128,192,37159,128,0,37317:0:0:0:0:
213,192,37317,1,0,0:0:0:0:
469,192,37317,1,0,0:0:0:0:
384,192,37317,1,0,0:0:0:0:
298,192,37475,1,0,0:0:0:0:
128,192,37633,1,0,0:0:0:0:
128,192,37791,1,0,0:0:0:0:
298,192,37948,128,0,38106:0:0:0:0:
42,192,37948,1,0,0:0:0:0:
213,192,37948,1,0,0:0:0:0:
469,192,37948,1,0,0:0:0:0:
384,192,38106,128,0,38264:0:0:0:0:
128,192,38106,1,0,0:0:0:0:
469,192,38264,128,0,38422:0:0:0:0:
213,192,38264,1,0,0:0:0:0:
384,192,38422,128,0,38580:0:0:0:0:
128,192,38422,1,0,0:0:0:0:
42,192,38580,1,0,0:0:0:0:
298,192,38580,1,0,0:0:0:0:
469,192,38580,1,0,0:0:0:0:
213,192,38738,1,0,0:0:0:0:
384,192,38896,1,0,0:0:0:0:
384,192,39054,1,0,0:0:0:0:
42,192,39212,128,0,39370:0:0:0:0:
298,192,39212,1,0,0:0:0:0:
469,192,39212,1,0,0:0:0:0:
213,192,39212,1,0,0:0:0:0:
469,192,39370,128,0,39527:0:0:0:0:
128,192,39370,1,0,0:0:0:0:
213,192,39527,128,0,39685:0:0:0:0:
384,192,39527,1,0,0:0:0:0:
298,192,39685,128,0,39843:0:0:0:0:
128,192,39685,1,0,0:0:0:0:
42,192,39843,1,0,0:0:0:0:
384,192,39843,1,0,0:0:0:0:
469,192,39843,1,0,0:0:0:0:
213,192,40001,1,0,0:0:0:0:
298,192,40159,1,0,0:0:0:0:
298,192,40317,1,0,0:0:0:0:
128,192,40396,1,0,0:0:0:0:
213,192,40475,128,0,40633:0:0:0:0:
42,192,40475,1,0,0:0:0:0:
469,192,40475,1,0,0:0:0:0:
384,192,40475,1,0,0:0:0:0:
128,192,40633,128,0,40791:0:0:0:0:
298,192,40633,1,0,0:0:0:0:
42,192,40791,128,0,41106:0:0:0:0:
213,192,40791,128,0,41106:0:0:0:0:
469,192,40791,1,0,0:0:0:0:
469,192,40948,1,0,0:0:0:0:
128,192,41106,128,0,41422:0:0:0:0:
384,192,41106,128,0,41422:0:0:0:0:
298,192,41106,1,0,0:0:0:0:
469,192,41106,1,0,0:0:0:0:
298,192,41422,128,0,41738:0:0:0:0:
469,192,41422,128,0,41738:0:0:0:0:
42,192,41422,1,0,0:0:0:0:
42,192,41580,1,0,0:0:0:0:
128,192,41738,128,0,42054:0:0:0:0:
384,192,41738,128,0,42054:0:0:0:0:
42,192,41738,1,0,0:0:0:0:
213,192,41738,1,0,0:0:0:0:
298,192,42054,128,0,42212:0:0:0:0:
42,192,42054,1,0,0:0:0:0:
469,192,42212,128,0,42370:0:0:0:0:
128,192,42212,1,0,0:0:0:0:
42,192,42370,1,0,0:0:0:0:
384,192,42370,1,0,0:0:0:0:
213,192,42370,1,0,0:0:0:0:
298,192,42527,1,0,0:0:0:0:
128,192,42685,1,0,0:0:0:0:
128,192,42843,1,0,0:0:0:0:
213,192,43001,128,0,43159:0:0:0:0:
469,192,43001,1,0,0:0:0:0:
42,192,43001,1,0,0:0:0:0:
298,192,43001,1,0,0:0:0:0:
128,192,43159,128,0,43317:0:0:0:0:
384,192,43159,1,0,0:0:0:0:
42,192,43317,128,0,43475:0:0:0:0:
298,192,43317,1,0,0:0:0:0:
128,192,43475,128,0,43633:0:0:0:0:
384,192,43475,1,0,0:0:0:0:
213,192,43633,1,0,0:0:0:0:
298,192,43633,1,0,0:0:0:0:
469,192,43633,1,0,0:0:0:0:
384,192,43791,1,0,0:0:0:0:
298,192,43948,1,0,0:0:0:0:
298,192,44106,1,0,0:0:0:0:
42,192,44264,128,0,44422:0:0:0:0:
469,192,44264,1,0,0:0:0:0:
213,192,44264,1,0,0:0:0:0:
128,192,44264,1,0,0:0:0:0:
469,192,44422,128,0,44580:0:0:0:0:
298,192,44422,1,0,0:0:0:0:
384,192,44580,128,0,44738:0:0:0:0:
213,192,44580,1,0,0:0:0:0:
298,192,44738,128,0,44896:0:0:0:0:
128,192,44738,1,0,0:0:0:0:
42,192,44896,1,0,0:0:0:0:
384,192,44896,1,0,0:0:0:0:
469,192,44896,1,0,0:0:0:0:
128,192,45054,1,0,0:0:0:0:
213,192,45212,1,0,0:0:0:0:
213,192,45370,1,0,0:0:0:0:
42,192,45527,1,0,0:0:0:0:
298,192,45527,1,0,0:0:0:0:
384,192,45527,128,0,45685:0:0:0:0:
128,192,45527,1,0,0:0:0:0:
213,192,45685,1,0,0:0:0:0:
469,192,45685,128,0,45843:0:0:0:0:
128,192,45843,1,0,0:0:0:0:
384,192,45843,1,0,0:0:0:0:
42,192,45843,128,0,45922:0:0:0:0:
298,192,45922,1,0,0:0:0:0:
213,192,45922,128,0,46001:0:0:0:0:
469,192,46001,1,0,0:0:0:0:
384,192,46001,1,0,0:0:0:0:
42,192,46001,128,0,46080:0:0:0:0:
128,192,46080,1,0,0:0:0:0:
213,192,46080,128,0,46159:0:0:0:0:
469,192,46159,1,0,0:0:0:0:
384,192,46159,1,0,0:0:0:0:
42,192,46159,128,0,46238:0:0:0:0:
298,192,46238,1,0,0:0:0:0:
213,192,46238,128,0,46317:0:0:0:0:
469,192,46317,1,0,0:0:0:0:
128,192,46317,1,0,0:0:0:0:
42,192,46317,128,0,46396:0:0:0:0:
298,192,46396,1,0,0:0:0:0:
384,192,46396,128,0,46475:0:0:0:0:
42,192,46475,1,0,0:0:0:0:
213,192,46475,1,0,0:0:0:0:
128,192,46475,128,0,46554:0:0:0:0:
298,192,46554,1,0,0:0:0:0:
384,192,46554,1,0,0:0:0:0:
469,192,46554,128,0,46633:0:0:0:0:
128,192,46633,1,0,0:0:0:0:
213,192,46633,1,0,0:0:0:0:
42,192,46633,128,0,46712:0:0:0:0:
298,192,46712,1,0,0:0:0:0:
384,192,46712,1,0,0:0:0:0:
469,192,46712,128,0,46791:0:0:0:0:
128,192,46791,1,0,0:0:0:0:
213,192,46791,1,0,0:0:0:0:
42,192,46791,128,0,46870:0:0:0:0:
298,192,46870,1,0,0:0:0:0:
384,192,46870,1,0,0:0:0:0:
469,192,46870,128,0,46948:0:0:0:0:
128,192,46948,1,0,0:0:0:0:
213,192,46948,1,0,0:0:0:0:
42,192,46948,128,0,47027:0:0:0:0:
384,192,47027,1,0,0:0:0:0:
298,192,47027,1,0,0:0:0:0:
469,192,47027,128,0,47106:0:0:0:0:
42,192,47106,1,0,0:0:0:0:
213,192,47106,1,0,0:0:0:0:
42,192,47264,1,0,0:0:0:0:
469,192,47264,1,0,0:0:0:0:
384,192,47264,1,0,0:0:0:0:
298,192,47343,1,0,0:0:0:0:
128,192,47343,1,0,0:0:0:0:
42,192,47422,1,0,0:0:0:0:
298,192,47501,1,0,0:0:0:0:
384,192,47501,1,0,0:0:0:0:
42,192,47580,1,0,0:0:0:0:
469,192,47580,1,0,0:0:0:0:
213,192,47580,1,0,0:0:0:0:
298,192,47659,1,0,0:0:0:0:
128,192,47738,1,0,0:0:0:0:
42,192,47738,1,0,0:0:0:0:
384,192,47738,1,0,0:0:0:0:
128,192,47896,1,0,0:0:0:0:
469,192,47896,1,0,0:0:0:0:
42,192,47896,1,0,0:0:0:0:
384,192,47975,1,0,0:0:0:0:
298,192,47975,1,0,0:0:0:0:
128,192,48054,1,0,0:0:0:0:
384,192,48133,1,0,0:0:0:0:
213,192,48133,1,0,0:0:0:0:
128,192,48212,1,0,0:0:0:0:
469,192,48212,1,0,0:0:0:0:
42,192,48212,1,0,0:0:0:0:
384,192,48291,1,0,0:0:0:0:
128,192,48370,1,0,0:0:0:0:
469,192,48370,1,0,0:0:0:0:
213,192,48370,1,0,0:0:0:0:
213,192,48527,1,0,0:0:0:0:
42,192,48527,1,0,0:0:0:0:
384,192,48527,1,0,0:0:0:0:
469,192,48606,1,0,0:0:0:0:
298,192,48606,1,0,0:0:0:0:
213,192,48685,1,0,0:0:0:0:
469,192,48764,1,0,0:0:0:0:
298,192,48764,1,0,0:0:0:0:
213,192,48843,1,0,0:0:0:0:
42,192,48843,1,0,0:0:0:0:
384,192,48843,1,0,0:0:0:0:
469,192,48922,1,0,0:0:0:0:
213,192,49001,1,0,0:0:0:0:
42,192,49001,1,0,0:0:0:0:
128,192,49001,128,0,49159:0:0:0:0:
384,192,49001,128,0,49159:0:0:0:0:
42,192,49159,128,0,49633:0:0:0:0:
469,192,49159,128,0,49633:0:0:0:0:
213,192,49159,1,0,0:0:0:0:
128,192,49238,1,0,0:0:0:0:
384,192,49238,1,0,0:0:0:0:
298,192,49396,1,0,0:0:0:0:
128,192,49475,1,0,0:0:0:0:
384,192,49475,1,0,0:0:0:0:
213,192,49633,1,0,0:0:0:0:
298,192,49633,1,0,0:0:0:0:
42,192,49791,1,0,0:0:0:0:
384,192,49791,1,0,0:0:0:0:
128,192,49791,1,0,0:0:0:0:
213,192,49870,1,0,0:0:0:0:
469,192,49870,1,0,0:0:0:0:
42,192,49948,1,0,0:0:0:0:
213,192,50027,1,0,0:0:0:0:
469,192,50027,1,0,0:0:0:0:
42,192,50106,1,0,0:0:0:0:
384,192,50106,1,0,0:0:0:0:
298,192,50106,1,0,0:0:0:0:
213,192,50185,1,0,0:0:0:0:
42,192,50264,1,0,0:0:0:0:
298,192,50264,1,0,0:0:0:0:
469,192,50264,1,0,0:0:0:0:
469,192,50422,1,0,0:0:0:0:
128,192,50422,1,0,0:0:0:0:
42,192,50422,1,0,0:0:0:0:
298,192,50501,1,0,0:0:0:0:
213,192,50501,1,0,0:0:0:0:
469,192,50580,1,0,0:0:0:0:
298,192,50659,1,0,0:0:0:0:
42,192,50659,1,0,0:0:0:0:
469,192,50738,1,0,0:0:0:0:
128,192,50738,1,0,0:0:0:0:
213,192,50738,1,0,0:0:0:0:
298,192,50817,1,0,0:0:0:0:
469,192,50896,1,0,0:0:0:0:
42,192,50896,1,0,0:0:0:0:
213,192,50896,1,0,0:0:0:0:
128,192,50896,128,0,51527:0:0:0:0:
42,192,51054,1,0,0:0:0:0:
469,192,51054,1,0,0:0:0:0:
298,192,51133,1,0,0:0:0:0:
213,192,51291,1,0,0:0:0:0:
42,192,51370,1,0,0:0:0:0:
469,192,51370,1,0,0:0:0:0:
384,192,51527,128,0,52159:0:0:0:0:
42,192,51527,1,0,0:0:0:0:
298,192,51527,1,0,0:0:0:0:
469,192,51527,1,0,0:0:0:0:
42,192,51685,1,0,0:0:0:0:
469,192,51685,1,0,0:0:0:0:
213,192,51764,1,0,0:0:0:0:
298,192,51922,1,0,0:0:0:0:
469,192,52001,1,0,0:0:0:0:
42,192,52001,1,0,0:0:0:0:
298,192,52159,1,0,0:0:0:0:
213,192,52159,1,0,0:0:0:0:
42,192,52317,1,0,0:0:0:0:
469,192,52317,1,0,0:0:0:0:
128,192,52317,1,0,0:0:0:0:
298,192,52396,1,0,0:0:0:0:
384,192,52396,1,0,0:0:0:0:
128,192,52475,1,0,0:0:0:0:
384,192,52554,1,0,0:0:0:0:
213,192,52554,1,0,0:0:0:0:
128,192,52633,1,0,0:0:0:0:
469,192,52633,1,0,0:0:0:0:
42,192,52633,1,0,0:0:0:0:
298,192,52712,1,0,0:0:0:0:
42,192,52791,1,0,0:0:0:0:
213,192,52791,1,0,0:0:0:0:
384,192,52791,1,0,0:0:0:0:
469,192,52948,1,0,0:0:0:0:
42,192,52948,1,0,0:0:0:0:
298,192,52948,1,0,0:0:0:0:
213,192,53027,1,0,0:0:0:0:
128,192,53027,1,0,0:0:0:0:
384,192,53106,1,0,0:0:0:0:
128,192,53185,1,0,0:0:0:0:
298,192,53185,1,0,0:0:0:0:
384,192,53264,1,0,0:0:0:0:
42,192,53264,1,0,0:0:0:0:
469,192,53264,1,0,0:0:0:0:
213,192,53343,1,0,0:0:0:0:
469,192,53422,1,0,0:0:0:0:
298,192,53422,1,0,0:0:0:0:
128,192,53422,1,0,0:0:0:0:
128,192,53580,1,0,0:0:0:0:
213,192,53580,1,0,0:0:0:0:
469,192,53580,1,0,0:0:0:0:
298,192,53659,1,0,0:0:0:0:
384,192,53659,1,0,0:0:0:0:
42,192,53738,1,0,0:0:0:0:
384,192,53817,1,0,0:0:0:0:
298,192,53817,1,0,0:0:0:0:
128,192,53896,1,0,0:0:0:0:
213,192,53896,1,0,0:0:0:0:
469,192,53896,1,0,0:0:0:0:
298,192,53975,1,0,0:0:0:0:
128,192,54054,128,0,54212:0:0:0:0:
384,192,54054,128,0,54212:0:0:0:0:
469,192,54054,1,0,0:0:0:0:
42,192,54054,1,0,0:0:0:0:
42,192,54212,128,0,54685:0:0:0:0:
469,192,54212,128,0,54685:0:0:0:0:
298,192,54212,1,0,0:0:0:0:
128,192,54291,1,0,0:0:0:0:
384,192,54291,1,0,0:0:0:0:
213,192,54448,1,0,0:0:0:0:
128,192,54527,1,0,0:0:0:0:
384,192,54527,1,0,0:0:0:0:
213,192,54685,1,0,0:0:0:0:
298,192,54685,1,0,0:0:0:0:
42,192,54764,1,0,0:0:0:0:
469,192,54764,1,0,0:0:0:0:
213,192,54843,1,0,0:0:0:0:
298,192,54843,1,0,0:0:0:0:
128,192,55001,1,0,0:0:0:0:
384,192,55001,1,0,0:0:0:0:
42,192,55159,1,0,0:0:0:0:
469,192,55159,1,0,0:0:0:0:
213,192,55238,1,0,0:0:0:0:
298,192,55238,1,0,0:0:0:0:
469,192,55317,1,0,0:0:0:0:
42,192,55317,1,0,0:0:0:0:
298,192,55475,1,0,0:0:0:0:
213,192,55475,1,0,0:0:0:0:
128,192,55633,1,0,0:0:0:0:
384,192,55633,1,0,0:0:0:0:
213,192,55712,1,0,0:0:0:0:
298,192,55712,1,0,0:0:0:0:
42,192,55791,1,0,0:0:0:0:
469,192,55791,1,0,0:0:0:0:
213,192,55870,1,0,0:0:0:0:
298,192,55870,1,0,0:0:0:0:
42,192,55948,128,0,56580:0:0:0:0:
128,192,55948,1,0,0:0:0:0:
469,192,55948,1,0,0:0:0:0:
298,192,56027,1,0,0:0:0:0:
128,192,56106,1,0,0:0:0:0:
469,192,56106,1,0,0:0:0:0:
298,192,56185,1,0,0:0:0:0:
128,192,56264,1,0,0:0:0:0:
469,192,56264,1,0,0:0:0:0:
298,192,56343,1,0,0:0:0:0:
128,192,56422,1,0,0:0:0:0:
469,192,56422,1,0,0:0:0:0:
298,192,56501,1,0,0:0:0:0:
469,192,56580,128,0,56738:0:0:0:0:
384,192,56580,1,0,0:0:0:0:
213,192,56580,1,0,0:0:0:0:
384,192,56738,128,0,56896:0:0:0:0:
128,192,56738,1,0,0:0:0:0:
298,192,56738,1,0,0:0:0:0:
298,192,56896,128,0,57054:0:0:0:0:
42,192,56896,1,0,0:0:0:0:
213,192,56896,1,0,0:0:0:0:
213,192,57054,128,0,57212:0:0:0:0:
42,192,57054,1,0,0:0:0:0:
128,192,57054,1,0,0:0:0:0:
469,192,57212,128,0,57370:0:0:0:0:
298,192,57212,1,0,0:0:0:0:
384,192,57370,128,0,57527:0:0:0:0:
213,192,57370,1,0,0:0:0:0:
42,192,57527,1,0,0:0:0:0:
298,192,57527,1,0,0:0:0:0:
128,192,57527,1,0,0:0:0:0:
213,192,57685,1,0,0:0:0:0:
384,192,57843,1,0,0:0:0:0:
384,192,58001,1,0,0:0:0:0:
298,192,58159,1,0,0:0:0:0:
469,192,58159,1,0,0:0:0:0:
213,192,58159,128,0,58317:0:0:0:0:
42,192,58159,1,0,0:0:0:0:
384,192,58317,1,0,0:0:0:0:
128,192,58317,128,0,58475:0:0:0:0:
298,192,58475,1,0,0:0:0:0:
42,192,58475,128,0,58633:0:0:0:0:
384,192,58633,1,0,0:0:0:0:
128,192,58633,128,0,58791:0:0:0:0:
213,192,58791,1,0,0:0:0:0:
469,192,58791,1,0,0:0:0:0:
298,192,58791,1,0,0:0:0:0:
384,192,58948,1,0,0:0:0:0:
128,192,59106,1,0,0:0:0:0:
128,192,59264,1,0,0:0:0:0:
42,192,59422,1,0,0:0:0:0:
213,192,59422,1,0,0:0:0:0:
469,192,59422,128,0,59580:0:0:0:0:
298,192,59422,1,0,0:0:0:0:
384,192,59580,1,0,0:0:0:0:
42,192,59580,128,0,59738:0:0:0:0:
128,192,59738,1,0,0:0:0:0:
298,192,59738,128,0,59896:0:0:0:0:
384,192,59896,1,0,0:0:0:0:
213,192,59896,128,0,60054:0:0:0:0:
128,192,60054,1,0,0:0:0:0:
469,192,60054,1,0,0:0:0:0:
42,192,60054,1,0,0:0:0:0:
298,192,60212,1,0,0:0:0:0:
213,192,60370,1,0,0:0:0:0:
213,192,60527,1,0,0:0:0:0:
128,192,60685,1,0,0:0:0:0:
298,192,60685,128,0,60843:0:0:0:0:
469,192,60685,1,0,0:0:0:0:
42,192,60685,1,0,0:0:0:0:
384,192,60843,128,0,61001:0:0:0:0:
213,192,60843,1,0,0:0:0:0:
42,192,61001,1,0,0:0:0:0:
298,192,61001,128,0,61317:0:0:0:0:
469,192,61001,128,0,61317:0:0:0:0:
42,192,61159,1,0,0:0:0:0:
384,192,61317,128,0,61633:0:0:0:0:
128,192,61317,128,0,61633:0:0:0:0:
42,192,61317,1,0,0:0:0:0:
213,192,61317,1,0,0:0:0:0:
42,192,61633,128,0,61948:0:0:0:0:
213,192,61633,128,0,61948:0:0:0:0:
469,192,61633,1,0,0:0:0:0:
469,192,61791,1,0,0:0:0:0:
469,192,61948,1,0,0:0:0:0:
298,192,61948,1,0,0:0:0:0:
384,192,61948,128,0,62264:0:0:0:0:
128,192,61948,128,0,62264:0:0:0:0:
469,192,62264,1,0,0:0:0:0:
213,192,62264,128,0,62422:0:0:0:0:
384,192,62422,1,0,0:0:0:0:
42,192,62422,128,0,62580:0:0:0:0:
128,192,62580,1,0,0:0:0:0:
469,192,62580,1,0,0:0:0:0:
298,192,62580,1,0,0:0:0:0:
213,192,62738,1,0,0:0:0:0:
384,192,62896,1,0,0:0:0:0:
384,192,63054,1,0,0:0:0:0:
469,192,63212,1,0,0:0:0:0:
42,192,63212,1,0,0:0:0:0:
298,192,63212,128,0,63370:0:0:0:0:
213,192,63212,1,0,0:0:0:0:
384,192,63370,128,0,63527:0:0:0:0:
128,192,63370,1,0,0:0:0:0:
213,192,63527,1,0,0:0:0:0:
469,192,63527,128,0,63685:0:0:0:0:
128,192,63685,1,0,0:0:0:0:
384,192,63685,128,0,63843:0:0:0:0:
213,192,63843,1,0,0:0:0:0:
298,192,63843,1,0,0:0:0:0:
469,192,63843,1,0,0:0:0:0:
42,192,64001,1,0,0:0:0:0:
128,192,64159,1,0,0:0:0:0:
128,192,64317,1,0,0:0:0:0:
42,192,64475,1,0,0:0:0:0:
298,192,64475,1,0,0:0:0:0:
469,192,64475,128,0,64633:0:0:0:0:
384,192,64475,1,0,0:0:0:0:
42,192,64633,128,0,64791:0:0:0:0:
213,192,64633,1,0,0:0:0:0:
298,192,64791,1,0,0:0:0:0:
128,192,64791,128,0,64948:0:0:0:0:
469,192,64791,1,0,0:0:0:0:
213,192,64948,128,0,65106:0:0:0:0:
469,192,64948,1,0,0:0:0:0:
298,192,64948,1,0,0:0:0:0:
128,192,65106,1,0,0:0:0:0:
469,192,65106,1,0,0:0:0:0:
298,192,65185,1,0,0:0:0:0:
213,192,65185,1,0,0:0:0:0:
42,192,65264,1,0,0:0:0:0:
384,192,65264,1,0,0:0:0:0:
128,192,65422,1,0,0:0:0:0:
298,192,65422,1,0,0:0:0:0:
42,192,65580,1,0,0:0:0:0:
384,192,65580,1,0,0:0:0:0:
213,192,65659,1,0,0:0:0:0:
298,192,65659,1,0,0:0:0:0:
128,192,65738,1,0,0:0:0:0:
469,192,65738,1,0,0:0:0:0:
42,192,65896,1,0,0:0:0:0:
469,192,65896,1,0,0:0:0:0:
213,192,65975,1,0,0:0:0:0:
298,192,65975,1,0,0:0:0:0:
42,192,66054,1,0,0:0:0:0:
469,192,66054,1,0,0:0:0:0:
128,192,66133,1,0,0:0:0:0:
213,192,66133,1,0,0:0:0:0:
384,192,66212,1,0,0:0:0:0:
469,192,66212,1,0,0:0:0:0:
128,192,66291,1,0,0:0:0:0:
42,192,66291,1,0,0:0:0:0:
298,192,66370,1,0,0:0:0:0:
469,192,66370,1,0,0:0:0:0:
128,192,66448,1,0,0:0:0:0:
384,192,66448,1,0,0:0:0:0:
42,192,66527,1,0,0:0:0:0:
213,192,66527,1,0,0:0:0:0:
469,192,66606,1,0,0:0:0:0:
298,192,66606,1,0,0:0:0:0:
42,192,66685,1,0,0:0:0:0:
384,192,66685,1,0,0:0:0:0:
298,192,66764,1,0,0:0:0:0:
128,192,66764,1,0,0:0:0:0:
384,192,66843,1,0,0:0:0:0:
469,192,66843,1,0,0:0:0:0:
42,192,66922,1,0,0:0:0:0:
128,192,66922,1,0,0:0:0:0:
384,192,67001,1,0,0:0:0:0:
213,192,67001,1,0,0:0:0:0:
42,192,67080,1,0,0:0:0:0:
469,192,67080,1,0,0:0:0:0:
213,192,67159,1,0,0:0:0:0:
298,192,67159,1,0,0:0:0:0:
42,192,67238,1,0,0:0:0:0:
469,192,67238,1,0,0:0:0:0:
298,192,67317,1,0,0:0:0:0:
384,192,67317,128,0,68580:0:0:0:0:
213,192,67396,1,0,0:0:0:0:
469,192,67475,1,0,0:0:0:0:
42,192,67475,1,0,0:0:0:0:
213,192,67554,1,0,0:0:0:0:
42,192,67633,1,0,0:0:0:0:
298,192,67712,1,0,0:0:0:0:
42,192,67791,1,0,0:0:0:0:
469,192,67791,1,0,0:0:0:0:
128,192,67870,1,0,0:0:0:0:
213,192,67948,1,0,0:0:0:0:
298,192,68027,1,0,0:0:0:0:
42,192,68106,1,0,0:0:0:0:
469,192,68106,1,0,0:0:0:0:
128,192,68185,1,0,0:0:0:0:
213,192,68264,1,0,0:0:0:0:
298,192,68343,1,0,0:0:0:0:
469,192,68422,1,0,0:0:0:0:
42,192,68422,1,0,0:0:0:0:
298,192,68501,1,0,0:0:0:0:
469,192,68580,128,0,69843:0:0:0:0:
128,192,68580,1,0,0:0:0:0:
384,192,68659,1,0,0:0:0:0:
42,192,68738,1,0,0:0:0:0:
213,192,68738,1,0,0:0:0:0:
384,192,68817,1,0,0:0:0:0:
128,192,68896,1,0,0:0:0:0:
298,192,68975,1,0,0:0:0:0:
128,192,69054,1,0,0:0:0:0:
384,192,69054,1,0,0:0:0:0:
42,192,69133,1,0,0:0:0:0:
298,192,69212,1,0,0:0:0:0:
213,192,69291,1,0,0:0:0:0:
384,192,69370,1,0,0:0:0:0:
128,192,69370,1,0,0:0:0:0:
42,192,69448,1,0,0:0:0:0:
384,192,69527,1,0,0:0:0:0:
298,192,69606,1,0,0:0:0:0:
42,192,69685,1,0,0:0:0:0:
213,192,69685,1,0,0:0:0:0:
128,192,69764,1,0,0:0:0:0:
298,192,69843,128,0,71106:0:0:0:0:
213,192,69843,1,0,0:0:0:0:
128,192,69922,1,0,0:0:0:0:
42,192,70001,1,0,0:0:0:0:
384,192,70001,1,0,0:0:0:0:
469,192,70080,1,0,0:0:0:0:
213,192,70159,1,0,0:0:0:0:
42,192,70238,1,0,0:0:0:0:
469,192,70317,1,0,0:0:0:0:
128,192,70317,1,0,0:0:0:0:
384,192,70396,1,0,0:0:0:0:
213,192,70475,1,0,0:0:0:0:
42,192,70554,1,0,0:0:0:0:
469,192,70633,1,0,0:0:0:0:
213,192,70633,1,0,0:0:0:0:
128,192,70712,1,0,0:0:0:0:
384,192,70791,1,0,0:0:0:0:
42,192,70870,1,0,0:0:0:0:
469,192,70948,1,0,0:0:0:0:
213,192,70948,1,0,0:0:0:0:
128,192,71027,1,0,0:0:0:0:
42,192,71106,128,0,71738:0:0:0:0:
469,192,71106,1,0,0:0:0:0:
384,192,71185,1,0,0:0:0:0:
298,192,71264,1,0,0:0:0:0:
128,192,71264,1,0,0:0:0:0:
469,192,71343,1,0,0:0:0:0:
384,192,71422,1,0,0:0:0:0:
298,192,71501,1,0,0:0:0:0:
213,192,71580,1,0,0:0:0:0:
469,192,71580,1,0,0:0:0:0:
384,192,71659,1,0,0:0:0:0:
128,192,71738,128,0,72370:0:0:0:0:
213,192,71738,1,0,0:0:0:0:
298,192,71817,1,0,0:0:0:0:
469,192,71896,1,0,0:0:0:0:
42,192,71896,1,0,0:0:0:0:
213,192,71975,1,0,0:0:0:0:
298,192,72054,1,0,0:0:0:0:
384,192,72133,1,0,0:0:0:0:
469,192,72212,1,0,0:0:0:0:
42,192,72212,1,0,0:0:0:0:
298,192,72291,1,0,0:0:0:0:
213,192,72370,128,0,73633:0:0:0:0:
384,192,72370,1,0,0:0:0:0:
298,192,72448,1,0,0:0:0:0:
384,192,72527,1,0,0:0:0:0:
128,192,72527,1,0,0:0:0:0:
469,192,72606,1,0,0:0:0:0:
298,192,72685,1,0,0:0:0:0:
42,192,72764,1,0,0:0:0:0:
128,192,72843,1,0,0:0:0:0:
384,192,72843,1,0,0:0:0:0:
298,192,72922,1,0,0:0:0:0:
384,192,73001,1,0,0:0:0:0:
469,192,73080,1,0,0:0:0:0:
384,192,73159,1,0,0:0:0:0:
128,192,73159,1,0,0:0:0:0:
42,192,73238,1,0,0:0:0:0:
384,192,73317,1,0,0:0:0:0:
469,192,73396,1,0,0:0:0:0:
128,192,73475,1,0,0:0:0:0:
384,192,73475,1,0,0:0:0:0:
42,192,73554,1,0,0:0:0:0:
128,192,73633,128,0,74896:0:0:0:0:
384,192,73633,1,0,0:0:0:0:
298,192,73712,1,0,0:0:0:0:
42,192,73791,1,0,0:0:0:0:
469,192,73791,1,0,0:0:0:0:
298,192,73870,1,0,0:0:0:0:
384,192,73948,1,0,0:0:0:0:
213,192,74027,1,0,0:0:0:0:
42,192,74106,1,0,0:0:0:0:
469,192,74106,1,0,0:0:0:0:
384,192,74185,1,0,0:0:0:0:
213,192,74264,1,0,0:0:0:0:
298,192,74343,1,0,0:0:0:0:
42,192,74422,1,0,0:0:0:0:
384,192,74422,1,0,0:0:0:0:
469,192,74501,1,0,0:0:0:0:
213,192,74580,1,0,0:0:0:0:
469,192,74659,1,0,0:0:0:0:
42,192,74738,1,0,0:0:0:0:
384,192,74738,1,0,0:0:0:0:
298,192,74817,1,0,0:0:0:0:
469,192,74896,128,0,76001:0:0:0:0:
213,192,74896,1,0,0:0:0:0:
42,192,74896,1,0,0:0:0:0:
298,192,74975,1,0,0:0:0:0:
128,192,75054,1,0,0:0:0:0:
213,192,75133,1,0,0:0:0:0:
42,192,75212,1,0,0:0:0:0:
384,192,75212,1,0,0:0:0:0:
128,192,75291,1,0,0:0:0:0:
298,192,75291,1,0,0:0:0:0:
42,192,75370,1,0,0:0:0:0:
384,192,75370,1,0,0:0:0:0:
128,192,75527,1,0,0:0:0:0:
298,192,75527,1,0,0:0:0:0:
42,192,75685,1,0,0:0:0:0:
384,192,75685,1,0,0:0:0:0:
128,192,75764,1,0,0:0:0:0:
298,192,75764,1,0,0:0:0:0:
42,192,75843,1,0,0:0:0:0:
384,192,75843,1,0,0:0:0:0:
384,192,76001,1,0,0:0:0:0:
128,192,76001,1,0,0:0:0:0:
213,192,76080,1,0,0:0:0:0:
298,192,76080,1,0,0:0:0:0:
42,192,76159,128,0,76475:0:0:0:0:
128,192,76159,128,0,76475:0:0:0:0:
384,192,76159,1,0,0:0:0:0:
469,192,76159,1,0,0:0:0:0:
213,192,76238,1,0,0:0:0:0:
298,192,76238,1,0,0:0:0:0:
469,192,76317,1,0,0:0:0:0:
384,192,76317,1,0,0:0:0:0:
298,192,76396,1,0,0:0:0:0:
213,192,76396,1,0,0:0:0:0:
384,192,76475,1,0,0:0:0:0:
469,192,76475,1,0,0:0:0:0:
128,192,76633,1,0,0:0:0:0:
213,192,76633,1,0,0:0:0:0:
384,192,76633,1,0,0:0:0:0:
128,192,76791,128,0,77422:0:0:0:0:
213,192,76791,128,0,77422:0:0:0:0:
298,192,76791,1,0,0:0:0:0:
469,192,76791,1,0,0:0:0:0:
384,192,76948,1,0,0:0:0:0:
469,192,77106,1,0,0:0:0:0:
42,192,77106,1,0,0:0:0:0:
384,192,77264,1,0,0:0:0:0:
298,192,77422,1,0,0:0:0:0:
469,192,77422,128,0,77580:0:0:0:0:
42,192,77580,1,0,0:0:0:0:
384,192,77580,1,0,0:0:0:0:
298,192,77580,1,0,0:0:0:0:
128,192,77659,1,0,0:0:0:0:
213,192,77659,1,0,0:0:0:0:
469,192,77738,1,0,0:0:0:0:
298,192,77738,1,0,0:0:0:0:
42,192,77817,1,0,0:0:0:0:
384,192,77817,1,0,0:0:0:0:
213,192,77896,1,0,0:0:0:0:
469,192,77896,1,0,0:0:0:0:
128,192,77896,1,0,0:0:0:0:
298,192,77975,1,0,0:0:0:0:
384,192,77975,1,0,0:0:0:0:
42,192,78054,1,0,0:0:0:0:
213,192,78054,1,0,0:0:0:0:
298,192,78133,1,0,0:0:0:0:
384,192,78133,1,0,0:0:0:0:
42,192,78212,1,0,0:0:0:0:
469,192,78212,1,0,0:0:0:0:
128,192,78212,1,0,0:0:0:0:
213,192,78291,1,0,0:0:0:0:
298,192,78291,1,0,0:0:0:0:
42,192,78370,1,0,0:0:0:0:
469,192,78370,1,0,0:0:0:0:
128,192,78448,1,0,0:0:0:0:
384,192,78448,1,0,0:0:0:0:
42,192,78527,1,0,0:0:0:0:
213,192,78527,1,0,0:0:0:0:
298,192,78527,1,0,0:0:0:0:
384,192,78606,1,0,0:0:0:0:
42,192,78685,1,0,0:0:0:0:
469,192,78685,1,0,0:0:0:0:
42,192,78685,128,0,78843:0:0:0:0:
42,192,78685,128,0,78843:0:0:0:0:
128,192,78685,1,0,0:0:0:0:
213,192,78685,1,0,0:0:0:0:
469,192,78843,1,0,0:0:0:0:
213,192,78843,1,0,0:0:0:0:
128,192,78843,1,0,0:0:0:0:
384,192,78922,1,0,0:0:0:0:
298,192,78922,1,0,0:0:0:0:
42,192,79001,1,0,0:0:0:0:
213,192,79001,1,0,0:0:0:0:
384,192,79080,1,0,0:0:0:0:
128,192,79080,1,0,0:0:0:0:
298,192,79159,1,0,0:0:0:0:
42,192,79159,1,0,0:0:0:0:
469,192,79159,1,0,0:0:0:0:
213,192,79238,1,0,0:0:0:0:
384,192,79238,1,0,0:0:0:0:
128,192,79317,1,0,0:0:0:0:
469,192,79317,1,0,0:0:0:0:
213,192,79396,1,0,0:0:0:0:
298,192,79396,1,0,0:0:0:0:
469,192,79475,1,0,0:0:0:0:
42,192,79475,1,0,0:0:0:0:
384,192,79475,1,0,0:0:0:0:
298,192,79554,1,0,0:0:0:0:
213,192,79554,1,0,0:0:0:0:
469,192,79633,1,0,0:0:0:0:
42,192,79633,1,0,0:0:0:0:
384,192,79712,1,0,0:0:0:0:
128,192,79712,1,0,0:0:0:0:
469,192,79791,1,0,0:0:0:0:
298,192,79791,1,0,0:0:0:0:
213,192,79791,1,0,0:0:0:0:
128,192,79870,1,0,0:0:0:0:
298,192,79948,1,0,0:0:0:0:
42,192,79948,1,0,0:0:0:0:
469,192,79948,128,0,80106:0:0:0:0:
384,192,79948,1,0,0:0:0:0:
42,192,80106,1,0,0:0:0:0:
298,192,80106,1,0,0:0:0:0:
213,192,80106,1,0,0:0:0:0:
128,192,80185,1,0,0:0:0:0:
384,192,80185,1,0,0:0:0:0:
42,192,80264,1,0,0:0:0:0:
469,192,80264,1,0,0:0:0:0:
213,192,80343,1,0,0:0:0:0:
298,192,80343,1,0,0:0:0:0:
42,192,80422,1,0,0:0:0:0:
384,192,80422,1,0,0:0:0:0:
469,192,80422,1,0,0:0:0:0:
128,192,80501,1,0,0:0:0:0:
298,192,80501,1,0,0:0:0:0:
213,192,80580,1,0,0:0:0:0:
384,192,80580,1,0,0:0:0:0:
42,192,80659,1,0,0:0:0:0:
298,192,80659,1,0,0:0:0:0:
469,192,80738,1,0,0:0:0:0:
128,192,80738,1,0,0:0:0:0:
384,192,80738,1,0,0:0:0:0:
298,192,80817,1,0,0:0:0:0:
42,192,80817,1,0,0:0:0:0:
469,192,80896,1,0,0:0:0:0:
213,192,80896,1,0,0:0:0:0:
384,192,80975,1,0,0:0:0:0:
128,192,80975,1,0,0:0:0:0:
42,192,81054,1,0,0:0:0:0:
469,192,81054,1,0,0:0:0:0:
213,192,81054,1,0,0:0:0:0:
384,192,81133,1,0,0:0:0:0:
128,192,81133,1,0,0:0:0:0:
213,192,81212,128,0,81370:0:0:0:0:
298,192,81212,128,0,81370:0:0:0:0:
469,192,81212,1,0,0:0:0:0:
42,192,81212,1,0,0:0:0:0:
128,192,81370,1,0,0:0:0:0:
384,192,81370,1,0,0:0:0:0:
469,192,81448,1,0,0:0:0:0:
42,192,81448,1,0,0:0:0:0:
213,192,81527,1,0,0:0:0:0:
128,192,81527,1,0,0:0:0:0:
298,192,81606,1,0,0:0:0:0:
384,192,81606,1,0,0:0:0:0:
42,192,81685,1,0,0:0:0:0:
469,192,81685,1,0,0:0:0:0:
298,192,81764,1,0,0:0:0:0:
213,192,81764,1,0,0:0:0:0:
128,192,81843,128,0,82001:0:0:0:0:
384,192,81843,128,0,82001:0:0:0:0:
42,192,81843,1,0,0:0:0:0:
469,192,81843,1,0,0:0:0:0:
213,192,82001,1,0,0:0:0:0:
298,192,82001,1,0,0:0:0:0:
42,192,82080,1,0,0:0:0:0:
469,192,82080,1,0,0:0:0:0:
213,192,82159,1,0,0:0:0:0:
298,192,82159,1,0,0:0:0:0:
42,192,82238,1,0,0:0:0:0:
469,192,82238,1,0,0:0:0:0:
384,192,82317,1,0,0:0:0:0:
128,192,82317,1,0,0:0:0:0:
213,192,82396,1,0,0:0:0:0:
298,192,82396,1,0,0:0:0:0:
42,192,82475,128,0,82633:0:0:0:0:
128,192,82475,1,0,0:0:0:0:
384,192,82475,1,0,0:0:0:0:
469,192,82475,1,0,0:0:0:0:
128,192,82633,1,0,0:0:0:0:
213,192,82633,1,0,0:0:0:0:
384,192,82712,1,0,0:0:0:0:
298,192,82712,1,0,0:0:0:0:
42,192,82791,1,0,0:0:0:0:
469,192,82791,1,0,0:0:0:0:
128,192,82870,1,0,0:0:0:0:
298,192,82870,1,0,0:0:0:0:
213,192,82948,1,0,0:0:0:0:
384,192,82948,1,0,0:0:0:0:
469,192,82948,1,0,0:0:0:0:
42,192,83027,1,0,0:0:0:0:
298,192,83027,1,0,0:0:0:0:
128,192,83106,1,0,0:0:0:0:
469,192,83106,1,0,0:0:0:0:
213,192,83185,1,0,0:0:0:0:
384,192,83185,1,0,0:0:0:0:
42,192,83264,1,0,0:0:0:0:
298,192,83264,1,0,0:0:0:0:
469,192,83264,1,0,0:0:0:0:
213,192,83343,1,0,0:0:0:0:
128,192,83343,1,0,0:0:0:0:
298,192,83422,1,0,0:0:0:0:
384,192,83422,1,0,0:0:0:0:
42,192,83501,1,0,0:0:0:0:
469,192,83501,1,0,0:0:0:0:
213,192,83580,1,0,0:0:0:0:
298,192,83580,1,0,0:0:0:0:
128,192,83580,1,0,0:0:0:0:
384,192,83659,1,0,0:0:0:0:
42,192,83659,1,0,0:0:0:0:
128,192,83738,1,0,0:0:0:0:
213,192,83738,1,0,0:0:0:0:
469,192,83738,128,0,83896:0:0:0:0:
298,192,83738,1,0,0:0:0:0:
384,192,83896,1,0,0:0:0:0:
213,192,83896,1,0,0:0:0:0:
128,192,83975,1,0,0:0:0:0:
298,192,83975,1,0,0:0:0:0:
42,192,84054,1,0,0:0:0:0:
469,192,84054,1,0,0:0:0:0:
298,192,84133,1,0,0:0:0:0:
384,192,84133,1,0,0:0:0:0:
469,192,84212,1,0,0:0:0:0:
42,192,84212,1,0,0:0:0:0:
128,192,84212,1,0,0:0:0:0:
384,192,84291,1,0,0:0:0:0:
213,192,84291,1,0,0:0:0:0:
42,192,84370,1,0,0:0:0:0:
298,192,84370,1,0,0:0:0:0:
469,192,84448,1,0,0:0:0:0:
213,192,84448,1,0,0:0:0:0:
128,192,84527,1,0,0:0:0:0:
384,192,84527,1,0,0:0:0:0:
298,192,84527,1,0,0:0:0:0:
42,192,84606,1,0,0:0:0:0:
213,192,84606,1,0,0:0:0:0:
469,192,84685,1,0,0:0:0:0:
298,192,84685,1,0,0:0:0:0:
128,192,84764,1,0,0:0:0:0:
213,192,84764,1,0,0:0:0:0:
42,192,84843,1,0,0:0:0:0:
469,192,84843,1,0,0:0:0:0:
384,192,84843,1,0,0:0:0:0:
128,192,84922,1,0,0:0:0:0:
298,192,84922,1,0,0:0:0:0:
469,192,85001,128,0,85317:0:0:0:0:
213,192,85001,1,0,0:0:0:0:
384,192,85080,1,0,0:0:0:0:
128,192,85159,1,0,0:0:0:0:
298,192,85238,1,0,0:0:0:0:
384,192,85317,128,0,85475:0:0:0:0:
42,192,85317,1,0,0:0:0:0:
213,192,85396,1,0,0:0:0:0:
298,192,85475,128,0,85633:0:0:0:0:
42,192,85475,1,0,0:0:0:0:
213,192,85554,1,0,0:0:0:0:
384,192,85633,128,0,85870:0:0:0:0:
42,192,85633,1,0,0:0:0:0:
128,192,85712,1,0,0:0:0:0:
213,192,85791,1,0,0:0:0:0:
42,192,85870,1,0,0:0:0:0:
298,192,85870,128,0,86106:0:0:0:0:
213,192,85948,1,0,0:0:0:0:
42,192,86027,1,0,0:0:0:0:
213,192,86106,128,0,86264:0:0:0:0:
469,192,86106,1,0,0:0:0:0:
384,192,86185,1,0,0:0:0:0:
42,192,86264,128,0,86422:0:0:0:0:
128,192,86264,1,0,0:0:0:0:
298,192,86264,1,0,0:0:0:0:
128,192,86422,128,0,86580:0:0:0:0:
213,192,86422,1,0,0:0:0:0:
384,192,86422,1,0,0:0:0:0:
213,192,86580,128,0,86738:0:0:0:0:
298,192,86580,1,0,0:0:0:0:
469,192,86580,1,0,0:0:0:0:
298,192,86738,128,0,86896:0:0:0:0:
384,192,86738,1,0,0:0:0:0:
469,192,86738,1,0,0:0:0:0:
42,192,86896,128,0,87054:0:0:0:0:
128,192,86896,1,0,0:0:0:0:
213,192,86896,1,0,0:0:0:0:
128,192,87054,128,0,87212:0:0:0:0:
213,192,87054,1,0,0:0:0:0:
298,192,87054,1,0,0:0:0:0:
213,192,87212,128,0,87370:0:0:0:0:
298,192,87212,1,0,0:0:0:0:
384,192,87212,1,0,0:0:0:0:
298,192,87370,128,0,87527:0:0:0:0:
469,192,87370,1,0,0:0:0:0:
42,192,87370,1,0,0:0:0:0:
42,192,87527,128,0,90054:0:0:0:0:
213,192,87527,128,0,90054:0:0:0:0:
128,192,87685,1,0,0:0:0:0:
384,192,87685,1,0,0:0:0:0:
298,192,88001,1,0,0:0:0:0:
469,192,88001,1,0,0:0:0:0:
128,192,88317,1,0,0:0:0:0:
384,192,88317,1,0,0:0:0:0:
298,192,88475,1,0,0:0:0:0:
469,192,88475,1,0,0:0:0:0:
298,192,88633,1,0,0:0:0:0:
469,192,88633,1,0,0:0:0:0:
298,192,88791,128,0,89264:0:0:0:0:
469,192,88791,128,0,89264:0:0:0:0:
128,192,88948,1,0,0:0:0:0:
384,192,88948,1,0,0:0:0:0:
128,192,89264,128,0,89738:0:0:0:0:
384,192,89264,128,0,89738:0:0:0:0:
298,192,89580,1,0,0:0:0:0:
469,192,89580,1,0,0:0:0:0:
298,192,89738,128,0,90054:0:0:0:0:
469,192,89738,128,0,90054:0:0:0:0:
128,192,89896,1,0,0:0:0:0:
384,192,89896,1,0,0:0:0:0:
128,192,90054,128,0,91317:0:0:0:0:
384,192,90054,128,0,91317:0:0:0:0:
42,192,90212,1,0,0:0:0:0:
469,192,90212,1,0,0:0:0:0:
213,192,90370,1,0,0:0:0:0:
298,192,90448,1,0,0:0:0:0:
42,192,90527,1,0,0:0:0:0:
469,192,90527,1,0,0:0:0:0:
213,192,90685,1,0,0:0:0:0:
42,192,90843,1,0,0:0:0:0:
469,192,90843,1,0,0:0:0:0:
298,192,91001,1,0,0:0:0:0:
213,192,91080,1,0,0:0:0:0:
469,192,91159,1,0,0:0:0:0:
42,192,91159,1,0,0:0:0:0:
469,192,91317,128,0,92580:0:0:0:0:
298,192,91317,1,0,0:0:0:0:
42,192,91396,1,0,0:0:0:0:
128,192,91475,1,0,0:0:0:0:
213,192,91475,1,0,0:0:0:0:
384,192,91554,1,0,0:0:0:0:
42,192,91633,1,0,0:0:0:0:
298,192,91712,1,0,0:0:0:0:
384,192,91791,128,0,92580:0:0:0:0:
128,192,91791,1,0,0:0:0:0:
42,192,91791,1,0,0:0:0:0:
42,192,91948,1,0,0:0:0:0:
298,192,91948,1,0,0:0:0:0:
128,192,92027,1,0,0:0:0:0:
213,192,92106,1,0,0:0:0:0:
298,192,92264,128,0,92580:0:0:0:0:
42,192,92264,1,0,0:0:0:0:
213,192,92264,1,0,0:0:0:0:
128,192,92343,1,0,0:0:0:0:
213,192,92422,1,0,0:0:0:0:
42,192,92580,128,0,95106:0:0:0:0:
213,192,92580,128,0,95106:0:0:0:0:
298,192,92738,1,0,0:0:0:0:
469,192,92738,1,0,0:0:0:0:
128,192,93054,128,0,93527:0:0:0:0:
298,192,93054,128,0,93527:0:0:0:0:
384,192,93054,1,0,0:0:0:0:
469,192,93054,1,0,0:0:0:0:
384,192,93370,1,0,0:0:0:0:
469,192,93370,1,0,0:0:0:0:
384,192,93527,1,0,0:0:0:0:
469,192,93527,1,0,0:0:0:0:
298,192,93685,1,0,0:0:0:0:
469,192,93685,1,0,0:0:0:0:
298,192,93843,128,0,94317:0:0:0:0:
469,192,93843,128,0,94317:0:0:0:0:
128,192,94001,1,0,0:0:0:0:
384,192,94001,1,0,0:0:0:0:
128,192,94317,128,0,94791:0:0:0:0:
384,192,94317,128,0,94791:0:0:0:0:
298,192,94633,1,0,0:0:0:0:
469,192,94633,1,0,0:0:0:0:
298,192,94791,128,0,95106:0:0:0:0:
469,192,94791,128,0,95106:0:0:0:0:
128,192,94948,1,0,0:0:0:0:
384,192,94948,1,0,0:0:0:0:
128,192,95106,128,0,96370:0:0:0:0:
384,192,95106,1,0,0:0:0:0:
42,192,95264,1,0,0:0:0:0:
213,192,95264,1,0,0:0:0:0:
298,192,95422,1,0,0:0:0:0:
384,192,95501,1,0,0:0:0:0:
42,192,95580,1,0,0:0:0:0:
469,192,95580,1,0,0:0:0:0:
298,192,95738,1,0,0:0:0:0:
42,192,95896,1,0,0:0:0:0:
213,192,95896,1,0,0:0:0:0:
384,192,96054,1,0,0:0:0:0:
298,192,96133,1,0,0:0:0:0:
42,192,96212,1,0,0:0:0:0:
469,192,96212,1,0,0:0:0:0:
42,192,96370,1,0,0:0:0:0:
469,192,96370,1,0,0:0:0:0:
298,192,96448,1,0,0:0:0:0:
213,192,96448,1,0,0:0:0:0:
42,192,96527,1,0,0:0:0:0:
469,192,96527,1,0,0:0:0:0:
213,192,96606,1,0,0:0:0:0:
298,192,96606,1,0,0:0:0:0:
42,192,96685,1,0,0:0:0:0:
469,192,96685,1,0,0:0:0:0:
128,192,96764,1,0,0:0:0:0:
384,192,96764,1,0,0:0:0:0:
213,192,96843,1,0,0:0:0:0:
298,192,96843,1,0,0:0:0:0:
128,192,96922,1,0,0:0:0:0:
384,192,96922,1,0,0:0:0:0:
42,192,97001,1,0,0:0:0:0:
213,192,97001,1,0,0:0:0:0:
298,192,97080,1,0,0:0:0:0:
469,192,97080,1,0,0:0:0:0:
42,192,97159,1,0,0:0:0:0:
213,192,97159,1,0,0:0:0:0:
298,192,97238,1,0,0:0:0:0:
469,192,97238,1,0,0:0:0:0:
128,192,97317,1,0,0:0:0:0:
213,192,97317,1,0,0:0:0:0:
298,192,97396,1,0,0:0:0:0:
384,192,97396,1,0,0:0:0:0:
128,192,97475,1,0,0:0:0:0:
213,192,97475,1,0,0:0:0:0:
298,192,97554,1,0,0:0:0:0:
384,192,97554,1,0,0:0:0:0:
42,192,97633,1,0,0:0:0:0:
469,192,97633,1,0,0:0:0:0:
128,192,97791,1,0,0:0:0:0:
384,192,97791,1,0,0:0:0:0:
298,192,97870,1,0,0:0:0:0:
42,192,97948,1,0,0:0:0:0:
213,192,97948,1,0,0:0:0:0:
384,192,98027,1,0,0:0:0:0:
213,192,98106,1,0,0:0:0:0:
469,192,98106,1,0,0:0:0:0:
384,192,98185,1,0,0:0:0:0:
42,192,98264,1,0,0:0:0:0:
213,192,98264,1,0,0:0:0:0:
384,192,98343,1,0,0:0:0:0:
213,192,98422,1,0,0:0:0:0:
469,192,98422,1,0,0:0:0:0:
128,192,98501,1,0,0:0:0:0:
384,192,98580,1,0,0:0:0:0:
213,192,98580,1,0,0:0:0:0:
42,192,98659,1,0,0:0:0:0:
298,192,98738,1,0,0:0:0:0:
128,192,98738,1,0,0:0:0:0:
384,192,98817,1,0,0:0:0:0:
469,192,98896,1,0,0:0:0:0:
298,192,98896,1,0,0:0:0:0:
42,192,98896,1,0,0:0:0:0:
384,192,99054,1,0,0:0:0:0:
42,192,99054,1,0,0:0:0:0:
298,192,99133,1,0,0:0:0:0:
128,192,99212,1,0,0:0:0:0:
469,192,99212,1,0,0:0:0:0:
384,192,99291,1,0,0:0:0:0:
298,192,99370,1,0,0:0:0:0:
128,192,99370,1,0,0:0:0:0:
384,192,99448,1,0,0:0:0:0:
42,192,99527,1,0,0:0:0:0:
213,192,99527,1,0,0:0:0:0:
298,192,99606,1,0,0:0:0:0:
384,192,99685,1,0,0:0:0:0:
128,192,99685,1,0,0:0:0:0:
469,192,99764,1,0,0:0:0:0:
213,192,99843,1,0,0:0:0:0:
42,192,99843,1,0,0:0:0:0:
128,192,99922,1,0,0:0:0:0:
298,192,100001,1,0,0:0:0:0:
469,192,100001,1,0,0:0:0:0:
213,192,100080,1,0,0:0:0:0:
42,192,100159,1,0,0:0:0:0:
298,192,100159,1,0,0:0:0:0:
469,192,100159,1,0,0:0:0:0:
213,192,100317,1,0,0:0:0:0:
469,192,100317,1,0,0:0:0:0:
128,192,100396,1,0,0:0:0:0:
213,192,100475,1,0,0:0:0:0:
384,192,100475,1,0,0:0:0:0:
42,192,100554,1,0,0:0:0:0:
298,192,100633,1,0,0:0:0:0:
128,192,100633,1,0,0:0:0:0:
384,192,100712,1,0,0:0:0:0:
42,192,100791,1,0,0:0:0:0:
213,192,100791,1,0,0:0:0:0:
469,192,100870,1,0,0:0:0:0:
128,192,100948,1,0,0:0:0:0:
298,192,100948,1,0,0:0:0:0:
384,192,101027,1,0,0:0:0:0:
469,192,101106,1,0,0:0:0:0:
298,192,101106,1,0,0:0:0:0:
42,192,101185,1,0,0:0:0:0:
128,192,101264,1,0,0:0:0:0:
298,192,101264,1,0,0:0:0:0:
213,192,101343,1,0,0:0:0:0:
42,192,101422,128,0,101501:0:0:0:0:
469,192,101422,1,0,0:0:0:0:
213,192,101501,128,0,101580:0:0:0:0:
298,192,101501,1,0,0:0:0:0:
42,192,101580,128,0,101659:0:0:0:0:
469,192,101580,1,0,0:0:0:0:
213,192,101659,128,0,101738:0:0:0:0:
298,192,101659,1,0,0:0:0:0:
42,192,101738,128,0,101817:0:0:0:0:
469,192,101738,1,0,0:0:0:0:
213,192,101817,128,0,101896:0:0:0:0:
298,192,101817,1,0,0:0:0:0:
42,192,101896,128,0,101975:0:0:0:0:
469,192,101896,1,0,0:0:0:0:
213,192,101975,128,0,102054:0:0:0:0:
298,192,101975,1,0,0:0:0:0:
42,192,102054,1,0,0:0:0:0:
469,192,102054,1,0,0:0:0:0:
128,192,102133,1,0,0:0:0:0:
384,192,102133,1,0,0:0:0:0:
298,192,102212,1,0,0:0:0:0:
213,192,102212,1,0,0:0:0:0:
128,192,102291,1,0,0:0:0:0:
384,192,102291,1,0,0:0:0:0:
42,192,102370,1,0,0:0:0:0:
469,192,102370,1,0,0:0:0:0:
128,192,102448,1,0,0:0:0:0:
384,192,102448,1,0,0:0:0:0:
298,192,102527,1,0,0:0:0:0:
213,192,102527,1,0,0:0:0:0:
128,192,102606,1,0,0:0:0:0:
384,192,102606,1,0,0:0:0:0:
42,192,102685,128,0,103948:0:0:0:0:
469,192,102685,1,0,0:0:0:0:
213,192,102685,1,0,0:0:0:0:
128,192,102843,1,0,0:0:0:0:
384,192,102843,1,0,0:0:0:0:
298,192,103001,1,0,0:0:0:0:
469,192,103080,1,0,0:0:0:0:
128,192,103159,1,0,0:0:0:0:
298,192,103159,1,0,0:0:0:0:
384,192,103317,1,0,0:0:0:0:
213,192,103475,1,0,0:0:0:0:
469,192,103475,1,0,0:0:0:0:
298,192,103633,1,0,0:0:0:0:
128,192,103712,1,0,0:0:0:0:
298,192,103791,1,0,0:0:0:0:
469,192,103791,1,0,0:0:0:0:
213,192,103948,128,0,105212:0:0:0:0:
384,192,103948,1,0,0:0:0:0:
128,192,104106,1,0,0:0:0:0:
469,192,104106,1,0,0:0:0:0:
298,192,104264,1,0,0:0:0:0:
42,192,104343,1,0,0:0:0:0:
128,192,104422,1,0,0:0:0:0:
384,192,104422,1,0,0:0:0:0:
128,192,104580,1,0,0:0:0:0:
42,192,104738,1,0,0:0:0:0:
384,192,104738,1,0,0:0:0:0:
298,192,104896,1,0,0:0:0:0:
469,192,104975,1,0,0:0:0:0:
384,192,105054,1,0,0:0:0:0:
128,192,105054,1,0,0:0:0:0:
298,192,105212,1,0,0:0:0:0:
213,192,105291,1,0,0:0:0:0:
298,192,105370,1,0,0:0:0:0:
469,192,105370,1,0,0:0:0:0:
213,192,105448,1,0,0:0:0:0:
42,192,105448,1,0,0:0:0:0:
298,192,105527,1,0,0:0:0:0:
469,192,105527,1,0,0:0:0:0:
213,192,105606,1,0,0:0:0:0:
42,192,105606,1,0,0:0:0:0:
298,192,105685,128,0,106001:0:0:0:0:
384,192,105685,1,0,0:0:0:0:
42,192,105764,1,0,0:0:0:0:
469,192,105843,1,0,0:0:0:0:
128,192,105922,1,0,0:0:0:0:
384,192,106001,1,0,0:0:0:0:
469,192,106001,128,0,106159:0:0:0:0:
128,192,106080,1,0,0:0:0:0:
384,192,106159,128,0,106317:0:0:0:0:
298,192,106159,1,0,0:0:0:0:
42,192,106238,1,0,0:0:0:0:
298,192,106317,128,0,106475:0:0:0:0:
213,192,106317,1,0,0:0:0:0:
42,192,106396,1,0,0:0:0:0:
128,192,106475,1,0,0:0:0:0:
384,192,106554,1,0,0:0:0:0:
128,192,106633,1,0,0:0:0:0:
42,192,106633,1,0,0:0:0:0:
384,192,106712,1,0,0:0:0:0:
469,192,106712,1,0,0:0:0:0:
128,192,106791,1,0,0:0:0:0:
42,192,106791,1,0,0:0:0:0:
384,192,106870,1,0,0:0:0:0:
469,192,106870,1,0,0:0:0:0:
128,192,106948,128,0,107264:0:0:0:0:
213,192,106948,1,0,0:0:0:0:
469,192,107027,1,0,0:0:0:0:
42,192,107106,1,0,0:0:0:0:
298,192,107185,1,0,0:0:0:0:
384,192,107264,1,0,0:0:0:0:
469,192,107264,1,0,0:0:0:0:
128,192,107343,1,0,0:0:0:0:
213,192,107343,1,0,0:0:0:0:
298,192,107422,1,0,0:0:0:0:
384,192,107422,1,0,0:0:0:0:
42,192,107501,1,0,0:0:0:0:
128,192,107501,1,0,0:0:0:0:
213,192,107580,1,0,0:0:0:0:
298,192,107580,1,0,0:0:0:0:
42,192,107659,1,0,0:0:0:0:
384,192,107659,1,0,0:0:0:0:
469,192,107738,1,0,0:0:0:0:
42,192,107817,1,0,0:0:0:0:
469,192,107896,1,0,0:0:0:0:
298,192,107896,1,0,0:0:0:0:
42,192,107975,1,0,0:0:0:0:
213,192,107975,1,0,0:0:0:0:
469,192,108054,1,0,0:0:0:0:
298,192,108054,1,0,0:0:0:0:
42,192,108133,1,0,0:0:0:0:
213,192,108133,1,0,0:0:0:0:
469,192,108212,128,0,108527:0:0:0:0:
128,192,108212,1,0,0:0:0:0:
384,192,108291,1,0,0:0:0:0:
42,192,108370,1,0,0:0:0:0:
298,192,108448,1,0,0:0:0:0:
42,192,108527,128,0,108685:0:0:0:0:
128,192,108527,1,0,0:0:0:0:
384,192,108606,1,0,0:0:0:0:
128,192,108685,128,0,108843:0:0:0:0:
213,192,108685,1,0,0:0:0:0:
469,192,108764,1,0,0:0:0:0:
213,192,108843,128,0,109001:0:0:0:0:
298,192,108843,1,0,0:0:0:0:
469,192,108922,1,0,0:0:0:0:
42,192,109001,128,0,109159:0:0:0:0:
128,192,109001,1,0,0:0:0:0:
298,192,109001,1,0,0:0:0:0:
128,192,109159,128,0,109317:0:0:0:0:
213,192,109159,1,0,0:0:0:0:
384,192,109159,1,0,0:0:0:0:
213,192,109317,128,0,109475:0:0:0:0:
298,192,109317,1,0,0:0:0:0:
469,192,109317,1,0,0:0:0:0:
298,192,109475,128,0,109633:0:0:0:0:
42,192,109475,1,0,0:0:0:0:
469,192,109475,1,0,0:0:0:0:
42,192,109633,128,0,110106:0:0:0:0:
128,192,109633,1,0,0:0:0:0:
213,192,109633,1,0,0:0:0:0:
128,192,109791,128,0,110106:0:0:0:0:
213,192,109791,1,0,0:0:0:0:
298,192,109791,1,0,0:0:0:0:
213,192,109948,128,0,110106:0:0:0:0:
469,192,109948,128,0,110264:0:0:0:0:
298,192,109948,1,0,0:0:0:0:
384,192,109948,1,0,0:0:0:0:
384,192,110106,128,0,110264:0:0:0:0:
298,192,110106,1,0,0:0:0:0:
42,192,110264,1,0,0:0:0:0:
128,192,110264,1,0,0:0:0:0:
298,192,110264,1,0,0:0:0:0:
42,192,110422,1,0,0:0:0:0:
128,192,110422,1,0,0:0:0:0:
298,192,110422,1,0,0:0:0:0:
42,192,110738,1,0,0:0:0:0:
298,192,110738,1,0,0:0:0:0:
469,192,110738,1,0,0:0:0:0:
42,192,110896,1,0,0:0:0:0:
298,192,110896,1,0,0:0:0:0:
469,192,110896,1,0,0:0:0:0:
128,192,111212,1,0,0:0:0:0:
213,192,111212,1,0,0:0:0:0:
384,192,111212,1,0,0:0:0:0:
384,192,111527,1,0,0:0:0:0:
128,192,111527,1,0,0:0:0:0:
298,192,111527,1,0,0:0:0:0:
42,192,111685,1,0,0:0:0:0:
213,192,111843,1,0,0:0:0:0:
298,192,112001,1,0,0:0:0:0:
469,192,112159,1,0,0:0:0:0:
384,192,112317,1,0,0:0:0:0:
298,192,112475,1,0,0:0:0:0:
128,192,112633,128,0,112791:0:0:0:0:
469,192,112791,128,0,112948:0:0:0:0:
42,192,112791,1,0,0:0:0:0:
298,192,112791,1,0,0:0:0:0:
384,192,112948,128,0,113106:0:0:0:0:
213,192,112948,1,0,0:0:0:0:
42,192,113106,1,0,0:0:0:0:
469,192,113106,1,0,0:0:0:0:
128,192,113106,1,0,0:0:0:0:
213,192,113264,1,0,0:0:0:0:
128,192,113422,1,0,0:0:0:0:
128,192,113580,1,0,0:0:0:0:
42,192,113738,1,0,0:0:0:0:
469,192,113738,1,0,0:0:0:0:
384,192,113738,1,0,0:0:0:0:
298,192,113896,1,0,0:0:0:0:
213,192,114054,1,0,0:0:0:0:
128,192,114054,1,0,0:0:0:0:
298,192,114212,1,0,0:0:0:0:
42,192,114370,1,0,0:0:0:0:
469,192,114370,1,0,0:0:0:0:
128,192,114370,1,0,0:0:0:0:
298,192,114527,1,0,0:0:0:0:
384,192,114685,1,0,0:0:0:0:
384,192,114843,1,0,0:0:0:0:
213,192,115001,1,0,0:0:0:0:
469,192,115001,1,0,0:0:0:0:
42,192,115001,1,0,0:0:0:0:
298,192,115159,1,0,0:0:0:0:
469,192,115317,128,0,115475:0:0:0:0:
42,192,115317,1,0,0:0:0:0:
213,192,115317,1,0,0:0:0:0:
384,192,115475,128,0,115633:0:0:0:0:
298,192,115475,1,0,0:0:0:0:
42,192,115633,1,0,0:0:0:0:
469,192,115633,1,0,0:0:0:0:
213,192,115633,1,0,0:0:0:0:
298,192,115791,1,0,0:0:0:0:
42,192,115948,1,0,0:0:0:0:
42,192,116106,1,0,0:0:0:0:
128,192,116264,1,0,0:0:0:0:
384,192,116264,1,0,0:0:0:0:
213,192,116264,1,0,0:0:0:0:
298,192,116422,1,0,0:0:0:0:
42,192,116580,128,0,117212:0:0:0:0:
469,192,116580,1,0,0:0:0:0:
469,192,116896,1,0,0:0:0:0:
128,192,116896,1,0,0:0:0:0:
298,192,116896,1,0,0:0:0:0:
128,192,117212,128,0,117843:0:0:0:0:
469,192,117212,1,0,0:0:0:0:
469,192,117370,1,0,0:0:0:0:
213,192,117527,1,0,0:0:0:0:
469,192,117527,1,0,0:0:0:0:
298,192,117527,1,0,0:0:0:0:
469,192,117843,128,0,118001:0:0:0:0:
42,192,117843,1,0,0:0:0:0:
298,192,117843,1,0,0:0:0:0:
384,192,118001,128,0,118159:0:0:0:0:
213,192,118001,1,0,0:0:0:0:
42,192,118159,1,0,0:0:0:0:
469,192,118159,1,0,0:0:0:0:
298,192,118159,1,0,0:0:0:0:
213,192,118317,1,0,0:0:0:0:
128,192,118475,1,0,0:0:0:0:
128,192,118633,1,0,0:0:0:0:
42,192,118791,1,0,0:0:0:0:
469,192,118791,1,0,0:0:0:0:
213,192,118791,1,0,0:0:0:0:
298,192,118948,1,0,0:0:0:0:
213,192,119106,1,0,0:0:0:0:
128,192,119106,1,0,0:0:0:0:
298,192,119264,1,0,0:0:0:0:
384,192,119422,1,0,0:0:0:0:
42,192,119422,1,0,0:0:0:0:
469,192,119422,1,0,0:0:0:0:
298,192,119580,1,0,0:0:0:0:
384,192,119738,1,0,0:0:0:0:
384,192,119896,1,0,0:0:0:0:
213,192,120054,1,0,0:0:0:0:
469,192,120054,1,0,0:0:0:0:
42,192,120054,1,0,0:0:0:0:
298,192,120212,1,0,0:0:0:0:
469,192,120370,128,0,120527:0:0:0:0:
128,192,120370,1,0,0:0:0:0:
213,192,120370,1,0,0:0:0:0:
42,192,120527,1,0,0:0:0:0:
384,192,120527,128,0,120685:0:0:0:0:
298,192,120527,1,0,0:0:0:0:
213,192,120606,1,0,0:0:0:0:
128,192,120606,1,0,0:0:0:0:
42,192,120685,1,0,0:0:0:0:
298,192,120685,1,0,0:0:0:0:
213,192,120843,1,0,0:0:0:0:
128,192,120843,1,0,0:0:0:0:
384,192,121001,128,0,121238:0:0:0:0:
469,192,121001,128,0,121238:0:0:0:0:
213,192,121238,128,0,121475:0:0:0:0:
298,192,121238,128,0,121475:0:0:0:0:
42,192,121475,128,0,121633:0:0:0:0:
128,192,121475,128,0,121633:0:0:0:0:
469,192,121633,128,0,121948:0:0:0:0:
298,192,121633,1,0,0:0:0:0:
384,192,121633,1,0,0:0:0:0:
128,192,121712,1,0,0:0:0:0:
213,192,121712,1,0,0:0:0:0:
298,192,121791,1,0,0:0:0:0:
384,192,121791,1,0,0:0:0:0:
128,192,121870,1,0,0:0:0:0:
213,192,121870,1,0,0:0:0:0:
42,192,121948,128,0,122264:0:0:0:0:
298,192,121948,1,0,0:0:0:0:
384,192,121948,1,0,0:0:0:0:
128,192,122027,1,0,0:0:0:0:
213,192,122027,1,0,0:0:0:0:
384,192,122106,1,0,0:0:0:0:
469,192,122106,1,0,0:0:0:0:
298,192,122185,1,0,0:0:0:0:
213,192,122185,1,0,0:0:0:0:
128,192,122264,128,0,122580:0:0:0:0:
384,192,122264,1,0,0:0:0:0:
469,192,122264,1,0,0:0:0:0:
298,192,122343,1,0,0:0:0:0:
213,192,122343,1,0,0:0:0:0:
42,192,122422,1,0,0:0:0:0:
469,192,122422,1,0,0:0:0:0:
298,192,122501,1,0,0:0:0:0:
384,192,122501,1,0,0:0:0:0:
213,192,122580,128,0,122896:0:0:0:0:
42,192,122580,1,0,0:0:0:0:
469,192,122580,1,0,0:0:0:0:
298,192,122659,1,0,0:0:0:0:
384,192,122659,1,0,0:0:0:0:
42,192,122738,1,0,0:0:0:0:
469,192,122738,1,0,0:0:0:0:
298,192,122817,1,0,0:0:0:0:
384,192,122817,1,0,0:0:0:0:
42,192,122896,128,0,123054:0:0:0:0:
469,192,122896,1,0,0:0:0:0:
128,192,123054,128,0,123212:0:0:0:0:
384,192,123054,1,0,0:0:0:0:
213,192,123054,1,0,0:0:0:0:
469,192,123212,1,0,0:0:0:0:
42,192,123212,1,0,0:0:0:0:
128,192,123291,1,0,0:0:0:0:
384,192,123291,1,0,0:0:0:0:
213,192,123291,1,0,0:0:0:0:
42,192,123370,1,0,0:0:0:0:
469,192,123370,1,0,0:0:0:0:
298,192,123370,1,0,0:0:0:0:
128,192,123448,1,0,0:0:0:0:
384,192,123448,1,0,0:0:0:0:
469,192,123527,1,0,0:0:0:0:
42,192,123527,1,0,0:0:0:0:
128,192,123685,1,0,0:0:0:0:
469,192,123685,1,0,0:0:0:0:
298,192,123685,1,0,0:0:0:0:
384,192,123764,1,0,0:0:0:0:
213,192,123764,1,0,0:0:0:0:
298,192,123843,1,0,0:0:0:0:
42,192,123843,1,0,0:0:0:0:
469,192,123843,128,0,124001:0:0:0:0:
384,192,124001,128,0,124159:0:0:0:0:
128,192,124001,1,0,0:0:0:0:
213,192,124001,1,0,0:0:0:0:
298,192,124159,128,0,124317:0:0:0:0:
42,192,124159,1,0,0:0:0:0:
384,192,124317,128,0,124475:0:0:0:0:
128,192,124317,1,0,0:0:0:0:
213,192,124317,1,0,0:0:0:0:
42,192,124475,1,0,0:0:0:0:
469,192,124475,1,0,0:0:0:0:
298,192,124554,1,0,0:0:0:0:
128,192,124554,1,0,0:0:0:0:
384,192,124554,1,0,0:0:0:0:
469,192,124633,1,0,0:0:0:0:
42,192,124633,1,0,0:0:0:0:
213,192,124633,1,0,0:0:0:0:
128,192,124712,1,0,0:0:0:0:
384,192,124712,1,0,0:0:0:0:
42,192,124791,1,0,0:0:0:0:
469,192,124791,1,0,0:0:0:0:
128,192,124948,1,0,0:0:0:0:
298,192,124948,1,0,0:0:0:0:
213,192,124948,1,0,0:0:0:0:
384,192,125027,1,0,0:0:0:0:
42,192,125027,1,0,0:0:0:0:
128,192,125106,1,0,0:0:0:0:
469,192,125106,128,0,125264:0:0:0:0:
298,192,125106,1,0,0:0:0:0:
42,192,125264,128,0,125422:0:0:0:0:
213,192,125264,1,0,0:0:0:0:
384,192,125264,1,0,0:0:0:0:
298,192,125422,128,0,125580:0:0:0:0:
128,192,125422,1,0,0:0:0:0:
213,192,125580,128,0,125738:0:0:0:0:
42,192,125580,1,0,0:0:0:0:
469,192,125580,1,0,0:0:0:0:
128,192,125738,1,0,0:0:0:0:
384,192,125738,1,0,0:0:0:0:
298,192,125817,1,0,0:0:0:0:
213,192,125817,1,0,0:0:0:0:
469,192,125896,1,0,0:0:0:0:
42,192,125896,1,0,0:0:0:0:
128,192,125896,1,0,0:0:0:0:
298,192,126054,1,0,0:0:0:0:
213,192,126054,1,0,0:0:0:0:
42,192,126212,1,0,0:0:0:0:
469,192,126212,1,0,0:0:0:0:
213,192,126212,1,0,0:0:0:0:
298,192,126291,1,0,0:0:0:0:
128,192,126370,1,0,0:0:0:0:
384,192,126370,1,0,0:0:0:0:
213,192,126448,1,0,0:0:0:0:
42,192,126527,1,0,0:0:0:0:
469,192,126527,1,0,0:0:0:0:
298,192,126527,1,0,0:0:0:0:
469,192,126685,128,0,127001:0:0:0:0:
128,192,126685,1,0,0:0:0:0:
42,192,126843,1,0,0:0:0:0:
298,192,126843,1,0,0:0:0:0:
384,192,127001,128,0,127317:0:0:0:0:
213,192,127001,1,0,0:0:0:0:
128,192,127080,1,0,0:0:0:0:
42,192,127159,1,0,0:0:0:0:
298,192,127159,1,0,0:0:0:0:
469,192,127317,128,0,127633:0:0:0:0:
213,192,127317,1,0,0:0:0:0:
298,192,127475,1,0,0:0:0:0:
42,192,127475,1,0,0:0:0:0:
42,192,127633,128,0,127948:0:0:0:0:
213,192,127633,1,0,0:0:0:0:
298,192,127712,1,0,0:0:0:0:
384,192,127791,1,0,0:0:0:0:
128,192,127791,1,0,0:0:0:0:
469,192,127948,128,0,128106:0:0:0:0:
384,192,128106,128,0,128264:0:0:0:0:
128,192,128106,1,0,0:0:0:0:
298,192,128106,1,0,0:0:0:0:
42,192,128264,1,0,0:0:0:0:
469,192,128264,1,0,0:0:0:0:
213,192,128343,1,0,0:0:0:0:
128,192,128343,1,0,0:0:0:0:
298,192,128343,1,0,0:0:0:0:
42,192,128422,1,0,0:0:0:0:
469,192,128422,1,0,0:0:0:0:
384,192,128422,1,0,0:0:0:0:
213,192,128501,1,0,0:0:0:0:
298,192,128501,1,0,0:0:0:0:
42,192,128580,1,0,0:0:0:0:
469,192,128580,1,0,0:0:0:0:
384,192,128738,1,0,0:0:0:0:
42,192,128738,1,0,0:0:0:0:
213,192,128738,1,0,0:0:0:0:
128,192,128817,1,0,0:0:0:0:
298,192,128817,1,0,0:0:0:0:
213,192,128896,1,0,0:0:0:0:
469,192,128896,1,0,0:0:0:0:
42,192,128896,128,0,129054:0:0:0:0:
128,192,129054,128,0,129212:0:0:0:0:
384,192,129054,1,0,0:0:0:0:
298,192,129054,1,0,0:0:0:0:
213,192,129212,128,0,129370:0:0:0:0:
469,192,129212,1,0,0:0:0:0:
384,192,129370,1,0,0:0:0:0:
128,192,129370,128,0,129527:0:0:0:0:
298,192,129370,1,0,0:0:0:0:
469,192,129527,1,0,0:0:0:0:
42,192,129527,1,0,0:0:0:0:
298,192,129606,1,0,0:0:0:0:
384,192,129606,1,0,0:0:0:0:
213,192,129606,1,0,0:0:0:0:
469,192,129685,1,0,0:0:0:0:
42,192,129685,1,0,0:0:0:0:
128,192,129685,1,0,0:0:0:0:
298,192,129764,1,0,0:0:0:0:
213,192,129764,1,0,0:0:0:0:
469,192,129843,1,0,0:0:0:0:
42,192,129843,1,0,0:0:0:0:
384,192,130001,1,0,0:0:0:0:
213,192,130001,1,0,0:0:0:0:
298,192,130001,1,0,0:0:0:0:
128,192,130080,1,0,0:0:0:0:
469,192,130080,1,0,0:0:0:0:
384,192,130159,1,0,0:0:0:0:
42,192,130159,128,0,130317:0:0:0:0:
213,192,130159,1,0,0:0:0:0:
469,192,130317,128,0,130475:0:0:0:0:
298,192,130317,1,0,0:0:0:0:
128,192,130317,1,0,0:0:0:0:
213,192,130475,128,0,130633:0:0:0:0:
384,192,130475,1,0,0:0:0:0:
298,192,130633,128,0,130791:0:0:0:0:
469,192,130633,1,0,0:0:0:0:
42,192,130633,1,0,0:0:0:0:
469,192,130791,1,0,0:0:0:0:
42,192,130791,1,0,0:0:0:0:
213,192,130870,1,0,0:0:0:0:
298,192,130870,1,0,0:0:0:0:
384,192,130870,1,0,0:0:0:0:
42,192,130948,1,0,0:0:0:0:
469,192,130948,1,0,0:0:0:0:
128,192,130948,1,0,0:0:0:0:
213,192,131106,1,0,0:0:0:0:
298,192,131106,1,0,0:0:0:0:
42,192,131264,1,0,0:0:0:0:
469,192,131264,1,0,0:0:0:0:
298,192,131264,1,0,0:0:0:0:
213,192,131343,1,0,0:0:0:0:
128,192,131422,1,0,0:0:0:0:
384,192,131422,1,0,0:0:0:0:
298,192,131501,1,0,0:0:0:0:
469,192,131580,1,0,0:0:0:0:
42,192,131580,1,0,0:0:0:0:
213,192,131580,1,0,0:0:0:0:
384,192,131738,1,0,0:0:0:0:
42,192,131738,1,0,0:0:0:0:
298,192,131817,1,0,0:0:0:0:
213,192,131817,1,0,0:0:0:0:
469,192,131896,1,0,0:0:0:0:
128,192,131896,1,0,0:0:0:0:
213,192,131975,1,0,0:0:0:0:
298,192,131975,1,0,0:0:0:0:
42,192,132054,1,0,0:0:0:0:
128,192,132054,1,0,0:0:0:0:
384,192,132133,1,0,0:0:0:0:
298,192,132133,1,0,0:0:0:0:
469,192,132212,1,0,0:0:0:0:
42,192,132212,1,0,0:0:0:0:
298,192,132291,1,0,0:0:0:0:
213,192,132291,1,0,0:0:0:0:
384,192,132370,1,0,0:0:0:0:
128,192,132370,1,0,0:0:0:0:
469,192,132448,1,0,0:0:0:0:
298,192,132448,1,0,0:0:0:0:
42,192,132527,1,0,0:0:0:0:
213,192,132527,1,0,0:0:0:0:
384,192,132606,1,0,0:0:0:0:
298,192,132606,1,0,0:0:0:0:
469,192,132685,1,0,0:0:0:0:
128,192,132685,1,0,0:0:0:0:
384,192,132764,1,0,0:0:0:0:
298,192,132764,1,0,0:0:0:0:
42,192,132843,1,0,0:0:0:0:
128,192,132843,1,0,0:0:0:0:
213,192,132922,1,0,0:0:0:0:
298,192,132922,1,0,0:0:0:0:
384,192,133001,128,0,134264:0:0:0:0:
42,192,133001,1,0,0:0:0:0:
469,192,133001,1,0,0:0:0:0:
128,192,133001,1,0,0:0:0:0:
213,192,133080,1,0,0:0:0:0:
128,192,133159,1,0,0:0:0:0:
298,192,133159,1,0,0:0:0:0:
42,192,133238,1,0,0:0:0:0:
213,192,133317,1,0,0:0:0:0:
298,192,133396,1,0,0:0:0:0:
42,192,133475,1,0,0:0:0:0:
469,192,133475,1,0,0:0:0:0:
128,192,133554,1,0,0:0:0:0:
213,192,133633,1,0,0:0:0:0:
298,192,133712,1,0,0:0:0:0:
42,192,133791,1,0,0:0:0:0:
469,192,133791,1,0,0:0:0:0:
128,192,133870,1,0,0:0:0:0:
213,192,133948,1,0,0:0:0:0:
298,192,134027,1,0,0:0:0:0:
469,192,134106,1,0,0:0:0:0:
42,192,134106,1,0,0:0:0:0:
298,192,134185,1,0,0:0:0:0:
469,192,134264,128,0,135527:0:0:0:0:
213,192,134264,1,0,0:0:0:0:
128,192,134343,1,0,0:0:0:0:
42,192,134422,1,0,0:0:0:0:
298,192,134422,1,0,0:0:0:0:
384,192,134501,1,0,0:0:0:0:
213,192,134580,1,0,0:0:0:0:
42,192,134659,1,0,0:0:0:0:
128,192,134738,1,0,0:0:0:0:
384,192,134738,1,0,0:0:0:0:
213,192,134817,1,0,0:0:0:0:
298,192,134896,1,0,0:0:0:0:
213,192,134975,1,0,0:0:0:0:
384,192,135054,1,0,0:0:0:0:
128,192,135054,1,0,0:0:0:0:
42,192,135133,1,0,0:0:0:0:
384,192,135212,1,0,0:0:0:0:
298,192,135291,1,0,0:0:0:0:
42,192,135370,1,0,0:0:0:0:
213,192,135370,1,0,0:0:0:0:
128,192,135448,1,0,0:0:0:0:
298,192,135527,128,0,136791:0:0:0:0:
213,192,135527,1,0,0:0:0:0:
128,192,135606,1,0,0:0:0:0:
42,192,135685,1,0,0:0:0:0:
384,192,135685,1,0,0:0:0:0:
469,192,135764,1,0,0:0:0:0:
213,192,135843,1,0,0:0:0:0:
42,192,135922,1,0,0:0:0:0:
469,192,136001,1,0,0:0:0:0:
128,192,136001,1,0,0:0:0:0:
213,192,136080,1,0,0:0:0:0:
384,192,136159,1,0,0:0:0:0:
42,192,136238,1,0,0:0:0:0:
469,192,136317,1,0,0:0:0:0:
213,192,136317,1,0,0:0:0:0:
128,192,136396,1,0,0:0:0:0:
384,192,136475,1,0,0:0:0:0:
42,192,136554,1,0,0:0:0:0:
469,192,136633,1,0,0:0:0:0:
213,192,136633,1,0,0:0:0:0:
128,192,136712,1,0,0:0:0:0:
42,192,136791,128,0,137422:0:0:0:0:
469,192,136791,1,0,0:0:0:0:
384,192,136870,1,0,0:0:0:0:
298,192,136948,1,0,0:0:0:0:
128,192,136948,1,0,0:0:0:0:
469,192,137027,1,0,0:0:0:0:
384,192,137106,1,0,0:0:0:0:
298,192,137185,1,0,0:0:0:0:
213,192,137264,1,0,0:0:0:0:
469,192,137264,1,0,0:0:0:0:
384,192,137343,1,0,0:0:0:0:
128,192,137422,128,0,138054:0:0:0:0:
213,192,137422,1,0,0:0:0:0:
298,192,137501,1,0,0:0:0:0:
469,192,137580,1,0,0:0:0:0:
42,192,137580,1,0,0:0:0:0:
213,192,137659,1,0,0:0:0:0:
298,192,137738,1,0,0:0:0:0:
384,192,137817,1,0,0:0:0:0:
469,192,137896,1,0,0:0:0:0:
42,192,137896,1,0,0:0:0:0:
298,192,137975,1,0,0:0:0:0:
213,192,138054,128,0,139317:0:0:0:0:
384,192,138054,1,0,0:0:0:0:
469,192,138133,1,0,0:0:0:0:
384,192,138212,1,0,0:0:0:0:
128,192,138212,1,0,0:0:0:0:
42,192,138291,1,0,0:0:0:0:
298,192,138370,1,0,0:0:0:0:
469,192,138448,1,0,0:0:0:0:
128,192,138527,1,0,0:0:0:0:
384,192,138527,1,0,0:0:0:0:
42,192,138606,1,0,0:0:0:0:
384,192,138685,1,0,0:0:0:0:
298,192,138764,1,0,0:0:0:0:
384,192,138843,1,0,0:0:0:0:
128,192,138843,1,0,0:0:0:0:
42,192,138922,1,0,0:0:0:0:
384,192,139001,1,0,0:0:0:0:
469,192,139080,1,0,0:0:0:0:
128,192,139159,1,0,0:0:0:0:
384,192,139159,1,0,0:0:0:0:
42,192,139238,1,0,0:0:0:0:
128,192,139317,128,0,140580:0:0:0:0:
384,192,139317,1,0,0:0:0:0:
298,192,139396,1,0,0:0:0:0:
42,192,139475,1,0,0:0:0:0:
469,192,139475,1,0,0:0:0:0:
213,192,139554,1,0,0:0:0:0:
384,192,139633,1,0,0:0:0:0:
298,192,139712,1,0,0:0:0:0:
42,192,139791,1,0,0:0:0:0:
469,192,139791,1,0,0:0:0:0:
384,192,139870,1,0,0:0:0:0:
213,192,139948,1,0,0:0:0:0:
298,192,140027,1,0,0:0:0:0:
42,192,140106,1,0,0:0:0:0:
384,192,140106,1,0,0:0:0:0:
469,192,140185,1,0,0:0:0:0:
213,192,140264,1,0,0:0:0:0:
469,192,140343,1,0,0:0:0:0:
42,192,140422,1,0,0:0:0:0:
384,192,140422,1,0,0:0:0:0:
298,192,140501,1,0,0:0:0:0:
469,192,140580,128,0,141843:0:0:0:0:
42,192,140580,1,0,0:0:0:0:
384,192,140580,1,0,0:0:0:0:
213,192,140659,1,0,0:0:0:0:
298,192,140659,1,0,0:0:0:0:
42,192,140738,1,0,0:0:0:0:
384,192,140738,1,0,0:0:0:0:
42,192,140896,1,0,0:0:0:0:
384,192,140896,1,0,0:0:0:0:
128,192,140975,1,0,0:0:0:0:
298,192,140975,1,0,0:0:0:0:
42,192,141054,1,0,0:0:0:0:
384,192,141054,1,0,0:0:0:0:
42,192,141212,1,0,0:0:0:0:
384,192,141212,1,0,0:0:0:0:
128,192,141291,1,0,0:0:0:0:
213,192,141291,1,0,0:0:0:0:
42,192,141370,1,0,0:0:0:0:
384,192,141370,1,0,0:0:0:0:
42,192,141527,1,0,0:0:0:0:
213,192,141527,1,0,0:0:0:0:
298,192,141685,1,0,0:0:0:0:
128,192,141685,1,0,0:0:0:0:
42,192,141843,128,0,142159:0:0:0:0:
128,192,141843,128,0,142159:0:0:0:0:
384,192,141843,1,0,0:0:0:0:
213,192,141843,1,0,0:0:0:0:
469,192,142001,1,0,0:0:0:0:
469,192,142159,1,0,0:0:0:0:
384,192,142159,1,0,0:0:0:0:
298,192,142238,1,0,0:0:0:0:
213,192,142238,1,0,0:0:0:0:
128,192,142317,1,0,0:0:0:0:
42,192,142317,1,0,0:0:0:0:
128,192,142475,128,0,143106:0:0:0:0:
213,192,142475,128,0,143106:0:0:0:0:
42,192,142475,1,0,0:0:0:0:
469,192,142475,1,0,0:0:0:0:
384,192,142633,1,0,0:0:0:0:
469,192,142633,1,0,0:0:0:0:
42,192,142712,1,0,0:0:0:0:
298,192,142712,1,0,0:0:0:0:
469,192,142791,1,0,0:0:0:0:
384,192,142791,1,0,0:0:0:0:
42,192,142870,1,0,0:0:0:0:
298,192,142870,1,0,0:0:0:0:
384,192,142948,1,0,0:0:0:0:
469,192,142948,1,0,0:0:0:0:
298,192,143027,1,0,0:0:0:0:
42,192,143027,1,0,0:0:0:0:
469,192,143106,128,0,143264:0:0:0:0:
384,192,143106,1,0,0:0:0:0:
42,192,143264,1,0,0:0:0:0:
128,192,143264,1,0,0:0:0:0:
384,192,143264,1,0,0:0:0:0:
298,192,143343,1,0,0:0:0:0:
213,192,143343,1,0,0:0:0:0:
128,192,143422,1,0,0:0:0:0:
469,192,143422,1,0,0:0:0:0:
42,192,143501,1,0,0:0:0:0:
298,192,143501,1,0,0:0:0:0:
469,192,143580,1,0,0:0:0:0:
384,192,143580,1,0,0:0:0:0:
128,192,143580,1,0,0:0:0:0:
298,192,143659,1,0,0:0:0:0:
213,192,143659,1,0,0:0:0:0:
384,192,143738,1,0,0:0:0:0:
42,192,143738,1,0,0:0:0:0:
469,192,143817,1,0,0:0:0:0:
213,192,143817,1,0,0:0:0:0:
42,192,143896,1,0,0:0:0:0:
128,192,143896,1,0,0:0:0:0:
384,192,143896,1,0,0:0:0:0:
213,192,143975,1,0,0:0:0:0:
298,192,143975,1,0,0:0:0:0:
42,192,144054,1,0,0:0:0:0:
469,192,144054,1,0,0:0:0:0:
384,192,144133,1,0,0:0:0:0:
298,192,144133,1,0,0:0:0:0:
213,192,144212,1,0,0:0:0:0:
469,192,144212,1,0,0:0:0:0:
128,192,144212,1,0,0:0:0:0:
42,192,144291,1,0,0:0:0:0:
384,192,144370,1,0,0:0:0:0:
128,192,144370,1,0,0:0:0:0:
298,192,144370,1,0,0:0:0:0:
469,192,144370,1,0,0:0:0:0:
469,192,144370,128,0,144527:0:0:0:0:
42,192,144527,1,0,0:0:0:0:
298,192,144527,1,0,0:0:0:0:
384,192,144527,1,0,0:0:0:0:
128,192,144606,1,0,0:0:0:0:
213,192,144606,1,0,0:0:0:0:
469,192,144685,1,0,0:0:0:0:
298,192,144685,1,0,0:0:0:0:
128,192,144764,1,0,0:0:0:0:
384,192,144764,1,0,0:0:0:0:
469,192,144843,1,0,0:0:0:0:
213,192,144843,1,0,0:0:0:0:
42,192,144843,1,0,0:0:0:0:
128,192,144922,1,0,0:0:0:0:
384,192,144922,1,0,0:0:0:0:
298,192,145001,1,0,0:0:0:0:
213,192,145001,1,0,0:0:0:0:
384,192,145080,1,0,0:0:0:0:
128,192,145080,1,0,0:0:0:0:
42,192,145159,1,0,0:0:0:0:
469,192,145159,1,0,0:0:0:0:
298,192,145159,1,0,0:0:0:0:
213,192,145238,1,0,0:0:0:0:
384,192,145238,1,0,0:0:0:0:
42,192,145317,1,0,0:0:0:0:
469,192,145317,1,0,0:0:0:0:
384,192,145396,1,0,0:0:0:0:
213,192,145396,1,0,0:0:0:0:
42,192,145475,1,0,0:0:0:0:
128,192,145475,1,0,0:0:0:0:
298,192,145475,1,0,0:0:0:0:
384,192,145554,1,0,0:0:0:0:
213,192,145633,1,0,0:0:0:0:
469,192,145633,1,0,0:0:0:0:
42,192,145633,128,0,145791:0:0:0:0:
128,192,145633,1,0,0:0:0:0:
469,192,145791,1,0,0:0:0:0:
213,192,145791,1,0,0:0:0:0:
298,192,145791,1,0,0:0:0:0:
128,192,145870,1,0,0:0:0:0:
384,192,145870,1,0,0:0:0:0:
469,192,145948,1,0,0:0:0:0:
42,192,145948,1,0,0:0:0:0:
298,192,146027,1,0,0:0:0:0:
213,192,146027,1,0,0:0:0:0:
469,192,146106,1,0,0:0:0:0:
128,192,146106,1,0,0:0:0:0:
42,192,146106,1,0,0:0:0:0:
384,192,146185,1,0,0:0:0:0:
213,192,146185,1,0,0:0:0:0:
128,192,146264,1,0,0:0:0:0:
298,192,146264,1,0,0:0:0:0:
469,192,146343,1,0,0:0:0:0:
213,192,146343,1,0,0:0:0:0:
42,192,146422,1,0,0:0:0:0:
384,192,146422,1,0,0:0:0:0:
128,192,146422,1,0,0:0:0:0:
213,192,146501,1,0,0:0:0:0:
469,192,146501,1,0,0:0:0:0:
42,192,146580,1,0,0:0:0:0:
298,192,146580,1,0,0:0:0:0:
384,192,146659,1,0,0:0:0:0:
128,192,146659,1,0,0:0:0:0:
298,192,146738,1,0,0:0:0:0:
469,192,146738,1,0,0:0:0:0:
213,192,146738,1,0,0:0:0:0:
384,192,146817,1,0,0:0:0:0:
128,192,146817,1,0,0:0:0:0:
298,192,146896,128,0,147054:0:0:0:0:
213,192,146896,128,0,147054:0:0:0:0:
42,192,146896,1,0,0:0:0:0:
469,192,146896,1,0,0:0:0:0:
384,192,147054,1,0,0:0:0:0:
128,192,147054,1,0,0:0:0:0:
42,192,147133,1,0,0:0:0:0:
469,192,147133,1,0,0:0:0:0:
298,192,147212,1,0,0:0:0:0:
384,192,147212,1,0,0:0:0:0:
213,192,147291,1,0,0:0:0:0:
128,192,147291,1,0,0:0:0:0:
42,192,147370,1,0,0:0:0:0:
469,192,147370,1,0,0:0:0:0:
213,192,147448,1,0,0:0:0:0:
298,192,147448,1,0,0:0:0:0:
384,192,147527,128,0,147685:0:0:0:0:
128,192,147527,128,0,147685:0:0:0:0:
469,192,147527,1,0,0:0:0:0:
42,192,147527,1,0,0:0:0:0:
298,192,147685,1,0,0:0:0:0:
213,192,147685,1,0,0:0:0:0:
469,192,147764,1,0,0:0:0:0:
42,192,147764,1,0,0:0:0:0:
213,192,147843,1,0,0:0:0:0:
298,192,147843,1,0,0:0:0:0:
469,192,147922,1,0,0:0:0:0:
42,192,147922,1,0,0:0:0:0:
128,192,148001,1,0,0:0:0:0:
384,192,148001,1,0,0:0:0:0:
298,192,148080,1,0,0:0:0:0:
213,192,148080,1,0,0:0:0:0:
469,192,148159,128,0,148317:0:0:0:0:
384,192,148159,1,0,0:0:0:0:
128,192,148159,1,0,0:0:0:0:
42,192,148159,1,0,0:0:0:0:
298,192,148317,1,0,0:0:0:0:
384,192,148317,1,0,0:0:0:0:
128,192,148396,1,0,0:0:0:0:
213,192,148396,1,0,0:0:0:0:
469,192,148475,1,0,0:0:0:0:
42,192,148475,1,0,0:0:0:0:
384,192,148554,1,0,0:0:0:0:
213,192,148554,1,0,0:0:0:0:
298,192,148633,1,0,0:0:0:0:
128,192,148633,1,0,0:0:0:0:
42,192,148633,1,0,0:0:0:0:
469,192,148712,1,0,0:0:0:0:
213,192,148712,1,0,0:0:0:0:
42,192,148791,1,0,0:0:0:0:
384,192,148791,1,0,0:0:0:0:
298,192,148870,1,0,0:0:0:0:
128,192,148870,1,0,0:0:0:0:
469,192,148948,1,0,0:0:0:0:
213,192,148948,1,0,0:0:0:0:
42,192,148948,1,0,0:0:0:0:
298,192,149027,1,0,0:0:0:0:
384,192,149027,1,0,0:0:0:0:
213,192,149106,1,0,0:0:0:0:
128,192,149106,1,0,0:0:0:0:
469,192,149185,1,0,0:0:0:0:
42,192,149185,1,0,0:0:0:0:
298,192,149264,1,0,0:0:0:0:
384,192,149264,1,0,0:0:0:0:
128,192,149264,1,0,0:0:0:0:
213,192,149343,1,0,0:0:0:0:
469,192,149343,1,0,0:0:0:0:
384,192,149422,1,0,0:0:0:0:
298,192,149422,1,0,0:0:0:0:
42,192,149422,128,0,149580:0:0:0:0:
128,192,149422,1,0,0:0:0:0:
128,192,149580,1,0,0:0:0:0:
298,192,149580,1,0,0:0:0:0:
384,192,149659,1,0,0:0:0:0:
213,192,149659,1,0,0:0:0:0:
42,192,149738,1,0,0:0:0:0:
469,192,149738,1,0,0:0:0:0:
213,192,149817,1,0,0:0:0:0:
128,192,149817,1,0,0:0:0:0:
42,192,149896,1,0,0:0:0:0:
469,192,149896,1,0,0:0:0:0:
384,192,149896,1,0,0:0:0:0:
128,192,149975,1,0,0:0:0:0:
298,192,149975,1,0,0:0:0:0:
469,192,150054,1,0,0:0:0:0:
213,192,150054,1,0,0:0:0:0:
42,192,150133,1,0,0:0:0:0:
298,192,150133,1,0,0:0:0:0:
128,192,150212,1,0,0:0:0:0:
213,192,150212,1,0,0:0:0:0:
384,192,150212,1,0,0:0:0:0:
469,192,150291,1,0,0:0:0:0:
298,192,150291,1,0,0:0:0:0:
42,192,150370,1,0,0:0:0:0:
213,192,150370,1,0,0:0:0:0:
384,192,150448,1,0,0:0:0:0:
298,192,150448,1,0,0:0:0:0:
42,192,150527,1,0,0:0:0:0:
469,192,150527,1,0,0:0:0:0:
128,192,150527,1,0,0:0:0:0:
384,192,150606,1,0,0:0:0:0:
213,192,150606,1,0,0:0:0:0:
469,192,150685,128,0,150922:0:0:0:0:
42,192,150685,1,0,0:0:0:0:
298,192,150685,1,0,0:0:0:0:
384,192,150922,128,0,151159:0:0:0:0:
298,192,151159,128,0,151317:0:0:0:0:
384,192,151317,128,0,151554:0:0:0:0:
42,192,151317,1,0,0:0:0:0:
128,192,151317,1,0,0:0:0:0:
213,192,151396,1,0,0:0:0:0:
42,192,151475,1,0,0:0:0:0:
298,192,151554,128,0,151791:0:0:0:0:
213,192,151554,1,0,0:0:0:0:
128,192,151633,1,0,0:0:0:0:
42,192,151633,1,0,0:0:0:0:
469,192,151712,1,0,0:0:0:0:
213,192,151791,128,0,151948:0:0:0:0:
42,192,151791,1,0,0:0:0:0:
469,192,151870,1,0,0:0:0:0:
42,192,151948,128,0,152027:0:0:0:0:
298,192,151948,128,0,152027:0:0:0:0:
128,192,152027,128,0,152106:0:0:0:0:
384,192,152027,128,0,152106:0:0:0:0:
213,192,152106,128,0,152185:0:0:0:0:
469,192,152106,128,0,152185:0:0:0:0:
298,192,152185,128,0,152264:0:0:0:0:
42,192,152185,128,0,152264:0:0:0:0:
384,192,152264,128,0,152343:0:0:0:0:
128,192,152264,128,0,152343:0:0:0:0:
469,192,152343,128,0,152422:0:0:0:0:
213,192,152343,128,0,152422:0:0:0:0:
128,192,152422,128,0,152501:0:0:0:0:
384,192,152422,128,0,152501:0:0:0:0:
42,192,152501,128,0,152580:0:0:0:0:
298,192,152501,128,0,152580:0:0:0:0:
128,192,152580,128,0,152659:0:0:0:0:
384,192,152580,128,0,152659:0:0:0:0:
469,192,152659,128,0,152738:0:0:0:0:
213,192,152659,128,0,152738:0:0:0:0:
42,192,152738,128,0,152817:0:0:0:0:
298,192,152738,128,0,152817:0:0:0:0:
128,192,152817,128,0,152896:0:0:0:0:
384,192,152817,128,0,152896:0:0:0:0:
213,192,152896,128,0,152975:0:0:0:0:
469,192,152896,128,0,152975:0:0:0:0:
42,192,152975,128,0,153054:0:0:0:0:
128,192,152975,128,0,153054:0:0:0:0:
213,192,153054,128,0,153133:0:0:0:0:
298,192,153054,128,0,153133:0:0:0:0:
384,192,153133,128,0,153212:0:0:0:0:
469,192,153133,128,0,153212:0:0:0:0:
42,192,153212,128,0,155738:0:0:0:0:
213,192,153212,128,0,155738:0:0:0:0:
128,192,153370,1,0,0:0:0:0:
384,192,153370,1,0,0:0:0:0:
298,192,153685,1,0,0:0:0:0:
469,192,153685,1,0,0:0:0:0:
128,192,154001,1,0,0:0:0:0:
384,192,154001,1,0,0:0:0:0:
298,192,154159,1,0,0:0:0:0:
469,192,154159,1,0,0:0:0:0:
298,192,154317,1,0,0:0:0:0:
469,192,154317,1,0,0:0:0:0:
298,192,154475,128,0,154948:0:0:0:0:
469,192,154475,128,0,154948:0:0:0:0:
128,192,154633,1,0,0:0:0:0:
384,192,154633,1,0,0:0:0:0:
128,192,154948,128,0,155422:0:0:0:0:
384,192,154948,128,0,155422:0:0:0:0:
298,192,155264,1,0,0:0:0:0:
469,192,155264,1,0,0:0:0:0:
298,192,155422,128,0,155738:0:0:0:0:
469,192,155422,128,0,155738:0:0:0:0:
128,192,155580,1,0,0:0:0:0:
384,192,155580,1,0,0:0:0:0:
128,192,155738,128,0,157001:0:0:0:0:
384,192,155738,128,0,157001:0:0:0:0:
42,192,155896,1,0,0:0:0:0:
469,192,155896,1,0,0:0:0:0:
213,192,156054,1,0,0:0:0:0:
298,192,156133,1,0,0:0:0:0:
42,192,156212,1,0,0:0:0:0:
469,192,156212,1,0,0:0:0:0:
213,192,156370,1,0,0:0:0:0:
42,192,156527,1,0,0:0:0:0:
469,192,156527,1,0,0:0:0:0:
298,192,156685,1,0,0:0:0:0:
213,192,156764,1,0,0:0:0:0:
469,192,156843,1,0,0:0:0:0:
42,192,156843,1,0,0:0:0:0:
469,192,157001,128,0,158264:0:0:0:0:
298,192,157001,1,0,0:0:0:0:
128,192,157159,1,0,0:0:0:0:
213,192,157159,1,0,0:0:0:0:
298,192,157317,1,0,0:0:0:0:
213,192,157396,1,0,0:0:0:0:
384,192,157475,128,0,158264:0:0:0:0:
128,192,157475,1,0,0:0:0:0:
42,192,157475,1,0,0:0:0:0:
42,192,157633,1,0,0:0:0:0:
298,192,157633,1,0,0:0:0:0:
128,192,157712,1,0,0:0:0:0:
213,192,157791,1,0,0:0:0:0:
42,192,157791,1,0,0:0:0:0:
128,192,157870,1,0,0:0:0:0:
298,192,157948,128,0,158264:0:0:0:0:
42,192,157948,1,0,0:0:0:0:
213,192,157948,1,0,0:0:0:0:
128,192,158027,1,0,0:0:0:0:
213,192,158106,1,0,0:0:0:0:
42,192,158106,1,0,0:0:0:0:
128,192,158185,1,0,0:0:0:0:
42,192,158264,128,0,160791:0:0:0:0:
213,192,158264,128,0,160791:0:0:0:0:
298,192,158422,1,0,0:0:0:0:
469,192,158422,1,0,0:0:0:0:
128,192,158738,128,0,159212:0:0:0:0:
298,192,158738,128,0,159212:0:0:0:0:
384,192,158738,1,0,0:0:0:0:
469,192,158738,1,0,0:0:0:0:
384,192,159054,1,0,0:0:0:0:
469,192,159054,1,0,0:0:0:0:
384,192,159212,1,0,0:0:0:0:
469,192,159212,1,0,0:0:0:0:
298,192,159370,1,0,0:0:0:0:
469,192,159370,1,0,0:0:0:0:
298,192,159527,128,0,160001:0:0:0:0:
469,192,159527,128,0,160001:0:0:0:0:
128,192,159685,1,0,0:0:0:0:
384,192,159685,1,0,0:0:0:0:
128,192,160001,128,0,160475:0:0:0:0:
384,192,160001,128,0,160475:0:0:0:0:
298,192,160317,1,0,0:0:0:0:
469,192,160317,1,0,0:0:0:0:
298,192,160475,128,0,160791:0:0:0:0:
469,192,160475,128,0,160791:0:0:0:0:
128,192,160633,1,0,0:0:0:0:
384,192,160633,1,0,0:0:0:0:
128,192,160791,128,0,162054:0:0:0:0:
384,192,160791,1,0,0:0:0:0:
42,192,160948,1,0,0:0:0:0:
213,192,160948,1,0,0:0:0:0:
298,192,161106,1,0,0:0:0:0:
384,192,161185,1,0,0:0:0:0:
42,192,161264,1,0,0:0:0:0:
469,192,161264,1,0,0:0:0:0:
298,192,161422,1,0,0:0:0:0:
42,192,161580,1,0,0:0:0:0:
213,192,161580,1,0,0:0:0:0:
384,192,161738,1,0,0:0:0:0:
298,192,161817,1,0,0:0:0:0:
42,192,161896,1,0,0:0:0:0:
469,192,161896,1,0,0:0:0:0:
213,192,162054,1,0,0:0:0:0:
469,192,162054,1,0,0:0:0:0:
298,192,162133,1,0,0:0:0:0:
42,192,162133,1,0,0:0:0:0:
213,192,162212,1,0,0:0:0:0:
469,192,162212,1,0,0:0:0:0:
42,192,162291,1,0,0:0:0:0:
298,192,162291,1,0,0:0:0:0:
128,192,162370,1,0,0:0:0:0:
384,192,162370,1,0,0:0:0:0:
213,192,162448,1,0,0:0:0:0:
298,192,162448,1,0,0:0:0:0:
42,192,162527,1,0,0:0:0:0:
469,192,162527,1,0,0:0:0:0:
298,192,162606,1,0,0:0:0:0:
213,192,162606,1,0,0:0:0:0:
128,192,162685,1,0,0:0:0:0:
42,192,162685,1,0,0:0:0:0:
298,192,162764,1,0,0:0:0:0:
469,192,162764,1,0,0:0:0:0:
42,192,162843,1,0,0:0:0:0:
213,192,162843,1,0,0:0:0:0:
384,192,162922,1,0,0:0:0:0:
469,192,162922,1,0,0:0:0:0:
128,192,163001,1,0,0:0:0:0:
213,192,163001,1,0,0:0:0:0:
298,192,163080,1,0,0:0:0:0:
384,192,163080,1,0,0:0:0:0:
128,192,163159,1,0,0:0:0:0:
213,192,163159,1,0,0:0:0:0:
298,192,163238,1,0,0:0:0:0:
384,192,163238,1,0,0:0:0:0:
469,192,163317,128,0,163475:0:0:0:0:
213,192,163317,1,0,0:0:0:0:
42,192,163317,1,0,0:0:0:0:
298,192,163396,1,0,0:0:0:0:
128,192,163475,1,0,0:0:0:0:
384,192,163475,1,0,0:0:0:0:
298,192,163554,1,0,0:0:0:0:
42,192,163633,1,0,0:0:0:0:
213,192,163633,1,0,0:0:0:0:
384,192,163712,1,0,0:0:0:0:
213,192,163791,1,0,0:0:0:0:
469,192,163791,1,0,0:0:0:0:
298,192,163791,128,0,163948:0:0:0:0:
42,192,163870,1,0,0:0:0:0:
384,192,163948,1,0,0:0:0:0:
128,192,163948,1,0,0:0:0:0:
42,192,164027,1,0,0:0:0:0:
469,192,164106,1,0,0:0:0:0:
213,192,164106,1,0,0:0:0:0:
42,192,164185,1,0,0:0:0:0:
128,192,164264,128,0,164422:0:0:0:0:
298,192,164264,1,0,0:0:0:0:
469,192,164264,1,0,0:0:0:0:
42,192,164343,1,0,0:0:0:0:
469,192,164422,1,0,0:0:0:0:
213,192,164422,1,0,0:0:0:0:
42,192,164501,1,0,0:0:0:0:
213,192,164580,128,0,164738:0:0:0:0:
298,192,164580,1,0,0:0:0:0:
469,192,164580,1,0,0:0:0:0:
128,192,164659,1,0,0:0:0:0:
384,192,164738,1,0,0:0:0:0:
42,192,164738,1,0,0:0:0:0:
128,192,164817,1,0,0:0:0:0:
298,192,164896,1,0,0:0:0:0:
469,192,164896,1,0,0:0:0:0:
42,192,164975,1,0,0:0:0:0:
384,192,165054,128,0,165212:0:0:0:0:
213,192,165054,1,0,0:0:0:0:
298,192,165054,1,0,0:0:0:0:
42,192,165133,1,0,0:0:0:0:
298,192,165212,1,0,0:0:0:0:
469,192,165212,1,0,0:0:0:0:
213,192,165291,1,0,0:0:0:0:
384,192,165370,1,0,0:0:0:0:
42,192,165370,1,0,0:0:0:0:
213,192,165448,1,0,0:0:0:0:
42,192,165527,128,0,165685:0:0:0:0:
469,192,165527,1,0,0:0:0:0:
298,192,165527,1,0,0:0:0:0:
128,192,165606,1,0,0:0:0:0:
384,192,165685,1,0,0:0:0:0:
298,192,165685,1,0,0:0:0:0:
128,192,165764,1,0,0:0:0:0:
298,192,165843,128,0,166001:0:0:0:0:
213,192,165843,1,0,0:0:0:0:
469,192,165843,1,0,0:0:0:0:
128,192,165922,1,0,0:0:0:0:
42,192,166001,1,0,0:0:0:0:
384,192,166001,1,0,0:0:0:0:
128,192,166080,1,0,0:0:0:0:
213,192,166159,1,0,0:0:0:0:
469,192,166159,1,0,0:0:0:0:
42,192,166238,1,0,0:0:0:0:
128,192,166317,128,0,166475:0:0:0:0:
213,192,166317,1,0,0:0:0:0:
298,192,166317,1,0,0:0:0:0:
42,192,166396,1,0,0:0:0:0:
213,192,166475,1,0,0:0:0:0:
469,192,166475,1,0,0:0:0:0:
298,192,166554,1,0,0:0:0:0:
128,192,166633,1,0,0:0:0:0:
384,192,166633,1,0,0:0:0:0:
213,192,166712,1,0,0:0:0:0:
469,192,166791,128,0,166948:0:0:0:0:
42,192,166791,1,0,0:0:0:0:
298,192,166791,1,0,0:0:0:0:
213,192,166870,1,0,0:0:0:0:
128,192,166948,1,0,0:0:0:0:
298,192,166948,1,0,0:0:0:0:
384,192,167027,1,0,0:0:0:0:
128,192,167106,1,0,0:0:0:0:
42,192,167106,1,0,0:0:0:0:
213,192,167185,1,0,0:0:0:0:
298,192,167185,1,0,0:0:0:0:
384,192,167264,1,0,0:0:0:0:
469,192,167264,1,0,0:0:0:0:
42,192,167343,1,0,0:0:0:0:
128,192,167343,1,0,0:0:0:0:
213,192,167422,1,0,0:0:0:0:
298,192,167422,1,0,0:0:0:0:
384,192,167501,1,0,0:0:0:0:
469,192,167501,1,0,0:0:0:0:
128,192,167580,1,0,0:0:0:0:
42,192,167580,1,0,0:0:0:0:
298,192,167659,1,0,0:0:0:0:
213,192,167659,1,0,0:0:0:0:
128,192,167738,1,0,0:0:0:0:
469,192,167738,1,0,0:0:0:0:
42,192,167817,1,0,0:0:0:0:
384,192,167817,1,0,0:0:0:0:
469,192,167896,1,0,0:0:0:0:
213,192,167896,1,0,0:0:0:0:
42,192,167975,1,0,0:0:0:0:
298,192,167975,1,0,0:0:0:0:
128,192,168054,1,0,0:0:0:0:
384,192,168054,1,0,0:0:0:0:
42,192,168133,1,0,0:0:0:0:
298,192,168133,1,0,0:0:0:0:
213,192,168212,1,0,0:0:0:0:
469,192,168212,1,0,0:0:0:0:
128,192,168291,1,0,0:0:0:0:
384,192,168291,1,0,0:0:0:0:
42,192,168370,128,0,169633:0:0:0:0:
469,192,168370,1,0,0:0:0:0:
213,192,168370,1,0,0:0:0:0:
128,192,168527,1,0,0:0:0:0:
384,192,168527,1,0,0:0:0:0:
298,192,168685,1,0,0:0:0:0:
469,192,168764,1,0,0:0:0:0:
128,192,168843,1,0,0:0:0:0:
298,192,168843,1,0,0:0:0:0:
384,192,169001,1,0,0:0:0:0:
213,192,169159,1,0,0:0:0:0:
469,192,169159,1,0,0:0:0:0:
298,192,169317,1,0,0:0:0:0:
128,192,169396,1,0,0:0:0:0:
298,192,169475,1,0,0:0:0:0:
469,192,169475,1,0,0:0:0:0:
213,192,169633,128,0,170896:0:0:0:0:
384,192,169633,1,0,0:0:0:0:
128,192,169791,1,0,0:0:0:0:
469,192,169791,1,0,0:0:0:0:
298,192,169948,1,0,0:0:0:0:
42,192,170027,1,0,0:0:0:0:
128,192,170106,1,0,0:0:0:0:
384,192,170106,1,0,0:0:0:0:
128,192,170264,1,0,0:0:0:0:
42,192,170422,1,0,0:0:0:0:
384,192,170422,1,0,0:0:0:0:
298,192,170580,1,0,0:0:0:0:
469,192,170659,1,0,0:0:0:0:
384,192,170738,1,0,0:0:0:0:
128,192,170738,1,0,0:0:0:0:
469,192,170896,128,0,172159:0:0:0:0:
42,192,170896,1,0,0:0:0:0:
213,192,170975,1,0,0:0:0:0:
42,192,171054,1,0,0:0:0:0:
213,192,171133,1,0,0:0:0:0:
384,192,171212,1,0,0:0:0:0:
213,192,171291,1,0,0:0:0:0:
384,192,171370,1,0,0:0:0:0:
213,192,171448,1,0,0:0:0:0:
42,192,171527,1,0,0:0:0:0:
213,192,171606,1,0,0:0:0:0:
42,192,171685,1,0,0:0:0:0:
213,192,171764,1,0,0:0:0:0:
384,192,171843,1,0,0:0:0:0:
213,192,171922,1,0,0:0:0:0:
384,192,172001,1,0,0:0:0:0:
213,192,172080,1,0,0:0:0:0:
298,192,172159,128,0,173422:0:0:0:0:
42,192,172159,1,0,0:0:0:0:
128,192,172159,1,0,0:0:0:0:
213,192,172238,1,0,0:0:0:0:
384,192,172238,1,0,0:0:0:0:
42,192,172317,1,0,0:0:0:0:
128,192,172317,1,0,0:0:0:0:
213,192,172396,1,0,0:0:0:0:
384,192,172396,1,0,0:0:0:0:
42,192,172475,1,0,0:0:0:0:
469,192,172475,1,0,0:0:0:0:
213,192,172554,1,0,0:0:0:0:
128,192,172554,1,0,0:0:0:0:
469,192,172633,1,0,0:0:0:0:
42,192,172633,1,0,0:0:0:0:
213,192,172712,1,0,0:0:0:0:
128,192,172712,1,0,0:0:0:0:
384,192,172791,1,0,0:0:0:0:
469,192,172791,1,0,0:0:0:0:
128,192,172870,1,0,0:0:0:0:
213,192,172870,1,0,0:0:0:0:
384,192,172948,1,0,0:0:0:0:
469,192,172948,1,0,0:0:0:0:
128,192,173027,1,0,0:0:0:0:
213,192,173027,1,0,0:0:0:0:
469,192,173106,1,0,0:0:0:0:
42,192,173106,128,0,173422:0:0:0:0:
384,192,173106,1,0,0:0:0:0:
384,192,173422,1,0,0:0:0:0:
469,192,173422,1,0,0:0:0:0:
213,192,173422,1,0,0:0:0:0:
42,192,173580,1,0,0:0:0:0:
213,192,173659,1,0,0:0:0:0:
384,192,173738,1,0,0:0:0:0:
469,192,173738,1,0,0:0:0:0:
42,192,173738,1,0,0:0:0:0:
213,192,173896,1,0,0:0:0:0:
384,192,174054,1,0,0:0:0:0:
469,192,174054,1,0,0:0:0:0:
128,192,174054,1,0,0:0:0:0:
213,192,174212,1,0,0:0:0:0:
384,192,174370,1,0,0:0:0:0:
469,192,174370,1,0,0:0:0:0:
42,192,174370,1,0,0:0:0:0:
213,192,174527,1,0,0:0:0:0:
42,192,174685,1,0,0:0:0:0:
128,192,174685,1,0,0:0:0:0:
384,192,174685,1,0,0:0:0:0:
469,192,174843,1,0,0:0:0:0:
298,192,174922,1,0,0:0:0:0:
128,192,175001,1,0,0:0:0:0:
42,192,175001,1,0,0:0:0:0:
469,192,175001,1,0,0:0:0:0:
298,192,175159,1,0,0:0:0:0:
42,192,175317,1,0,0:0:0:0:
128,192,175317,1,0,0:0:0:0:
384,192,175317,1,0,0:0:0:0:
298,192,175475,1,0,0:0:0:0:
128,192,175633,1,0,0:0:0:0:
42,192,175633,1,0,0:0:0:0:
469,192,175633,1,0,0:0:0:0:
384,192,175791,1,0,0:0:0:0:
42,192,175948,1,0,0:0:0:0:
213,192,175948,1,0,0:0:0:0:
469,192,175948,1,0,0:0:0:0:
128,192,176106,1,0,0:0:0:0:
42,192,176264,1,0,0:0:0:0:
469,192,176264,1,0,0:0:0:0:
128,192,176343,1,0,0:0:0:0:
384,192,176343,1,0,0:0:0:0:
298,192,176422,1,0,0:0:0:0:
213,192,176422,1,0,0:0:0:0:
384,192,176580,1,0,0:0:0:0:
42,192,176738,1,0,0:0:0:0:
469,192,176738,1,0,0:0:0:0:
128,192,176817,1,0,0:0:0:0:
384,192,176817,1,0,0:0:0:0:
213,192,176896,1,0,0:0:0:0:
298,192,176896,1,0,0:0:0:0:
213,192,177054,1,0,0:0:0:0:
298,192,177054,1,0,0:0:0:0:
128,192,177133,1,0,0:0:0:0:
384,192,177133,1,0,0:0:0:0:
469,192,177212,1,0,0:0:0:0:
42,192,177212,128,0,179738:0:0:0:0:
213,192,179738,1,0,0:0:0:0:
298,192,179738,1,0,0:0:0:0:
469,192,179896,128,0,182264:0:0:0:0:
128,192,181001,1,0,0:0:0:0:
213,192,181001,1,0,0:0:0:0:
213,192,181475,1,0,0:0:0:0:
298,192,181475,1,0,0:0:0:0:
42,192,181948,1,0,0:0:0:0:
384,192,181948,1,0,0:0:0:0:
42,192,182106,1,0,0:0:0:0:
42,192,182264,1,0,0:0:0:0:
384,192,182264,1,0,0:0:0:0:
128,192,182422,1,0,0:0:0:0:
213,192,182580,1,0,0:0:0:0:
42,192,182738,1,0,0:0:0:0:
213,192,182896,1,0,0:0:0:0:
298,192,182896,1,0,0:0:0:0:
384,192,183054,1,0,0:0:0:0:
42,192,183212,1,0,0:0:0:0:
298,192,183370,1,0,0:0:0:0:
469,192,183527,1,0,0:0:0:0:
42,192,183685,1,0,0:0:0:0:
213,192,183843,1,0,0:0:0:0:
298,192,184001,1,0,0:0:0:0:
469,192,184159,1,0,0:0:0:0:
42,192,184159,1,0,0:0:0:0:
298,192,184317,1,0,0:0:0:0:
213,192,184475,1,0,0:0:0:0:
42,192,184633,1,0,0:0:0:0:
128,192,184791,1,0,0:0:0:0:
213,192,184948,1,0,0:0:0:0:
298,192,185106,1,0,0:0:0:0:
213,192,185264,1,0,0:0:0:0:
298,192,185422,1,0,0:0:0:0:
42,192,185422,1,0,0:0:0:0:
384,192,185580,1,0,0:0:0:0:
42,192,185738,1,0,0:0:0:0:
213,192,185896,1,0,0:0:0:0:
384,192,186054,1,0,0:0:0:0:
128,192,186212,1,0,0:0:0:0:
298,192,186370,1,0,0:0:0:0:
469,192,186527,1,0,0:0:0:0:
42,192,186685,1,0,0:0:0:0:
128,192,186685,1,0,0:0:0:0:
213,192,186843,1,0,0:0:0:0:
469,192,187001,1,0,0:0:0:0:
298,192,187159,1,0,0:0:0:0:
42,192,187317,1,0,0:0:0:0:
128,192,187475,1,0,0:0:0:0:
213,192,187633,1,0,0:0:0:0:
42,192,187791,1,0,0:0:0:0:
213,192,187948,1,0,0:0:0:0:
298,192,187948,1,0,0:0:0:0:
384,192,188106,1,0,0:0:0:0:
42,192,188264,1,0,0:0:0:0:
298,192,188422,1,0,0:0:0:0:
469,192,188580,1,0,0:0:0:0:
42,192,188738,1,0,0:0:0:0:
213,192,188896,1,0,0:0:0:0:
298,192,189054,1,0,0:0:0:0:
469,192,189212,1,0,0:0:0:0:
42,192,189212,1,0,0:0:0:0:
298,192,189370,1,0,0:0:0:0:
213,192,189527,1,0,0:0:0:0:
42,192,189685,1,0,0:0:0:0:
128,192,189843,1,0,0:0:0:0:
213,192,190001,1,0,0:0:0:0:
298,192,190159,1,0,0:0:0:0:
213,192,190317,1,0,0:0:0:0:
298,192,190475,1,0,0:0:0:0:
42,192,190475,1,0,0:0:0:0:
384,192,190633,1,0,0:0:0:0:
42,192,190791,1,0,0:0:0:0:
213,192,190948,1,0,0:0:0:0:
384,192,191106,1,0,0:0:0:0:
128,192,191264,1,0,0:0:0:0:
298,192,191422,1,0,0:0:0:0:
469,192,191580,1,0,0:0:0:0:
384,192,191580,1,0,0:0:0:0:
42,192,191738,1,0,0:0:0:0:
128,192,191738,1,0,0:0:0:0:
213,192,191896,1,0,0:0:0:0:
298,192,191896,1,0,0:0:0:0:
469,192,192054,1,0,0:0:0:0:
384,192,192054,1,0,0:0:0:0:
213,192,192212,1,0,0:0:0:0:
42,192,192370,1,0,0:0:0:0:
469,192,192370,1,0,0:0:0:0:
128,192,192370,1,0,0:0:0:0:
384,192,192370,128,0,194896:0:0:0:0:
213,192,192527,1,0,0:0:0:0:
298,192,192685,1,0,0:0:0:0:
42,192,192843,1,0,0:0:0:0:
469,192,193001,1,0,0:0:0:0:
128,192,193001,1,0,0:0:0:0:
213,192,193159,1,0,0:0:0:0:
42,192,193317,1,0,0:0:0:0:
213,192,193475,1,0,0:0:0:0:
298,192,193633,1,0,0:0:0:0:
42,192,193791,1,0,0:0:0:0:
213,192,193948,1,0,0:0:0:0:
298,192,194106,1,0,0:0:0:0:
469,192,194264,1,0,0:0:0:0:
42,192,194264,1,0,0:0:0:0:
298,192,194422,1,0,0:0:0:0:
213,192,194580,1,0,0:0:0:0:
42,192,194738,1,0,0:0:0:0:
213,192,194896,128,0,195843:0:0:0:0:
469,192,194896,1,0,0:0:0:0:
384,192,195054,1,0,0:0:0:0:
298,192,195212,1,0,0:0:0:0:
469,192,195370,1,0,0:0:0:0:
298,192,195527,1,0,0:0:0:0:
42,192,195527,1,0,0:0:0:0:
128,192,195685,1,0,0:0:0:0:
469,192,195843,128,0,197422:0:0:0:0:
384,192,195843,1,0,0:0:0:0:
298,192,196001,1,0,0:0:0:0:
128,192,196159,1,0,0:0:0:0:
42,192,196317,1,0,0:0:0:0:
213,192,196317,1,0,0:0:0:0:
42,192,196475,1,0,0:0:0:0:
213,192,196475,1,0,0:0:0:0:
298,192,196633,1,0,0:0:0:0:
213,192,196791,1,0,0:0:0:0:
384,192,196791,1,0,0:0:0:0:
213,192,196948,1,0,0:0:0:0:
384,192,196948,1,0,0:0:0:0:
128,192,197106,1,0,0:0:0:0:
42,192,197264,1,0,0:0:0:0:
384,192,197264,1,0,0:0:0:0:
128,192,197422,128,0,199948:0:0:0:0:
213,192,197422,1,0,0:0:0:0:
298,192,197422,1,0,0:0:0:0:
42,192,197422,1,0,0:0:0:0:
384,192,197580,1,0,0:0:0:0:
469,192,197738,1,0,0:0:0:0:
213,192,197896,1,0,0:0:0:0:
298,192,198054,1,0,0:0:0:0:
42,192,198054,1,0,0:0:0:0:
384,192,198212,1,0,0:0:0:0:
213,192,198370,1,0,0:0:0:0:
384,192,198527,1,0,0:0:0:0:
469,192,198685,1,0,0:0:0:0:
213,192,198843,1,0,0:0:0:0:
298,192,199001,1,0,0:0:0:0:
384,192,199159,1,0,0:0:0:0:
42,192,199317,1,0,0:0:0:0:
213,192,199317,1,0,0:0:0:0:
384,192,199475,1,0,0:0:0:0:
469,192,199633,1,0,0:0:0:0:
213,192,199791,1,0,0:0:0:0:
384,192,199948,1,0,0:0:0:0:
42,192,199948,1,0,0:0:0:0:
469,192,199948,1,0,0:0:0:0:
213,192,200106,1,0,0:0:0:0:
213,192,200264,1,0,0:0:0:0:
128,192,200422,1,0,0:0:0:0:
469,192,200422,1,0,0:0:0:0:
42,192,200422,1,0,0:0:0:0:
298,192,200580,1,0,0:0:0:0:
298,192,200738,1,0,0:0:0:0:
128,192,200896,1,0,0:0:0:0:
384,192,200896,1,0,0:0:0:0:
213,192,200896,1,0,0:0:0:0:
213,192,201212,1,0,0:0:0:0:
298,192,201212,1,0,0:0:0:0:
213,192,201370,1,0,0:0:0:0:
298,192,201370,1,0,0:0:0:0:
213,192,201527,1,0,0:0:0:0:
298,192,201527,1,0,0:0:0:0:
213,192,201685,1,0,0:0:0:0:
298,192,201685,1,0,0:0:0:0:
213,192,201843,1,0,0:0:0:0:
298,192,201843,1,0,0:0:0:0:
213,192,202001,1,0,0:0:0:0:
298,192,202001,1,0,0:0:0:0:
213,192,202159,1,0,0:0:0:0:
298,192,202159,1,0,0:0:0:0:
213,192,202317,1,0,0:0:0:0:
298,192,202317,1,0,0:0:0:0:
469,192,202475,128,0,205001:0:0:0:0:
213,192,202475,128,0,205001:0:0:0:0:
42,192,202475,128,0,205001:0:0:0:0:
128,192,204685,1,0,0:0:0:0:
384,192,204685,1,0,0:0:0:0:
128,192,204843,1,0,0:0:0:0:
384,192,204843,1,0,0:0:0:0:
128,192,205001,1,0,0:0:0:0:
384,192,205001,128,0,205475:0:0:0:0:
298,192,205001,128,0,205475:0:0:0:0:
42,192,205475,128,0,205948:0:0:0:0:
213,192,205475,128,0,205948:0:0:0:0:
128,192,205475,1,0,0:0:0:0:
298,192,205948,128,0,206422:0:0:0:0:
469,192,205948,128,0,206422:0:0:0:0:
384,192,205948,1,0,0:0:0:0:
128,192,206422,128,0,206896:0:0:0:0:
213,192,206422,128,0,206896:0:0:0:0:
42,192,206422,1,0,0:0:0:0:
384,192,206896,1,0,0:0:0:0:
469,192,206896,1,0,0:0:0:0:
298,192,207054,1,0,0:0:0:0:
384,192,207054,1,0,0:0:0:0:
213,192,207212,1,0,0:0:0:0:
298,192,207212,1,0,0:0:0:0:
128,192,207370,1,0,0:0:0:0:
213,192,207370,1,0,0:0:0:0:
469,192,207527,128,0,210054:0:0:0:0:
298,192,207527,128,0,210054:0:0:0:0:
42,192,207527,128,0,210054:0:0:0:0:
128,192,209738,1,0,0:0:0:0:
384,192,209738,1,0,0:0:0:0:
384,192,209896,1,0,0:0:0:0:
128,192,209896,1,0,0:0:0:0:
384,192,210054,1,0,0:0:0:0:
128,192,210054,128,0,210527:0:0:0:0:
213,192,210054,128,0,210527:0:0:0:0:
298,192,210527,128,0,211001:0:0:0:0:
384,192,210527,128,0,211001:0:0:0:0:
42,192,210527,1,0,0:0:0:0:
42,192,211001,128,0,211475:0:0:0:0:
128,192,211001,128,0,211475:0:0:0:0:
469,192,211001,1,0,0:0:0:0:
384,192,211475,128,0,211948:0:0:0:0:
469,192,211475,128,0,211948:0:0:0:0:
213,192,211475,1,0,0:0:0:0:
298,192,211475,1,0,0:0:0:0:
128,192,211633,1,0,0:0:0:0:
298,192,211633,1,0,0:0:0:0:
42,192,211791,1,0,0:0:0:0:
298,192,211791,1,0,0:0:0:0:
128,192,211948,1,0,0:0:0:0:
298,192,211948,1,0,0:0:0:0:
213,192,212106,1,0,0:0:0:0:
298,192,212106,1,0,0:0:0:0:
213,192,212264,1,0,0:0:0:0:
384,192,212264,1,0,0:0:0:0:
213,192,212422,1,0,0:0:0:0:
469,192,212422,1,0,0:0:0:0:
213,192,212580,1,0,0:0:0:0:
42,192,212580,1,0,0:0:0:0:
469,192,212580,1,0,0:0:0:0:
469,192,212738,1,0,0:0:0:0:
42,192,212738,1,0,0:0:0:0:
128,192,212738,1,0,0:0:0:0:
384,192,212896,1,0,0:0:0:0:
469,192,212896,1,0,0:0:0:0:
42,192,212896,1,0,0:0:0:0:
469,192,213054,1,0,0:0:0:0:
42,192,213054,1,0,0:0:0:0:
298,192,213054,1,0,0:0:0:0:
128,192,213212,1,0,0:0:0:0:
384,192,213212,1,0,0:0:0:0:
213,192,213212,1,0,0:0:0:0:
384,192,213370,1,0,0:0:0:0:
128,192,213370,1,0,0:0:0:0:
298,192,213370,1,0,0:0:0:0:
128,192,213527,1,0,0:0:0:0:
384,192,213527,1,0,0:0:0:0:
213,192,213527,1,0,0:0:0:0:
384,192,213685,1,0,0:0:0:0:
128,192,213685,1,0,0:0:0:0:
298,192,213685,1,0,0:0:0:0:
128,192,213843,128,0,215106:0:0:0:0:
384,192,213843,128,0,215106:0:0:0:0:
42,192,213843,1,0,0:0:0:0:
469,192,213843,1,0,0:0:0:0:
213,192,213843,1,0,0:0:0:0:
298,192,213843,1,0,0:0:0:0:
469,192,215106,128,0,215185:0:0:0:0:
213,192,215106,1,0,0:0:0:0:
384,192,215185,128,0,215264:0:0:0:0:
298,192,215264,128,0,215343:0:0:0:0:
42,192,215264,1,0,0:0:0:0:
128,192,215264,1,0,0:0:0:0:
213,192,215343,128,0,215422:0:0:0:0:
298,192,215422,128,0,215501:0:0:0:0:
469,192,215422,1,0,0:0:0:0:
213,192,215501,128,0,215580:0:0:0:0:
384,192,215501,1,0,0:0:0:0:
128,192,215580,128,0,215659:0:0:0:0:
469,192,215580,1,0,0:0:0:0:
298,192,215580,1,0,0:0:0:0:
42,192,215659,128,0,215738:0:0:0:0:
128,192,215738,128,0,215817:0:0:0:0:
384,192,215738,1,0,0:0:0:0:
213,192,215817,128,0,215896:0:0:0:0:
298,192,215896,128,0,215975:0:0:0:0:
469,192,215896,1,0,0:0:0:0:
42,192,215896,1,0,0:0:0:0:
213,192,215975,128,0,216054:0:0:0:0:
298,192,216054,128,0,216133:0:0:0:0:
42,192,216054,1,0,0:0:0:0:
384,192,216133,128,0,216212:0:0:0:0:
128,192,216133,1,0,0:0:0:0:
469,192,216212,128,0,216291:0:0:0:0:
42,192,216212,1,0,0:0:0:0:
213,192,216212,1,0,0:0:0:0:
42,192,216370,128,0,216448:0:0:0:0:
298,192,216370,1,0,0:0:0:0:
128,192,216448,128,0,216527:0:0:0:0:
384,192,216527,1,0,0:0:0:0:
469,192,216527,1,0,0:0:0:0:
213,192,216527,128,0,216606:0:0:0:0:
298,192,216606,128,0,216685:0:0:0:0:
42,192,216685,1,0,0:0:0:0:
213,192,216685,128,0,216764:0:0:0:0:
128,192,216764,1,0,0:0:0:0:
298,192,216764,128,0,216843:0:0:0:0:
213,192,216843,1,0,0:0:0:0:
42,192,216843,1,0,0:0:0:0:
384,192,216843,128,0,216922:0:0:0:0:
469,192,216922,128,0,217001:0:0:0:0:
384,192,217001,128,0,217080:0:0:0:0:
128,192,217001,1,0,0:0:0:0:
298,192,217080,128,0,217159:0:0:0:0:
213,192,217159,128,0,217238:0:0:0:0:
42,192,217159,1,0,0:0:0:0:
469,192,217159,1,0,0:0:0:0:
298,192,217238,128,0,217317:0:0:0:0:
469,192,217317,1,0,0:0:0:0:
213,192,217317,128,0,217396:0:0:0:0:
384,192,217396,1,0,0:0:0:0:
128,192,217396,128,0,217475:0:0:0:0:
298,192,217475,1,0,0:0:0:0:
42,192,217475,128,0,217554:0:0:0:0:
469,192,217475,1,0,0:0:0:0:
384,192,217633,1,0,0:0:0:0:
42,192,217633,1,0,0:0:0:0:
42,192,217712,1,0,0:0:0:0:
298,192,217791,1,0,0:0:0:0:
469,192,217791,1,0,0:0:0:0:
128,192,217791,1,0,0:0:0:0:
298,192,217948,1,0,0:0:0:0:
128,192,217948,1,0,0:0:0:0:
384,192,218027,1,0,0:0:0:0:
128,192,218027,1,0,0:0:0:0:
469,192,218106,1,0,0:0:0:0:
213,192,218106,1,0,0:0:0:0:
298,192,218106,1,0,0:0:0:0:
42,192,218264,1,0,0:0:0:0:
384,192,218264,1,0,0:0:0:0:
42,192,218343,1,0,0:0:0:0:
298,192,218422,1,0,0:0:0:0:
469,192,218422,1,0,0:0:0:0:
128,192,218422,1,0,0:0:0:0:
298,192,218580,1,0,0:0:0:0:
128,192,218580,1,0,0:0:0:0:
384,192,218659,1,0,0:0:0:0:
128,192,218659,1,0,0:0:0:0:
469,192,218738,1,0,0:0:0:0:
213,192,218738,1,0,0:0:0:0:
298,192,218738,1,0,0:0:0:0:
469,192,218896,128,0,219054:0:0:0:0:
128,192,218896,1,0,0:0:0:0:
384,192,219054,128,0,219212:0:0:0:0:
42,192,219054,1,0,0:0:0:0:
213,192,219054,1,0,0:0:0:0:
298,192,219212,128,0,219370:0:0:0:0:
128,192,219212,1,0,0:0:0:0:
213,192,219291,1,0,0:0:0:0:
384,192,219370,128,0,220159:0:0:0:0:
469,192,219370,128,0,220159:0:0:0:0:
42,192,219370,1,0,0:0:0:0:
128,192,219370,1,0,0:0:0:0:
42,192,219527,1,0,0:0:0:0:
128,192,219527,1,0,0:0:0:0:
213,192,219606,1,0,0:0:0:0:
298,192,219606,1,0,0:0:0:0:
42,192,219685,1,0,0:0:0:0:
128,192,219685,1,0,0:0:0:0:
213,192,219764,1,0,0:0:0:0:
298,192,219843,1,0,0:0:0:0:
42,192,219922,1,0,0:0:0:0:
128,192,220001,1,0,0:0:0:0:
298,192,220080,1,0,0:0:0:0:
42,192,220159,1,0,0:0:0:0:
128,192,220238,1,0,0:0:0:0:
213,192,220317,1,0,0:0:0:0:
298,192,220317,1,0,0:0:0:0:
469,192,220317,1,0,0:0:0:0:
128,192,220396,1,0,0:0:0:0:
469,192,220475,128,0,220554:0:0:0:0:
42,192,220475,1,0,0:0:0:0:
298,192,220554,128,0,220633:0:0:0:0:
469,192,220633,128,0,220712:0:0:0:0:
42,192,220633,1,0,0:0:0:0:
213,192,220633,1,0,0:0:0:0:
128,192,220633,1,0,0:0:0:0:
298,192,220712,128,0,220791:0:0:0:0:
128,192,220791,128,0,220870:0:0:0:0:
469,192,220791,1,0,0:0:0:0:
384,192,220870,128,0,220948:0:0:0:0:
128,192,220948,128,0,221027:0:0:0:0:
298,192,220948,1,0,0:0:0:0:
469,192,220948,1,0,0:0:0:0:
213,192,220948,1,0,0:0:0:0:
384,192,221027,128,0,221106:0:0:0:0:
42,192,221106,128,0,221185:0:0:0:0:
469,192,221185,128,0,221264:0:0:0:0:
213,192,221185,1,0,0:0:0:0:
42,192,221264,128,0,221343:0:0:0:0:
298,192,221264,1,0,0:0:0:0:
128,192,221264,1,0,0:0:0:0:
384,192,221264,1,0,0:0:0:0:
469,192,221343,128,0,221422:0:0:0:0:
384,192,221422,1,0,0:0:0:0:
298,192,221501,1,0,0:0:0:0:
213,192,221580,1,0,0:0:0:0:
42,192,221580,1,0,0:0:0:0:
469,192,221580,1,0,0:0:0:0:
298,192,221659,1,0,0:0:0:0:
42,192,221738,128,0,221817:0:0:0:0:
384,192,221738,1,0,0:0:0:0:
213,192,221817,128,0,221896:0:0:0:0:
42,192,221896,128,0,221975:0:0:0:0:
469,192,221896,1,0,0:0:0:0:
298,192,221896,1,0,0:0:0:0:
384,192,221896,1,0,0:0:0:0:
213,192,221975,128,0,222054:0:0:0:0:
384,192,222054,128,0,222133:0:0:0:0:
42,192,222054,1,0,0:0:0:0:
128,192,222133,128,0,222212:0:0:0:0:
384,192,222212,128,0,222291:0:0:0:0:
213,192,222212,1,0,0:0:0:0:
42,192,222212,1,0,0:0:0:0:
298,192,222212,1,0,0:0:0:0:
128,192,222291,128,0,222370:0:0:0:0:
469,192,222370,128,0,222448:0:0:0:0:
42,192,222448,128,0,222527:0:0:0:0:
469,192,222527,128,0,222606:0:0:0:0:
213,192,222527,1,0,0:0:0:0:
128,192,222527,1,0,0:0:0:0:
384,192,222527,1,0,0:0:0:0:
42,192,222606,128,0,222685:0:0:0:0:
469,192,222685,1,0,0:0:0:0:
128,192,222685,1,0,0:0:0:0:
469,192,222764,1,0,0:0:0:0:
298,192,222843,1,0,0:0:0:0:
42,192,222843,1,0,0:0:0:0:
213,192,222843,1,0,0:0:0:0:
298,192,222922,1,0,0:0:0:0:
469,192,223001,1,0,0:0:0:0:
128,192,223001,1,0,0:0:0:0:
469,192,223080,1,0,0:0:0:0:
128,192,223159,1,0,0:0:0:0:
42,192,223159,1,0,0:0:0:0:
384,192,223159,1,0,0:0:0:0:
128,192,223238,1,0,0:0:0:0:
469,192,223317,1,0,0:0:0:0:
213,192,223317,1,0,0:0:0:0:
469,192,223396,1,0,0:0:0:0:
42,192,223475,1,0,0:0:0:0:
384,192,223475,1,0,0:0:0:0:
128,192,223475,1,0,0:0:0:0:
42,192,223554,1,0,0:0:0:0:
298,192,223554,1,0,0:0:0:0:
469,192,223633,1,0,0:0:0:0:
469,192,223712,1,0,0:0:0:0:
213,192,223712,1,0,0:0:0:0:
128,192,223791,1,0,0:0:0:0:
384,192,223791,1,0,0:0:0:0:
42,192,223791,1,0,0:0:0:0:
128,192,223870,1,0,0:0:0:0:
213,192,223948,1,0,0:0:0:0:
469,192,223948,1,0,0:0:0:0:
298,192,223948,1,0,0:0:0:0:
42,192,224027,1,0,0:0:0:0:
384,192,224027,1,0,0:0:0:0:
128,192,224106,1,0,0:0:0:0:
213,192,224106,1,0,0:0:0:0:
469,192,224185,1,0,0:0:0:0:
42,192,224185,1,0,0:0:0:0:
384,192,224264,1,0,0:0:0:0:
298,192,224264,1,0,0:0:0:0:
213,192,224343,1,0,0:0:0:0:
42,192,224343,1,0,0:0:0:0:
128,192,224422,1,0,0:0:0:0:
298,192,224422,1,0,0:0:0:0:
469,192,224422,1,0,0:0:0:0:
42,192,224501,1,0,0:0:0:0:
384,192,224501,1,0,0:0:0:0:
213,192,224580,1,0,0:0:0:0:
298,192,224580,1,0,0:0:0:0:
42,192,224659,1,0,0:0:0:0:
384,192,224659,1,0,0:0:0:0:
128,192,224738,1,0,0:0:0:0:
213,192,224738,1,0,0:0:0:0:
469,192,224817,1,0,0:0:0:0:
298,192,224817,1,0,0:0:0:0:
42,192,224896,1,0,0:0:0:0:
128,192,224896,1,0,0:0:0:0:
384,192,224896,1,0,0:0:0:0:
213,192,224975,1,0,0:0:0:0:
298,192,224975,1,0,0:0:0:0:
384,192,225054,1,0,0:0:0:0:
128,192,225054,1,0,0:0:0:0:
42,192,225133,1,0,0:0:0:0:
469,192,225133,1,0,0:0:0:0:
213,192,225212,1,0,0:0:0:0:
42,192,225291,1,0,0:0:0:0:
298,192,225370,1,0,0:0:0:0:
469,192,225370,1,0,0:0:0:0:
128,192,225370,1,0,0:0:0:0:
42,192,225448,1,0,0:0:0:0:
298,192,225527,1,0,0:0:0:0:
384,192,225606,1,0,0:0:0:0:
128,192,225606,1,0,0:0:0:0:
469,192,225685,1,0,0:0:0:0:
42,192,225685,1,0,0:0:0:0:
213,192,225685,1,0,0:0:0:0:
128,192,225738,1,0,0:0:0:0:
384,192,225791,1,0,0:0:0:0:
213,192,225843,1,0,0:0:0:0:
469,192,225896,1,0,0:0:0:0:
384,192,225948,1,0,0:0:0:0:
42,192,226001,1,0,0:0:0:0:
213,192,226001,1,0,0:0:0:0:
298,192,226001,1,0,0:0:0:0:
384,192,226054,1,0,0:0:0:0:
42,192,226106,1,0,0:0:0:0:
128,192,226212,1,0,0:0:0:0:
213,192,226264,1,0,0:0:0:0:
42,192,226317,1,0,0:0:0:0:
469,192,226317,1,0,0:0:0:0:
384,192,226317,1,0,0:0:0:0:
213,192,226370,1,0,0:0:0:0:
128,192,226422,1,0,0:0:0:0:
469,192,226475,1,0,0:0:0:0:
298,192,226514,1,0,0:0:0:0:
213,192,226554,1,0,0:0:0:0:
42,192,226633,1,0,0:0:0:0:
469,192,226633,1,0,0:0:0:0:
128,192,226633,1,0,0:0:0:0:
213,192,226712,1,0,0:0:0:0:
298,192,226791,1,0,0:0:0:0:
128,192,226870,1,0,0:0:0:0:
384,192,226870,1,0,0:0:0:0:
469,192,226948,1,0,0:0:0:0:
42,192,226948,1,0,0:0:0:0:
213,192,226948,1,0,0:0:0:0:
384,192,227001,1,0,0:0:0:0:
298,192,227054,1,0,0:0:0:0:
213,192,227106,1,0,0:0:0:0:
42,192,227185,1,0,0:0:0:0:
128,192,227264,1,0,0:0:0:0:
298,192,227264,1,0,0:0:0:0:
469,192,227264,1,0,0:0:0:0:
213,192,227343,1,0,0:0:0:0:
298,192,227475,1,0,0:0:0:0:
469,192,227527,1,0,0:0:0:0:
42,192,227580,1,0,0:0:0:0:
213,192,227580,1,0,0:0:0:0:
384,192,227580,1,0,0:0:0:0:
298,192,227659,1,0,0:0:0:0:
42,192,227738,1,0,0:0:0:0:
213,192,227817,1,0,0:0:0:0:
128,192,227896,1,0,0:0:0:0:
469,192,227896,1,0,0:0:0:0:
42,192,227896,1,0,0:0:0:0:
384,192,228014,1,0,0:0:0:0:
298,192,228133,1,0,0:0:0:0:
128,192,228133,1,0,0:0:0:0:
384,192,228212,1,0,0:0:0:0:
469,192,228212,1,0,0:0:0:0:
42,192,228212,1,0,0:0:0:0:
298,192,228291,1,0,0:0:0:0:
42,192,228370,1,0,0:0:0:0:
384,192,228448,1,0,0:0:0:0:
42,192,228527,1,0,0:0:0:0:
298,192,228527,1,0,0:0:0:0:
469,192,228527,1,0,0:0:0:0:
128,192,228606,1,0,0:0:0:0:
42,192,228685,1,0,0:0:0:0:
469,192,228685,1,0,0:0:0:0:
213,192,228764,1,0,0:0:0:0:
298,192,228764,1,0,0:0:0:0:
42,192,228843,1,0,0:0:0:0:
469,192,228843,1,0,0:0:0:0:
42,192,229001,128,0,229633:0:0:0:0:
128,192,229001,1,0,0:0:0:0:
384,192,229001,1,0,0:0:0:0:
469,192,229080,1,0,0:0:0:0:
384,192,229159,1,0,0:0:0:0:
298,192,229159,1,0,0:0:0:0:
128,192,229238,1,0,0:0:0:0:
213,192,229238,1,0,0:0:0:0:
298,192,229317,1,0,0:0:0:0:
384,192,229317,1,0,0:0:0:0:
469,192,229396,1,0,0:0:0:0:
213,192,229475,1,0,0:0:0:0:
384,192,229554,1,0,0:0:0:0:
213,192,229633,1,0,0:0:0:0:
128,192,229633,1,0,0:0:0:0:
469,192,229633,128,0,230264:0:0:0:0:
298,192,229712,1,0,0:0:0:0:
384,192,229712,1,0,0:0:0:0:
213,192,229791,1,0,0:0:0:0:
128,192,229791,1,0,0:0:0:0:
42,192,229870,1,0,0:0:0:0:
298,192,229948,1,0,0:0:0:0:
42,192,230027,1,0,0:0:0:0:
298,192,230106,1,0,0:0:0:0:
384,192,230185,1,0,0:0:0:0:
42,192,230264,128,0,231212:0:0:0:0:
128,192,230264,128,0,231212:0:0:0:0:
213,192,230264,1,0,0:0:0:0:
298,192,230422,1,0,0:0:0:0:
469,192,230422,1,0,0:0:0:0:
384,192,230501,1,0,0:0:0:0:
213,192,230580,1,0,0:0:0:0:
384,192,230659,1,0,0:0:0:0:
298,192,230738,1,0,0:0:0:0:
469,192,230738,1,0,0:0:0:0:
384,192,230896,1,0,0:0:0:0:
298,192,231054,1,0,0:0:0:0:
469,192,231054,1,0,0:0:0:0:
213,192,231133,1,0,0:0:0:0:
384,192,231212,128,0,231291:0:0:0:0:
469,192,231212,128,0,231291:0:0:0:0:
128,192,231291,1,0,0:0:0:0:
469,192,231370,128,0,231448:0:0:0:0:
298,192,231370,128,0,231448:0:0:0:0:
42,192,231448,1,0,0:0:0:0:
469,192,231527,128,0,231606:0:0:0:0:
213,192,231527,128,0,231606:0:0:0:0:
128,192,231606,1,0,0:0:0:0:
42,192,231685,128,0,231764:0:0:0:0:
298,192,231685,128,0,231764:0:0:0:0:
469,192,231764,1,0,0:0:0:0:
42,192,231843,128,0,231922:0:0:0:0:
213,192,231843,128,0,231922:0:0:0:0:
384,192,231922,1,0,0:0:0:0:
42,192,232001,128,0,232080:0:0:0:0:
298,192,232001,128,0,232080:0:0:0:0:
469,192,232080,1,0,0:0:0:0:
42,192,232159,128,0,232238:0:0:0:0:
128,192,232159,128,0,232238:0:0:0:0:
213,192,232238,1,0,0:0:0:0:
42,192,232317,128,0,232396:0:0:0:0:
469,192,232317,128,0,232396:0:0:0:0:
384,192,232396,1,0,0:0:0:0:
213,192,232475,128,0,232554:0:0:0:0:
298,192,232475,128,0,232554:0:0:0:0:
128,192,232554,1,0,0:0:0:0:
42,192,232633,128,0,232712:0:0:0:0:
469,192,232633,128,0,232712:0:0:0:0:
384,192,232712,1,0,0:0:0:0:
213,192,232791,1,0,0:0:0:0:
298,192,232791,1,0,0:0:0:0:
42,192,232791,1,0,0:0:0:0:
128,192,232870,1,0,0:0:0:0:
469,192,232948,1,0,0:0:0:0:
384,192,232948,1,0,0:0:0:0:
213,192,232948,1,0,0:0:0:0:
42,192,233027,1,0,0:0:0:0:
298,192,233027,1,0,0:0:0:0:
469,192,233106,1,0,0:0:0:0:
213,192,233106,1,0,0:0:0:0:
42,192,233185,1,0,0:0:0:0:
298,192,233185,1,0,0:0:0:0:
469,192,233264,1,0,0:0:0:0:
384,192,233264,1,0,0:0:0:0:
128,192,233264,1,0,0:0:0:0:
213,192,233343,1,0,0:0:0:0:
42,192,233422,1,0,0:0:0:0:
469,192,233501,1,0,0:0:0:0:
42,192,233580,1,0,0:0:0:0:
128,192,233580,1,0,0:0:0:0:
384,192,233580,1,0,0:0:0:0:
469,192,233659,1,0,0:0:0:0:
298,192,233659,1,0,0:0:0:0:
42,192,233738,1,0,0:0:0:0:
213,192,233738,1,0,0:0:0:0:
469,192,233817,1,0,0:0:0:0:
298,192,233817,1,0,0:0:0:0:
42,192,233896,1,0,0:0:0:0:
128,192,233896,1,0,0:0:0:0:
384,192,233896,1,0,0:0:0:0:
298,192,233975,1,0,0:0:0:0:
469,192,234054,128,0,235317:0:0:0:0:
213,192,234054,1,0,0:0:0:0:
384,192,234054,1,0,0:0:0:0:
128,192,234133,1,0,0:0:0:0:
42,192,234133,1,0,0:0:0:0:
213,192,234212,1,0,0:0:0:0:
384,192,234212,1,0,0:0:0:0:
42,192,234291,1,0,0:0:0:0:
298,192,234370,1,0,0:0:0:0:
42,192,234448,1,0,0:0:0:0:
128,192,234527,1,0,0:0:0:0:
213,192,234606,1,0,0:0:0:0:
384,192,234685,128,0,235317:0:0:0:0:
42,192,234685,1,0,0:0:0:0:
298,192,234685,1,0,0:0:0:0:
128,192,234764,1,0,0:0:0:0:
298,192,234843,1,0,0:0:0:0:
213,192,234922,1,0,0:0:0:0:
42,192,235001,1,0,0:0:0:0:
213,192,235080,1,0,0:0:0:0:
298,192,235159,1,0,0:0:0:0:
128,192,235238,1,0,0:0:0:0:
42,192,235317,1,0,0:0:0:0:
298,192,235317,1,0,0:0:0:0:
213,192,235475,1,0,0:0:0:0:
42,192,235633,1,0,0:0:0:0:
469,192,235633,1,0,0:0:0:0:
298,192,235633,1,0,0:0:0:0:
128,192,235791,1,0,0:0:0:0:
213,192,235948,1,0,0:0:0:0:
384,192,235948,1,0,0:0:0:0:
213,192,236106,1,0,0:0:0:0:
384,192,236106,1,0,0:0:0:0:
128,192,236264,1,0,0:0:0:0:
298,192,236264,1,0,0:0:0:0:
469,192,236264,1,0,0:0:0:0:
469,192,236422,1,0,0:0:0:0:
42,192,236580,128,0,236896:0:0:0:0:
128,192,236580,1,0,0:0:0:0:
384,192,236580,1,0,0:0:0:0:
298,192,236738,1,0,0:0:0:0:
128,192,236896,1,0,0:0:0:0:
469,192,236896,1,0,0:0:0:0:
213,192,236896,1,0,0:0:0:0:
384,192,237054,1,0,0:0:0:0:
128,192,237212,1,0,0:0:0:0:
298,192,237212,1,0,0:0:0:0:
128,192,237370,1,0,0:0:0:0:
298,192,237370,1,0,0:0:0:0:
42,192,237527,1,0,0:0:0:0:
213,192,237527,1,0,0:0:0:0:
384,192,237527,1,0,0:0:0:0:
298,192,237685,1,0,0:0:0:0:
42,192,237843,1,0,0:0:0:0:
469,192,237843,128,0,238159:0:0:0:0:
384,192,237843,1,0,0:0:0:0:
213,192,238001,1,0,0:0:0:0:
128,192,238159,1,0,0:0:0:0:
298,192,238159,1,0,0:0:0:0:
42,192,238159,1,0,0:0:0:0:
384,192,238317,1,0,0:0:0:0:
298,192,238475,1,0,0:0:0:0:
128,192,238475,1,0,0:0:0:0:
128,192,238633,1,0,0:0:0:0:
298,192,238633,1,0,0:0:0:0:
42,192,238791,1,0,0:0:0:0:
384,192,238791,1,0,0:0:0:0:
469,192,238791,1,0,0:0:0:0:
213,192,238948,1,0,0:0:0:0:
469,192,239106,128,0,239264:0:0:0:0:
298,192,239106,1,0,0:0:0:0:
384,192,239264,128,0,239422:0:0:0:0:
42,192,239264,1,0,0:0:0:0:
213,192,239264,1,0,0:0:0:0:
128,192,239264,1,0,0:0:0:0:
298,192,239422,128,0,239580:0:0:0:0:
42,192,239422,1,0,0:0:0:0:
213,192,239580,128,0,239738:0:0:0:0:
42,192,239580,1,0,0:0:0:0:
298,192,239738,128,0,239896:0:0:0:0:
384,192,239738,1,0,0:0:0:0:
469,192,239738,1,0,0:0:0:0:
128,192,239738,1,0,0:0:0:0:
213,192,239896,128,0,240054:0:0:0:0:
469,192,239896,1,0,0:0:0:0:
128,192,240054,128,0,240212:0:0:0:0:
298,192,240054,1,0,0:0:0:0:
42,192,240054,1,0,0:0:0:0:
384,192,240054,1,0,0:0:0:0:
42,192,240212,128,0,240370:0:0:0:0:
213,192,240212,1,0,0:0:0:0:
469,192,240212,1,0,0:0:0:0:
384,192,240291,1,0,0:0:0:0:
213,192,240370,1,0,0:0:0:0:
469,192,240370,1,0,0:0:0:0:
128,192,240527,1,0,0:0:0:0:
42,192,240685,1,0,0:0:0:0:
469,192,240685,1,0,0:0:0:0:
298,192,240685,1,0,0:0:0:0:
128,192,240843,1,0,0:0:0:0:
213,192,241001,1,0,0:0:0:0:
384,192,241001,1,0,0:0:0:0:
213,192,241159,1,0,0:0:0:0:
384,192,241159,1,0,0:0:0:0:
128,192,241317,1,0,0:0:0:0:
298,192,241317,1,0,0:0:0:0:
469,192,241317,1,0,0:0:0:0:
469,192,241475,1,0,0:0:0:0:
42,192,241633,128,0,241948:0:0:0:0:
128,192,241633,1,0,0:0:0:0:
384,192,241633,1,0,0:0:0:0:
298,192,241791,1,0,0:0:0:0:
213,192,241791,1,0,0:0:0:0:
128,192,241948,1,0,0:0:0:0:
469,192,241948,1,0,0:0:0:0:
213,192,241948,1,0,0:0:0:0:
384,192,242106,1,0,0:0:0:0:
298,192,242106,1,0,0:0:0:0:
128,192,242264,1,0,0:0:0:0:
298,192,242264,1,0,0:0:0:0:
128,192,242422,1,0,0:0:0:0:
298,192,242422,1,0,0:0:0:0:
42,192,242580,1,0,0:0:0:0:
213,192,242580,1,0,0:0:0:0:
384,192,242580,1,0,0:0:0:0:
298,192,242738,1,0,0:0:0:0:
384,192,242738,1,0,0:0:0:0:
128,192,242896,128,0,242975:0:0:0:0:
42,192,242896,1,0,0:0:0:0:
469,192,242896,1,0,0:0:0:0:
384,192,242975,128,0,243054:0:0:0:0:
213,192,242975,1,0,0:0:0:0:
298,192,242975,1,0,0:0:0:0:
128,192,243054,128,0,243133:0:0:0:0:
42,192,243054,1,0,0:0:0:0:
469,192,243054,1,0,0:0:0:0:
384,192,243133,128,0,243212:0:0:0:0:
128,192,243212,128,0,243291:0:0:0:0:
384,192,243291,128,0,243370:0:0:0:0:
128,192,243370,128,0,243448:0:0:0:0:
42,192,243370,1,0,0:0:0:0:
469,192,243370,1,0,0:0:0:0:
384,192,243448,128,0,243527:0:0:0:0:
213,192,243448,1,0,0:0:0:0:
298,192,243448,1,0,0:0:0:0:
128,192,243527,128,0,243606:0:0:0:0:
42,192,243527,1,0,0:0:0:0:
469,192,243527,1,0,0:0:0:0:
384,192,243606,128,0,243685:0:0:0:0:
128,192,243685,128,0,243764:0:0:0:0:
384,192,243764,128,0,243843:0:0:0:0:
42,192,243843,1,0,0:0:0:0:
128,192,243843,128,0,243922:0:0:0:0:
469,192,243843,1,0,0:0:0:0:
384,192,243922,128,0,244001:0:0:0:0:
213,192,243922,1,0,0:0:0:0:
298,192,243922,1,0,0:0:0:0:
128,192,244001,128,0,244080:0:0:0:0:
42,192,244001,1,0,0:0:0:0:
469,192,244001,1,0,0:0:0:0:
384,192,244080,128,0,244159:0:0:0:0:
42,192,244159,1,0,0:0:0:0:
128,192,244159,1,0,0:0:0:0:
469,192,244159,1,0,0:0:0:0:
213,192,244238,1,0,0:0:0:0:
298,192,244238,1,0,0:0:0:0:
128,192,244317,1,0,0:0:0:0:
384,192,244317,1,0,0:0:0:0:
298,192,244396,1,0,0:0:0:0:
213,192,244396,1,0,0:0:0:0:
128,192,244475,1,0,0:0:0:0:
42,192,244475,1,0,0:0:0:0:
469,192,244475,1,0,0:0:0:0:
384,192,244554,1,0,0:0:0:0:
298,192,244554,1,0,0:0:0:0:
128,192,244633,1,0,0:0:0:0:
213,192,244633,1,0,0:0:0:0:
469,192,244712,1,0,0:0:0:0:
384,192,244712,1,0,0:0:0:0:
213,192,244791,1,0,0:0:0:0:
42,192,244791,1,0,0:0:0:0:
298,192,244791,1,0,0:0:0:0:
469,192,244870,1,0,0:0:0:0:
384,192,244870,1,0,0:0:0:0:
213,192,244948,1,0,0:0:0:0:
128,192,244948,1,0,0:0:0:0:
384,192,245027,1,0,0:0:0:0:
42,192,245027,1,0,0:0:0:0:
298,192,245106,1,0,0:0:0:0:
213,192,245106,1,0,0:0:0:0:
469,192,245106,1,0,0:0:0:0:
384,192,245185,1,0,0:0:0:0:
42,192,245185,1,0,0:0:0:0:
128,192,245264,1,0,0:0:0:0:
298,192,245264,1,0,0:0:0:0:
384,192,245343,1,0,0:0:0:0:
469,192,245343,1,0,0:0:0:0:
42,192,245422,1,0,0:0:0:0:
128,192,245462,1,0,0:0:0:0:
213,192,245501,1,0,0:0:0:0:
469,192,245580,1,0,0:0:0:0:
384,192,245580,1,0,0:0:0:0:
128,192,245580,1,0,0:0:0:0:
298,192,245659,1,0,0:0:0:0:
42,192,245738,1,0,0:0:0:0:
213,192,245817,1,0,0:0:0:0:
128,192,245856,1,0,0:0:0:0:
384,192,245896,1,0,0:0:0:0:
469,192,245896,1,0,0:0:0:0:
42,192,245896,1,0,0:0:0:0:
213,192,245975,1,0,0:0:0:0:
128,192,246054,1,0,0:0:0:0:
298,192,246133,1,0,0:0:0:0:
469,192,246212,1,0,0:0:0:0:
384,192,246212,1,0,0:0:0:0:
213,192,246251,1,0,0:0:0:0:
42,192,246291,1,0,0:0:0:0:
298,192,246330,1,0,0:0:0:0:
128,192,246370,1,0,0:0:0:0:
298,192,246448,1,0,0:0:0:0:
213,192,246527,1,0,0:0:0:0:
42,192,246527,1,0,0:0:0:0:
128,192,246527,1,0,0:0:0:0:
469,192,246527,1,0,0:0:0:0:
298,192,246606,1,0,0:0:0:0:
469,192,246685,1,0,0:0:0:0:
298,192,246764,1,0,0:0:0:0:
42,192,246843,1,0,0:0:0:0:
128,192,246843,1,0,0:0:0:0:
384,192,246843,1,0,0:0:0:0:
213,192,246922,1,0,0:0:0:0:
469,192,247001,1,0,0:0:0:0:
298,192,247080,1,0,0:0:0:0:
42,192,247159,1,0,0:0:0:0:
128,192,247159,1,0,0:0:0:0:
384,192,247159,1,0,0:0:0:0:
213,192,247238,1,0,0:0:0:0:
469,192,247317,1,0,0:0:0:0:
298,192,247396,1,0,0:0:0:0:
42,192,247475,1,0,0:0:0:0:
128,192,247475,1,0,0:0:0:0:
384,192,247475,1,0,0:0:0:0:
213,192,247554,1,0,0:0:0:0:
42,192,247633,1,0,0:0:0:0:
213,192,247712,1,0,0:0:0:0:
298,192,247791,1,0,0:0:0:0:
384,192,247791,1,0,0:0:0:0:
469,192,247791,1,0,0:0:0:0:
213,192,247870,1,0,0:0:0:0:
42,192,247948,1,0,0:0:0:0:
128,192,248001,1,0,0:0:0:0:
213,192,248054,1,0,0:0:0:0:
384,192,248106,1,0,0:0:0:0:
469,192,248106,1,0,0:0:0:0:
298,192,248106,1,0,0:0:0:0:
128,192,248185,1,0,0:0:0:0:
213,192,248264,1,0,0:0:0:0:
42,192,248343,1,0,0:0:0:0:
469,192,248422,1,0,0:0:0:0:
384,192,248422,1,0,0:0:0:0:
213,192,248422,1,0,0:0:0:0:
42,192,248501,1,0,0:0:0:0:
213,192,248580,1,0,0:0:0:0:
128,192,248633,1,0,0:0:0:0:
42,192,248685,1,0,0:0:0:0:
384,192,248738,1,0,0:0:0:0:
469,192,248738,1,0,0:0:0:0:
298,192,248738,1,0,0:0:0:0:
128,192,248817,1,0,0:0:0:0:
298,192,248896,1,0,0:0:0:0:
128,192,248975,1,0,0:0:0:0:
42,192,249054,1,0,0:0:0:0:
469,192,249054,1,0,0:0:0:0:
213,192,249054,128,0,249212:0:0:0:0:
298,192,249054,1,0,0:0:0:0:
469,192,249212,1,0,0:0:0:0:
384,192,249212,1,0,0:0:0:0:
469,192,249291,1,0,0:0:0:0:
384,192,249291,1,0,0:0:0:0:
42,192,249370,1,0,0:0:0:0:
128,192,249370,1,0,0:0:0:0:
42,192,249448,1,0,0:0:0:0:
128,192,249448,1,0,0:0:0:0:
384,192,249527,1,0,0:0:0:0:
298,192,249527,1,0,0:0:0:0:
384,192,249606,1,0,0:0:0:0:
298,192,249606,1,0,0:0:0:0:
128,192,249685,1,0,0:0:0:0:
213,192,249685,1,0,0:0:0:0:
128,192,249764,1,0,0:0:0:0:
213,192,249764,1,0,0:0:0:0:
213,192,249843,128,0,250475:0:0:0:0:
298,192,249843,128,0,250475:0:0:0:0:
42,192,250001,1,0,0:0:0:0:
469,192,250001,1,0,0:0:0:0:
42,192,250080,1,0,0:0:0:0:
469,192,250080,1,0,0:0:0:0:
128,192,250159,1,0,0:0:0:0:
384,192,250159,1,0,0:0:0:0:
42,192,250317,1,0,0:0:0:0:
469,192,250317,1,0,0:0:0:0:
42,192,250396,1,0,0:0:0:0:
469,192,250396,1,0,0:0:0:0:
128,192,250475,1,0,0:0:0:0:
384,192,250475,1,0,0:0:0:0:
128,192,250554,1,0,0:0:0:0:
298,192,250633,1,0,0:0:0:0:
42,192,250633,1,0,0:0:0:0:
384,192,250712,1,0,0:0:0:0:
128,192,250791,1,0,0:0:0:0:
213,192,250791,1,0,0:0:0:0:
469,192,250870,1,0,0:0:0:0:
298,192,250870,1,0,0:0:0:0:
42,192,250948,1,0,0:0:0:0:
384,192,250948,1,0,0:0:0:0:
298,192,251027,1,0,0:0:0:0:
384,192,251106,1,0,0:0:0:0:
213,192,251106,1,0,0:0:0:0:
213,192,251185,1,0,0:0:0:0:
42,192,251264,1,0,0:0:0:0:
469,192,251264,1,0,0:0:0:0:
128,192,251343,1,0,0:0:0:0:
469,192,251422,1,0,0:0:0:0:
213,192,251422,1,0,0:0:0:0:
42,192,251501,1,0,0:0:0:0:
298,192,251501,1,0,0:0:0:0:
384,192,251580,1,0,0:0:0:0:
213,192,251580,1,0,0:0:0:0:
128,192,251659,1,0,0:0:0:0:
42,192,251738,1,0,0:0:0:0:
298,192,251738,1,0,0:0:0:0:
298,192,251817,1,0,0:0:0:0:
128,192,251896,1,0,0:0:0:0:
213,192,251896,1,0,0:0:0:0:
384,192,251975,1,0,0:0:0:0:
42,192,252054,1,0,0:0:0:0:
298,192,252054,1,0,0:0:0:0:
469,192,252133,1,0,0:0:0:0:
213,192,252133,1,0,0:0:0:0:
128,192,252212,1,0,0:0:0:0:
298,192,252212,1,0,0:0:0:0:
469,192,252291,1,0,0:0:0:0:
42,192,252370,1,0,0:0:0:0:
384,192,252370,1,0,0:0:0:0:
384,192,252448,1,0,0:0:0:0:
128,192,252527,1,0,0:0:0:0:
298,192,252527,1,0,0:0:0:0:
384,192,252606,1,0,0:0:0:0:
469,192,252685,1,0,0:0:0:0:
42,192,252685,1,0,0:0:0:0:
213,192,252764,1,0,0:0:0:0:
298,192,252764,1,0,0:0:0:0:
384,192,252843,1,0,0:0:0:0:
469,192,252843,1,0,0:0:0:0:
128,192,252922,1,0,0:0:0:0:
213,192,253001,1,0,0:0:0:0:
42,192,253054,1,0,0:0:0:0:
298,192,253106,1,0,0:0:0:0:
128,192,253159,1,0,0:0:0:0:
384,192,253159,1,0,0:0:0:0:
213,192,253238,1,0,0:0:0:0:
298,192,253317,1,0,0:0:0:0:
469,192,253317,1,0,0:0:0:0:
213,192,253370,1,0,0:0:0:0:
128,192,253475,1,0,0:0:0:0:
384,192,253475,1,0,0:0:0:0:
213,192,253527,1,0,0:0:0:0:
298,192,253633,1,0,0:0:0:0:
42,192,253633,1,0,0:0:0:0:
128,192,253685,1,0,0:0:0:0:
42,192,253791,1,0,0:0:0:0:
213,192,253791,1,0,0:0:0:0:
384,192,253843,1,0,0:0:0:0:
128,192,253948,1,0,0:0:0:0:
469,192,253948,1,0,0:0:0:0:
298,192,254001,1,0,0:0:0:0:
42,192,254106,1,0,0:0:0:0:
213,192,254106,1,0,0:0:0:0:
384,192,254159,1,0,0:0:0:0:
128,192,254264,1,0,0:0:0:0:
298,192,254264,1,0,0:0:0:0:
469,192,254343,1,0,0:0:0:0:
42,192,254343,1,0,0:0:0:0:
213,192,254422,1,0,0:0:0:0:
384,192,254422,1,0,0:0:0:0:
42,192,254501,1,0,0:0:0:0:
128,192,254501,1,0,0:0:0:0:
469,192,254580,1,0,0:0:0:0:
384,192,254580,1,0,0:0:0:0:
128,192,254659,1,0,0:0:0:0:
42,192,254659,1,0,0:0:0:0:
213,192,254738,1,0,0:0:0:0:
384,192,254738,1,0,0:0:0:0:
128,192,254817,1,0,0:0:0:0:
298,192,254817,1,0,0:0:0:0:
384,192,254896,1,0,0:0:0:0:
469,192,254896,1,0,0:0:0:0:
42,192,254896,1,0,0:0:0:0:
213,192,254975,1,0,0:0:0:0:
298,192,254975,1,0,0:0:0:0:
384,192,255054,1,0,0:0:0:0:
128,192,255054,1,0,0:0:0:0:
298,192,255133,1,0,0:0:0:0:
213,192,255133,1,0,0:0:0:0:
42,192,255212,1,0,0:0:0:0:
128,192,255212,1,0,0:0:0:0:
469,192,255212,1,0,0:0:0:0:
298,192,255291,1,0,0:0:0:0:
213,192,255291,1,0,0:0:0:0:
384,192,255370,1,0,0:0:0:0:
128,192,255370,1,0,0:0:0:0:
298,192,255448,1,0,0:0:0:0:
213,192,255448,1,0,0:0:0:0:
469,192,255527,1,0,0:0:0:0:
42,192,255527,128,0,255685:0:0:0:0:
384,192,255527,1,0,0:0:0:0:
128,192,255685,128,0,255843:0:0:0:0:
298,192,255685,1,0,0:0:0:0:
213,192,255764,1,0,0:0:0:0:
469,192,255843,128,0,256001:0:0:0:0:
298,192,255843,1,0,0:0:0:0:
213,192,255922,1,0,0:0:0:0:
384,192,256001,128,0,256317:0:0:0:0:
298,192,256001,1,0,0:0:0:0:
42,192,256080,1,0,0:0:0:0:
298,192,256159,1,0,0:0:0:0:
42,192,256238,1,0,0:0:0:0:
213,192,256317,128,0,256475:0:0:0:0:
469,192,256317,1,0,0:0:0:0:
298,192,256396,1,0,0:0:0:0:
128,192,256475,128,0,256633:0:0:0:0:
469,192,256475,1,0,0:0:0:0:
298,192,256554,1,0,0:0:0:0:
42,192,256633,128,0,256791:0:0:0:0:
469,192,256633,1,0,0:0:0:0:
298,192,256712,1,0,0:0:0:0:
469,192,256791,128,0,256948:0:0:0:0:
128,192,256791,1,0,0:0:0:0:
213,192,256791,1,0,0:0:0:0:
384,192,256948,128,0,257106:0:0:0:0:
42,192,256948,1,0,0:0:0:0:
213,192,257027,1,0,0:0:0:0:
298,192,257106,128,0,257264:0:0:0:0:
42,192,257106,1,0,0:0:0:0:
213,192,257185,1,0,0:0:0:0:
42,192,257264,128,0,257580:0:0:0:0:
469,192,257264,128,0,257580:0:0:0:0:
128,192,257264,1,0,0:0:0:0:
384,192,257343,1,0,0:0:0:0:
128,192,257422,1,0,0:0:0:0:
384,192,257501,1,0,0:0:0:0:
298,192,257580,128,0,257738:0:0:0:0:
213,192,257580,1,0,0:0:0:0:
42,192,257659,1,0,0:0:0:0:
384,192,257738,128,0,257896:0:0:0:0:
213,192,257738,1,0,0:0:0:0:
42,192,257817,1,0,0:0:0:0:
469,192,257896,128,0,258054:0:0:0:0:
213,192,257896,1,0,0:0:0:0:
298,192,257975,1,0,0:0:0:0:
42,192,258054,128,0,259001:0:0:0:0:
128,192,258054,1,0,0:0:0:0:
384,192,258054,1,0,0:0:0:0:
298,192,258212,1,0,0:0:0:0:
469,192,258212,1,0,0:0:0:0:
128,192,258291,1,0,0:0:0:0:
298,192,258370,1,0,0:0:0:0:
128,192,258448,1,0,0:0:0:0:
469,192,258527,1,0,0:0:0:0:
384,192,258527,1,0,0:0:0:0:
213,192,258606,1,0,0:0:0:0:
384,192,258685,1,0,0:0:0:0:
213,192,258764,1,0,0:0:0:0:
384,192,258843,1,0,0:0:0:0:
469,192,258843,1,0,0:0:0:0:
213,192,258922,1,0,0:0:0:0:
469,192,259001,128,0,259159:0:0:0:0:
298,192,259001,1,0,0:0:0:0:
128,192,259080,1,0,0:0:0:0:
384,192,259159,128,0,259317:0:0:0:0:
213,192,259159,1,0,0:0:0:0:
298,192,259159,1,0,0:0:0:0:
42,192,259238,1,0,0:0:0:0:
469,192,259317,128,0,259422:0:0:0:0:
128,192,259317,1,0,0:0:0:0:
213,192,259317,1,0,0:0:0:0:
42,192,259396,1,0,0:0:0:0:
384,192,259422,128,0,259527:0:0:0:0:
213,192,259475,1,0,0:0:0:0:
298,192,259527,128,0,259633:0:0:0:0:
42,192,259554,1,0,0:0:0:0:
469,192,259633,128,0,259738:0:0:0:0:
213,192,259633,1,0,0:0:0:0:
42,192,259712,1,0,0:0:0:0:
384,192,259738,128,0,259843:0:0:0:0:
213,192,259791,1,0,0:0:0:0:
298,192,259843,128,0,259948:0:0:0:0:
42,192,259870,1,0,0:0:0:0:
384,192,259948,128,0,260054:0:0:0:0:
128,192,259948,1,0,0:0:0:0:
213,192,259948,1,0,0:0:0:0:
42,192,260027,1,0,0:0:0:0:
469,192,260054,128,0,260159:0:0:0:0:
213,192,260106,1,0,0:0:0:0:
298,192,260159,128,0,260264:0:0:0:0:
42,192,260185,1,0,0:0:0:0:
469,192,260264,128,0,260370:0:0:0:0:
213,192,260264,1,0,0:0:0:0:
42,192,260343,1,0,0:0:0:0:
213,192,260422,1,0,0:0:0:0:
298,192,260501,1,0,0:0:0:0:
384,192,260580,128,0,260738:0:0:0:0:
469,192,260580,128,0,260738:0:0:0:0:
42,192,260580,128,0,260698:0:0:0:0:
213,192,260698,128,0,260817:0:0:0:0:
298,192,260738,1,0,0:0:0:0:
469,192,260817,1,0,0:0:0:0:
42,192,260817,128,0,260896:0:0:0:0:
298,192,260896,1,0,0:0:0:0:
128,192,260896,128,0,261014:0:0:0:0:
469,192,260975,1,0,0:0:0:0:
213,192,261014,128,0,261133:0:0:0:0:
298,192,261054,1,0,0:0:0:0:
42,192,261133,128,0,261212:0:0:0:0:
469,192,261133,1,0,0:0:0:0:
298,192,261212,1,0,0:0:0:0:
128,192,261212,128,0,261330:0:0:0:0:
469,192,261291,1,0,0:0:0:0:
213,192,261330,128,0,261448:0:0:0:0:
298,192,261370,1,0,0:0:0:0:
42,192,261448,128,0,261527:0:0:0:0:
469,192,261448,1,0,0:0:0:0:
298,192,261527,1,0,0:0:0:0:
128,192,261527,128,0,261646:0:0:0:0:
469,192,261606,1,0,0:0:0:0:
213,192,261646,128,0,261764:0:0:0:0:
298,192,261685,1,0,0:0:0:0:
384,192,261764,1,0,0:0:0:0:
42,192,261843,128,0,262001:0:0:0:0:
128,192,261843,128,0,262001:0:0:0:0:
469,192,261843,128,0,261962:0:0:0:0:
298,192,261962,128,0,262080:0:0:0:0:
213,192,262001,1,0,0:0:0:0:
469,192,262080,128,0,262159:0:0:0:0:
42,192,262080,1,0,0:0:0:0:
384,192,262159,128,0,262277:0:0:0:0:
213,192,262159,1,0,0:0:0:0:
42,192,262238,1,0,0:0:0:0:
298,192,262277,128,0,262396:0:0:0:0:
213,192,262317,1,0,0:0:0:0:
469,192,262396,128,0,262475:0:0:0:0:
42,192,262396,1,0,0:0:0:0:
384,192,262475,128,0,262593:0:0:0:0:
213,192,262475,1,0,0:0:0:0:
42,192,262554,1,0,0:0:0:0:
298,192,262593,128,0,262712:0:0:0:0:
213,192,262633,1,0,0:0:0:0:
469,192,262712,128,0,262791:0:0:0:0:
42,192,262712,1,0,0:0:0:0:
384,192,262791,128,0,262909:0:0:0:0:
213,192,262791,1,0,0:0:0:0:
42,192,262870,1,0,0:0:0:0:
298,192,262909,128,0,263027:0:0:0:0:
213,192,262948,1,0,0:0:0:0:
128,192,263027,1,0,0:0:0:0:
42,192,263106,1,0,0:0:0:0:
213,192,263106,1,0,0:0:0:0:
384,192,263185,1,0,0:0:0:0:
469,192,263185,1,0,0:0:0:0:
42,192,263264,1,0,0:0:0:0:
128,192,263264,1,0,0:0:0:0:
298,192,263264,1,0,0:0:0:0:
213,192,263343,1,0,0:0:0:0:
384,192,263343,1,0,0:0:0:0:
469,192,263422,1,0,0:0:0:0:
298,192,263422,1,0,0:0:0:0:
42,192,263501,1,0,0:0:0:0:
128,192,263501,1,0,0:0:0:0:
469,192,263580,1,0,0:0:0:0:
213,192,263580,1,0,0:0:0:0:
384,192,263580,1,0,0:0:0:0:
128,192,263659,1,0,0:0:0:0:
298,192,263659,1,0,0:0:0:0:
42,192,263738,1,0,0:0:0:0:
213,192,263738,1,0,0:0:0:0:
298,192,263817,1,0,0:0:0:0:
384,192,263817,1,0,0:0:0:0:
128,192,263896,1,0,0:0:0:0:
213,192,263896,1,0,0:0:0:0:
42,192,263896,1,0,0:0:0:0:
298,192,263975,1,0,0:0:0:0:
469,192,263975,1,0,0:0:0:0:
213,192,264054,1,0,0:0:0:0:
384,192,264054,1,0,0:0:0:0:
128,192,264133,1,0,0:0:0:0:
298,192,264133,1,0,0:0:0:0:
42,192,264212,1,0,0:0:0:0:
384,192,264212,1,0,0:0:0:0:
469,192,264212,1,0,0:0:0:0:
213,192,264291,1,0,0:0:0:0:
298,192,264291,1,0,0:0:0:0:
384,192,264370,1,0,0:0:0:0:
469,192,264370,1,0,0:0:0:0:
128,192,264448,1,0,0:0:0:0:
213,192,264448,1,0,0:0:0:0:
42,192,264527,1,0,0:0:0:0:
298,192,264527,1,0,0:0:0:0:
469,192,264527,1,0,0:0:0:0:
128,192,264606,1,0,0:0:0:0:
384,192,264606,1,0,0:0:0:0:
213,192,264685,1,0,0:0:0:0:
298,192,264685,1,0,0:0:0:0:
128,192,264764,1,0,0:0:0:0:
384,192,264764,1,0,0:0:0:0:
42,192,264843,1,0,0:0:0:0:
213,192,264843,1,0,0:0:0:0:
469,192,264843,1,0,0:0:0:0:
298,192,264922,1,0,0:0:0:0:
384,192,264922,1,0,0:0:0:0:
42,192,265001,1,0,0:0:0:0:
469,192,265001,1,0,0:0:0:0:
128,192,265080,1,0,0:0:0:0:
298,192,265080,1,0,0:0:0:0:
213,192,265159,1,0,0:0:0:0:
384,192,265159,1,0,0:0:0:0:
469,192,265159,1,0,0:0:0:0:
42,192,265238,1,0,0:0:0:0:
128,192,265238,1,0,0:0:0:0:
213,192,265317,1,0,0:0:0:0:
384,192,265317,1,0,0:0:0:0:
298,192,265396,1,0,0:0:0:0:
469,192,265396,1,0,0:0:0:0:
42,192,265475,1,0,0:0:0:0:
128,192,265475,1,0,0:0:0:0:
384,192,265475,1,0,0:0:0:0:
298,192,265554,1,0,0:0:0:0:
469,192,265554,1,0,0:0:0:0:
42,192,265633,1,0,0:0:0:0:
213,192,265633,1,0,0:0:0:0:
384,192,265633,1,0,0:0:0:0:
128,192,265712,1,0,0:0:0:0:
213,192,265791,1,0,0:0:0:0:
384,192,265791,1,0,0:0:0:0:
42,192,265870,1,0,0:0:0:0:
469,192,265948,1,0,0:0:0:0:
128,192,265948,1,0,0:0:0:0:
213,192,265948,1,0,0:0:0:0:
298,192,266027,1,0,0:0:0:0:
42,192,266027,1,0,0:0:0:0:
128,192,266106,1,0,0:0:0:0:
213,192,266106,1,0,0:0:0:0:
469,192,266106,1,0,0:0:0:0:
298,192,266185,1,0,0:0:0:0:
128,192,266264,1,0,0:0:0:0:
384,192,266264,1,0,0:0:0:0:
469,192,266264,1,0,0:0:0:0:
42,192,266343,1,0,0:0:0:0:
213,192,266422,1,0,0:0:0:0:
469,192,266422,1,0,0:0:0:0:
384,192,266422,1,0,0:0:0:0:
298,192,266501,1,0,0:0:0:0:
128,192,266501,1,0,0:0:0:0:
469,192,266580,1,0,0:0:0:0:
42,192,266580,1,0,0:0:0:0:
213,192,266580,1,0,0:0:0:0:
384,192,266659,1,0,0:0:0:0:
298,192,266738,1,0,0:0:0:0:
128,192,266738,1,0,0:0:0:0:
213,192,266738,1,0,0:0:0:0:
42,192,266817,1,0,0:0:0:0:
469,192,266817,1,0,0:0:0:0:
213,192,266896,1,0,0:0:0:0:
128,192,266896,1,0,0:0:0:0:
384,192,266896,1,0,0:0:0:0:
42,192,266975,1,0,0:0:0:0:
469,192,266975,1,0,0:0:0:0:
213,192,267054,1,0,0:0:0:0:
384,192,267054,1,0,0:0:0:0:
469,192,267133,1,0,0:0:0:0:
42,192,267133,1,0,0:0:0:0:
384,192,267212,1,0,0:0:0:0:
213,192,267212,1,0,0:0:0:0:
298,192,267212,1,0,0:0:0:0:
128,192,267291,1,0,0:0:0:0:
469,192,267291,1,0,0:0:0:0:
42,192,267370,1,0,0:0:0:0:
298,192,267370,1,0,0:0:0:0:
213,192,267448,1,0,0:0:0:0:
128,192,267448,1,0,0:0:0:0:
384,192,267527,1,0,0:0:0:0:
42,192,267527,1,0,0:0:0:0:
469,192,267527,1,0,0:0:0:0:
298,192,267606,1,0,0:0:0:0:
213,192,267606,1,0,0:0:0:0:
469,192,267685,1,0,0:0:0:0:
42,192,267685,1,0,0:0:0:0:
128,192,267764,1,0,0:0:0:0:
213,192,267764,1,0,0:0:0:0:
298,192,267843,1,0,0:0:0:0:
384,192,267843,1,0,0:0:0:0:
42,192,267843,1,0,0:0:0:0:
469,192,267922,1,0,0:0:0:0:
128,192,267922,1,0,0:0:0:0:
213,192,268001,1,0,0:0:0:0:
298,192,268001,1,0,0:0:0:0:
128,192,268080,1,0,0:0:0:0:
384,192,268080,1,0,0:0:0:0:
42,192,268159,1,0,0:0:0:0:
469,192,268159,1,0,0:0:0:0:
298,192,268159,1,0,0:0:0:0:
213,192,268159,1,0,0:0:0:0:
42,192,268317,1,0,0:0:0:0:
469,192,268317,1,0,0:0:0:0:
213,192,268317,1,0,0:0:0:0:
298,192,268396,1,0,0:0:0:0:
469,192,268475,1,0,0:0:0:0:
298,192,268554,1,0,0:0:0:0:
128,192,268554,1,0,0:0:0:0:
42,192,268633,1,0,0:0:0:0:
213,192,268633,1,0,0:0:0:0:
469,192,268633,1,0,0:0:0:0:
298,192,268712,1,0,0:0:0:0:
469,192,268791,1,0,0:0:0:0:
213,192,268791,1,0,0:0:0:0:
42,192,268948,1,0,0:0:0:0:
128,192,268948,1,0,0:0:0:0:
469,192,268948,1,0,0:0:0:0:
298,192,269027,1,0,0:0:0:0:
213,192,269027,1,0,0:0:0:0:
469,192,269106,1,0,0:0:0:0:
213,192,269185,1,0,0:0:0:0:
298,192,269185,1,0,0:0:0:0:
128,192,269264,1,0,0:0:0:0:
469,192,269264,1,0,0:0:0:0:
42,192,269264,1,0,0:0:0:0:
298,192,269343,1,0,0:0:0:0:
128,192,269422,1,0,0:0:0:0:
469,192,269422,1,0,0:0:0:0:
469,192,269580,1,0,0:0:0:0:
42,192,269580,1,0,0:0:0:0:
213,192,269580,1,0,0:0:0:0:
298,192,269659,1,0,0:0:0:0:
469,192,269738,1,0,0:0:0:0:
298,192,269817,1,0,0:0:0:0:
128,192,269817,1,0,0:0:0:0:
42,192,269896,1,0,0:0:0:0:
213,192,269896,1,0,0:0:0:0:
469,192,269896,1,0,0:0:0:0:
298,192,269975,1,0,0:0:0:0:
469,192,270054,1,0,0:0:0:0:
42,192,270054,128,0,270291:0:0:0:0:
128,192,270212,1,0,0:0:0:0:
384,192,270212,1,0,0:0:0:0:
469,192,270291,128,0,270527:0:0:0:0:
298,192,270291,1,0,0:0:0:0:
213,192,270448,1,0,0:0:0:0:
384,192,270527,128,0,270685:0:0:0:0:
42,192,270527,1,0,0:0:0:0:
298,192,270527,1,0,0:0:0:0:
213,192,270685,1,0,0:0:0:0:
298,192,270685,128,0,270843:0:0:0:0:
469,192,270843,1,0,0:0:0:0:
42,192,270843,1,0,0:0:0:0:
213,192,270843,1,0,0:0:0:0:
384,192,270922,1,0,0:0:0:0:
213,192,271001,1,0,0:0:0:0:
384,192,271080,1,0,0:0:0:0:
128,192,271080,1,0,0:0:0:0:
469,192,271159,1,0,0:0:0:0:
42,192,271159,1,0,0:0:0:0:
213,192,271159,1,0,0:0:0:0:
384,192,271238,1,0,0:0:0:0:
213,192,271317,1,0,0:0:0:0:
298,192,271317,1,0,0:0:0:0:
42,192,271475,1,0,0:0:0:0:
213,192,271475,1,0,0:0:0:0:
469,192,271475,1,0,0:0:0:0:
298,192,271554,1,0,0:0:0:0:
384,192,271554,1,0,0:0:0:0:
213,192,271633,1,0,0:0:0:0:
384,192,271712,1,0,0:0:0:0:
298,192,271712,1,0,0:0:0:0:
213,192,271791,1,0,0:0:0:0:
42,192,271791,1,0,0:0:0:0:
469,192,271791,1,0,0:0:0:0:
384,192,271870,1,0,0:0:0:0:
469,192,271948,128,0,272106:0:0:0:0:
42,192,271948,1,0,0:0:0:0:
128,192,271948,1,0,0:0:0:0:
213,192,272027,1,0,0:0:0:0:
298,192,272027,1,0,0:0:0:0:
128,192,272106,1,0,0:0:0:0:
384,192,272106,1,0,0:0:0:0:
42,192,272106,128,0,272264:0:0:0:0:
128,192,272264,128,0,272422:0:0:0:0:
213,192,272264,1,0,0:0:0:0:
469,192,272264,1,0,0:0:0:0:
384,192,272343,1,0,0:0:0:0:
298,192,272343,1,0,0:0:0:0:
42,192,272422,1,0,0:0:0:0:
213,192,272422,128,0,272580:0:0:0:0:
469,192,272422,1,0,0:0:0:0:
469,192,272580,128,0,272738:0:0:0:0:
128,192,272580,1,0,0:0:0:0:
42,192,272580,1,0,0:0:0:0:
213,192,272659,1,0,0:0:0:0:
298,192,272659,1,0,0:0:0:0:
384,192,272738,128,0,272896:0:0:0:0:
128,192,272738,1,0,0:0:0:0:
42,192,272738,1,0,0:0:0:0:
213,192,272896,1,0,0:0:0:0:
128,192,272896,1,0,0:0:0:0:
42,192,272896,1,0,0:0:0:0:
469,192,272896,128,0,273212:0:0:0:0:
298,192,272896,128,0,273212:0:0:0:0:
384,192,273212,1,0,0:0:0:0:
128,192,273212,1,0,0:0:0:0:
469,192,273370,1,0,0:0:0:0:
298,192,273370,1,0,0:0:0:0:
42,192,273370,1,0,0:0:0:0:
213,192,273448,1,0,0:0:0:0:
42,192,273527,1,0,0:0:0:0:
384,192,273606,1,0,0:0:0:0:
213,192,273606,1,0,0:0:0:0:
42,192,273685,1,0,0:0:0:0:
298,192,273685,1,0,0:0:0:0:
469,192,273685,1,0,0:0:0:0:
213,192,273764,1,0,0:0:0:0:
384,192,273843,1,0,0:0:0:0:
42,192,273843,1,0,0:0:0:0:
42,192,274001,1,0,0:0:0:0:
384,192,274001,1,0,0:0:0:0:
298,192,274001,1,0,0:0:0:0:
469,192,274080,1,0,0:0:0:0:
213,192,274080,1,0,0:0:0:0:
42,192,274159,1,0,0:0:0:0:
469,192,274238,1,0,0:0:0:0:
213,192,274238,1,0,0:0:0:0:
298,192,274317,1,0,0:0:0:0:
384,192,274317,1,0,0:0:0:0:
42,192,274317,1,0,0:0:0:0:
213,192,274396,1,0,0:0:0:0:
42,192,274475,1,0,0:0:0:0:
384,192,274475,1,0,0:0:0:0:
298,192,274633,1,0,0:0:0:0:
469,192,274633,1,0,0:0:0:0:
42,192,274633,1,0,0:0:0:0:
213,192,274712,1,0,0:0:0:0:
384,192,274791,1,0,0:0:0:0:
42,192,274791,1,0,0:0:0:0:
469,192,274870,1,0,0:0:0:0:
298,192,274870,1,0,0:0:0:0:
213,192,274870,1,0,0:0:0:0:
42,192,274948,1,0,0:0:0:0:
213,192,275027,1,0,0:0:0:0:
469,192,275106,128,0,275343:0:0:0:0:
128,192,275106,1,0,0:0:0:0:
42,192,275106,1,0,0:0:0:0:
128,192,275264,1,0,0:0:0:0:
384,192,275264,1,0,0:0:0:0:
213,192,275343,1,0,0:0:0:0:
42,192,275343,128,0,275580:0:0:0:0:
298,192,275501,1,0,0:0:0:0:
213,192,275580,1,0,0:0:0:0:
469,192,275580,1,0,0:0:0:0:
128,192,275580,128,0,275738:0:0:0:0:
298,192,275738,1,0,0:0:0:0:
213,192,275738,128,0,275896:0:0:0:0:
42,192,275896,1,0,0:0:0:0:
298,192,275896,1,0,0:0:0:0:
469,192,275896,1,0,0:0:0:0:
128,192,275975,1,0,0:0:0:0:
298,192,276054,1,0,0:0:0:0:
384,192,276133,1,0,0:0:0:0:
128,192,276133,1,0,0:0:0:0:
298,192,276212,1,0,0:0:0:0:
469,192,276212,1,0,0:0:0:0:
42,192,276212,1,0,0:0:0:0:
128,192,276291,1,0,0:0:0:0:
298,192,276370,1,0,0:0:0:0:
213,192,276370,1,0,0:0:0:0:
469,192,276527,1,0,0:0:0:0:
42,192,276527,1,0,0:0:0:0:
298,192,276527,1,0,0:0:0:0:
213,192,276606,1,0,0:0:0:0:
128,192,276606,1,0,0:0:0:0:
298,192,276685,1,0,0:0:0:0:
213,192,276764,1,0,0:0:0:0:
128,192,276764,1,0,0:0:0:0:
469,192,276843,1,0,0:0:0:0:
42,192,276843,1,0,0:0:0:0:
298,192,276843,1,0,0:0:0:0:
128,192,276922,1,0,0:0:0:0:
469,192,277001,128,0,277080:0:0:0:0:
42,192,277001,1,0,0:0:0:0:
384,192,277001,1,0,0:0:0:0:
213,192,277080,1,0,0:0:0:0:
298,192,277080,1,0,0:0:0:0:
469,192,277159,128,0,277238:0:0:0:0:
42,192,277159,1,0,0:0:0:0:
384,192,277159,1,0,0:0:0:0:
213,192,277238,1,0,0:0:0:0:
128,192,277238,1,0,0:0:0:0:
469,192,277317,128,0,277396:0:0:0:0:
384,192,277317,1,0,0:0:0:0:
42,192,277317,1,0,0:0:0:0:
213,192,277396,1,0,0:0:0:0:
298,192,277396,1,0,0:0:0:0:
469,192,277475,128,0,277554:0:0:0:0:
384,192,277475,1,0,0:0:0:0:
42,192,277475,1,0,0:0:0:0:
128,192,277554,1,0,0:0:0:0:
213,192,277554,1,0,0:0:0:0:
384,192,277633,1,0,0:0:0:0:
42,192,277633,1,0,0:0:0:0:
298,192,277633,1,0,0:0:0:0:
384,192,277791,1,0,0:0:0:0:
213,192,277791,1,0,0:0:0:0:
469,192,277791,1,0,0:0:0:0:
42,192,277791,128,0,277870:0:0:0:0:
128,192,277948,1,0,0:0:0:0:
384,192,277948,1,0,0:0:0:0:
298,192,277948,1,0,0:0:0:0:
42,192,277948,128,0,278027:0:0:0:0:
298,192,278106,1,0,0:0:0:0:
213,192,278106,1,0,0:0:0:0:
42,192,278106,1,0,0:0:0:0:
42,192,278264,128,0,278422:0:0:0:0:
384,192,278264,1,0,0:0:0:0:
213,192,278264,1,0,0:0:0:0:
469,192,278264,1,0,0:0:0:0:
298,192,278422,1,0,0:0:0:0:
128,192,278422,128,0,278580:0:0:0:0:
469,192,278422,1,0,0:0:0:0:
384,192,278580,1,0,0:0:0:0:
213,192,278580,1,0,0:0:0:0:
42,192,278580,1,0,0:0:0:0:
384,192,278738,1,0,0:0:0:0:
384,192,278896,1,0,0:0:0:0:
128,192,278896,1,0,0:0:0:0:
42,192,278896,1,0,0:0:0:0:
384,192,279054,1,0,0:0:0:0:
298,192,279212,128,0,279370:0:0:0:0:
128,192,279212,1,0,0:0:0:0:
469,192,279212,1,0,0:0:0:0:
42,192,279212,1,0,0:0:0:0:
384,192,279370,128,0,279527:0:0:0:0:
213,192,279370,1,0,0:0:0:0:
42,192,279370,1,0,0:0:0:0:
469,192,279527,128,0,279685:0:0:0:0:
298,192,279527,1,0,0:0:0:0:
128,192,279527,1,0,0:0:0:0:
42,192,279527,1,0,0:0:0:0:
384,192,279685,128,0,279843:0:0:0:0:
213,192,279685,1,0,0:0:0:0:
42,192,279685,1,0,0:0:0:0:
128,192,279843,1,0,0:0:0:0:
298,192,279843,1,0,0:0:0:0:
469,192,279843,1,0,0:0:0:0:
128,192,280001,1,0,0:0:0:0:
298,192,280159,1,0,0:0:0:0:
128,192,280159,1,0,0:0:0:0:
469,192,280159,1,0,0:0:0:0:
128,192,280317,1,0,0:0:0:0:
42,192,280475,128,0,280633:0:0:0:0:
384,192,280475,1,0,0:0:0:0:
213,192,280475,1,0,0:0:0:0:
298,192,280475,1,0,0:0:0:0:
469,192,280633,128,0,280791:0:0:0:0:
128,192,280633,1,0,0:0:0:0:
384,192,280633,1,0,0:0:0:0:
213,192,280791,128,0,280948:0:0:0:0:
384,192,280791,1,0,0:0:0:0:
42,192,280791,1,0,0:0:0:0:
298,192,280791,1,0,0:0:0:0:
298,192,280948,128,0,281106:0:0:0:0:
128,192,280948,1,0,0:0:0:0:
384,192,280948,1,0,0:0:0:0:
469,192,281106,1,0,0:0:0:0:
213,192,281106,1,0,0:0:0:0:
42,192,281106,1,0,0:0:0:0:
469,192,281264,1,0,0:0:0:0:
469,192,281422,1,0,0:0:0:0:
213,192,281422,1,0,0:0:0:0:
42,192,281422,1,0,0:0:0:0:
469,192,281580,1,0,0:0:0:0:
213,192,281738,128,0,281896:0:0:0:0:
42,192,281738,1,0,0:0:0:0:
469,192,281738,1,0,0:0:0:0:
128,192,281738,1,0,0:0:0:0:
128,192,281896,128,0,282054:0:0:0:0:
298,192,281896,1,0,0:0:0:0:
384,192,281896,1,0,0:0:0:0:
42,192,282054,128,0,282370:0:0:0:0:
213,192,282054,128,0,282370:0:0:0:0:
469,192,282054,1,0,0:0:0:0:
298,192,282133,1,0,0:0:0:0:
469,192,282212,1,0,0:0:0:0:
298,192,282291,1,0,0:0:0:0:
128,192,282370,128,0,282685:0:0:0:0:
384,192,282370,128,0,282685:0:0:0:0:
469,192,282370,1,0,0:0:0:0:
213,192,282448,1,0,0:0:0:0:
298,192,282527,1,0,0:0:0:0:
213,192,282606,1,0,0:0:0:0:
298,192,282685,128,0,283001:0:0:0:0:
469,192,282685,128,0,283001:0:0:0:0:
42,192,282685,1,0,0:0:0:0:
213,192,282764,1,0,0:0:0:0:
42,192,282843,1,0,0:0:0:0:
213,192,282922,1,0,0:0:0:0:
128,192,283001,128,0,283317:0:0:0:0:
384,192,283001,128,0,283317:0:0:0:0:
42,192,283001,1,0,0:0:0:0:
213,192,283080,1,0,0:0:0:0:
298,192,283159,1,0,0:0:0:0:
213,192,283238,1,0,0:0:0:0:
298,192,283317,128,0,283475:0:0:0:0:
42,192,283317,1,0,0:0:0:0:
469,192,283475,128,0,283633:0:0:0:0:
213,192,283475,1,0,0:0:0:0:
384,192,283475,1,0,0:0:0:0:
128,192,283633,1,0,0:0:0:0:
298,192,283633,1,0,0:0:0:0:
42,192,283633,1,0,0:0:0:0:
128,192,283791,1,0,0:0:0:0:
128,192,283948,1,0,0:0:0:0:
384,192,283948,1,0,0:0:0:0:
42,192,283948,1,0,0:0:0:0:
128,192,284106,1,0,0:0:0:0:
213,192,284264,128,0,284422:0:0:0:0:
42,192,284264,1,0,0:0:0:0:
384,192,284264,1,0,0:0:0:0:
128,192,284422,128,0,284580:0:0:0:0:
469,192,284422,1,0,0:0:0:0:
298,192,284422,1,0,0:0:0:0:
384,192,284501,1,0,0:0:0:0:
42,192,284580,128,0,284738:0:0:0:0:
213,192,284580,1,0,0:0:0:0:
384,192,284659,1,0,0:0:0:0:
128,192,284738,128,0,284896:0:0:0:0:
469,192,284738,1,0,0:0:0:0:
213,192,284738,1,0,0:0:0:0:
384,192,284817,1,0,0:0:0:0:
213,192,284896,1,0,0:0:0:0:
469,192,284896,1,0,0:0:0:0:
298,192,284975,1,0,0:0:0:0:
384,192,285054,1,0,0:0:0:0:
128,192,285054,1,0,0:0:0:0:
213,192,285133,1,0,0:0:0:0:
384,192,285212,1,0,0:0:0:0:
42,192,285212,1,0,0:0:0:0:
128,192,285291,1,0,0:0:0:0:
384,192,285370,1,0,0:0:0:0:
213,192,285370,1,0,0:0:0:0:
298,192,285448,1,0,0:0:0:0:
42,192,285527,128,0,285685:0:0:0:0:
469,192,285527,1,0,0:0:0:0:
213,192,285527,1,0,0:0:0:0:
298,192,285606,1,0,0:0:0:0:
469,192,285685,128,0,285843:0:0:0:0:
384,192,285685,1,0,0:0:0:0:
128,192,285685,1,0,0:0:0:0:
213,192,285764,1,0,0:0:0:0:
384,192,285843,128,0,286001:0:0:0:0:
298,192,285843,1,0,0:0:0:0:
42,192,285843,1,0,0:0:0:0:
42,192,288370,128,0,289633:0:0:0:0:
128,192,288370,128,0,289633:0:0:0:0:
298,192,288370,1,0,0:0:0:0:
213,192,288370,1,0,0:0:0:0:
469,192,288527,1,0,0:0:0:0:
213,192,288527,1,0,0:0:0:0:
298,192,288685,1,0,0:0:0:0:
384,192,288764,1,0,0:0:0:0:
213,192,288843,1,0,0:0:0:0:
469,192,288843,1,0,0:0:0:0:
384,192,289001,1,0,0:0:0:0:
469,192,289159,1,0,0:0:0:0:
213,192,289159,1,0,0:0:0:0:
384,192,289317,1,0,0:0:0:0:
469,192,289396,1,0,0:0:0:0:
298,192,289475,1,0,0:0:0:0:
213,192,289475,1,0,0:0:0:0:
384,192,289633,128,0,290896:0:0:0:0:
469,192,289633,128,0,290896:0:0:0:0:
213,192,289633,1,0,0:0:0:0:
298,192,289633,1,0,0:0:0:0:
42,192,289791,1,0,0:0:0:0:
298,192,289791,1,0,0:0:0:0:
213,192,289948,1,0,0:0:0:0:
298,192,290027,1,0,0:0:0:0:
42,192,290106,1,0,0:0:0:0:
128,192,290106,1,0,0:0:0:0:
213,192,290264,1,0,0:0:0:0:
42,192,290422,1,0,0:0:0:0:
298,192,290422,1,0,0:0:0:0:
213,192,290580,1,0,0:0:0:0:
42,192,290659,1,0,0:0:0:0:
128,192,290738,1,0,0:0:0:0:
298,192,290738,1,0,0:0:0:0:
42,192,290896,128,0,292159:0:0:0:0:
213,192,290896,128,0,292159:0:0:0:0:
128,192,290896,1,0,0:0:0:0:
298,192,290896,1,0,0:0:0:0:
469,192,291054,1,0,0:0:0:0:
128,192,291054,1,0,0:0:0:0:
298,192,291212,1,0,0:0:0:0:
469,192,291291,1,0,0:0:0:0:
128,192,291370,1,0,0:0:0:0:
384,192,291370,1,0,0:0:0:0:
298,192,291527,1,0,0:0:0:0:
469,192,291685,1,0,0:0:0:0:
128,192,291685,1,0,0:0:0:0:
298,192,291843,1,0,0:0:0:0:
128,192,291922,1,0,0:0:0:0:
384,192,292001,1,0,0:0:0:0:
469,192,292001,1,0,0:0:0:0:
128,192,292159,128,0,292791:0:0:0:0:
298,192,292159,128,0,292791:0:0:0:0:
384,192,292159,1,0,0:0:0:0:
469,192,292159,1,0,0:0:0:0:
469,192,292317,1,0,0:0:0:0:
42,192,292317,1,0,0:0:0:0:
384,192,292475,1,0,0:0:0:0:
213,192,292554,1,0,0:0:0:0:
42,192,292633,1,0,0:0:0:0:
469,192,292633,1,0,0:0:0:0:
213,192,292791,128,0,293422:0:0:0:0:
384,192,292791,128,0,293422:0:0:0:0:
42,192,292791,1,0,0:0:0:0:
469,192,292791,1,0,0:0:0:0:
42,192,292948,1,0,0:0:0:0:
469,192,292948,1,0,0:0:0:0:
128,192,293106,1,0,0:0:0:0:
298,192,293185,1,0,0:0:0:0:
42,192,293264,1,0,0:0:0:0:
469,192,293264,1,0,0:0:0:0:
298,192,293422,128,0,294685:0:0:0:0:
469,192,293422,128,0,294685:0:0:0:0:
42,192,293422,1,0,0:0:0:0:
128,192,293422,1,0,0:0:0:0:
42,192,293580,1,0,0:0:0:0:
384,192,293580,1,0,0:0:0:0:
213,192,293738,1,0,0:0:0:0:
42,192,293817,1,0,0:0:0:0:
384,192,293896,1,0,0:0:0:0:
128,192,293896,1,0,0:0:0:0:
213,192,294054,1,0,0:0:0:0:
42,192,294212,1,0,0:0:0:0:
384,192,294212,1,0,0:0:0:0:
128,192,294370,1,0,0:0:0:0:
213,192,294448,1,0,0:0:0:0:
42,192,294527,1,0,0:0:0:0:
384,192,294527,1,0,0:0:0:0:
128,192,294685,128,0,295948:0:0:0:0:
213,192,294685,128,0,295948:0:0:0:0:
42,192,294685,1,0,0:0:0:0:
298,192,294764,1,0,0:0:0:0:
384,192,294843,1,0,0:0:0:0:
469,192,294922,1,0,0:0:0:0:
42,192,295001,1,0,0:0:0:0:
469,192,295080,1,0,0:0:0:0:
384,192,295159,1,0,0:0:0:0:
298,192,295238,1,0,0:0:0:0:
42,192,295317,1,0,0:0:0:0:
298,192,295396,1,0,0:0:0:0:
384,192,295475,1,0,0:0:0:0:
469,192,295554,1,0,0:0:0:0:
42,192,295633,1,0,0:0:0:0:
469,192,295712,1,0,0:0:0:0:
298,192,295791,1,0,0:0:0:0:
42,192,295870,1,0,0:0:0:0:
298,192,295948,128,0,297212:0:0:0:0:
384,192,295948,128,0,297212:0:0:0:0:
469,192,295948,1,0,0:0:0:0:
128,192,296106,1,0,0:0:0:0:
213,192,296106,1,0,0:0:0:0:
469,192,296264,1,0,0:0:0:0:
213,192,296264,1,0,0:0:0:0:
128,192,296343,1,0,0:0:0:0:
213,192,296422,1,0,0:0:0:0:
128,192,296501,1,0,0:0:0:0:
469,192,296580,1,0,0:0:0:0:
213,192,296580,1,0,0:0:0:0:
42,192,296659,1,0,0:0:0:0:
213,192,296738,1,0,0:0:0:0:
42,192,296817,1,0,0:0:0:0:
469,192,296896,1,0,0:0:0:0:
213,192,296896,1,0,0:0:0:0:
128,192,296975,1,0,0:0:0:0:
213,192,297054,1,0,0:0:0:0:
128,192,297133,1,0,0:0:0:0:
213,192,297212,1,0,0:0:0:0:
469,192,297212,128,0,297685:0:0:0:0:
42,192,297291,1,0,0:0:0:0:
213,192,297370,1,0,0:0:0:0:
42,192,297448,1,0,0:0:0:0:
298,192,297527,1,0,0:0:0:0:
128,192,297606,1,0,0:0:0:0:
384,192,297685,1,0,0:0:0:0:
298,192,297685,1,0,0:0:0:0:
128,192,297764,1,0,0:0:0:0:
384,192,297843,128,0,298475:0:0:0:0:
42,192,297843,1,0,0:0:0:0:
298,192,297922,1,0,0:0:0:0:
42,192,298001,1,0,0:0:0:0:
213,192,298080,1,0,0:0:0:0:
298,192,298159,128,0,298475:0:0:0:0:
42,192,298159,1,0,0:0:0:0:
128,192,298238,1,0,0:0:0:0:
42,192,298317,1,0,0:0:0:0:
213,192,298396,1,0,0:0:0:0:
469,192,298475,128,0,298633:0:0:0:0:
42,192,298475,1,0,0:0:0:0:
42,192,298633,128,0,298712:0:0:0:0:
128,192,298633,1,0,0:0:0:0:
469,192,298712,128,0,298791:0:0:0:0:
384,192,298712,1,0,0:0:0:0:
128,192,298791,128,0,298870:0:0:0:0:
213,192,298791,1,0,0:0:0:0:
384,192,298870,128,0,298948:0:0:0:0:
298,192,298870,1,0,0:0:0:0:
213,192,298948,1,0,0:0:0:0:
128,192,298948,128,0,299027:0:0:0:0:
298,192,299027,1,0,0:0:0:0:
384,192,299027,128,0,299106:0:0:0:0:
128,192,299106,1,0,0:0:0:0:
213,192,299106,128,0,299185:0:0:0:0:
384,192,299185,1,0,0:0:0:0:
469,192,299185,128,0,299264:0:0:0:0:
42,192,299264,1,0,0:0:0:0:
128,192,299264,128,0,299343:0:0:0:0:
298,192,299343,1,0,0:0:0:0:
384,192,299343,128,0,299422:0:0:0:0:
128,192,299422,1,0,0:0:0:0:
42,192,299422,128,0,299501:0:0:0:0:
298,192,299501,128,0,299580:0:0:0:0:
213,192,299501,1,0,0:0:0:0:
469,192,299580,128,0,299659:0:0:0:0:
384,192,299580,1,0,0:0:0:0:
128,192,299659,128,0,299738:0:0:0:0:
213,192,299659,1,0,0:0:0:0:
42,192,299738,128,0,299896:0:0:0:0:
469,192,299896,128,0,299975:0:0:0:0:
384,192,299896,1,0,0:0:0:0:
42,192,299975,128,0,300054:0:0:0:0:
128,192,299975,1,0,0:0:0:0:
384,192,300054,128,0,300133:0:0:0:0:
298,192,300054,1,0,0:0:0:0:
128,192,300133,128,0,300212:0:0:0:0:
213,192,300133,1,0,0:0:0:0:
384,192,300212,128,0,300291:0:0:0:0:
298,192,300212,1,0,0:0:0:0:
128,192,300291,128,0,300370:0:0:0:0:
42,192,300291,1,0,0:0:0:0:
213,192,300370,128,0,300448:0:0:0:0:
298,192,300370,1,0,0:0:0:0:
384,192,300448,1,0,0:0:0:0:
469,192,300448,128,0,300527:0:0:0:0:
42,192,300527,1,0,0:0:0:0:
128,192,300527,128,0,300606:0:0:0:0:
298,192,300606,1,0,0:0:0:0:
384,192,300606,128,0,300685:0:0:0:0:
128,192,300685,1,0,0:0:0:0:
42,192,300685,128,0,300764:0:0:0:0:
298,192,300764,128,0,300843:0:0:0:0:
384,192,300764,1,0,0:0:0:0:
128,192,300843,128,0,300922:0:0:0:0:
213,192,300843,1,0,0:0:0:0:
384,192,300922,128,0,301001:0:0:0:0:
298,192,300922,1,0,0:0:0:0:
469,192,301001,128,0,301159:0:0:0:0:
384,192,301159,128,0,301238:0:0:0:0:
128,192,301159,1,0,0:0:0:0:
42,192,301238,128,0,301317:0:0:0:0:
469,192,301238,1,0,0:0:0:0:
128,192,301317,128,0,301396:0:0:0:0:
213,192,301317,1,0,0:0:0:0:
384,192,301396,128,0,301475:0:0:0:0:
298,192,301396,1,0,0:0:0:0:
128,192,301475,128,0,301554:0:0:0:0:
213,192,301475,1,0,0:0:0:0:
384,192,301554,128,0,301633:0:0:0:0:
298,192,301554,1,0,0:0:0:0:
213,192,301633,128,0,301712:0:0:0:0:
42,192,301633,1,0,0:0:0:0:
469,192,301712,128,0,301791:0:0:0:0:
298,192,301712,1,0,0:0:0:0:
128,192,301791,128,0,301870:0:0:0:0:
213,192,301791,1,0,0:0:0:0:
384,192,301870,128,0,301948:0:0:0:0:
298,192,301870,1,0,0:0:0:0:
128,192,301948,1,0,0:0:0:0:
42,192,301948,128,0,302027:0:0:0:0:
298,192,302027,128,0,302106:0:0:0:0:
384,192,302027,1,0,0:0:0:0:
128,192,302106,128,0,302185:0:0:0:0:
213,192,302106,1,0,0:0:0:0:
469,192,302185,1,0,0:0:0:0:
384,192,302185,128,0,302264:0:0:0:0:
213,192,302264,128,0,302422:0:0:0:0:
298,192,302264,128,0,302422:0:0:0:0:
128,192,302422,1,0,0:0:0:0:
384,192,302501,1,0,0:0:0:0:
128,192,302580,1,0,0:0:0:0:
384,192,302659,1,0,0:0:0:0:
42,192,302738,1,0,0:0:0:0:
469,192,302817,1,0,0:0:0:0:
128,192,302896,128,0,303054:0:0:0:0:
384,192,302896,128,0,303054:0:0:0:0:
42,192,303054,1,0,0:0:0:0:
469,192,303133,1,0,0:0:0:0:
42,192,303212,1,0,0:0:0:0:
469,192,303291,1,0,0:0:0:0:
128,192,303370,1,0,0:0:0:0:
384,192,303448,1,0,0:0:0:0:
42,192,303527,128,0,303685:0:0:0:0:
469,192,303527,128,0,303685:0:0:0:0:
384,192,303685,1,0,0:0:0:0:
298,192,303685,128,0,303764:0:0:0:0:
213,192,303764,1,0,0:0:0:0:
128,192,303764,128,0,303843:0:0:0:0:
42,192,303843,128,0,303922:0:0:0:0:
469,192,303843,128,0,303922:0:0:0:0:
213,192,303922,1,0,0:0:0:0:
298,192,303922,128,0,304001:0:0:0:0:
469,192,304001,128,0,304080:0:0:0:0:
384,192,304001,1,0,0:0:0:0:
298,192,304080,128,0,304159:0:0:0:0:
42,192,304080,1,0,0:0:0:0:
213,192,304159,128,0,304238:0:0:0:0:
469,192,304159,1,0,0:0:0:0:
42,192,304238,128,0,304317:0:0:0:0:
128,192,304238,1,0,0:0:0:0:
213,192,304317,128,0,304396:0:0:0:0:
298,192,304317,1,0,0:0:0:0:
384,192,304396,128,0,304475:0:0:0:0:
469,192,304396,1,0,0:0:0:0:
128,192,304475,128,0,304554:0:0:0:0:
213,192,304475,1,0,0:0:0:0:
469,192,304554,128,0,304633:0:0:0:0:
384,192,304554,1,0,0:0:0:0:
42,192,304633,128,0,304712:0:0:0:0:
128,192,304633,1,0,0:0:0:0:
384,192,304712,128,0,304791:0:0:0:0:
298,192,304712,1,0,0:0:0:0:
42,192,304791,128,0,304948:0:0:0:0:
213,192,304948,128,0,305027:0:0:0:0:
128,192,304948,1,0,0:0:0:0:
298,192,305027,128,0,305106:0:0:0:0:
384,192,305027,1,0,0:0:0:0:
42,192,305106,1,0,0:0:0:0:
128,192,305106,128,0,305185:0:0:0:0:
213,192,305185,1,0,0:0:0:0:
298,192,305185,128,0,305264:0:0:0:0:
384,192,305264,1,0,0:0:0:0:
469,192,305264,128,0,305343:0:0:0:0:
128,192,305343,1,0,0:0:0:0:
42,192,305343,128,0,305422:0:0:0:0:
298,192,305422,1,0,0:0:0:0:
213,192,305422,128,0,305501:0:0:0:0:
384,192,305501,128,0,305580:0:0:0:0:
469,192,305501,1,0,0:0:0:0:
213,192,305580,128,0,305659:0:0:0:0:
298,192,305580,1,0,0:0:0:0:
42,192,305659,128,0,305738:0:0:0:0:
128,192,305659,1,0,0:0:0:0:
469,192,305738,128,0,305817:0:0:0:0:
384,192,305738,1,0,0:0:0:0:
298,192,305817,128,0,305896:0:0:0:0:
213,192,305817,1,0,0:0:0:0:
42,192,305896,128,0,305975:0:0:0:0:
128,192,305896,1,0,0:0:0:0:
213,192,305975,128,0,306054:0:0:0:0:
298,192,305975,1,0,0:0:0:0:
469,192,306054,128,0,306291:0:0:0:0:
128,192,306054,1,0,0:0:0:0:
42,192,306054,1,0,0:0:0:0:
213,192,306291,1,0,0:0:0:0:
42,192,306370,1,0,0:0:0:0:
213,192,306448,1,0,0:0:0:0:
42,192,306527,1,0,0:0:0:0:
298,192,306606,1,0,0:0:0:0:
128,192,306685,1,0,0:0:0:0:
384,192,306764,1,0,0:0:0:0:
213,192,306843,1,0,0:0:0:0:
42,192,306843,1,0,0:0:0:0:
469,192,306922,1,0,0:0:0:0:
298,192,306922,1,0,0:0:0:0:
213,192,307001,1,0,0:0:0:0:
42,192,307001,1,0,0:0:0:0:
469,192,307080,1,0,0:0:0:0:
298,192,307080,1,0,0:0:0:0:
213,192,307159,1,0,0:0:0:0:
42,192,307159,1,0,0:0:0:0:
469,192,307238,1,0,0:0:0:0:
298,192,307238,1,0,0:0:0:0:
42,192,307317,128,0,307475:0:0:0:0:
213,192,307317,128,0,307475:0:0:0:0:
384,192,307317,1,0,0:0:0:0:
469,192,307396,1,0,0:0:0:0:
128,192,307475,128,0,307633:0:0:0:0:
298,192,307475,128,0,307633:0:0:0:0:
384,192,307475,1,0,0:0:0:0:
469,192,307554,1,0,0:0:0:0:
213,192,307633,128,0,307791:0:0:0:0:
384,192,307633,128,0,307791:0:0:0:0:
42,192,307633,1,0,0:0:0:0:
128,192,307712,1,0,0:0:0:0:
298,192,307791,128,0,307948:0:0:0:0:
469,192,307791,128,0,307948:0:0:0:0:
42,192,307791,1,0,0:0:0:0:
128,192,307870,1,0,0:0:0:0:
42,192,307948,128,0,308422:0:0:0:0:
213,192,307948,128,0,308106:0:0:0:0:
128,192,308106,128,0,308422:0:0:0:0:
298,192,308106,128,0,308264:0:0:0:0:
213,192,308264,128,0,308422:0:0:0:0:
384,192,308264,128,0,308422:0:0:0:0:
298,192,308422,128,0,308580:0:0:0:0:
469,192,308422,128,0,308580:0:0:0:0:
42,192,308580,128,0,311106:0:0:0:0:
213,192,308580,128,0,311106:0:0:0:0:
128,192,308738,1,0,0:0:0:0:
384,192,308738,1,0,0:0:0:0:
298,192,309054,1,0,0:0:0:0:
469,192,309054,1,0,0:0:0:0:
128,192,309370,1,0,0:0:0:0:
384,192,309370,1,0,0:0:0:0:
298,192,309527,1,0,0:0:0:0:
469,192,309527,1,0,0:0:0:0:
298,192,309685,1,0,0:0:0:0:
469,192,309685,1,0,0:0:0:0:
298,192,309843,128,0,310317:0:0:0:0:
469,192,309843,128,0,310317:0:0:0:0:
128,192,310001,1,0,0:0:0:0:
384,192,310001,1,0,0:0:0:0:
128,192,310317,128,0,310791:0:0:0:0:
384,192,310317,128,0,310791:0:0:0:0:
298,192,310633,1,0,0:0:0:0:
469,192,310633,1,0,0:0:0:0:
298,192,310791,128,0,311106:0:0:0:0:
469,192,310791,128,0,311106:0:0:0:0:
128,192,310948,1,0,0:0:0:0:
384,192,310948,1,0,0:0:0:0:
128,192,311106,128,0,312370:0:0:0:0:
384,192,311106,128,0,312370:0:0:0:0:
42,192,311264,1,0,0:0:0:0:
469,192,311264,1,0,0:0:0:0:
213,192,311422,1,0,0:0:0:0:
298,192,311501,1,0,0:0:0:0:
42,192,311580,1,0,0:0:0:0:
469,192,311580,1,0,0:0:0:0:
213,192,311738,1,0,0:0:0:0:
42,192,311896,1,0,0:0:0:0:
469,192,311896,1,0,0:0:0:0:
298,192,312054,1,0,0:0:0:0:
213,192,312133,1,0,0:0:0:0:
469,192,312212,1,0,0:0:0:0:
42,192,312212,1,0,0:0:0:0:
469,192,312370,128,0,313633:0:0:0:0:
298,192,312370,1,0,0:0:0:0:
128,192,312527,1,0,0:0:0:0:
213,192,312527,1,0,0:0:0:0:
298,192,312685,1,0,0:0:0:0:
213,192,312764,1,0,0:0:0:0:
384,192,312843,128,0,313633:0:0:0:0:
128,192,312843,1,0,0:0:0:0:
42,192,312843,1,0,0:0:0:0:
42,192,313001,1,0,0:0:0:0:
298,192,313001,1,0,0:0:0:0:
213,192,313080,1,0,0:0:0:0:
128,192,313159,1,0,0:0:0:0:
42,192,313238,1,0,0:0:0:0:
298,192,313317,128,0,313633:0:0:0:0:
213,192,313317,1,0,0:0:0:0:
128,192,313396,1,0,0:0:0:0:
42,192,313475,1,0,0:0:0:0:
128,192,313554,1,0,0:0:0:0:
42,192,313633,128,0,316159:0:0:0:0:
213,192,313633,128,0,316159:0:0:0:0:
298,192,313791,1,0,0:0:0:0:
469,192,313791,1,0,0:0:0:0:
128,192,314106,128,0,314580:0:0:0:0:
298,192,314106,128,0,314580:0:0:0:0:
384,192,314106,1,0,0:0:0:0:
469,192,314106,1,0,0:0:0:0:
384,192,314422,1,0,0:0:0:0:
469,192,314422,1,0,0:0:0:0:
384,192,314580,1,0,0:0:0:0:
469,192,314580,1,0,0:0:0:0:
298,192,314738,1,0,0:0:0:0:
469,192,314738,1,0,0:0:0:0:
298,192,314896,128,0,315370:0:0:0:0:
469,192,314896,128,0,315370:0:0:0:0:
128,192,315054,1,0,0:0:0:0:
384,192,315054,1,0,0:0:0:0:
128,192,315370,128,0,315843:0:0:0:0:
384,192,315370,128,0,315843:0:0:0:0:
298,192,315685,1,0,0:0:0:0:
469,192,315685,1,0,0:0:0:0:
298,192,315843,128,0,316159:0:0:0:0:
469,192,315843,128,0,316159:0:0:0:0:
128,192,316001,1,0,0:0:0:0:
384,192,316001,1,0,0:0:0:0:
128,192,316159,128,0,317422:0:0:0:0:
384,192,316159,1,0,0:0:0:0:
42,192,316317,1,0,0:0:0:0:
213,192,316317,1,0,0:0:0:0:
298,192,316475,1,0,0:0:0:0:
384,192,316554,1,0,0:0:0:0:
42,192,316633,1,0,0:0:0:0:
469,192,316633,1,0,0:0:0:0:
298,192,316791,1,0,0:0:0:0:
42,192,316948,1,0,0:0:0:0:
213,192,316948,1,0,0:0:0:0:
384,192,317106,1,0,0:0:0:0:
298,192,317185,1,0,0:0:0:0:
42,192,317264,1,0,0:0:0:0:
469,192,317264,1,0,0:0:0:0:
213,192,317422,1,0,0:0:0:0:
469,192,317422,1,0,0:0:0:0:
298,192,317501,1,0,0:0:0:0:
42,192,317501,1,0,0:0:0:0:
213,192,317580,1,0,0:0:0:0:
469,192,317580,1,0,0:0:0:0:
42,192,317659,1,0,0:0:0:0:
298,192,317659,1,0,0:0:0:0:
128,192,317738,1,0,0:0:0:0:
384,192,317738,1,0,0:0:0:0:
213,192,317817,1,0,0:0:0:0:
298,192,317817,1,0,0:0:0:0:
42,192,317896,1,0,0:0:0:0:
469,192,317896,1,0,0:0:0:0:
298,192,317975,1,0,0:0:0:0:
213,192,317975,1,0,0:0:0:0:
128,192,318054,1,0,0:0:0:0:
42,192,318054,1,0,0:0:0:0:
298,192,318133,1,0,0:0:0:0:
469,192,318133,1,0,0:0:0:0:
42,192,318212,1,0,0:0:0:0:
213,192,318212,1,0,0:0:0:0:
384,192,318291,1,0,0:0:0:0:
469,192,318291,1,0,0:0:0:0:
128,192,318370,1,0,0:0:0:0:
213,192,318370,1,0,0:0:0:0:
298,192,318448,1,0,0:0:0:0:
384,192,318448,1,0,0:0:0:0:
128,192,318527,1,0,0:0:0:0:
213,192,318527,1,0,0:0:0:0:
298,192,318606,1,0,0:0:0:0:
384,192,318606,1,0,0:0:0:0:
128,192,318685,1,0,0:0:0:0:
42,192,318685,1,0,0:0:0:0:
213,192,318764,1,0,0:0:0:0:
298,192,318764,1,0,0:0:0:0:
128,192,318843,1,0,0:0:0:0:
384,192,318843,1,0,0:0:0:0:
213,192,318922,1,0,0:0:0:0:
298,192,318922,1,0,0:0:0:0:
42,192,319001,1,0,0:0:0:0:
128,192,319001,1,0,0:0:0:0:
384,192,319080,1,0,0:0:0:0:
298,192,319080,1,0,0:0:0:0:
213,192,319159,1,0,0:0:0:0:
469,192,319159,1,0,0:0:0:0:
384,192,319238,1,0,0:0:0:0:
298,192,319238,1,0,0:0:0:0:
128,192,319317,1,0,0:0:0:0:
213,192,319317,1,0,0:0:0:0:
384,192,319396,1,0,0:0:0:0:
469,192,319396,1,0,0:0:0:0:
213,192,319475,1,0,0:0:0:0:
298,192,319475,1,0,0:0:0:0:
128,192,319554,1,0,0:0:0:0:
42,192,319554,1,0,0:0:0:0:
384,192,319633,1,0,0:0:0:0:
469,192,319633,1,0,0:0:0:0:
42,192,319712,1,0,0:0:0:0:
128,192,319712,1,0,0:0:0:0:
213,192,319791,1,0,0:0:0:0:
298,192,319791,1,0,0:0:0:0:
384,192,319870,1,0,0:0:0:0:
128,192,319870,1,0,0:0:0:0:
42,192,319948,128,0,320106:0:0:0:0:
469,192,319948,128,0,320106:0:0:0:0:
213,192,319948,1,0,0:0:0:0:
128,192,320027,1,0,0:0:0:0:
298,192,320106,1,0,0:0:0:0:
384,192,320106,1,0,0:0:0:0:
469,192,320185,1,0,0:0:0:0:
213,192,320185,1,0,0:0:0:0:
298,192,320264,1,0,0:0:0:0:
384,192,320264,1,0,0:0:0:0:
128,192,320343,1,0,0:0:0:0:
213,192,320343,1,0,0:0:0:0:
469,192,320422,1,0,0:0:0:0:
384,192,320422,1,0,0:0:0:0:
42,192,320501,1,0,0:0:0:0:
128,192,320501,1,0,0:0:0:0:
298,192,320580,1,0,0:0:0:0:
384,192,320580,1,0,0:0:0:0:
128,192,320659,1,0,0:0:0:0:
213,192,320659,1,0,0:0:0:0:
42,192,320738,1,0,0:0:0:0:
298,192,320738,1,0,0:0:0:0:
128,192,320817,1,0,0:0:0:0:
213,192,320817,1,0,0:0:0:0:
298,192,320896,1,0,0:0:0:0:
384,192,320896,1,0,0:0:0:0:
42,192,320975,1,0,0:0:0:0:
128,192,320975,1,0,0:0:0:0:
384,192,321054,1,0,0:0:0:0:
469,192,321054,1,0,0:0:0:0:
213,192,321133,1,0,0:0:0:0:
128,192,321133,1,0,0:0:0:0:
42,192,321212,128,0,321370:0:0:0:0:
469,192,321212,128,0,321370:0:0:0:0:
298,192,321212,1,0,0:0:0:0:
384,192,321291,1,0,0:0:0:0:
213,192,321370,1,0,0:0:0:0:
298,192,321370,1,0,0:0:0:0:
42,192,321448,1,0,0:0:0:0:
128,192,321448,1,0,0:0:0:0:
384,192,321527,1,0,0:0:0:0:
469,192,321527,1,0,0:0:0:0:
128,192,321606,1,0,0:0:0:0:
42,192,321606,1,0,0:0:0:0:
213,192,321685,1,0,0:0:0:0:
298,192,321685,1,0,0:0:0:0:
469,192,321764,1,0,0:0:0:0:
384,192,321764,1,0,0:0:0:0:
128,192,321843,1,0,0:0:0:0:
42,192,321843,1,0,0:0:0:0:
384,192,321922,1,0,0:0:0:0:
469,192,321922,1,0,0:0:0:0:
298,192,322001,1,0,0:0:0:0:
213,192,322001,1,0,0:0:0:0:
42,192,322080,1,0,0:0:0:0:
128,192,322080,1,0,0:0:0:0:
469,192,322159,1,0,0:0:0:0:
384,192,322159,1,0,0:0:0:0:
42,192,322238,1,0,0:0:0:0:
213,192,322238,1,0,0:0:0:0:
128,192,322317,1,0,0:0:0:0:
298,192,322317,1,0,0:0:0:0:
213,192,322396,1,0,0:0:0:0:
384,192,322396,1,0,0:0:0:0:
42,192,322475,128,0,322554:0:0:0:0:
469,192,322475,1,0,0:0:0:0:
213,192,322554,128,0,322633:0:0:0:0:
298,192,322554,1,0,0:0:0:0:
42,192,322633,128,0,322712:0:0:0:0:
469,192,322633,1,0,0:0:0:0:
213,192,322712,128,0,322791:0:0:0:0:
298,192,322712,1,0,0:0:0:0:
42,192,322791,128,0,322870:0:0:0:0:
469,192,322791,1,0,0:0:0:0:
213,192,322870,128,0,322948:0:0:0:0:
298,192,322870,1,0,0:0:0:0:
42,192,322948,128,0,323027:0:0:0:0:
469,192,322948,1,0,0:0:0:0:
298,192,323027,1,0,0:0:0:0:
213,192,323027,128,0,323106:0:0:0:0:
42,192,323106,1,0,0:0:0:0:
469,192,323106,128,0,323185:0:0:0:0:
213,192,323185,1,0,0:0:0:0:
298,192,323185,128,0,323264:0:0:0:0:
42,192,323264,1,0,0:0:0:0:
469,192,323264,128,0,323343:0:0:0:0:
213,192,323343,1,0,0:0:0:0:
298,192,323343,128,0,323422:0:0:0:0:
42,192,323422,1,0,0:0:0:0:
469,192,323422,128,0,323501:0:0:0:0:
298,192,323501,128,0,323580:0:0:0:0:
213,192,323501,1,0,0:0:0:0:
469,192,323580,128,0,323659:0:0:0:0:
42,192,323580,1,0,0:0:0:0:
213,192,323659,1,0,0:0:0:0:
298,192,323659,128,0,323738:0:0:0:0:
42,192,323738,128,0,325001:0:0:0:0:
469,192,323738,1,0,0:0:0:0:
128,192,323738,1,0,0:0:0:0:
213,192,323817,1,0,0:0:0:0:
128,192,323896,1,0,0:0:0:0:
384,192,323896,1,0,0:0:0:0:
213,192,323975,1,0,0:0:0:0:
298,192,324054,1,0,0:0:0:0:
469,192,324133,1,0,0:0:0:0:
128,192,324212,1,0,0:0:0:0:
298,192,324212,1,0,0:0:0:0:
213,192,324291,1,0,0:0:0:0:
384,192,324370,1,0,0:0:0:0:
298,192,324448,1,0,0:0:0:0:
213,192,324527,1,0,0:0:0:0:
469,192,324527,1,0,0:0:0:0:
128,192,324606,1,0,0:0:0:0:
298,192,324685,1,0,0:0:0:0:
128,192,324764,1,0,0:0:0:0:
298,192,324843,1,0,0:0:0:0:
469,192,324843,1,0,0:0:0:0:
128,192,324922,1,0,0:0:0:0:
213,192,325001,128,0,326264:0:0:0:0:
384,192,325001,1,0,0:0:0:0:
298,192,325080,1,0,0:0:0:0:
128,192,325159,1,0,0:0:0:0:
469,192,325159,1,0,0:0:0:0:
384,192,325238,1,0,0:0:0:0:
298,192,325317,1,0,0:0:0:0:
42,192,325396,1,0,0:0:0:0:
128,192,325475,1,0,0:0:0:0:
384,192,325475,1,0,0:0:0:0:
298,192,325554,1,0,0:0:0:0:
128,192,325633,1,0,0:0:0:0:
298,192,325712,1,0,0:0:0:0:
42,192,325791,1,0,0:0:0:0:
384,192,325791,1,0,0:0:0:0:
128,192,325870,1,0,0:0:0:0:
298,192,325948,1,0,0:0:0:0:
469,192,326027,1,0,0:0:0:0:
384,192,326106,1,0,0:0:0:0:
128,192,326106,1,0,0:0:0:0:
298,192,326185,1,0,0:0:0:0:
469,192,326264,128,0,327527:0:0:0:0:
42,192,326264,1,0,0:0:0:0:
213,192,326343,1,0,0:0:0:0:
42,192,326422,1,0,0:0:0:0:
384,192,326422,1,0,0:0:0:0:
213,192,326501,1,0,0:0:0:0:
384,192,326580,1,0,0:0:0:0:
213,192,326659,1,0,0:0:0:0:
384,192,326738,1,0,0:0:0:0:
42,192,326738,1,0,0:0:0:0:
213,192,326817,1,0,0:0:0:0:
42,192,326896,1,0,0:0:0:0:
213,192,326975,1,0,0:0:0:0:
42,192,327054,1,0,0:0:0:0:
384,192,327054,1,0,0:0:0:0:
213,192,327133,1,0,0:0:0:0:
384,192,327212,1,0,0:0:0:0:
213,192,327291,1,0,0:0:0:0:
384,192,327370,1,0,0:0:0:0:
42,192,327370,1,0,0:0:0:0:
213,192,327448,1,0,0:0:0:0:
298,192,327527,128,0,328001:0:0:0:0:
42,192,327527,1,0,0:0:0:0:
384,192,327527,1,0,0:0:0:0:
128,192,327606,1,0,0:0:0:0:
213,192,327606,1,0,0:0:0:0:
42,192,327685,1,0,0:0:0:0:
469,192,327685,1,0,0:0:0:0:
128,192,327764,1,0,0:0:0:0:
213,192,327764,1,0,0:0:0:0:
42,192,327843,1,0,0:0:0:0:
469,192,327843,1,0,0:0:0:0:
128,192,327922,1,0,0:0:0:0:
384,192,327922,1,0,0:0:0:0:
469,192,328001,1,0,0:0:0:0:
42,192,328001,1,0,0:0:0:0:
213,192,328001,128,0,328791:0:0:0:0:
298,192,328080,1,0,0:0:0:0:
384,192,328080,1,0,0:0:0:0:
469,192,328159,1,0,0:0:0:0:
42,192,328159,1,0,0:0:0:0:
298,192,328238,1,0,0:0:0:0:
384,192,328238,1,0,0:0:0:0:
469,192,328317,1,0,0:0:0:0:
42,192,328317,1,0,0:0:0:0:
128,192,328396,1,0,0:0:0:0:
384,192,328396,1,0,0:0:0:0:
469,192,328475,1,0,0:0:0:0:
298,192,328475,128,0,328791:0:0:0:0:
42,192,328475,1,0,0:0:0:0:
128,192,328554,1,0,0:0:0:0:
384,192,328554,1,0,0:0:0:0:
42,192,328633,1,0,0:0:0:0:
469,192,328633,1,0,0:0:0:0:
128,192,328712,1,0,0:0:0:0:
384,192,328712,1,0,0:0:0:0:
469,192,328791,1,0,0:0:0:0:
42,192,328791,1,0,0:0:0:0:
42,192,328948,1,0,0:0:0:0:
213,192,329027,1,0,0:0:0:0:
384,192,329106,1,0,0:0:0:0:
469,192,329106,1,0,0:0:0:0:
42,192,329106,1,0,0:0:0:0:
213,192,329264,1,0,0:0:0:0:
384,192,329422,1,0,0:0:0:0:
469,192,329422,1,0,0:0:0:0:
128,192,329422,1,0,0:0:0:0:
213,192,329580,1,0,0:0:0:0:
384,192,329738,1,0,0:0:0:0:
469,192,329738,1,0,0:0:0:0:
42,192,329738,1,0,0:0:0:0:
213,192,329896,1,0,0:0:0:0:
42,192,330054,1,0,0:0:0:0:
128,192,330054,1,0,0:0:0:0:
384,192,330054,1,0,0:0:0:0:
469,192,330212,1,0,0:0:0:0:
298,192,330291,1,0,0:0:0:0:
128,192,330370,1,0,0:0:0:0:
42,192,330370,1,0,0:0:0:0:
469,192,330370,1,0,0:0:0:0:
298,192,330527,1,0,0:0:0:0:
42,192,330685,1,0,0:0:0:0:
128,192,330685,1,0,0:0:0:0:
384,192,330685,1,0,0:0:0:0:
298,192,330843,1,0,0:0:0:0:
128,192,331001,1,0,0:0:0:0:
42,192,331001,1,0,0:0:0:0:
469,192,331001,1,0,0:0:0:0:
384,192,331159,1,0,0:0:0:0:
42,192,331317,1,0,0:0:0:0:
128,192,331317,1,0,0:0:0:0:
469,192,331317,1,0,0:0:0:0:
213,192,331475,1,0,0:0:0:0:
42,192,331633,1,0,0:0:0:0:
469,192,331633,1,0,0:0:0:0:
128,192,331712,1,0,0:0:0:0:
384,192,331712,1,0,0:0:0:0:
298,192,331791,1,0,0:0:0:0:
213,192,331791,1,0,0:0:0:0:
298,192,331948,1,0,0:0:0:0:
213,192,331948,1,0,0:0:0:0:
42,192,332106,1,0,0:0:0:0:
469,192,332106,1,0,0:0:0:0:
128,192,332185,1,0,0:0:0:0:
384,192,332185,1,0,0:0:0:0:
213,192,332264,1,0,0:0:0:0:
298,192,332264,1,0,0:0:0:0:
213,192,332422,1,0,0:0:0:0:
298,192,332422,1,0,0:0:0:0:
128,192,332501,1,0,0:0:0:0:
384,192,332501,1,0,0:0:0:0:
469,192,332580,1,0,0:0:0:0:
298,192,332580,1,0,0:0:0:0:
42,192,332580,1,0,0:0:0:0:
213,192,332659,1,0,0:0:0:0:
128,192,332659,1,0,0:0:0:0:
384,192,332738,1,0,0:0:0:0:
298,192,332738,1,0,0:0:0:0:
128,192,332817,1,0,0:0:0:0:
213,192,332817,1,0,0:0:0:0:
42,192,332896,1,0,0:0:0:0:
469,192,332896,1,0,0:0:0:0:
298,192,332975,1,0,0:0:0:0:
384,192,332975,1,0,0:0:0:0:
128,192,333054,1,0,0:0:0:0:
213,192,333054,1,0,0:0:0:0:
384,192,333133,1,0,0:0:0:0:
298,192,333133,1,0,0:0:0:0:
128,192,333212,1,0,0:0:0:0:
42,192,333212,1,0,0:0:0:0:
213,192,333291,1,0,0:0:0:0:
298,192,333291,1,0,0:0:0:0:
469,192,333370,1,0,0:0:0:0:
384,192,333370,1,0,0:0:0:0:
213,192,333448,1,0,0:0:0:0:
298,192,333448,1,0,0:0:0:0:
128,192,333527,1,0,0:0:0:0:
42,192,333527,1,0,0:0:0:0:
384,192,333606,1,0,0:0:0:0:
469,192,333606,1,0,0:0:0:0:
213,192,333685,1,0,0:0:0:0:
298,192,333685,1,0,0:0:0:0:
42,192,333764,1,0,0:0:0:0:
128,192,333764,1,0,0:0:0:0:
384,192,333843,1,0,0:0:0:0:
469,192,333843,1,0,0:0:0:0:
42,192,334001,1,0,0:0:0:0:
213,192,334080,1,0,0:0:0:0:
384,192,334159,1,0,0:0:0:0:
469,192,334159,1,0,0:0:0:0:
42,192,334159,1,0,0:0:0:0:
213,192,334317,1,0,0:0:0:0:
384,192,334475,1,0,0:0:0:0:
469,192,334475,1,0,0:0:0:0:
128,192,334475,1,0,0:0:0:0:
213,192,334633,1,0,0:0:0:0:
384,192,334791,1,0,0:0:0:0:
469,192,334791,1,0,0:0:0:0:
42,192,334791,1,0,0:0:0:0:
213,192,334948,1,0,0:0:0:0:
42,192,335106,1,0,0:0:0:0:
128,192,335106,1,0,0:0:0:0:
384,192,335106,1,0,0:0:0:0:
469,192,335264,1,0,0:0:0:0:
298,192,335343,1,0,0:0:0:0:
128,192,335422,1,0,0:0:0:0:
42,192,335422,1,0,0:0:0:0:
469,192,335422,1,0,0:0:0:0:
298,192,335580,1,0,0:0:0:0:
42,192,335738,1,0,0:0:0:0:
128,192,335738,1,0,0:0:0:0:
384,192,335738,1,0,0:0:0:0:
298,192,335896,1,0,0:0:0:0:
128,192,336054,1,0,0:0:0:0:
42,192,336054,1,0,0:0:0:0:
469,192,336054,1,0,0:0:0:0:
384,192,336212,1,0,0:0:0:0:
42,192,336370,1,0,0:0:0:0:
384,192,336370,1,0,0:0:0:0:
213,192,336448,1,0,0:0:0:0:
384,192,336527,1,0,0:0:0:0:
42,192,336527,1,0,0:0:0:0:
213,192,336606,1,0,0:0:0:0:
42,192,336685,1,0,0:0:0:0:
469,192,336685,1,0,0:0:0:0:
298,192,336764,1,0,0:0:0:0:
128,192,336843,1,0,0:0:0:0:
469,192,336843,1,0,0:0:0:0:
298,192,336922,1,0,0:0:0:0:
42,192,337001,1,0,0:0:0:0:
469,192,337001,1,0,0:0:0:0:
213,192,337080,1,0,0:0:0:0:
42,192,337159,1,0,0:0:0:0:
384,192,337159,1,0,0:0:0:0:
213,192,337238,1,0,0:0:0:0:
42,192,337317,1,0,0:0:0:0:
469,192,337317,1,0,0:0:0:0:
298,192,337396,1,0,0:0:0:0:
469,192,337475,1,0,0:0:0:0:
128,192,337475,1,0,0:0:0:0:
298,192,337554,1,0,0:0:0:0:
42,192,337633,128,0,338580:0:0:0:0:
469,192,337633,128,0,338580:0:0:0:0:
213,192,338580,1,0,0:0:0:0:
298,192,338580,1,0,0:0:0:0:
213,192,338738,1,0,0:0:0:0:
298,192,338738,1,0,0:0:0:0:
128,192,338896,1,0,0:0:0:0:
42,192,338896,128,0,339054:0:0:0:0:
469,192,338896,128,0,339054:0:0:0:0:
384,192,339054,128,0,339212:0:0:0:0:
298,192,339212,128,0,339370:0:0:0:0:
469,192,339370,128,0,339527:0:0:0:0:
42,192,339370,128,0,339527:0:0:0:0:
128,192,339370,1,0,0:0:0:0:
384,192,339527,128,0,339685:0:0:0:0:
298,192,339685,128,0,339843:0:0:0:0:
213,192,339843,1,0,0:0:0:0:
128,192,339843,128,0,342212:0:0:0:0:
469,192,340159,1,0,0:0:0:0:
298,192,340317,1,0,0:0:0:0:
213,192,340475,1,0,0:0:0:0:
469,192,340633,1,0,0:0:0:0:
298,192,340791,1,0,0:0:0:0:
42,192,340948,1,0,0:0:0:0:
384,192,341106,1,0,0:0:0:0:
213,192,341264,1,0,0:0:0:0:
42,192,341422,1,0,0:0:0:0:
298,192,341580,1,0,0:0:0:0:
213,192,341738,1,0,0:0:0:0:
42,192,341896,1,0,0:0:0:0:
213,192,342054,1,0,0:0:0:0:
298,192,342212,1,0,0:0:0:0:
384,192,342212,1,0,0:0:0:0:
469,192,342212,1,0,0:0:0:0:
298,192,342527,1,0,0:0:0:0:
469,192,342527,1,0,0:0:0:0:
213,192,342527,1,0,0:0:0:0:
128,192,342685,1,0,0:0:0:0:
213,192,342685,1,0,0:0:0:0:
469,192,342685,1,0,0:0:0:0:
42,192,342843,1,0,0:0:0:0:
128,192,342843,1,0,0:0:0:0:
469,192,342843,1,0,0:0:0:0:
213,192,343001,128,0,343633:0:0:0:0:
298,192,343001,128,0,343633:0:0:0:0:
