osu file format v14

[General]
AudioFilename: Dragonforce - Dawn Over a New World_(song365.cc).mp3
AudioLeadIn: 0
PreviewTime: -1
Countdown: 1
SampleSet: None
StackLeniency: 0.7
Mode: 0
LetterboxInBreaks: 0
WidescreenStoryboard: 0

[Editor]
DistanceSpacing: 1
BeatDivisor: 4
GridSize: 4
TimelineZoom: 1

[Metadata]
Title:Dawn over a New World
TitleUnicode:Dawn over a New World
Artist:DragonForce
ArtistUnicode:DragonForce
Creator:Mine6998
Version:Legend
Source:
Tags:
BeatmapID:856238
BeatmapSetID:393403

[Difficulty]
HPDrainRate:3
CircleSize:4
OverallDifficulty:2
ApproachRate:3
SliderMultiplier:1.4
SliderTickRate:1

[Events]
//Background and Video events
0,0,"doragon_forusu.jpg",0,0
//Break Periods
2,48431,70680
2,118802,124754
//Storyboard Layer 0 (Background)
//Storyboard Layer 1 (Fail)
//Storyboard Layer 2 (Pass)
//Storyboard Layer 3 (Foreground)
//Storyboard Sound Samples

[TimingPoints]
1009.51851851852,740.740740740741,4,1,0,100,1,0

[HitObjects]
44,34,24157,5,0,0:0:0:0:
255,24,27120,1,0,0:0:0:0:
500,23,30268,1,0,0:0:0:0:
10,189,33231,2,0,L|170:186,3,140
255,27,39157,1,0,0:0:0:0:
93,193,42120,1,0,0:0:0:0:
256,192,45083,12,0,48231,0:0:0:0:
27,29,72120,5,0,0:0:0:0:
91,21,75083,1,0,0:0:0:0:
166,25,78231,1,0,0:0:0:0:
254,194,81194,1,0,0:0:0:0:
13,189,84157,2,0,L|261:189,1,245
33,13,87120,2,0,L|254:192,1,280
256,192,93231,12,0,96194,0:0:0:0:
151,193,99157,5,0,0:0:0:0:
255,146,102120,1,0,0:0:0:0:
316,199,105268,1,0,0:0:0:0:
256,234,108046,1,0,0:0:0:0:
256,190,111194,1,0,0:0:0:0:
256,192,114157,12,0,118602,0:0:0:0:
20,192,126194,5,0,0:0:0:0:
20,192,127676,1,0,0:0:0:0:
20,192,129157,1,0,0:0:0:0:
20,192,130639,1,0,0:0:0:0:
256,192,132120,12,0,135268,0:0:0:0:
256,192,138231,12,0,142676,0:0:0:0:
16,193,147120,5,0,0:0:0:0:
256,192,150083,12,0,156194,0:0:0:0:
255,193,159157,5,0,0:0:0:0:
256,137,162120,1,0,0:0:0:0:
255,77,165268,1,0,0:0:0:0:
14,185,168231,2,0,L|95:184,8,70
256,192,174157,12,0,177120,0:0:0:0:
10,194,181565,5,0,0:0:0:0:
7,136,183231,1,0,0:0:0:0:
4,80,184713,1,0,0:0:0:0:
4,26,186194,1,0,0:0:0:0:
73,24,187676,1,0,0:0:0:0:
141,23,189157,1,0,0:0:0:0:
212,21,190639,1,0,0:0:0:0:
284,21,192120,1,0,0:0:0:0:
351,21,193602,1,0,0:0:0:0:
257,188,195268,1,0,0:0:0:0:
257,190,198231,1,0,0:0:0:0:
257,189,201194,1,0,0:0:0:0:
257,189,202676,1,0,0:0:0:0:
257,189,204157,1,0,0:0:0:0:
257,189,205639,1,0,0:0:0:0:
254,122,207120,1,0,0:0:0:0:
256,66,210083,1,0,0:0:0:0:
16,192,213231,1,0,0:0:0:0:
256,191,216194,1,0,0:0:0:0:
256,129,219157,1,0,0:0:0:0:
256,68,222120,1,0,0:0:0:0:
18,192,225083,1,0,0:0:0:0:
249,193,226750,1,0,0:0:0:0:
14,192,228231,1,0,0:0:0:0:
253,17,229528,1,0,0:0:0:0:
256,191,231194,1,0,0:0:0:0:
256,110,232676,1,0,0:0:0:0:
20,196,234157,1,0,0:0:0:0:
23,194,237120,1,0,0:0:0:0:
21,138,239528,1,0,0:0:0:0:
21,138,240083,1,0,0:0:0:0:
256,193,243231,1,0,0:0:0:0:
254,15,246194,5,0,0:0:0:0:
74,191,249157,1,0,0:0:0:0:
255,333,252120,1,0,0:0:0:0:
431,193,255268,1,0,0:0:0:0:
256,189,258046,1,0,0:0:0:0:
254,116,261194,5,0,0:0:0:0:
256,70,264157,5,0,0:0:0:0:
256,19,267120,5,0,0:0:0:0:
49,191,270083,5,0,0:0:0:0:
252,352,273046,5,0,0:0:0:0:
491,194,276194,5,0,0:0:0:0:
256,29,277676,5,0,0:0:0:0:
21,189,279157,5,0,0:0:0:0:
257,368,280639,5,0,0:0:0:0:
256,193,285083,5,0,0:0:0:0:
136,127,288046,5,0,0:0:0:0:
371,134,289713,5,0,0:0:0:0:
167,259,291194,5,0,0:0:0:0:
325,262,292676,5,0,0:0:0:0:
257,193,294157,5,0,0:0:0:0:
256,192,297120,12,0,305824,0:0:0:0:
