osu file format v14

[General]
AudioFilename: audio.mp3
AudioLeadIn: 0
PreviewTime: 246116
Countdown: 1
SampleSet: Normal
StackLeniency: 1
Mode: 1
LetterboxInBreaks: 0
WidescreenStoryboard: 0

[Editor]
DistanceSpacing: 0.1
BeatDivisor: 4
GridSize: 16
TimelineZoom: 1.6

[Metadata]
Title:Dawn Over a New World
TitleUnicode:Dawn Over a New World
Artist:DragonForce
ArtistUnicode:DragonForce
Creator:Zing
Version:Legendary Tatsujin
Source:
Tags:
BeatmapID:1281346
BeatmapSetID:606568

[Difficulty]
HPDrainRate:5.5
CircleSize:7
OverallDifficulty:5.5
ApproachRate:10
SliderMultiplier:1.4
SliderTickRate:1

[Events]
//Background and Video events
0,0,"doragon_forusu.jpg",0,0
//Break Periods
//Storyboard Layer 0 (Background)
//Storyboard Layer 1 (Fail)
//Storyboard Layer 2 (Pass)
//Storyboard Layer 3 (Foreground)
//Storyboard Sound Samples

[TimingPoints]
225,375,4,1,0,30,1,0
225,-133.333333333333,4,1,0,30,0,0
24225,-125,4,1,0,50,0,0
48205,375,4,1,0,70,1,0
48205,-100,4,1,0,70,0,0
71642,-105.263157894737,4,1,0,70,0,0
71830,-111.111111111111,4,1,0,70,0,0
72205,-125,4,1,0,50,0,0
95455,-119.047619047619,4,1,0,50,0,0
95642,-113.636363636364,4,1,0,50,0,0
95830,-108.695652173913,4,1,0,50,0,0
96017,-104.166666666667,4,1,0,50,0,0
96205,-100,4,1,0,70,0,0
119580,-103.092783505155,4,1,0,70,0,0
119705,-106.382978723404,4,1,0,70,0,0
119830,-109.89010989011,4,1,0,70,0,0
119955,-113.636363636364,4,1,0,70,0,0
120080,-117.647058823529,4,1,0,70,0,0
120205,-121.951219512195,4,1,0,50,0,0
120298,-125,4,1,0,50,0,0
132205,-125,4,1,0,50,0,1
132298,-83.3333333333333,4,1,0,70,0,1
156205,-71.4285714285714,4,1,0,70,0,1
165205,-80,4,1,0,70,0,1
166705,-90.9090909090909,4,1,0,70,0,1
167830,-100,4,1,0,70,0,1
168205,-111.111111111111,4,1,0,70,0,0
171205,-100,4,1,0,70,0,0
176252,375,4,1,0,70,1,8
176252,-100,4,1,0,70,0,0
177205,375,4,1,0,70,1,0
177205,-100,4,1,0,70,0,0
182080,379.746835443038,4,1,0,70,1,8
182080,-98.0392156862745,4,1,0,70,0,0
182441,375,4,1,0,70,1,8
183205,375,4,1,0,70,1,0
183205,-89.2857142857143,4,1,0,70,0,0
217850,375,4,1,0,70,1,8
217850,-89.2857142857143,4,1,0,70,0,0
219210,375,4,1,0,70,1,0
219210,-89.2857142857143,4,1,0,70,0,1
228960,-89.2857142857143,4,1,0,70,0,0
229522,-80.6451612903226,4,1,0,70,0,0
229710,-80.6451612903226,4,1,0,70,0,1
230460,-80.6451612903226,4,1,0,70,0,0
231022,-73.5294117647059,4,1,0,70,0,0
231210,-73.5294117647059,4,1,0,70,0,1
231960,-78.7401574803149,4,1,0,70,0,1
232210,-84.7457627118644,4,1,0,70,0,1
232460,-91.743119266055,4,1,0,70,0,1
232710,-100,4,1,0,70,0,1
234210,-125,4,1,0,70,0,0
246210,-125,4,1,0,30,0,0
246303,-166.666666666667,4,1,0,30,0,0
255022,-133.333333333333,4,1,0,75,0,0
255522,-117.647058823529,4,1,0,75,0,0
256085,-105.263157894737,4,1,0,75,0,0
257022,-95.2380952380952,4,1,0,75,0,0
257585,-86.9565217391304,4,1,0,75,0,0
258210,-80,4,1,0,75,0,1
282210,-66.6666666666667,4,1,0,75,0,1
291210,-80,4,1,0,75,0,1
292335,-90.9090909090909,4,1,0,75,0,1
292522,-95.2380952380952,4,1,0,75,0,1
292710,-100,4,1,0,75,0,1
294210,-80,4,1,0,75,0,1
297210,-100,4,1,0,75,0,1
297710,-109.89010989011,4,1,0,75,0,1
297772,-111.111111111111,4,1,0,75,0,1
297835,-112.359550561798,4,1,0,75,0,1
297897,-113.636363636364,4,1,0,75,0,1
297975,379.746835443038,4,1,0,100,1,0
297975,-114.942528735632,4,1,0,100,0,0
298164,-119.047619047619,4,1,0,100,0,0
298354,-123.456790123457,4,1,0,100,0,0
298544,-128.205128205128,4,1,0,100,0,0
298734,408.163265306122,4,1,0,100,1,0
298734,-133.333333333333,4,1,0,100,0,0
299346,-153.846153846154,4,1,0,100,0,0
299414,-156.25,4,1,0,100,0,0
299482,-158.730158730159,4,1,0,100,0,0
299550,-161.290322580645,4,1,0,100,0,0
299754,-169.491525423729,4,1,0,100,0,0
299958,-178.571428571429,4,1,0,100,0,0
300520,394.736842105263,4,1,0,100,1,0
300520,-208.333333333333,4,1,0,100,0,0

[HitObjects]
256,192,225,5,12,0:0:0:0:
256,192,600,1,0,0:0:0:0:
256,192,787,1,8,0:0:0:0:
256,192,975,1,8,0:0:0:0:
256,192,1350,1,0,0:0:0:0:
256,192,1537,1,8,0:0:0:0:
256,192,1725,1,0,0:0:0:0:
256,192,1912,1,0,0:0:0:0:
256,192,2100,1,8,0:0:0:0:
256,192,2287,1,8,0:0:0:0:
256,192,2475,1,8,0:0:0:0:
256,192,2662,1,0,0:0:0:0:
256,192,2850,1,0,0:0:0:0:
256,192,3037,1,8,0:0:0:0:
256,192,3225,1,8,0:0:0:0:
256,192,3600,1,0,0:0:0:0:
256,192,3787,1,0,0:0:0:0:
256,192,3975,1,8,0:0:0:0:
256,192,4162,1,0,0:0:0:0:
256,192,4350,1,8,0:0:0:0:
256,192,4725,1,0,0:0:0:0:
256,192,4912,1,8,0:0:0:0:
256,192,5100,1,8,0:0:0:0:
256,192,5287,1,0,0:0:0:0:
256,192,5475,1,8,0:0:0:0:
256,192,5662,1,8,0:0:0:0:
256,192,5850,1,0,0:0:0:0:
256,192,6037,1,0,0:0:0:0:
256,192,6225,1,8,0:0:0:0:
256,192,6600,1,0,0:0:0:0:
256,192,6787,1,0,0:0:0:0:
256,192,6975,1,8,0:0:0:0:
256,192,7162,1,8,0:0:0:0:
256,192,7350,1,0,0:0:0:0:
256,192,7725,1,0,0:0:0:0:
256,192,7912,1,8,0:0:0:0:
256,192,8100,1,8,0:0:0:0:
256,192,8287,1,0,0:0:0:0:
256,192,8475,1,8,0:0:0:0:
256,192,8662,1,8,0:0:0:0:
256,192,8850,1,0,0:0:0:0:
256,192,9037,1,0,0:0:0:0:
256,192,9225,1,8,0:0:0:0:
256,192,9412,1,0,0:0:0:0:
256,192,9600,1,0,0:0:0:0:
256,192,9787,1,0,0:0:0:0:
256,192,9975,1,8,0:0:0:0:
256,192,10350,1,0,0:0:0:0:
256,192,10725,1,0,0:0:0:0:
256,192,10912,1,8,0:0:0:0:
256,192,11100,1,8,0:0:0:0:
256,192,11287,1,0,0:0:0:0:
256,192,11475,1,0,0:0:0:0:
256,192,11850,1,0,0:0:0:0:
256,192,12225,1,8,0:0:0:0:
256,192,12600,1,0,0:0:0:0:
256,192,12787,1,8,0:0:0:0:
256,192,12975,1,8,0:0:0:0:
256,192,13162,1,0,0:0:0:0:
256,192,13350,1,8,0:0:0:0:
256,192,13725,1,0,0:0:0:0:
256,192,13912,1,8,0:0:0:0:
256,192,14100,1,0,0:0:0:0:
256,192,14287,1,8,0:0:0:0:
256,192,14475,1,0,0:0:0:0:
256,192,14662,1,8,0:0:0:0:
256,192,14850,1,8,0:0:0:0:
256,192,15037,1,0,0:0:0:0:
256,192,15225,1,8,0:0:0:0:
256,192,15600,1,0,0:0:0:0:
256,192,15787,1,8,0:0:0:0:
256,192,15975,1,8,0:0:0:0:
256,192,16162,1,8,0:0:0:0:
256,192,16350,1,0,0:0:0:0:
256,192,16725,1,0,0:0:0:0:
256,192,16912,1,8,0:0:0:0:
256,192,17100,1,8,0:0:0:0:
256,192,17287,1,0,0:0:0:0:
256,192,17475,1,8,0:0:0:0:
256,192,17662,1,8,0:0:0:0:
256,192,17850,1,0,0:0:0:0:
256,192,18037,1,0,0:0:0:0:
256,192,18225,1,8,0:0:0:0:
256,192,18600,1,8,0:0:0:0:
256,192,18787,1,0,0:0:0:0:
256,192,18975,1,8,0:0:0:0:
256,192,19162,1,0,0:0:0:0:
256,192,19350,1,0,0:0:0:0:
256,192,19725,1,0,0:0:0:0:
256,192,19912,1,8,0:0:0:0:
256,192,20100,1,0,0:0:0:0:
256,192,20287,1,8,0:0:0:0:
256,192,20475,1,8,0:0:0:0:
256,192,20662,1,8,0:0:0:0:
256,192,20850,1,0,0:0:0:0:
256,192,21037,1,0,0:0:0:0:
256,192,21225,1,0,0:0:0:0:
256,192,21600,1,8,0:0:0:0:
256,192,21787,1,0,0:0:0:0:
256,192,21975,1,8,0:0:0:0:
256,192,22350,1,0,0:0:0:0:
256,192,22725,1,8,0:0:0:0:
256,192,22912,1,8,0:0:0:0:
256,192,23100,1,0,0:0:0:0:
256,192,23287,1,8,0:0:0:0:
256,192,23475,1,0,0:0:0:0:
256,192,23850,1,0,0:0:0:0:
256,192,24225,1,4,0:0:0:0:
256,192,24600,1,8,0:0:0:0:
256,192,24787,1,0,0:0:0:0:
256,192,24975,1,8,0:0:0:0:
256,192,25350,1,0,0:0:0:0:
256,192,25537,1,0,0:0:0:0:
256,192,25725,1,8,0:0:0:0:
256,192,25912,1,0,0:0:0:0:
256,192,26100,1,0,0:0:0:0:
256,192,26287,1,8,0:0:0:0:
256,192,26475,1,0,0:0:0:0:
256,192,26662,1,8,0:0:0:0:
256,192,26850,1,0,0:0:0:0:
256,192,27225,1,8,0:0:0:0:
256,192,27412,1,0,0:0:0:0:
256,192,27600,1,0,0:0:0:0:
256,192,27787,1,8,0:0:0:0:
256,192,28162,1,8,0:0:0:0:
256,192,28537,1,0,0:0:0:0:
256,192,28725,1,8,0:0:0:0:
256,192,28912,1,0,0:0:0:0:
256,192,29100,1,0,0:0:0:0:
256,192,29287,1,8,0:0:0:0:
256,192,29475,1,8,0:0:0:0:
256,192,29662,1,0,0:0:0:0:
256,192,29850,1,0,0:0:0:0:
256,192,30225,1,0,0:0:0:0:
256,192,30412,1,8,0:0:0:0:
256,192,30600,1,8,0:0:0:0:
256,192,30787,1,8,0:0:0:0:
256,192,31162,1,0,0:0:0:0:
256,192,31350,1,8,0:0:0:0:
256,192,31725,1,8,0:0:0:0:
256,192,31912,1,0,0:0:0:0:
256,192,32100,1,8,0:0:0:0:
256,192,32287,1,0,0:0:0:0:
256,192,32662,1,0,0:0:0:0:
256,192,32850,1,8,0:0:0:0:
256,192,33037,1,0,0:0:0:0:
256,192,33225,1,8,0:0:0:0:
256,192,33600,1,0,0:0:0:0:
256,192,33787,1,8,0:0:0:0:
256,192,34162,1,8,0:0:0:0:
256,192,34537,1,0,0:0:0:0:
256,192,34725,1,8,0:0:0:0:
256,192,34912,1,0,0:0:0:0:
256,192,35100,1,0,0:0:0:0:
256,192,35287,1,8,0:0:0:0:
256,192,35662,1,8,0:0:0:0:
256,192,35850,1,0,0:0:0:0:
256,192,36225,1,8,0:0:0:0:
256,192,36600,1,8,0:0:0:0:
256,192,36787,1,0,0:0:0:0:
256,192,37162,1,0,0:0:0:0:
256,192,37350,1,8,0:0:0:0:
256,192,37725,1,8,0:0:0:0:
256,192,38100,1,8,0:0:0:0:
256,192,38287,1,0,0:0:0:0:
256,192,38475,1,0,0:0:0:0:
256,192,38662,1,8,0:0:0:0:
256,192,38850,1,0,0:0:0:0:
256,192,39225,1,0,0:0:0:0:
256,192,39600,1,8,0:0:0:0:
256,192,39787,1,8,0:0:0:0:
256,192,40162,1,8,0:0:0:0:
256,192,40350,1,0,0:0:0:0:
256,192,40537,1,0,0:0:0:0:
256,192,40725,1,8,0:0:0:0:
256,192,40912,1,8,0:0:0:0:
256,192,41100,1,0,0:0:0:0:
256,192,41287,1,0,0:0:0:0:
256,192,41475,1,8,0:0:0:0:
256,192,41662,1,0,0:0:0:0:
256,192,41850,1,0,0:0:0:0:
256,192,42225,1,8,0:0:0:0:
256,192,42600,1,8,0:0:0:0:
256,192,42787,1,0,0:0:0:0:
256,192,43162,1,8,0:0:0:0:
256,192,43350,1,0,0:0:0:0:
256,192,43725,1,8,0:0:0:0:
256,192,44287,1,0,0:0:0:0:
256,192,44475,1,8,0:0:0:0:
256,192,44850,1,0,0:0:0:0:
256,192,45225,1,8,0:0:0:0:
256,192,45600,1,0,0:0:0:0:
256,192,45787,1,8,0:0:0:0:
256,192,46162,1,8,0:0:0:0:
256,192,46350,1,0,0:0:0:0:
256,192,46725,1,8,0:0:0:0:
256,160,47100,2,0,L|320:160,4,56
256,192,48205,1,12,0:0:0:0:
256,192,48580,1,0,0:0:0:0:
256,192,48767,1,0,0:0:0:0:
256,192,48955,1,8,0:0:0:0:
256,192,49330,1,0,0:0:0:0:
256,192,49705,1,0,0:0:0:0:
288,192,50080,1,0,0:0:0:0:
256,192,50267,1,0,0:0:0:0:
256,192,50455,1,8,0:0:0:0:
256,192,50642,1,0,0:0:0:0:
256,192,50830,1,0,0:0:0:0:
256,192,51205,1,8,0:0:0:0:
256,192,51580,1,8,0:0:0:0:
256,192,51767,1,0,0:0:0:0:
256,192,51955,1,8,0:0:0:0:
256,192,52330,1,0,0:0:0:0:
256,192,52705,1,0,0:0:0:0:
256,192,53080,1,0,0:0:0:0:
256,192,53267,1,0,0:0:0:0:
256,192,53455,1,8,0:0:0:0:
256,192,53642,1,8,0:0:0:0:
256,192,53830,1,8,0:0:0:0:
256,192,54017,1,0,0:0:0:0:
256,192,54205,1,12,0:0:0:0:
256,192,54580,1,8,0:0:0:0:
256,192,54767,1,0,0:0:0:0:
256,192,54861,1,0,0:0:0:0:
256,192,54955,1,8,0:0:0:0:
256,192,55330,1,0,0:0:0:0:
256,192,55517,1,8,0:0:0:0:
256,192,55705,1,0,0:0:0:0:
256,192,56080,1,0,0:0:0:0:
256,192,56267,1,0,0:0:0:0:
256,192,56455,1,8,0:0:0:0:
256,192,56642,1,0,0:0:0:0:
256,192,56830,1,0,0:0:0:0:
256,192,57017,1,8,0:0:0:0:
256,192,57205,1,0,0:0:0:0:
256,192,57767,1,0,0:0:0:0:
256,192,57955,1,8,0:0:0:0:
256,192,58330,1,0,0:0:0:0:
256,192,58705,1,0,0:0:0:0:
256,192,58892,1,8,0:0:0:0:
256,192,59080,1,0,0:0:0:0:
256,192,59267,1,0,0:0:0:0:
256,192,59361,1,0,0:0:0:0:
256,192,59455,1,8,0:0:0:0:
256,192,59642,1,8,0:0:0:0:
256,192,59830,1,0,0:0:0:0:
256,192,60017,1,0,0:0:0:0:
256,192,60205,1,12,0:0:0:0:
256,192,60580,1,0,0:0:0:0:
256,192,60767,1,0,0:0:0:0:
256,192,60955,1,8,0:0:0:0:
256,192,61330,1,8,0:0:0:0:
256,192,61705,1,0,0:0:0:0:
256,192,61892,1,8,0:0:0:0:
256,192,62267,1,0,0:0:0:0:
256,192,62361,1,0,0:0:0:0:
256,192,62455,1,8,0:0:0:0:
256,192,62642,1,8,0:0:0:0:
256,192,62830,1,0,0:0:0:0:
256,192,63017,1,0,0:0:0:0:
256,192,63205,1,12,0:0:0:0:
256,192,63580,1,0,0:0:0:0:
256,192,63767,1,0,0:0:0:0:
256,192,63955,1,8,0:0:0:0:
256,192,64330,1,8,0:0:0:0:
256,192,64517,1,0,0:0:0:0:
256,192,64892,1,0,0:0:0:0:
256,192,65080,1,0,0:0:0:0:
256,192,65267,1,8,0:0:0:0:
256,192,65455,1,8,0:0:0:0:
256,192,65642,1,0,0:0:0:0:
256,192,65830,1,0,0:0:0:0:
256,192,66205,1,12,0:0:0:0:
256,192,66392,1,8,0:0:0:0:
256,192,66580,1,0,0:0:0:0:
256,192,66767,1,0,0:0:0:0:
256,192,66955,1,8,0:0:0:0:
256,192,67330,1,0,0:0:0:0:
256,192,67517,1,8,0:0:0:0:
256,192,67705,1,0,0:0:0:0:
256,192,67892,1,0,0:0:0:0:
256,192,68080,1,8,0:0:0:0:
256,192,68267,1,0,0:0:0:0:
256,192,68455,1,8,0:0:0:0:
256,192,68642,1,8,0:0:0:0:
256,192,68830,1,0,0:0:0:0:
256,192,69017,1,0,0:0:0:0:
256,192,69205,1,0,0:0:0:0:
256,192,69580,1,8,0:0:0:0:
256,192,69767,1,0,0:0:0:0:
256,192,69861,1,0,0:0:0:0:
256,192,69955,1,8,0:0:0:0:
256,192,70330,1,8,0:0:0:0:
256,192,70705,1,0,0:0:0:0:
256,192,70892,1,8,0:0:0:0:
256,192,71080,1,0,0:0:0:0:
256,192,71267,1,0,0:0:0:0:
256,192,71361,1,0,0:0:0:0:
256,192,71455,1,8,0:0:0:0:
256,192,71642,1,0,0:0:0:0:
256,192,71830,1,0,0:0:0:0:
256,192,72205,1,12,0:0:0:0:
256,192,72580,1,0,0:0:0:0:
256,192,72767,1,0,0:0:0:0:
256,192,72955,1,8,0:0:0:0:
256,192,73142,1,0,0:0:0:0:
256,192,73517,1,0,0:0:0:0:
256,192,73892,1,8,0:0:0:0:
256,192,74080,1,0,0:0:0:0:
256,192,74267,1,0,0:0:0:0:
256,192,74455,1,8,0:0:0:0:
256,192,74830,1,0,0:0:0:0:
256,192,75017,1,0,0:0:0:0:
256,192,75205,1,8,0:0:0:0:
256,192,75580,1,8,0:0:0:0:
256,192,75767,1,0,0:0:0:0:
256,192,75955,1,8,0:0:0:0:
256,192,76330,1,8,0:0:0:0:
256,192,76517,1,0,0:0:0:0:
256,192,76705,1,0,0:0:0:0:
256,192,77080,1,0,0:0:0:0:
256,192,77455,1,8,0:0:0:0:
256,192,77830,1,0,0:0:0:0:
256,192,78205,1,4,0:0:0:0:
256,192,78580,1,8,0:0:0:0:
256,192,78767,1,8,0:0:0:0:
256,192,78955,1,0,0:0:0:0:
256,192,79330,1,8,0:0:0:0:
256,192,79517,1,0,0:0:0:0:
256,192,79705,1,8,0:0:0:0:
256,192,80080,1,8,0:0:0:0:
256,192,80267,1,0,0:0:0:0:
256,192,80830,1,8,0:0:0:0:
256,192,81017,1,0,0:0:0:0:
256,192,81205,1,0,0:0:0:0:
256,192,81580,1,8,0:0:0:0:
256,192,81767,1,0,0:0:0:0:
256,192,81955,1,0,0:0:0:0:
256,192,82142,1,8,0:0:0:0:
256,192,82517,1,8,0:0:0:0:
256,192,82705,1,0,0:0:0:0:
256,192,83080,1,0,0:0:0:0:
256,192,83267,1,0,0:0:0:0:
256,192,83361,1,0,0:0:0:0:
256,192,83455,1,8,0:0:0:0:
256,192,83642,1,8,0:0:0:0:
256,192,83830,1,0,0:0:0:0:
256,192,84205,1,4,0:0:0:0:
256,192,84580,1,8,0:0:0:0:
256,192,84767,1,0,0:0:0:0:
256,192,84955,1,8,0:0:0:0:
256,192,85330,1,0,0:0:0:0:
256,192,85517,1,8,0:0:0:0:
256,192,85705,1,0,0:0:0:0:
256,192,86080,1,0,0:0:0:0:
256,192,86267,1,0,0:0:0:0:
256,192,86455,1,8,0:0:0:0:
256,192,86830,1,8,0:0:0:0:
256,224,87017,1,0,0:0:0:0:
256,192,87205,1,0,0:0:0:0:
256,192,87580,1,8,0:0:0:0:
256,192,87767,1,8,0:0:0:0:
256,192,88142,1,0,0:0:0:0:
256,192,88517,1,0,0:0:0:0:
256,192,88705,1,8,0:0:0:0:
256,192,89080,1,0,0:0:0:0:
256,192,89267,1,0,0:0:0:0:
256,192,89455,1,8,0:0:0:0:
256,192,89642,1,8,0:0:0:0:
256,192,89830,1,8,0:0:0:0:
256,192,90017,1,0,0:0:0:0:
256,192,90205,1,0,0:0:0:0:
256,192,90580,1,0,0:0:0:0:
256,192,90767,1,8,0:0:0:0:
256,192,91142,1,8,0:0:0:0:
256,192,91330,1,8,0:0:0:0:
256,192,91517,1,0,0:0:0:0:
256,192,91705,1,0,0:0:0:0:
256,192,92080,1,8,0:0:0:0:
256,192,92267,1,0,0:0:0:0:
256,192,92455,1,8,0:0:0:0:
256,192,92830,1,0,0:0:0:0:
256,192,93017,1,0,0:0:0:0:
256,192,93111,1,0,0:0:0:0:
256,192,93205,1,8,0:0:0:0:
256,192,93580,1,8,0:0:0:0:
256,192,93767,1,0,0:0:0:0:
256,192,93955,1,8,0:0:0:0:
256,192,94142,1,8,0:0:0:0:
256,192,94330,1,0,0:0:0:0:
256,192,94423,1,0,0:0:0:0:
256,192,94517,1,0,0:0:0:0:
256,192,94611,1,0,0:0:0:0:
256,192,94705,1,8,0:0:0:0:
256,192,94892,1,8,0:0:0:0:
256,192,95080,1,0,0:0:0:0:
256,192,95267,1,0,0:0:0:0:
256,192,95455,1,8,0:0:0:0:
256,192,95642,1,0,0:0:0:0:
256,192,95830,1,0,0:0:0:0:
256,192,96017,1,0,0:0:0:0:
256,192,96205,1,12,0:0:0:0:
256,192,96580,1,0,0:0:0:0:
256,192,96955,1,8,0:0:0:0:
256,192,97330,1,8,0:0:0:0:
256,192,97517,1,0,0:0:0:0:
256,192,97705,1,8,0:0:0:0:
256,192,97892,1,8,0:0:0:0:
224,192,98080,1,0,0:0:0:0:
256,192,98267,1,0,0:0:0:0:
256,192,98361,1,0,0:0:0:0:
256,192,98455,1,8,0:0:0:0:
256,192,98830,1,8,0:0:0:0:
256,192,99017,1,8,0:0:0:0:
256,192,99205,1,0,0:0:0:0:
256,192,99580,1,0,0:0:0:0:
256,192,99767,1,8,0:0:0:0:
256,192,100142,1,8,0:0:0:0:
256,192,100517,1,8,0:0:0:0:
256,192,100705,1,0,0:0:0:0:
256,192,101080,1,8,0:0:0:0:
256,192,101267,1,0,0:0:0:0:
256,192,101361,1,0,0:0:0:0:
256,192,101455,1,8,0:0:0:0:
256,192,101642,1,0,0:0:0:0:
256,192,101830,1,0,0:0:0:0:
256,192,102205,1,12,0:0:0:0:
256,192,102580,1,0,0:0:0:0:
256,192,102955,1,8,0:0:0:0:
256,192,103330,1,8,0:0:0:0:
256,192,103517,1,0,0:0:0:0:
256,192,103705,1,8,0:0:0:0:
256,192,103892,1,0,0:0:0:0:
256,192,104267,1,0,0:0:0:0:
256,192,104455,1,8,0:0:0:0:
256,192,104830,1,8,0:0:0:0:
256,192,105017,1,0,0:0:0:0:
256,192,105205,1,8,0:0:0:0:
256,192,105392,1,8,0:0:0:0:
256,192,105580,1,0,0:0:0:0:
256,192,105767,1,8,0:0:0:0:
256,192,105861,1,8,0:0:0:0:
256,192,105955,1,0,0:0:0:0:
256,192,106142,1,0,0:0:0:0:
256,192,106517,1,0,0:0:0:0:
256,192,106611,1,0,0:0:0:0:
256,192,106705,1,8,0:0:0:0:
256,192,106892,1,8,0:0:0:0:
256,192,107267,1,8,0:0:0:0:
256,192,107361,1,0,0:0:0:0:
256,192,107455,1,8,0:0:0:0:
256,192,107642,1,4,0:0:0:0:
256,192,108017,1,8,0:0:0:0:
256,192,108205,1,0,0:0:0:0:
256,192,108580,1,8,0:0:0:0:
256,192,108955,1,8,0:0:0:0:
256,192,109330,1,8,0:0:0:0:
256,192,109517,1,0,0:0:0:0:
256,192,109705,1,8,0:0:0:0:
256,192,109892,1,0,0:0:0:0:
256,192,110080,1,8,0:0:0:0:
256,192,110267,1,0,0:0:0:0:
256,192,110455,1,0,0:0:0:0:
256,192,110830,1,8,0:0:0:0:
256,192,111017,1,8,0:0:0:0:
256,192,111205,1,0,0:0:0:0:
256,192,111580,1,0,0:0:0:0:
256,192,111767,1,8,0:0:0:0:
256,192,112142,1,8,0:0:0:0:
256,192,112517,1,8,0:0:0:0:
256,192,112705,1,0,0:0:0:0:
256,192,113080,1,8,0:0:0:0:
256,192,113267,1,8,0:0:0:0:
256,192,113455,1,0,0:0:0:0:
256,192,113642,1,0,0:0:0:0:
256,192,113830,1,4,0:0:0:0:
256,192,114017,1,0,0:0:0:0:
256,192,114205,1,12,0:0:0:0:
256,192,114580,1,0,0:0:0:0:
256,192,114955,1,8,0:0:0:0:
256,192,115330,1,8,0:0:0:0:
256,192,115517,1,0,0:0:0:0:
256,192,115705,1,8,0:0:0:0:
256,192,115892,1,8,0:0:0:0:
256,192,116080,1,0,0:0:0:0:
256,192,116267,1,8,0:0:0:0:
256,192,116455,1,8,0:0:0:0:
256,192,116830,1,8,0:0:0:0:
256,192,117017,1,0,0:0:0:0:
256,192,117205,1,8,0:0:0:0:
256,192,117580,1,0,0:0:0:0:
256,192,117767,1,0,0:0:0:0:
256,192,117955,1,8,0:0:0:0:
256,192,118330,1,8,0:0:0:0:
256,192,118517,1,0,0:0:0:0:
256,192,118611,1,0,0:0:0:0:
256,192,118705,1,8,0:0:0:0:
256,192,118830,1,0,0:0:0:0:
256,192,118955,1,8,0:0:0:0:
256,192,119080,1,8,0:0:0:0:
256,192,119205,1,0,0:0:0:0:
256,192,119330,1,0,0:0:0:0:
256,192,119455,1,8,0:0:0:0:
256,192,119580,1,0,0:0:0:0:
256,192,119705,1,0,0:0:0:0:
256,192,119830,1,8,0:0:0:0:
256,192,119955,1,8,0:0:0:0:
256,192,120080,1,0,0:0:0:0:
256,192,120205,1,12,0:0:0:0:
256,192,120580,1,0,0:0:0:0:
256,192,120955,1,8,0:0:0:0:
256,192,121205,1,8,0:0:0:0:
256,192,121517,1,0,0:0:0:0:
256,192,121705,1,8,0:0:0:0:
256,192,122080,1,8,0:0:0:0:
256,192,122267,1,0,0:0:0:0:
256,192,122642,1,0,0:0:0:0:
256,192,122830,1,0,0:0:0:0:
256,192,123017,1,0,0:0:0:0:
256,192,123205,1,8,0:0:0:0:
256,192,123580,1,0,0:0:0:0:
256,192,123767,1,0,0:0:0:0:
256,192,123955,1,8,0:0:0:0:
256,192,124142,1,8,0:0:0:0:
256,192,124517,1,0,0:0:0:0:
256,192,124705,1,8,0:0:0:0:
256,192,125080,1,8,0:0:0:0:
256,192,125267,1,8,0:0:0:0:
256,192,125361,1,8,0:0:0:0:
256,192,125455,1,0,0:0:0:0:
256,192,126205,1,12,0:0:0:0:
256,192,126580,1,8,0:0:0:0:
256,192,126767,1,0,0:0:0:0:
256,192,126955,1,8,0:0:0:0:
256,192,127142,1,8,0:0:0:0:
256,192,127330,1,8,0:0:0:0:
256,192,127517,1,0,0:0:0:0:
256,224,127705,1,8,0:0:0:0:
256,192,128080,1,0,0:0:0:0:
224,192,128267,1,8,0:0:0:0:
256,192,128455,1,8,0:0:0:0:
256,192,128705,1,0,0:0:0:0:
256,192,129017,1,0,0:0:0:0:
256,192,129205,1,8,0:0:0:0:
256,192,129767,1,8,0:0:0:0:
256,192,129955,1,8,0:0:0:0:
256,192,130205,1,0,0:0:0:0:
256,192,130455,1,0,0:0:0:0:
256,192,130705,1,8,0:0:0:0:
256,192,130830,1,8,0:0:0:0:
256,192,130955,1,8,0:0:0:0:
256,192,131080,1,8,0:0:0:0:
256,192,131205,1,8,0:0:0:0:
256,192,131330,1,8,0:0:0:0:
256,192,131455,1,0,0:0:0:0:
256,192,131580,1,0,0:0:0:0:
256,192,131705,1,0,0:0:0:0:
256,192,131830,1,0,0:0:0:0:
256,192,131955,1,0,0:0:0:0:
256,192,132080,1,0,0:0:0:0:
256,192,132205,1,12,0:0:0:0:
256,192,132580,1,0,0:0:0:0:
256,192,132955,1,8,0:0:0:0:
256,192,133142,1,0,0:0:0:0:
256,192,133330,1,8,0:0:0:0:
256,192,133517,1,8,0:0:0:0:
256,192,133892,1,0,0:0:0:0:
256,192,134267,1,0,0:0:0:0:
256,192,134361,1,0,0:0:0:0:
256,192,134455,1,8,0:0:0:0:
256,192,134642,1,0,0:0:0:0:
256,192,134830,1,8,0:0:0:0:
256,192,135017,1,8,0:0:0:0:
256,192,135205,1,4,0:0:0:0:
256,192,135580,1,0,0:0:0:0:
256,192,135767,1,8,0:0:0:0:
256,192,135955,1,0,0:0:0:0:
256,192,136330,1,0,0:0:0:0:
256,192,136517,1,8,0:0:0:0:
256,192,136892,1,8,0:0:0:0:
256,192,137267,1,0,0:0:0:0:
256,192,137361,1,0,0:0:0:0:
256,192,137455,1,8,0:0:0:0:
256,192,137642,1,8,0:0:0:0:
256,192,137830,1,0,0:0:0:0:
256,192,138205,1,12,0:0:0:0:
256,192,138580,1,0,0:0:0:0:
256,192,138955,1,8,0:0:0:0:
256,192,139142,1,0,0:0:0:0:
256,192,139517,1,0,0:0:0:0:
256,192,139705,1,8,0:0:0:0:
256,192,140080,1,0,0:0:0:0:
256,192,140267,1,0,0:0:0:0:
256,192,140455,1,8,0:0:0:0:
256,192,140830,1,0,0:0:0:0:
256,192,141205,1,12,0:0:0:0:
256,192,141767,1,0,0:0:0:0:
256,192,141955,1,8,0:0:0:0:
256,192,142330,1,8,0:0:0:0:
256,192,142517,1,8,0:0:0:0:
256,192,142611,1,0,0:0:0:0:
256,192,142705,1,0,0:0:0:0:
256,192,142892,1,12,0:0:0:0:
256,192,143267,1,8,0:0:0:0:
256,192,143455,1,12,0:0:0:0:
256,192,143642,1,0,0:0:0:0:
256,192,143830,1,0,0:0:0:0:
256,192,144205,1,12,0:0:0:0:
256,192,144955,1,0,0:0:0:0:
256,192,145330,1,0,0:0:0:0:
256,192,145517,1,8,0:0:0:0:
256,192,145892,1,0,0:0:0:0:
256,192,146267,1,0,0:0:0:0:
256,192,146455,1,8,0:0:0:0:
256,192,146830,1,8,0:0:0:0:
256,192,147017,1,8,0:0:0:0:
256,192,147205,1,0,0:0:0:0:
256,192,147580,1,8,0:0:0:0:
256,192,147767,1,0,0:0:0:0:
256,192,147955,1,0,0:0:0:0:
256,192,148330,1,0,0:0:0:0:
256,192,148517,1,8,0:0:0:0:
256,192,148892,1,8,0:0:0:0:
256,192,149267,1,0,0:0:0:0:
256,192,149455,1,8,0:0:0:0:
256,192,149642,1,8,0:0:0:0:
256,192,149830,1,0,0:0:0:0:
256,192,150205,1,8,0:0:0:0:
256,192,150392,1,8,0:0:0:0:
256,192,150580,1,8,0:0:0:0:
256,192,150767,1,0,0:0:0:0:
256,192,150955,1,8,0:0:0:0:
256,192,151330,1,0,0:0:0:0:
256,192,151517,1,0,0:0:0:0:
256,192,151705,1,8,0:0:0:0:
256,192,152080,1,8,0:0:0:0:
256,192,152267,1,0,0:0:0:0:
256,192,152455,1,8,0:0:0:0:
288,192,152642,1,0,0:0:0:0:
256,192,153017,1,0,0:0:0:0:
256,192,153205,1,8,0:0:0:0:
256,192,153392,1,8,0:0:0:0:
256,192,153580,1,0,0:0:0:0:
256,192,153767,1,0,0:0:0:0:
256,192,153955,1,8,0:0:0:0:
256,192,154330,1,0,0:0:0:0:
256,192,154705,1,8,0:0:0:0:
256,192,154830,1,8,0:0:0:0:
256,192,154955,1,8,0:0:0:0:
256,192,155080,1,0,0:0:0:0:
256,192,155205,1,8,0:0:0:0:
256,192,155330,1,0,0:0:0:0:
256,192,155455,1,8,0:0:0:0:
256,192,155830,1,4,0:0:0:0:
256,192,156205,1,12,0:0:0:0:
256,192,156767,1,0,0:0:0:0:
256,192,156955,1,8,0:0:0:0:
256,192,157330,1,0,0:0:0:0:
256,192,157517,1,0,0:0:0:0:
256,192,157705,1,8,0:0:0:0:
256,192,158080,1,8,0:0:0:0:
256,192,158267,1,0,0:0:0:0:
256,192,158361,1,0,0:0:0:0:
256,192,158455,1,0,0:0:0:0:
256,192,158642,1,12,0:0:0:0:
256,192,158830,1,4,0:0:0:0:
256,192,159205,1,8,0:0:0:0:
256,192,159580,1,8,0:0:0:0:
256,192,159955,1,8,0:0:0:0:
256,192,160330,1,0,0:0:0:0:
256,192,160517,1,0,0:0:0:0:
256,192,160705,1,8,0:0:0:0:
256,192,160892,1,0,0:0:0:0:
256,192,161267,1,0,0:0:0:0:
256,192,161361,1,0,0:0:0:0:
256,192,161455,1,8,0:0:0:0:
256,192,161642,1,4,0:0:0:0:
256,192,161830,1,4,0:0:0:0:
256,192,162205,1,12,0:0:0:0:
256,192,162580,1,0,0:0:0:0:
256,192,162767,1,8,0:0:0:0:
256,192,162955,1,0,0:0:0:0:
256,192,163330,1,8,0:0:0:0:
256,192,163705,1,8,0:0:0:0:
256,192,164080,1,8,0:0:0:0:
256,192,164267,1,0,0:0:0:0:
256,192,164455,1,0,0:0:0:0:
256,192,164830,1,0,0:0:0:0:
256,192,165205,1,12,0:0:0:0:
256,192,165767,1,0,0:0:0:0:
256,192,165955,1,8,0:0:0:0:
256,192,166330,1,0,0:0:0:0:
256,192,166705,1,12,0:0:0:0:
256,192,167267,1,0,0:0:0:0:
256,192,167455,1,8,0:0:0:0:
256,192,167830,1,8,0:0:0:0:
256,192,168205,1,4,0:0:0:0:
256,192,168767,1,0,0:0:0:0:
256,192,168955,1,8,0:0:0:0:
256,192,169142,1,8,0:0:0:0:
256,192,169330,1,0,0:0:0:0:
256,192,169705,1,0,0:0:0:0:
256,192,169892,1,8,0:0:0:0:
256,192,170080,1,0,0:0:0:0:
256,192,170267,1,0,0:0:0:0:
256,192,170361,1,0,0:0:0:0:
256,192,170455,1,8,0:0:0:0:
256,192,170830,1,0,0:0:0:0:
256,192,171205,1,0,0:0:0:0:
256,192,171580,1,8,0:0:0:0:
256,192,171955,1,8,0:0:0:0:
256,192,172330,1,0,0:0:0:0:
256,192,172517,1,8,0:0:0:0:
256,192,172892,1,8,0:0:0:0:
256,192,173080,1,0,0:0:0:0:
256,192,173267,1,0,0:0:0:0:
256,192,173455,1,8,0:0:0:0:
256,192,173830,1,0,0:0:0:0:
256,192,174017,1,0,0:0:0:0:
256,192,174205,1,8,0:0:0:0:
256,192,174392,1,0,0:0:0:0:
256,192,174580,1,8,0:0:0:0:
256,192,174767,1,8,0:0:0:0:
256,192,174955,1,0,0:0:0:0:
256,192,175330,1,0,0:0:0:0:
256,192,175517,1,8,0:0:0:0:
256,192,175892,1,8,0:0:0:0:
256,192,176252,1,0,0:0:0:0:
256,192,176345,1,0,0:0:0:0:
256,192,176439,1,8,0:0:0:0:
256,192,176814,1,4,0:0:0:0:
256,192,177205,1,12,0:0:0:0:
256,192,177580,1,8,0:0:0:0:
256,192,177955,1,0,0:0:0:0:
256,192,178330,1,0,0:0:0:0:
256,192,178517,1,8,0:0:0:0:
256,192,178892,1,0,0:0:0:0:
256,192,179267,1,0,0:0:0:0:
256,192,179455,1,8,0:0:0:0:
256,192,179830,1,8,0:0:0:0:
256,192,180017,1,8,0:0:0:0:
256,192,180205,1,0,0:0:0:0:
256,192,180392,1,0,0:0:0:0:
256,192,180767,1,0,0:0:0:0:
256,192,180955,1,8,0:0:0:0:
256,192,181330,1,0,0:0:0:0:
256,192,181517,1,8,0:0:0:0:
256,192,181705,1,8,0:0:0:0:
256,192,181892,1,0,0:0:0:0:
256,192,181986,1,0,0:0:0:0:
256,192,182080,1,8,0:0:0:0:
256,192,182269,1,0,0:0:0:0:
256,192,182441,1,4,0:0:0:0:
256,192,182628,1,0,0:0:0:0:
256,192,182816,1,8,0:0:0:0:
256,192,183205,1,0,0:0:0:0:
256,192,183580,1,0,0:0:0:0:
256,192,183767,1,0,0:0:0:0:
256,192,183955,1,8,0:0:0:0:
256,192,184142,1,0,0:0:0:0:
256,192,184236,1,8,0:0:0:0:
256,192,184330,1,0,0:0:0:0:
256,192,184517,1,8,0:0:0:0:
256,192,184705,1,0,0:0:0:0:
256,192,185080,1,0,0:0:0:0:
256,192,185267,1,0,0:0:0:0:
256,192,185455,1,8,0:0:0:0:
256,192,185642,1,8,0:0:0:0:
256,192,185830,1,0,0:0:0:0:
256,192,186017,1,0,0:0:0:0:
256,192,186205,1,8,0:0:0:0:
256,192,186580,1,0,0:0:0:0:
256,192,186767,1,0,0:0:0:0:
256,192,186955,1,8,0:0:0:0:
256,192,187142,1,8,0:0:0:0:
256,192,187330,1,0,0:0:0:0:
256,192,187517,1,8,0:0:0:0:
256,192,187892,1,8,0:0:0:0:
256,192,188080,1,8,0:0:0:0:
256,192,188267,1,0,0:0:0:0:
256,192,188455,1,0,0:0:0:0:
256,192,188830,1,0,0:0:0:0:
256,192,189205,1,8,0:0:0:0:
256,192,189298,1,0,0:0:0:0:
256,192,189392,1,8,0:0:0:0:
256,192,189486,1,0,0:0:0:0:
256,192,189580,1,8,0:0:0:0:
256,192,189673,1,0,0:0:0:0:
256,192,189767,1,0,0:0:0:0:
256,192,189955,1,8,0:0:0:0:
256,192,190048,1,0,0:0:0:0:
256,192,190142,1,0,0:0:0:0:
256,192,190330,1,8,0:0:0:0:
256,192,190423,1,0,0:0:0:0:
256,192,190517,1,8,0:0:0:0:
256,192,190611,1,8,0:0:0:0:
256,192,190705,1,0,0:0:0:0:
256,192,190892,1,0,0:0:0:0:
256,192,190986,1,0,0:0:0:0:
256,192,191080,1,8,0:0:0:0:
256,192,191173,1,0,0:0:0:0:
256,192,191267,1,0,0:0:0:0:
256,192,191455,1,8,0:0:0:0:
256,192,191548,1,8,0:0:0:0:
256,192,191642,1,0,0:0:0:0:
256,192,191736,1,0,0:0:0:0:
256,192,191830,1,8,0:0:0:0:
256,192,192017,1,0,0:0:0:0:
256,192,192205,1,0,0:0:0:0:
256,192,192298,1,0,0:0:0:0:
256,192,192392,1,8,0:0:0:0:
256,192,192486,1,8,0:0:0:0:
256,192,192580,1,0,0:0:0:0:
256,192,192767,1,8,0:0:0:0:
256,192,192861,1,0,0:0:0:0:
256,192,192955,1,0,0:0:0:0:
256,192,193142,1,8,0:0:0:0:
256,192,193236,1,0,0:0:0:0:
256,192,193330,1,8,0:0:0:0:
256,192,193423,1,0,0:0:0:0:
256,192,193517,1,0,0:0:0:0:
256,192,193705,1,8,0:0:0:0:
256,192,193892,1,8,0:0:0:0:
256,192,194080,1,0,0:0:0:0:
256,192,194267,1,0,0:0:0:0:
256,192,194361,1,0,0:0:0:0:
256,192,194455,1,8,0:0:0:0:
256,192,194642,1,0,0:0:0:0:
256,192,194830,1,4,0:0:0:0:
256,192,195205,1,8,0:0:0:0:
256,192,195392,1,0,0:0:0:0:
256,192,195580,1,8,0:0:0:0:
256,192,195767,1,0,0:0:0:0:
256,192,195955,1,8,0:0:0:0:
256,192,196330,1,8,0:0:0:0:
256,192,196423,1,8,0:0:0:0:
256,192,196517,1,0,0:0:0:0:
256,192,196705,1,8,0:0:0:0:
256,192,196892,1,0,0:0:0:0:
256,192,197080,1,0,0:0:0:0:
256,192,197267,1,8,0:0:0:0:
256,192,197361,1,8,0:0:0:0:
256,192,197455,1,0,0:0:0:0:
256,192,197642,1,8,0:0:0:0:
256,192,197830,1,0,0:0:0:0:
256,192,198017,1,8,0:0:0:0:
256,192,198205,1,8,0:0:0:0:
256,192,198392,1,8,0:0:0:0:
256,192,198580,1,0,0:0:0:0:
256,192,198767,1,0,0:0:0:0:
256,192,198955,1,8,0:0:0:0:
256,192,199330,1,0,0:0:0:0:
256,192,199517,1,0,0:0:0:0:
256,192,199705,1,8,0:0:0:0:
256,192,199892,1,0,0:0:0:0:
256,192,200080,1,0,0:0:0:0:
256,192,200205,1,0,0:0:0:0:
256,192,200330,1,8,0:0:0:0:
256,192,200455,1,8,0:0:0:0:
256,192,200830,1,12,0:0:0:0:
256,192,201205,1,8,0:0:0:0:
256,192,201298,1,0,0:0:0:0:
256,192,201392,1,8,0:0:0:0:
256,192,201486,1,0,0:0:0:0:
256,192,201580,1,0,0:0:0:0:
256,192,201767,1,0,0:0:0:0:
256,192,201861,1,8,0:0:0:0:
256,192,201955,1,8,0:0:0:0:
256,192,202048,1,0,0:0:0:0:
256,192,202142,1,0,0:0:0:0:
256,192,202236,1,8,0:0:0:0:
256,192,202330,1,0,0:0:0:0:
256,192,202517,1,0,0:0:0:0:
256,192,202705,1,0,0:0:0:0:
256,192,202830,1,8,0:0:0:0:
256,192,202955,1,8,0:0:0:0:
256,192,203080,1,0,0:0:0:0:
256,192,203205,1,8,0:0:0:0:
256,192,203330,1,0,0:0:0:0:
256,192,203455,1,8,0:0:0:0:
256,192,203830,1,0,0:0:0:0:
256,192,204205,1,8,0:0:0:0:
256,192,204298,1,8,0:0:0:0:
256,192,204392,1,0,0:0:0:0:
256,192,204486,1,0,0:0:0:0:
256,192,204580,1,8,0:0:0:0:
256,192,204767,1,0,0:0:0:0:
256,192,204861,1,8,0:0:0:0:
256,192,204955,1,8,0:0:0:0:
256,192,205048,1,0,0:0:0:0:
256,192,205142,1,8,0:0:0:0:
256,192,205236,1,0,0:0:0:0:
256,192,205330,1,0,0:0:0:0:
256,192,205705,1,8,0:0:0:0:
256,192,205767,1,0,0:0:0:0:
256,192,205830,1,0,0:0:0:0:
256,192,205955,1,0,0:0:0:0:
256,192,206080,1,8,0:0:0:0:
256,192,206205,1,8,0:0:0:0:
256,192,206330,1,0,0:0:0:0:
256,192,206455,1,0,0:0:0:0:
256,192,206580,1,8,0:0:0:0:
256,192,206705,1,0,0:0:0:0:
256,192,206830,1,0,0:0:0:0:
256,192,207205,1,12,0:0:0:0:
256,192,207392,1,0,0:0:0:0:
256,192,207580,1,8,0:0:0:0:
256,192,207767,1,8,0:0:0:0:
256,192,207955,1,0,0:0:0:0:
256,192,208142,1,8,0:0:0:0:
256,192,208330,1,0,0:0:0:0:
256,192,208517,1,8,0:0:0:0:
256,192,208892,1,0,0:0:0:0:
256,192,209267,1,8,0:0:0:0:
256,192,209361,1,0,0:0:0:0:
256,192,209455,1,0,0:0:0:0:
256,192,209642,1,8,0:0:0:0:
256,192,209736,1,8,0:0:0:0:
256,192,209830,1,0,0:0:0:0:
256,192,210017,1,0,0:0:0:0:
256,192,210205,1,8,0:0:0:0:
256,192,210392,1,8,0:0:0:0:
256,192,210580,1,0,0:0:0:0:
256,192,210767,1,0,0:0:0:0:
256,192,211142,1,0,0:0:0:0:
256,192,211517,1,8,0:0:0:0:
256,192,211892,1,8,0:0:0:0:
256,192,212080,1,0,0:0:0:0:
256,192,212267,1,0,0:0:0:0:
256,192,212455,1,8,0:0:0:0:
256,192,212548,1,0,0:0:0:0:
256,192,212642,1,8,0:0:0:0:
256,192,212830,1,0,0:0:0:0:
256,192,213205,1,12,0:0:0:0:
256,192,213392,1,0,0:0:0:0:
256,192,213580,1,0,0:0:0:0:
256,192,213767,1,8,0:0:0:0:
256,192,214142,1,0,0:0:0:0:
256,192,214330,1,8,0:0:0:0:
256,192,214423,1,8,0:0:0:0:
256,192,214517,1,0,0:0:0:0:
256,192,214705,1,0,0:0:0:0:
256,192,214892,1,8,0:0:0:0:
256,192,215080,1,0,0:0:0:0:
256,192,215267,1,0,0:0:0:0:
256,192,215455,1,8,0:0:0:0:
256,192,215548,1,0,0:0:0:0:
256,192,215642,1,8,0:0:0:0:
256,192,215830,1,8,0:0:0:0:
256,192,216017,1,8,0:0:0:0:
256,192,216205,1,8,0:0:0:0:
256,192,216392,1,8,0:0:0:0:
256,192,216580,1,0,0:0:0:0:
256,192,216767,1,0,0:0:0:0:
256,192,217142,1,8,0:0:0:0:
256,192,217330,1,0,0:0:0:0:
256,192,217517,1,8,0:0:0:0:
256,192,217611,1,0,0:0:0:0:
256,192,217705,1,8,0:0:0:0:
256,192,217850,1,0,0:0:0:0:
256,192,218037,1,0,0:0:0:0:
256,192,218225,1,8,0:0:0:0:
256,192,218318,1,8,0:0:0:0:
256,192,218412,1,0,0:0:0:0:
256,192,218600,1,0,0:0:0:0:
256,192,218787,1,4,0:0:0:0:
256,192,219210,1,8,0:0:0:0:
256,192,219303,1,8,0:0:0:0:
256,192,219397,1,8,0:0:0:0:
256,192,219491,1,8,0:0:0:0:
256,192,219585,1,0,0:0:0:0:
256,192,219678,1,0,0:0:0:0:
256,192,219772,1,0,0:0:0:0:
256,192,219866,1,0,0:0:0:0:
256,192,219960,1,8,0:0:0:0:
256,192,220053,1,0,0:0:0:0:
256,192,220147,1,8,0:0:0:0:
256,192,220241,1,0,0:0:0:0:
256,192,220335,1,0,0:0:0:0:
256,192,220428,1,0,0:0:0:0:
256,192,220522,1,8,0:0:0:0:
256,192,220616,1,0,0:0:0:0:
256,192,220710,1,8,0:0:0:0:
256,192,220803,1,0,0:0:0:0:
256,192,220897,1,0,0:0:0:0:
256,192,220991,1,0,0:0:0:0:
256,192,221085,1,8,0:0:0:0:
256,192,221178,1,0,0:0:0:0:
256,192,221272,1,8,0:0:0:0:
256,192,221366,1,0,0:0:0:0:
256,192,221460,1,8,0:0:0:0:
256,192,221553,1,8,0:0:0:0:
256,192,221647,1,0,0:0:0:0:
256,192,221741,1,0,0:0:0:0:
256,192,221835,1,8,0:0:0:0:
256,192,221928,1,8,0:0:0:0:
256,192,222022,1,0,0:0:0:0:
256,192,222210,1,8,0:0:0:0:
256,192,222397,1,0,0:0:0:0:
256,192,222585,1,0,0:0:0:0:
256,192,222772,1,0,0:0:0:0:
256,192,223147,1,0,0:0:0:0:
256,192,223335,1,8,0:0:0:0:
256,192,223522,1,8,0:0:0:0:
256,192,223710,1,8,0:0:0:0:
256,192,223835,1,8,0:0:0:0:
256,192,223960,1,8,0:0:0:0:
256,192,224085,1,0,0:0:0:0:
256,192,224210,1,0,0:0:0:0:
256,192,224335,1,0,0:0:0:0:
256,192,224460,1,8,0:0:0:0:
256,192,224585,1,8,0:0:0:0:
256,192,224710,1,8,0:0:0:0:
256,192,224835,1,0,0:0:0:0:
256,192,225210,1,8,0:0:0:0:
256,192,225303,1,0,0:0:0:0:
256,192,225397,1,0,0:0:0:0:
256,192,225491,1,8,0:0:0:0:
256,192,225585,1,0,0:0:0:0:
256,192,225772,1,0,0:0:0:0:
256,192,225866,1,0,0:0:0:0:
256,192,225960,1,8,0:0:0:0:
256,192,226053,1,0,0:0:0:0:
256,192,226147,1,0,0:0:0:0:
256,192,226241,1,8,0:0:0:0:
256,192,226335,1,8,0:0:0:0:
256,192,226522,1,0,0:0:0:0:
256,192,226616,1,8,0:0:0:0:
256,192,226710,1,8,0:0:0:0:
256,192,226803,1,0,0:0:0:0:
256,192,226897,1,0,0:0:0:0:
256,192,226991,1,8,0:0:0:0:
256,192,227085,1,8,0:0:0:0:
256,192,227272,1,0,0:0:0:0:
256,192,227366,1,0,0:0:0:0:
256,192,227460,1,8,0:0:0:0:
256,192,227553,1,0,0:0:0:0:
256,192,227647,1,8,0:0:0:0:
256,192,227741,1,8,0:0:0:0:
256,192,227835,1,8,0:0:0:0:
256,192,227928,1,8,0:0:0:0:
256,192,228022,1,0,0:0:0:0:
256,192,228210,1,8,0:0:0:0:
256,192,228397,1,12,0:0:0:0:
256,192,228585,1,4,0:0:0:0:
256,192,228772,1,12,0:0:0:0:
256,192,228960,1,12,0:0:0:0:
256,192,229522,1,0,0:0:0:0:
256,192,229616,1,0,0:0:0:0:
256,192,229710,1,8,0:0:0:0:
256,192,229897,1,12,0:0:0:0:
256,192,230085,1,12,0:0:0:0:
256,192,230272,1,4,0:0:0:0:
256,192,230460,1,12,0:0:0:0:
256,192,231022,1,0,0:0:0:0:
256,192,231116,1,0,0:0:0:0:
256,192,231210,1,8,0:0:0:0:
256,192,231303,1,0,0:0:0:0:
256,192,231397,1,8,0:0:0:0:
256,192,231491,1,8,0:0:0:0:
256,192,231585,1,0,0:0:0:0:
256,192,231772,1,0,0:0:0:0:
256,192,231960,1,0,0:0:0:0:
256,192,232210,1,8,0:0:0:0:
256,192,232460,1,12,0:0:0:0:
256,192,232710,1,12,0:0:0:0:
256,192,232772,12,0,234022,0:0:0:0:
256,192,234210,5,12,0:0:0:0:
256,192,234585,1,0,0:0:0:0:
256,192,234960,1,8,0:0:0:0:
256,192,235147,1,8,0:0:0:0:
256,192,235522,1,0,0:0:0:0:
256,192,235710,1,8,0:0:0:0:
256,192,236085,1,8,0:0:0:0:
256,192,236272,1,0,0:0:0:0:
256,192,236647,1,0,0:0:0:0:
256,192,236835,1,0,0:0:0:0:
256,192,237022,1,8,0:0:0:0:
256,192,237210,1,0,0:0:0:0:
256,192,237585,1,8,0:0:0:0:
256,192,237772,1,8,0:0:0:0:
256,192,237960,1,8,0:0:0:0:
256,192,238147,1,0,0:0:0:0:
256,192,238522,1,0,0:0:0:0:
256,192,238710,1,8,0:0:0:0:
256,192,238991,1,8,0:0:0:0:
256,192,239272,1,0,0:0:0:0:
256,192,239366,1,0,0:0:0:0:
256,192,239460,1,8,0:0:0:0:
256,192,239647,1,8,0:0:0:0:
256,192,239835,1,4,0:0:0:0:
256,192,240210,1,12,0:0:0:0:
256,192,240585,1,8,0:0:0:0:
256,192,240772,1,0,0:0:0:0:
256,192,240960,1,8,0:0:0:0:
256,192,241147,1,8,0:0:0:0:
256,192,241335,1,8,0:0:0:0:
256,192,241522,1,0,0:0:0:0:
256,192,241710,1,8,0:0:0:0:
256,192,242085,1,0,0:0:0:0:
224,192,242272,1,8,0:0:0:0:
256,192,242647,1,8,0:0:0:0:
256,192,242835,1,0,0:0:0:0:
256,192,243022,1,0,0:0:0:0:
256,192,243210,1,0,0:0:0:0:
256,192,243397,1,8,0:0:0:0:
256,192,243585,1,0,0:0:0:0:
256,192,243772,1,8,0:0:0:0:
256,192,243960,1,8,0:0:0:0:
256,192,244210,1,0,0:0:0:0:
256,192,244460,1,0,0:0:0:0:
256,192,244710,1,8,0:0:0:0:
256,192,245085,1,8,0:0:0:0:
256,192,245272,1,0,0:0:0:0:
256,192,245366,1,0,0:0:0:0:
256,192,245460,1,8,0:0:0:0:
256,192,245647,1,0,0:0:0:0:
256,192,245835,1,4,0:0:0:0:
256,192,246210,1,12,0:0:0:0:
256,192,246772,1,0,0:0:0:0:
256,192,246960,1,8,0:0:0:0:
256,192,247335,1,8,0:0:0:0:
256,192,247522,1,8,0:0:0:0:
256,192,247897,1,0,0:0:0:0:
256,192,248272,1,0,0:0:0:0:
256,192,248647,1,0,0:0:0:0:
256,192,249210,1,8,0:0:0:0:
256,192,249585,1,8,0:0:0:0:
256,192,249960,1,0,0:0:0:0:
256,192,250335,1,0,0:0:0:0:
256,192,250522,1,8,0:0:0:0:
256,192,250897,1,8,0:0:0:0:
256,192,251272,1,8,0:0:0:0:
256,192,251460,1,0,0:0:0:0:
256,192,251647,1,0,0:0:0:0:
256,192,251835,1,0,0:0:0:0:
256,192,252210,1,8,0:0:0:0:
256,192,252585,1,0,0:0:0:0:
256,192,252772,1,8,0:0:0:0:
256,192,252960,1,0,0:0:0:0:
256,192,253335,1,0,0:0:0:0:
256,192,253710,1,8,0:0:0:0:
256,192,254085,1,8,0:0:0:0:
256,192,254272,1,0,0:0:0:0:
256,192,254835,1,0,0:0:0:0:
256,192,255022,1,0,0:0:0:0:
256,192,255116,1,0,0:0:0:0:
256,192,255210,1,8,0:0:0:0:
256,192,255585,1,0,0:0:0:0:
256,192,255678,1,0,0:0:0:0:
256,192,255772,1,8,0:0:0:0:
256,192,256147,1,0,0:0:0:0:
256,192,256241,1,0,0:0:0:0:
256,192,256335,1,8,0:0:0:0:
256,192,256522,1,8,0:0:0:0:
256,192,256616,1,0,0:0:0:0:
256,192,256710,1,8,0:0:0:0:
256,192,257085,1,0,0:0:0:0:
256,192,257178,1,0,0:0:0:0:
256,192,257272,1,8,0:0:0:0:
256,192,257647,1,0,0:0:0:0:
256,192,257741,1,0,0:0:0:0:
256,192,257835,1,8,0:0:0:0:
256,192,258210,1,12,0:0:0:0:
256,192,258585,1,8,0:0:0:0:
256,192,258772,1,0,0:0:0:0:
256,192,258960,1,0,0:0:0:0:
256,192,259335,1,0,0:0:0:0:
256,192,259522,1,0,0:0:0:0:
256,192,259710,1,8,0:0:0:0:
256,192,259897,1,0,0:0:0:0:
256,192,260272,1,0,0:0:0:0:
256,192,260460,1,8,0:0:0:0:
256,192,260835,1,8,0:0:0:0:
256,192,261022,1,0,0:0:0:0:
256,192,261210,1,0,0:0:0:0:
256,192,261585,1,8,0:0:0:0:
256,192,261772,1,0,0:0:0:0:
256,192,261960,1,8,0:0:0:0:
256,192,262335,1,0,0:0:0:0:
256,192,262522,1,8,0:0:0:0:
256,192,262897,1,8,0:0:0:0:
256,192,263272,1,0,0:0:0:0:
256,192,263366,1,0,0:0:0:0:
256,192,263460,1,8,0:0:0:0:
256,192,263647,1,0,0:0:0:0:
256,192,263835,1,0,0:0:0:0:
256,192,264210,1,12,0:0:0:0:
256,192,264585,1,0,0:0:0:0:
256,192,264772,1,0,0:0:0:0:
256,192,264960,1,8,0:0:0:0:
256,192,265335,1,8,0:0:0:0:
256,192,265522,1,0,0:0:0:0:
256,192,265710,1,8,0:0:0:0:
256,192,266085,1,8,0:0:0:0:
256,192,266272,1,8,0:0:0:0:
256,192,266460,1,0,0:0:0:0:
256,192,266835,1,0,0:0:0:0:
256,192,267210,1,8,0:0:0:0:
256,192,267397,1,0,0:0:0:0:
256,192,267585,1,8,0:0:0:0:
256,192,267772,1,8,0:0:0:0:
256,192,267960,1,4,0:0:0:0:
256,192,268335,1,8,0:0:0:0:
256,192,268522,1,0,0:0:0:0:
256,192,268616,1,0,0:0:0:0:
256,192,268710,1,8,0:0:0:0:
256,192,268897,1,0,0:0:0:0:
256,192,269085,1,8,0:0:0:0:
256,192,269272,1,8,0:0:0:0:
256,192,269366,1,8,0:0:0:0:
256,192,269460,1,0,0:0:0:0:
256,192,269647,1,0,0:0:0:0:
256,192,269835,1,12,0:0:0:0:
256,192,270210,1,12,0:0:0:0:
256,192,270960,1,0,0:0:0:0:
256,192,271335,1,8,0:0:0:0:
256,192,271522,1,0,0:0:0:0:
256,192,271897,1,8,0:0:0:0:
256,192,272085,1,0,0:0:0:0:
256,192,272272,1,0,0:0:0:0:
256,192,272366,1,0,0:0:0:0:
256,192,272460,1,8,0:0:0:0:
256,192,272647,1,8,0:0:0:0:
256,192,272835,1,0,0:0:0:0:
256,192,273022,1,0,0:0:0:0:
256,192,273210,1,12,0:0:0:0:
256,192,273585,1,8,0:0:0:0:
256,192,273960,1,0,0:0:0:0:
256,192,274335,1,0,0:0:0:0:
256,192,274522,1,8,0:0:0:0:
256,192,274897,1,8,0:0:0:0:
224,192,275085,1,0,0:0:0:0:
256,192,275272,1,0,0:0:0:0:
256,192,275460,1,8,0:0:0:0:
256,192,275835,1,0,0:0:0:0:
256,192,276210,1,12,0:0:0:0:
256,192,276585,1,0,0:0:0:0:
256,192,276772,1,0,0:0:0:0:
256,192,276960,1,8,0:0:0:0:
256,192,277335,1,0,0:0:0:0:
256,192,277522,1,8,0:0:0:0:
256,192,277897,1,8,0:0:0:0:
256,192,278085,1,0,0:0:0:0:
256,192,278272,1,8,0:0:0:0:
256,192,278366,1,8,0:0:0:0:
256,192,278460,1,0,0:0:0:0:
256,192,278835,1,0,0:0:0:0:
256,192,279210,1,12,0:0:0:0:
256,192,279397,1,0,0:0:0:0:
256,192,279772,1,4,0:0:0:0:
256,192,279960,1,8,0:0:0:0:
256,192,280335,1,0,0:0:0:0:
256,192,280710,1,8,0:0:0:0:
256,192,280835,1,8,0:0:0:0:
256,192,280960,1,8,0:0:0:0:
256,192,281085,1,8,0:0:0:0:
256,192,281210,1,0,0:0:0:0:
256,192,281335,1,0,0:0:0:0:
256,192,281460,1,8,0:0:0:0:
256,192,281585,1,0,0:0:0:0:
256,192,281710,1,0,0:0:0:0:
256,192,281835,1,0,0:0:0:0:
256,192,281960,1,0,0:0:0:0:
256,192,282085,1,0,0:0:0:0:
256,192,282210,1,12,0:0:0:0:
256,192,282397,1,0,0:0:0:0:
256,192,282585,1,0,0:0:0:0:
256,192,282960,1,8,0:0:0:0:
256,192,283335,1,0,0:0:0:0:
256,192,283522,1,8,0:0:0:0:
256,192,283710,1,0,0:0:0:0:
256,192,283897,1,0,0:0:0:0:
256,192,284085,1,8,0:0:0:0:
256,192,284272,1,0,0:0:0:0:
256,192,284366,1,0,0:0:0:0:
256,192,284460,1,8,0:0:0:0:
256,192,284647,1,0,0:0:0:0:
256,192,284835,1,0,0:0:0:0:
256,192,285210,1,8,0:0:0:0:
256,192,285397,1,0,0:0:0:0:
256,192,285585,1,8,0:0:0:0:
256,192,285772,1,0,0:0:0:0:
256,192,285960,1,8,0:0:0:0:
256,192,286335,1,8,0:0:0:0:
256,192,286522,1,0,0:0:0:0:
256,192,286710,1,0,0:0:0:0:
256,192,286897,1,8,0:0:0:0:
256,192,287272,1,0,0:0:0:0:
256,192,287366,1,0,0:0:0:0:
256,192,287460,1,8,0:0:0:0:
256,192,287647,1,0,0:0:0:0:
256,192,287835,1,0,0:0:0:0:
256,192,288210,1,12,0:0:0:0:
256,192,288397,1,0,0:0:0:0:
256,192,288585,1,8,0:0:0:0:
256,192,288772,1,0,0:0:0:0:
256,192,289147,1,0,0:0:0:0:
256,192,289335,1,8,0:0:0:0:
256,192,289710,1,8,0:0:0:0:
256,192,289897,1,8,0:0:0:0:
256,192,290085,1,0,0:0:0:0:
256,192,290272,1,0,0:0:0:0:
256,192,290647,1,0,0:0:0:0:
256,192,290835,1,8,0:0:0:0:
256,192,291210,1,8,0:0:0:0:
256,192,291397,1,8,0:0:0:0:
256,192,291585,1,0,0:0:0:0:
256,192,291772,1,8,0:0:0:0:
256,192,292147,1,8,0:0:0:0:
256,192,292335,1,0,0:0:0:0:
256,192,292522,1,0,0:0:0:0:
256,192,292710,1,8,0:0:0:0:
256,192,293085,1,8,0:0:0:0:
256,192,293272,1,0,0:0:0:0:
256,192,293366,1,0,0:0:0:0:
256,192,293460,1,8,0:0:0:0:
256,192,293647,1,4,0:0:0:0:
256,192,293835,1,4,0:0:0:0:
256,192,294210,1,12,0:0:0:0:
256,192,294772,1,0,0:0:0:0:
256,192,294960,1,8,0:0:0:0:
256,192,295335,1,0,0:0:0:0:
256,192,295522,1,0,0:0:0:0:
256,192,295710,1,8,0:0:0:0:
256,192,296085,1,8,0:0:0:0:
256,192,296272,1,0,0:0:0:0:
256,192,296460,1,8,0:0:0:0:
256,192,296835,1,0,0:0:0:0:
256,192,297210,1,12,0:0:0:0:
256,192,297772,1,0,0:0:0:0:
256,192,297866,1,0,0:0:0:0:
256,192,297975,1,8,0:0:0:0:
256,192,298164,1,4,0:0:0:0:
256,192,298354,1,4,0:0:0:0:
256,192,298544,1,4,0:0:0:0:
256,192,298734,1,12,0:0:0:0:
256,192,299346,1,0,0:0:0:0:
256,192,299448,1,0,0:0:0:0:
256,192,299550,1,8,0:0:0:0:
256,192,299754,1,4,0:0:0:0:
256,192,299958,1,4,0:0:0:0:
256,192,300520,1,12,0:0:0:0:
256,192,300717,12,0,309204,0:0:0:0:
