osu file format v14

[General]
AudioFilename: baper metal.mp3
AudioLeadIn: 0
PreviewTime: 89352
Countdown: 0
SampleSet: Soft
StackLeniency: 0.7
Mode: 3
LetterboxInBreaks: 0
SpecialStyle: 0
WidescreenStoryboard: 0

[Editor]
DistanceSpacing: 1.9
BeatDivisor: 4
GridSize: 16
TimelineZoom: 2.5

[Metadata]
Title:Chemical Interference
TitleUnicode:Chemical Interference
Artist:DragonForce
ArtistUnicode:DragonForce
Creator:Surono
Version:Dead Inside
Source:
Tags:Marathon Dragon Force DF Maximum Overload Special Edition Bonus Tracks Speed Power Metal Herman Li is Cool and Marc Hudson is Kawaii
BeatmapID:1245569
BeatmapSetID:584941

[Difficulty]
HPDrainRate:8
CircleSize:4
OverallDifficulty:8
ApproachRate:5
SliderMultiplier:1.4
SliderTickRate:1

[Events]
//Background and Video events
0,0,"gb.jpg",0,0
//Break Periods
//Storyboard Layer 0 (Background)
//Storyboard Layer 1 (Fail)
//Storyboard Layer 2 (Pass)
//Storyboard Layer 3 (Foreground)
//Storyboard Sound Samples

[TimingPoints]
356,444.444444444444,4,2,1,30,1,0
356,-70.9219858156028,4,2,1,30,0,0
28800,315.789473684211,4,2,1,30,1,0
99536,-100,4,2,1,30,0,1
109642,-100,4,2,1,30,0,0
155115,-100,4,2,1,30,0,1
165221,441.176470588235,4,2,1,30,1,0
165221,-71.4285714285714,4,2,1,30,0,0
214632,315.789473684211,4,2,1,30,1,1
234842,-100,4,2,1,30,0,0
245026,-125,4,2,1,15,0,0
257579,-111.111111111111,4,2,1,30,0,0
262632,-100,4,2,1,30,0,0
277789,-100,4,2,1,30,0,1
295474,-100,4,2,1,30,0,0

[HitObjects]
64,192,356,128,0,2133:0:0:0:0:
192,192,356,1,4,0:0:0:0:
320,192,356,128,0,467:3:0:0:0:
448,192,578,128,0,689:3:0:0:0:
320,192,800,128,0,911:3:0:0:0:
448,192,1022,128,0,1133:3:0:0:0:
320,192,1244,128,0,1355:3:0:0:0:
192,192,1467,128,0,1578:3:0:0:0:
448,192,1689,128,0,1800:3:0:0:0:
320,192,1911,128,0,2022:3:0:0:0:
448,192,2133,128,0,3022:0:0:0:0:
320,192,2133,1,4,0:0:0:0:
192,192,2133,128,0,2244:3:0:0:0:
64,192,2355,128,0,2467:3:0:0:0:
192,192,2578,128,0,2689:3:0:0:0:
320,192,2800,128,0,2911:3:0:0:0:
192,192,3022,128,0,3911:0:0:0:0:
320,192,3022,1,4,0:0:0:0:
64,192,3022,128,0,3133:0:0:0:0:
320,192,3244,128,0,3355:3:0:0:0:
448,192,3467,128,0,3578:3:0:0:0:
64,192,3689,128,0,3800:3:0:0:0:
64,192,3911,1,4,0:0:0:0:
320,192,3911,128,0,5689:0:0:0:0:
448,192,3911,128,0,4022:0:0:0:0:
192,192,4133,128,0,4244:3:0:0:0:
448,192,4355,128,0,4467:3:0:0:0:
192,192,4578,128,0,4689:3:0:0:0:
64,192,4800,128,0,4911:3:0:0:0:
448,192,5022,128,0,5133:3:0:0:0:
192,192,5244,128,0,5355:3:0:0:0:
64,192,5467,128,0,5578:3:0:0:0:
64,192,5689,1,4,0:0:0:0:
192,192,5689,128,0,6578:0:0:0:0:
448,192,5689,128,0,5800:3:0:0:0:
320,192,5911,128,0,6022:3:0:0:0:
448,192,6133,128,0,6244:3:0:0:0:
64,192,6355,128,0,6467:3:0:0:0:
64,192,6578,1,4,0:0:0:0:
448,192,6578,128,0,7244:0:0:0:0:
320,192,6578,128,0,6689:3:0:0:0:
192,192,6800,128,0,6911:3:0:0:0:
320,192,7022,128,0,7133:3:0:0:0:
192,192,7244,1,8,0:0:0:0:
64,192,7244,1,8,0:0:0:0:
448,192,7355,1,8,0:0:0:0:
320,192,7355,1,8,0:0:0:0:
64,192,7467,1,0,0:0:0:0:
448,192,7467,1,0,0:0:0:0:
192,192,7467,1,4,0:0:0:0:
320,192,7578,1,0,0:0:0:0:
448,192,7689,1,8,0:0:0:0:
64,192,7689,1,8,0:0:0:0:
192,192,7800,1,0,0:0:0:0:
320,192,7911,1,8,0:0:0:0:
448,192,7911,1,8,0:0:0:0:
64,192,8022,1,0,0:0:0:0:
320,192,8133,1,8,0:0:0:0:
192,192,8133,1,8,0:0:0:0:
64,192,8244,1,8,0:0:0:0:
448,192,8244,1,8,0:0:0:0:
192,192,8355,1,0,0:0:0:0:
320,192,8467,1,8,0:0:0:0:
448,192,8467,1,8,0:0:0:0:
64,192,8578,1,8,0:0:0:0:
192,192,8578,1,8,0:0:0:0:
320,192,8689,1,0,0:0:0:0:
448,192,8800,1,8,0:0:0:0:
64,192,8800,1,8,0:0:0:0:
192,192,8911,1,8,0:0:0:0:
320,192,8911,1,8,0:0:0:0:
64,192,9022,1,8,0:0:0:0:
448,192,9022,1,8,0:0:0:0:
192,192,9133,1,0,0:0:0:0:
64,192,9244,1,8,0:0:0:0:
320,192,9244,1,8,0:0:0:0:
448,192,9244,1,4,0:0:0:0:
64,192,9467,1,8,0:0:0:0:
448,192,9467,1,4,0:0:0:0:
320,192,9467,1,8,0:0:0:0:
192,192,9689,1,8,0:0:0:0:
64,192,9689,1,8,0:0:0:0:
448,192,9800,1,8,0:0:0:0:
320,192,9800,1,8,0:0:0:0:
192,192,9911,1,8,0:0:0:0:
64,192,9911,1,8,0:0:0:0:
320,192,10022,1,0,0:0:0:0:
64,192,10133,1,8,0:0:0:0:
192,192,10133,1,4,0:0:0:0:
448,192,10133,1,8,0:0:0:0:
320,192,10355,1,4,0:0:0:0:
64,192,10355,1,8,0:0:0:0:
448,192,10355,1,8,0:0:0:0:
192,192,10578,1,8,0:0:0:0:
448,192,10578,1,8,0:0:0:0:
320,192,10689,1,8,0:0:0:0:
64,192,10689,1,8,0:0:0:0:
192,192,10800,1,8,0:0:0:0:
448,192,10800,1,8,0:0:0:0:
320,192,10911,1,0,0:0:0:0:
64,192,11022,1,8,0:0:0:0:
192,192,11022,1,4,0:0:0:0:
448,192,11022,1,8,0:0:0:0:
64,192,11244,1,8,0:0:0:0:
320,192,11244,1,8,0:0:0:0:
192,192,11355,1,8,0:0:0:0:
448,192,11355,1,8,0:0:0:0:
64,192,11467,1,0,0:0:0:0:
320,192,11578,1,8,0:0:0:0:
448,192,11578,1,8,0:0:0:0:
192,192,11689,1,8,3:0:0:0:
64,192,11689,1,8,3:0:0:0:
320,192,11800,1,8,0:0:0:0:
448,192,11800,1,8,0:0:0:0:
192,192,11911,1,8,0:0:0:0:
64,192,11911,1,8,0:0:0:0:
320,192,12022,1,8,0:0:0:0:
448,192,12022,1,8,0:0:0:0:
64,192,12133,1,0,0:0:0:0:
448,192,12244,1,0,0:0:0:0:
320,192,12355,1,8,0:0:0:0:
64,192,12355,1,8,0:0:0:0:
192,192,12467,1,8,0:0:0:0:
448,192,12467,1,8,0:0:0:0:
64,192,12578,1,8,0:0:0:0:
320,192,12578,1,8,0:0:0:0:
192,192,12689,1,0,0:0:0:0:
64,192,12800,1,8,0:0:0:0:
320,192,12800,1,4,0:0:0:0:
448,192,12800,1,8,0:0:0:0:
192,192,12911,1,8,0:0:0:0:
64,192,12911,1,8,0:0:0:0:
320,192,13022,1,8,0:0:0:0:
448,192,13022,1,8,0:0:0:0:
192,192,13133,1,8,0:0:0:0:
64,192,13133,1,8,0:0:0:0:
320,192,13244,1,8,0:0:0:0:
448,192,13244,1,8,0:0:0:0:
64,192,13355,1,8,0:0:0:0:
192,192,13355,1,8,0:0:0:0:
448,192,13467,5,0,0:0:0:0:
320,192,13578,1,0,0:0:0:0:
192,192,13689,1,8,0:0:0:0:
448,192,13689,1,8,0:0:0:0:
320,192,13800,1,8,0:0:0:0:
64,192,13800,1,8,0:0:0:0:
192,192,13911,1,0,0:0:0:0:
64,192,14022,1,0,0:0:0:0:
320,192,14133,128,0,14355:0:0:0:0:
448,192,14133,1,0,0:0:0:0:
64,192,14244,1,0,0:0:0:0:
192,192,14355,128,0,14578:0:0:0:0:
448,192,14467,1,0,0:0:0:0:
64,192,14578,5,0,0:0:0:0:
448,192,14578,1,4,0:0:0:0:
320,192,14578,128,0,14689:0:0:0:0:
192,192,14689,1,0,0:0:0:0:
64,192,14800,1,8,0:0:0:0:
448,192,14800,128,8,14911:0:0:0:0:
320,192,14911,1,0,0:0:0:0:
64,192,15022,1,0,0:0:0:0:
192,192,15022,128,0,15133:0:0:0:0:
320,192,15133,1,0,0:0:0:0:
448,192,15244,1,8,0:0:0:0:
64,192,15244,128,8,15355:0:0:0:0:
192,192,15355,1,0,0:0:0:0:
448,192,15467,1,0,0:0:0:0:
320,192,15467,128,0,15578:0:0:0:0:
192,192,15578,1,0,0:0:0:0:
64,192,15689,1,8,0:0:0:0:
448,192,15689,128,8,15800:0:0:0:0:
320,192,15800,1,0,0:0:0:0:
192,192,15911,1,0,0:0:0:0:
64,192,15911,128,0,16022:0:0:0:0:
448,192,16022,1,0,0:0:0:0:
320,192,16133,1,8,0:0:0:0:
192,192,16133,128,8,16244:0:0:0:0:
64,192,16244,1,0,0:0:0:0:
448,192,16355,1,0,0:0:0:0:
320,192,16355,128,0,16467:0:0:0:0:
192,192,16467,1,0,0:0:0:0:
448,192,16578,1,8,0:0:0:0:
64,192,16578,128,8,16689:0:0:0:0:
320,192,16689,1,0,0:0:0:0:
64,192,16800,1,0,0:0:0:0:
448,192,16800,128,0,16911:0:0:0:0:
192,192,16911,1,0,0:0:0:0:
64,192,17022,1,8,0:0:0:0:
448,192,17022,128,8,17133:0:0:0:0:
320,192,17133,1,0,0:0:0:0:
64,192,17244,1,0,0:0:0:0:
192,192,17244,128,0,17355:0:0:0:0:
448,192,17355,1,0,0:0:0:0:
320,192,17467,1,8,0:0:0:0:
64,192,17467,128,8,17578:0:0:0:0:
192,192,17578,1,0,0:0:0:0:
448,192,17689,1,0,0:0:0:0:
320,192,17689,128,0,17800:0:0:0:0:
64,192,17800,1,0,0:0:0:0:
448,192,17911,128,8,18022:0:0:0:0:
192,192,17911,1,8,0:0:0:0:
320,192,18022,1,0,0:0:0:0:
64,192,18133,1,4,0:0:0:0:
448,192,18133,1,0,0:0:0:0:
192,192,18133,128,0,18244:0:0:0:0:
320,192,18244,1,0,0:0:0:0:
448,192,18355,1,8,0:0:0:0:
64,192,18355,128,8,18467:0:0:0:0:
192,192,18467,1,0,0:0:0:0:
448,192,18578,1,0,0:0:0:0:
320,192,18578,128,0,18689:0:0:0:0:
192,192,18689,1,0,0:0:0:0:
64,192,18800,1,8,0:0:0:0:
448,192,18800,128,8,18911:0:0:0:0:
320,192,18911,1,0,0:0:0:0:
64,192,19022,1,0,0:0:0:0:
192,192,19022,128,0,19133:0:0:0:0:
320,192,19133,1,0,0:0:0:0:
448,192,19244,1,8,0:0:0:0:
64,192,19244,128,8,19355:0:0:0:0:
192,192,19355,1,0,0:0:0:0:
448,192,19467,1,0,0:0:0:0:
320,192,19467,128,0,19578:0:0:0:0:
64,192,19578,1,0,0:0:0:0:
448,192,19689,1,8,0:0:0:0:
192,192,19689,128,8,19800:0:0:0:0:
320,192,19800,1,0,0:0:0:0:
64,192,19911,1,0,0:0:0:0:
448,192,19911,128,0,20022:0:0:0:0:
192,192,20022,1,0,0:0:0:0:
64,192,20133,1,8,0:0:0:0:
320,192,20133,128,8,20244:0:0:0:0:
448,192,20244,1,0,0:0:0:0:
64,192,20355,1,0,0:0:0:0:
192,192,20355,128,0,20467:0:0:0:0:
320,192,20467,1,0,0:0:0:0:
448,192,20578,1,8,0:0:0:0:
64,192,20578,128,8,20689:0:0:0:0:
192,192,20689,1,0,0:0:0:0:
64,192,20800,1,0,0:0:0:0:
448,192,20800,128,0,20911:0:0:0:0:
320,192,20911,1,0,0:0:0:0:
192,192,21022,1,8,0:0:0:0:
64,192,21022,1,8,0:0:0:0:
320,192,21133,1,8,0:0:0:0:
448,192,21133,1,8,0:0:0:0:
192,192,21244,1,8,0:0:0:0:
64,192,21244,1,8,0:0:0:0:
448,192,21355,1,8,0:0:0:0:
320,192,21355,1,8,0:0:0:0:
192,192,21467,1,8,0:0:0:0:
64,192,21467,1,8,0:0:0:0:
320,192,21578,1,8,0:0:0:0:
448,192,21578,1,8,0:0:0:0:
64,192,21689,1,0,0:0:0:0:
448,192,21689,1,4,0:0:0:0:
192,192,21689,128,0,21800:0:0:0:0:
320,192,21800,1,0,0:0:0:0:
448,192,21911,1,8,0:0:0:0:
64,192,21911,128,8,22022:0:0:0:0:
192,192,22022,1,0,0:0:0:0:
448,192,22133,1,0,0:0:0:0:
320,192,22133,128,0,22244:0:0:0:0:
192,192,22244,1,0,0:0:0:0:
64,192,22355,1,8,0:0:0:0:
448,192,22355,128,8,22467:0:0:0:0:
320,192,22467,1,0,0:0:0:0:
64,192,22578,1,0,0:0:0:0:
192,192,22578,128,0,22689:0:0:0:0:
320,192,22689,1,0,0:0:0:0:
448,192,22800,1,8,0:0:0:0:
64,192,22800,128,8,22911:0:0:0:0:
192,192,22911,1,0,0:0:0:0:
320,192,23022,1,0,0:0:0:0:
448,192,23022,128,0,23133:0:0:0:0:
64,192,23133,1,0,0:0:0:0:
192,192,23244,1,8,0:0:0:0:
320,192,23244,128,8,23355:0:0:0:0:
448,192,23355,1,0,0:0:0:0:
64,192,23467,1,0,0:0:0:0:
192,192,23467,128,0,23578:0:0:0:0:
320,192,23578,1,8,0:0:0:0:
448,192,23578,1,8,0:0:0:0:
64,192,23689,128,0,23800:0:0:0:0:
320,192,23800,1,8,0:0:0:0:
448,192,23800,1,8,0:0:0:0:
64,192,23911,1,8,0:0:0:0:
192,192,23911,128,8,24022:0:0:0:0:
320,192,24022,1,0,0:0:0:0:
448,192,24133,1,8,0:0:0:0:
64,192,24133,128,8,24244:0:0:0:0:
192,192,24244,1,0,0:0:0:0:
448,192,24355,1,0,0:0:0:0:
320,192,24355,128,0,24467:0:0:0:0:
64,192,24467,1,8,0:0:0:0:
192,192,24467,1,8,0:0:0:0:
448,192,24578,128,0,24689:0:0:0:0:
192,192,24689,1,8,0:0:0:0:
64,192,24689,1,8,0:0:0:0:
448,192,24800,1,8,0:0:0:0:
320,192,24800,128,8,24911:0:0:0:0:
192,192,24911,1,0,0:0:0:0:
448,192,25022,1,8,0:0:0:0:
64,192,25022,128,8,25133:0:0:0:0:
192,192,25133,1,0,0:0:0:0:
448,192,25244,1,0,0:0:0:0:
64,192,25244,1,4,0:0:0:0:
320,192,25244,128,0,25355:0:0:0:0:
192,192,25355,1,0,0:0:0:0:
64,192,25467,1,8,0:0:0:0:
448,192,25467,128,8,25578:0:0:0:0:
320,192,25578,1,0,0:0:0:0:
64,192,25689,1,0,0:0:0:0:
192,192,25689,128,0,25800:0:0:0:0:
320,192,25800,1,0,0:0:0:0:
448,192,25911,1,8,0:0:0:0:
64,192,25911,128,8,26022:0:0:0:0:
192,192,26022,1,0,0:0:0:0:
448,192,26133,1,0,0:0:0:0:
320,192,26133,128,0,26244:0:0:0:0:
192,192,26244,1,0,0:0:0:0:
64,192,26355,1,8,0:0:0:0:
448,192,26355,128,8,26467:0:0:0:0:
320,192,26467,1,0,0:0:0:0:
64,192,26578,1,0,0:0:0:0:
192,192,26578,128,0,26689:0:0:0:0:
448,192,26689,1,0,0:0:0:0:
320,192,26800,1,8,0:0:0:0:
64,192,26800,1,8,0:0:0:0:
192,192,26911,1,0,0:0:0:0:
448,192,27022,1,4,0:0:0:0:
64,192,27022,128,0,27911:0:0:0:0:
320,192,27022,128,4,27689:0:0:0:0:
320,192,27911,1,4,0:0:0:0:
448,192,27911,128,0,28800:0:0:0:0:
192,192,27911,128,4,28578:0:0:0:0:
64,192,28800,1,4,0:0:0:0:
192,192,28800,128,0,28957:0:0:0:0:
320,192,28800,1,0,0:0:0:0:
320,192,28957,1,8,0:0:0:0:
448,192,28957,1,8,0:0:0:0:
192,192,29115,1,0,0:0:0:0:
320,192,29194,1,0,0:0:0:0:
64,192,29273,1,8,0:0:0:0:
448,192,29273,1,8,0:0:0:0:
320,192,29431,128,0,29589:0:0:0:0:
64,192,29589,1,8,0:0:0:0:
192,192,29589,1,8,0:0:0:0:
320,192,29747,1,0,0:0:0:0:
192,192,29826,1,0,0:0:0:0:
64,192,29905,1,8,0:0:0:0:
448,192,29905,1,8,0:0:0:0:
192,192,30063,128,0,30221:0:0:0:0:
320,192,30221,1,8,0:0:0:0:
448,192,30221,1,8,0:0:0:0:
192,192,30378,1,0,0:0:0:0:
320,192,30457,1,0,0:0:0:0:
64,192,30536,1,8,0:0:0:0:
448,192,30536,1,8,0:0:0:0:
320,192,30694,128,0,30852:0:0:0:0:
64,192,30852,1,8,0:0:0:0:
192,192,30852,1,8,0:0:0:0:
320,192,31010,1,0,0:0:0:0:
192,192,31089,1,0,0:0:0:0:
64,192,31168,1,8,0:0:0:0:
448,192,31168,1,8,0:0:0:0:
320,192,31326,1,4,0:0:0:0:
448,192,31326,1,0,0:0:0:0:
192,192,31326,128,0,31484:0:0:0:0:
64,192,31484,1,8,0:0:0:0:
320,192,31484,1,8,0:0:0:0:
448,192,31642,1,0,0:0:0:0:
192,192,31642,1,0,0:0:0:0:
320,192,31721,1,0,0:0:0:0:
64,192,31800,1,8,0:0:0:0:
192,192,31800,1,8,0:0:0:0:
320,192,31957,128,0,32115:0:0:0:0:
192,192,32115,1,8,0:0:0:0:
448,192,32115,1,8,0:0:0:0:
64,192,32273,1,0,0:0:0:0:
320,192,32273,1,0,0:0:0:0:
192,192,32352,1,0,0:0:0:0:
448,192,32431,1,8,0:0:0:0:
320,192,32431,1,8,0:0:0:0:
64,192,32589,1,0,0:0:0:0:
448,192,32589,1,0,0:0:0:0:
192,192,32589,1,4,0:0:0:0:
320,192,32668,1,0,0:0:0:0:
448,192,32747,1,8,0:0:0:0:
64,192,32747,1,8,0:0:0:0:
192,192,32826,1,0,0:0:0:0:
320,192,32905,1,0,0:0:0:0:
192,192,32984,1,0,0:0:0:0:
448,192,33063,1,8,0:0:0:0:
64,192,33063,1,8,0:0:0:0:
320,192,33142,1,0,0:0:0:0:
192,192,33221,1,4,0:0:0:0:
64,192,33221,1,0,0:0:0:0:
448,192,33221,1,0,0:0:0:0:
320,192,33300,1,0,0:0:0:0:
64,192,33378,1,8,0:0:0:0:
192,192,33378,1,8,0:0:0:0:
448,192,33457,1,0,0:0:0:0:
192,192,33536,1,4,0:0:0:0:
320,192,33536,1,0,0:0:0:0:
64,192,33615,1,0,0:0:0:0:
320,192,33694,1,4,0:0:0:0:
448,192,33694,1,8,0:0:0:0:
192,192,33773,1,0,0:0:0:0:
64,192,33852,128,0,34010:0:0:0:0:
320,192,33852,1,4,0:0:0:0:
448,192,33852,1,0,0:0:0:0:
320,192,34010,1,8,0:0:0:0:
192,192,34010,1,8,0:0:0:0:
448,192,34168,1,0,0:0:0:0:
320,192,34247,1,0,0:0:0:0:
64,192,34326,1,8,0:0:0:0:
192,192,34326,1,8,0:0:0:0:
448,192,34484,128,0,34642:0:0:0:0:
192,192,34642,1,8,0:0:0:0:
320,192,34642,1,8,0:0:0:0:
64,192,34800,1,0,0:0:0:0:
192,192,34878,1,0,0:0:0:0:
320,192,34957,1,8,0:0:0:0:
448,192,34957,1,8,0:0:0:0:
64,192,35115,128,0,35273:0:0:0:0:
192,192,35273,1,8,0:0:0:0:
320,192,35273,1,8,0:0:0:0:
448,192,35431,1,0,0:0:0:0:
320,192,35510,1,0,0:0:0:0:
64,192,35589,1,8,0:0:0:0:
192,192,35589,1,8,0:0:0:0:
448,192,35747,128,0,35905:0:0:0:0:
192,192,35905,1,8,0:0:0:0:
320,192,35905,1,8,0:0:0:0:
64,192,36063,1,0,0:0:0:0:
192,192,36142,1,0,0:0:0:0:
320,192,36221,1,8,0:0:0:0:
448,192,36221,1,8,0:0:0:0:
192,192,36378,1,8,3:0:0:0:
64,192,36378,1,8,3:0:0:0:
448,192,36457,1,8,0:0:0:0:
320,192,36536,1,8,0:0:0:0:
192,192,36536,1,8,0:0:0:0:
64,192,36615,1,8,0:0:0:0:
448,192,36694,1,8,0:0:0:0:
320,192,36694,1,8,0:0:0:0:
192,192,36773,1,8,0:0:0:0:
64,192,36852,1,0,0:0:0:0:
320,192,36931,1,8,0:0:0:0:
448,192,36931,1,8,0:0:0:0:
64,192,37010,1,8,0:0:0:0:
192,192,37010,1,8,0:0:0:0:
320,192,37089,1,8,0:0:0:0:
448,192,37089,1,8,0:0:0:0:
192,192,37168,1,8,0:0:0:0:
64,192,37168,1,8,0:0:0:0:
448,192,37247,1,8,0:0:0:0:
320,192,37247,1,8,0:0:0:0:
192,192,37326,1,8,0:0:0:0:
64,192,37326,1,8,0:0:0:0:
320,192,37405,1,8,0:0:0:0:
448,192,37405,1,8,0:0:0:0:
192,192,37484,1,8,0:0:0:0:
64,192,37484,1,8,0:0:0:0:
448,192,37563,1,8,0:0:0:0:
192,192,37642,1,4,0:0:0:0:
320,192,37642,1,8,0:0:0:0:
64,192,37642,1,8,0:0:0:0:
192,192,37800,1,0,0:0:0:0:
320,192,37878,1,4,0:0:0:0:
64,192,37878,1,8,0:0:0:0:
448,192,37878,1,8,0:0:0:0:
320,192,38036,1,0,0:0:0:0:
192,192,38115,1,4,0:0:0:0:
64,192,38115,1,8,0:0:0:0:
448,192,38115,1,8,0:0:0:0:
320,192,38273,1,8,0:0:0:0:
448,192,38273,1,8,0:0:0:0:
192,192,38352,1,8,0:0:0:0:
64,192,38352,1,8,0:0:0:0:
320,192,38431,1,8,0:0:0:0:
448,192,38431,1,8,0:0:0:0:
192,192,38510,1,8,0:0:0:0:
64,192,38510,1,8,0:0:0:0:
448,192,38589,1,0,0:0:0:0:
320,192,38668,1,0,0:0:0:0:
64,192,38747,1,0,0:0:0:0:
192,192,38826,1,0,0:0:0:0:
64,192,38905,1,0,0:0:0:0:
448,192,38905,1,0,0:0:0:0:
320,192,38905,1,4,0:0:0:0:
448,192,39063,1,8,0:0:0:0:
192,192,39063,1,8,0:0:0:0:
320,192,39142,1,0,0:0:0:0:
64,192,39221,1,0,0:0:0:0:
192,192,39221,1,0,0:0:0:0:
448,192,39300,1,0,0:0:0:0:
320,192,39378,1,8,0:0:0:0:
64,192,39378,1,8,0:0:0:0:
192,192,39457,1,0,0:0:0:0:
320,192,39536,1,0,0:0:0:0:
448,192,39536,1,0,0:0:0:0:
64,192,39615,1,0,0:0:0:0:
192,192,39694,1,8,0:0:0:0:
448,192,39694,1,8,0:0:0:0:
320,192,39773,1,0,0:0:0:0:
192,192,39852,1,0,0:0:0:0:
64,192,39852,1,0,0:0:0:0:
448,192,39931,1,0,0:0:0:0:
64,192,40010,1,8,0:0:0:0:
320,192,40010,1,8,0:0:0:0:
192,192,40089,1,0,0:0:0:0:
320,192,40168,1,0,0:0:0:0:
448,192,40168,1,0,0:0:0:0:
64,192,40247,1,0,0:0:0:0:
448,192,40326,1,8,0:0:0:0:
192,192,40326,1,8,0:0:0:0:
320,192,40405,1,0,0:0:0:0:
64,192,40484,1,0,0:0:0:0:
192,192,40484,1,0,0:0:0:0:
448,192,40563,1,0,0:0:0:0:
320,192,40642,1,8,0:0:0:0:
64,192,40642,1,8,0:0:0:0:
192,192,40721,1,0,0:0:0:0:
320,192,40800,1,0,0:0:0:0:
448,192,40800,1,0,0:0:0:0:
64,192,40878,1,0,0:0:0:0:
192,192,40957,1,8,0:0:0:0:
448,192,40957,1,8,0:0:0:0:
320,192,41036,1,0,0:0:0:0:
192,192,41115,1,0,0:0:0:0:
64,192,41115,1,0,0:0:0:0:
448,192,41194,1,0,0:0:0:0:
320,192,41273,1,8,0:0:0:0:
64,192,41273,1,8,0:0:0:0:
192,192,41352,1,0,0:0:0:0:
320,192,41431,1,4,0:0:0:0:
448,192,41431,128,0,42063:0:0:0:0:
64,192,41431,1,0,0:0:0:0:
192,192,41589,1,8,0:0:0:0:
64,192,41589,1,8,0:0:0:0:
320,192,41747,1,0,0:0:0:0:
64,192,41905,1,8,0:0:0:0:
192,192,41905,1,8,0:0:0:0:
64,192,42063,128,0,42694:0:0:0:0:
320,192,42221,1,8,0:0:0:0:
448,192,42221,1,8,0:0:0:0:
192,192,42378,1,0,0:0:0:0:
320,192,42536,1,8,0:0:0:0:
448,192,42536,1,8,0:0:0:0:
448,192,42694,128,0,42852:0:0:0:0:
320,192,42773,1,0,0:0:0:0:
192,192,42852,1,0,0:0:0:0:
64,192,42852,1,8,0:0:0:0:
448,192,42931,1,0,0:0:0:0:
192,192,43010,1,0,0:0:0:0:
320,192,43089,1,0,0:0:0:0:
448,192,43168,1,8,0:0:0:0:
192,192,43168,1,8,0:0:0:0:
64,192,43247,1,0,0:0:0:0:
320,192,43326,1,0,0:0:0:0:
192,192,43405,1,0,0:0:0:0:
64,192,43484,1,8,0:0:0:0:
320,192,43484,1,8,0:0:0:0:
448,192,43563,1,0,0:0:0:0:
192,192,43642,1,0,0:0:0:0:
320,192,43721,1,0,0:0:0:0:
64,192,43800,1,8,0:0:0:0:
448,192,43800,1,8,0:0:0:0:
320,192,43878,1,0,0:0:0:0:
448,192,43957,1,0,0:0:0:0:
64,192,43957,1,0,0:0:0:0:
192,192,43957,1,4,0:0:0:0:
320,192,44115,1,8,0:0:0:0:
64,192,44115,1,8,0:0:0:0:
192,192,44194,1,0,0:0:0:0:
320,192,44273,1,0,0:0:0:0:
448,192,44273,1,0,0:0:0:0:
64,192,44352,1,0,0:0:0:0:
448,192,44431,1,8,0:0:0:0:
192,192,44431,1,8,0:0:0:0:
320,192,44510,1,0,0:0:0:0:
64,192,44589,1,0,0:0:0:0:
192,192,44589,1,0,0:0:0:0:
448,192,44668,1,0,0:0:0:0:
64,192,44747,1,8,0:0:0:0:
320,192,44747,1,8,0:0:0:0:
192,192,44826,1,0,0:0:0:0:
448,192,44905,1,0,0:0:0:0:
320,192,44905,1,0,0:0:0:0:
64,192,44984,1,0,0:0:0:0:
192,192,45063,1,8,0:0:0:0:
448,192,45063,1,8,0:0:0:0:
320,192,45142,1,0,0:0:0:0:
64,192,45221,1,0,0:0:0:0:
192,192,45221,1,0,0:0:0:0:
448,192,45300,1,0,0:0:0:0:
320,192,45378,1,8,0:0:0:0:
64,192,45378,1,8,0:0:0:0:
192,192,45457,1,0,0:0:0:0:
320,192,45536,1,0,0:0:0:0:
448,192,45536,1,0,0:0:0:0:
64,192,45615,1,0,0:0:0:0:
448,192,45694,1,8,0:0:0:0:
192,192,45694,1,8,0:0:0:0:
320,192,45773,1,0,0:0:0:0:
64,192,45852,1,0,0:0:0:0:
192,192,45852,1,0,0:0:0:0:
448,192,45931,1,0,0:0:0:0:
64,192,46010,1,8,0:0:0:0:
320,192,46010,1,8,0:0:0:0:
192,192,46089,1,0,0:0:0:0:
448,192,46168,1,0,0:0:0:0:
320,192,46168,1,0,0:0:0:0:
64,192,46247,1,0,0:0:0:0:
448,192,46326,1,8,0:0:0:0:
192,192,46326,1,8,0:0:0:0:
320,192,46405,1,0,0:0:0:0:
192,192,46484,1,4,0:0:0:0:
448,192,46484,1,0,0:0:0:0:
64,192,46484,128,0,46800:0:0:0:0:
320,192,46642,1,8,0:0:0:0:
448,192,46642,1,8,0:0:0:0:
192,192,46800,128,0,47115:0:0:0:0:
320,192,46957,1,8,0:0:0:0:
448,192,46957,1,8,0:0:0:0:
320,192,47115,128,0,47747:0:0:0:0:
192,192,47273,1,8,0:0:0:0:
64,192,47273,1,8,0:0:0:0:
448,192,47431,1,0,0:0:0:0:
64,192,47589,1,8,0:0:0:0:
192,192,47589,1,8,0:0:0:0:
448,192,47747,128,0,48063:0:0:0:0:
64,192,47905,1,8,0:0:0:0:
320,192,47905,1,8,0:0:0:0:
192,192,48063,128,0,48378:0:0:0:0:
320,192,48221,1,8,0:0:0:0:
64,192,48221,1,8,0:0:0:0:
448,192,48378,1,8,0:0:0:0:
320,192,48378,1,8,0:0:0:0:
192,192,48457,1,8,0:0:0:0:
64,192,48457,1,8,0:0:0:0:
320,192,48536,1,0,0:0:0:0:
192,192,48615,1,0,0:0:0:0:
448,192,48694,1,8,0:0:0:0:
320,192,48694,1,8,0:0:0:0:
64,192,48773,1,8,0:0:0:0:
192,192,48773,1,8,0:0:0:0:
448,192,48852,1,0,0:0:0:0:
320,192,48931,1,0,0:0:0:0:
192,192,49010,1,4,0:0:0:0:
64,192,49010,1,0,0:0:0:0:
448,192,49010,1,0,0:0:0:0:
320,192,49168,1,8,0:0:0:0:
64,192,49168,1,8,0:0:0:0:
192,192,49247,1,0,0:0:0:0:
320,192,49326,1,0,0:0:0:0:
448,192,49326,1,0,0:0:0:0:
192,192,49405,1,0,0:0:0:0:
448,192,49484,1,8,0:0:0:0:
64,192,49484,1,8,0:0:0:0:
320,192,49563,1,0,0:0:0:0:
64,192,49642,1,0,0:0:0:0:
192,192,49642,1,0,0:0:0:0:
320,192,49721,1,0,0:0:0:0:
192,192,49800,1,8,0:0:0:0:
448,192,49800,1,8,0:0:0:0:
64,192,49878,1,0,0:0:0:0:
448,192,49957,1,0,0:0:0:0:
320,192,49957,1,0,0:0:0:0:
192,192,50036,1,0,0:0:0:0:
64,192,50115,1,8,0:0:0:0:
320,192,50115,1,8,0:0:0:0:
448,192,50194,1,0,0:0:0:0:
64,192,50273,1,0,0:0:0:0:
192,192,50273,1,0,0:0:0:0:
320,192,50352,1,0,0:0:0:0:
448,192,50431,1,8,0:0:0:0:
64,192,50431,1,8,0:0:0:0:
192,192,50510,1,0,0:0:0:0:
320,192,50589,1,0,0:0:0:0:
448,192,50589,1,0,0:0:0:0:
64,192,50668,1,0,0:0:0:0:
448,192,50747,1,8,0:0:0:0:
192,192,50747,1,8,0:0:0:0:
320,192,50826,1,0,0:0:0:0:
64,192,50905,1,0,0:0:0:0:
192,192,50905,1,0,0:0:0:0:
448,192,50984,1,0,0:0:0:0:
64,192,51063,1,8,0:0:0:0:
320,192,51063,1,8,0:0:0:0:
192,192,51142,1,0,0:0:0:0:
448,192,51221,1,0,0:0:0:0:
320,192,51221,1,0,0:0:0:0:
192,192,51300,1,0,0:0:0:0:
448,192,51378,1,8,0:0:0:0:
64,192,51378,1,8,0:0:0:0:
320,192,51457,1,0,0:0:0:0:
192,192,51536,1,4,0:0:0:0:
448,192,51536,1,0,0:0:0:0:
64,192,51536,128,0,52168:0:0:0:0:
320,192,51694,1,8,0:0:0:0:
448,192,51694,1,8,0:0:0:0:
192,192,51852,1,0,0:0:0:0:
320,192,52010,1,8,0:0:0:0:
448,192,52010,1,8,0:0:0:0:
448,192,52168,128,0,52800:0:0:0:0:
192,192,52326,1,8,0:0:0:0:
64,192,52326,1,8,0:0:0:0:
320,192,52484,1,0,0:0:0:0:
192,192,52642,1,8,0:0:0:0:
64,192,52642,1,8,0:0:0:0:
64,192,52800,128,0,52957:0:0:0:0:
192,192,52878,1,0,0:0:0:0:
448,192,52957,1,8,0:0:0:0:
320,192,52957,1,8,0:0:0:0:
64,192,53036,1,0,0:0:0:0:
320,192,53115,1,0,0:0:0:0:
192,192,53194,1,0,0:0:0:0:
64,192,53273,1,8,0:0:0:0:
320,192,53273,1,8,0:0:0:0:
448,192,53352,1,0,0:0:0:0:
192,192,53431,1,0,0:0:0:0:
320,192,53510,1,0,0:0:0:0:
448,192,53589,1,8,0:0:0:0:
192,192,53589,1,8,0:0:0:0:
64,192,53668,1,0,0:0:0:0:
320,192,53747,1,0,0:0:0:0:
192,192,53826,1,0,0:0:0:0:
448,192,53905,1,8,0:0:0:0:
64,192,53905,1,8,0:0:0:0:
192,192,53984,1,0,0:0:0:0:
64,192,54063,1,0,0:0:0:0:
448,192,54063,1,0,0:0:0:0:
320,192,54063,1,4,0:0:0:0:
448,192,54221,1,8,0:0:0:0:
192,192,54221,1,8,0:0:0:0:
320,192,54300,1,0,0:0:0:0:
64,192,54378,1,0,0:0:0:0:
192,192,54378,1,0,0:0:0:0:
320,192,54457,1,0,0:0:0:0:
448,192,54536,1,8,0:0:0:0:
64,192,54536,1,8,0:0:0:0:
192,192,54615,1,0,0:0:0:0:
320,192,54694,1,0,0:0:0:0:
448,192,54694,1,0,0:0:0:0:
192,192,54773,1,0,0:0:0:0:
64,192,54852,1,8,0:0:0:0:
320,192,54852,1,8,0:0:0:0:
448,192,54931,1,0,0:0:0:0:
192,192,55010,1,0,0:0:0:0:
64,192,55010,1,0,0:0:0:0:
320,192,55089,1,0,0:0:0:0:
192,192,55168,1,8,0:0:0:0:
448,192,55168,1,8,0:0:0:0:
64,192,55247,1,0,0:0:0:0:
320,192,55326,1,0,0:0:0:0:
448,192,55326,1,0,0:0:0:0:
192,192,55405,1,0,0:0:0:0:
448,192,55484,1,8,0:0:0:0:
64,192,55484,1,8,0:0:0:0:
320,192,55563,1,0,0:0:0:0:
64,192,55642,1,0,0:0:0:0:
192,192,55642,1,0,0:0:0:0:
448,192,55721,1,0,0:0:0:0:
320,192,55800,1,8,0:0:0:0:
64,192,55800,1,8,0:0:0:0:
192,192,55878,1,0,0:0:0:0:
320,192,55957,1,0,0:0:0:0:
448,192,55957,1,0,0:0:0:0:
64,192,56036,1,0,0:0:0:0:
192,192,56115,1,8,0:0:0:0:
448,192,56115,1,8,0:0:0:0:
320,192,56194,1,0,0:0:0:0:
192,192,56273,1,0,0:0:0:0:
64,192,56273,1,0,0:0:0:0:
320,192,56352,1,0,0:0:0:0:
448,192,56431,1,8,0:0:0:0:
64,192,56431,1,8,0:0:0:0:
192,192,56510,1,0,0:0:0:0:
320,192,56589,1,8,3:0:0:0:
448,192,56589,1,8,3:0:0:0:
192,192,56668,1,8,3:0:0:0:
64,192,56747,1,8,0:0:0:0:
448,192,56747,1,8,0:0:0:0:
192,192,56826,1,8,0:0:0:0:
320,192,56826,1,8,0:0:0:0:
64,192,56905,1,8,0:0:0:0:
448,192,56905,1,8,0:0:0:0:
320,192,56984,1,0,0:0:0:0:
192,192,57063,1,8,0:0:0:0:
64,192,57063,1,8,0:0:0:0:
448,192,57142,1,8,0:0:0:0:
320,192,57142,1,8,0:0:0:0:
192,192,57221,1,8,0:0:0:0:
64,192,57221,1,8,0:0:0:0:
448,192,57300,1,8,0:0:0:0:
320,192,57300,1,8,0:0:0:0:
192,192,57378,1,8,0:0:0:0:
64,192,57378,1,8,0:0:0:0:
320,192,57536,1,8,0:0:0:0:
448,192,57536,1,8,0:0:0:0:
64,192,57615,1,8,0:0:0:0:
192,192,57615,1,8,0:0:0:0:
320,192,57694,1,8,0:0:0:0:
448,192,57694,1,8,0:0:0:0:
192,192,57773,1,8,0:0:0:0:
64,192,57773,1,8,0:0:0:0:
320,192,57852,1,8,0:0:0:0:
448,192,57852,1,8,0:0:0:0:
64,192,57931,1,0,0:0:0:0:
192,192,58010,1,8,0:0:0:0:
320,192,58010,1,8,0:0:0:0:
448,192,58089,1,0,0:0:0:0:
192,192,58168,1,8,0:0:0:0:
64,192,58168,1,8,0:0:0:0:
320,192,58247,1,0,0:0:0:0:
448,192,58326,1,8,0:0:0:0:
64,192,58326,1,8,0:0:0:0:
192,192,58405,1,0,0:0:0:0:
320,192,58484,1,8,0:0:0:0:
448,192,58484,1,8,0:0:0:0:
64,192,58563,1,0,0:0:0:0:
192,192,58642,1,8,0:0:0:0:
320,192,58642,1,8,0:0:0:0:
448,192,58721,1,0,0:0:0:0:
64,192,58800,1,8,0:0:0:0:
192,192,58800,1,8,0:0:0:0:
320,192,58878,1,0,0:0:0:0:
64,192,58957,1,8,0:0:0:0:
448,192,58957,1,8,0:0:0:0:
320,192,59036,1,8,0:0:0:0:
192,192,59036,1,8,0:0:0:0:
64,192,59115,1,0,0:0:0:0:
448,192,59115,1,0,0:0:0:0:
192,192,59194,1,0,0:0:0:0:
448,192,59273,1,0,0:0:0:0:
320,192,59273,1,0,0:0:0:0:
192,192,59352,1,0,0:0:0:0:
64,192,59431,1,0,0:0:0:0:
448,192,59431,1,0,0:0:0:0:
192,192,59510,1,0,0:0:0:0:
64,192,59589,1,4,0:0:0:0:
448,192,59589,1,8,0:0:0:0:
320,192,59589,128,8,59905:0:0:0:0:
64,192,59905,1,0,0:0:0:0:
192,192,59984,1,0,0:0:0:0:
64,192,60063,1,4,0:0:0:0:
448,192,60063,1,8,0:0:0:0:
320,192,60063,128,8,60378:0:0:0:0:
448,192,60378,1,0,0:0:0:0:
64,192,60378,1,0,0:0:0:0:
320,192,60457,1,0,0:0:0:0:
64,192,60536,1,0,0:0:0:0:
192,192,60536,1,0,0:0:0:0:
320,192,60615,1,0,0:0:0:0:
448,192,60694,1,0,0:0:0:0:
64,192,60694,1,0,0:0:0:0:
320,192,60773,1,0,0:0:0:0:
64,192,60852,1,8,0:0:0:0:
448,192,60852,1,4,0:0:0:0:
192,192,60852,128,8,61168:0:0:0:0:
448,192,61168,1,0,0:0:0:0:
320,192,61247,1,0,0:0:0:0:
64,192,61326,1,8,0:0:0:0:
448,192,61326,1,4,0:0:0:0:
192,192,61326,128,8,61642:0:0:0:0:
64,192,61642,1,0,0:0:0:0:
448,192,61642,1,0,0:0:0:0:
192,192,61721,1,0,0:0:0:0:
448,192,61800,1,0,0:0:0:0:
320,192,61800,1,0,0:0:0:0:
192,192,61878,1,0,0:0:0:0:
64,192,61957,1,0,0:0:0:0:
448,192,61957,1,0,0:0:0:0:
192,192,62036,1,0,0:0:0:0:
64,192,62115,1,4,0:0:0:0:
448,192,62115,1,8,0:0:0:0:
320,192,62115,128,8,62431:0:0:0:0:
64,192,62431,1,0,0:0:0:0:
192,192,62510,1,0,0:0:0:0:
64,192,62589,1,4,0:0:0:0:
448,192,62589,1,8,0:0:0:0:
320,192,62589,128,8,62905:0:0:0:0:
448,192,62905,1,0,0:0:0:0:
64,192,62905,1,0,0:0:0:0:
320,192,62984,1,0,0:0:0:0:
64,192,63063,1,0,0:0:0:0:
192,192,63063,1,0,0:0:0:0:
320,192,63142,1,0,0:0:0:0:
448,192,63221,1,0,0:0:0:0:
64,192,63221,1,0,0:0:0:0:
320,192,63300,1,0,0:0:0:0:
448,192,63378,1,4,0:0:0:0:
64,192,63378,1,8,0:0:0:0:
192,192,63378,128,8,63694:0:0:0:0:
320,192,63852,1,8,0:0:0:0:
192,192,63852,1,8,0:0:0:0:
64,192,63931,1,8,0:0:0:0:
448,192,63931,1,8,0:0:0:0:
192,192,64010,1,0,0:0:0:0:
320,192,64089,1,0,0:0:0:0:
448,192,64168,1,0,0:0:0:0:
64,192,64168,1,0,0:0:0:0:
192,192,64168,1,4,0:0:0:0:
448,192,64326,1,8,0:0:0:0:
64,192,64326,1,8,0:0:0:0:
192,192,64405,1,0,0:0:0:0:
320,192,64484,1,0,0:0:0:0:
64,192,64484,1,0,0:0:0:0:
448,192,64563,1,0,0:0:0:0:
320,192,64642,1,8,0:0:0:0:
192,192,64642,1,8,0:0:0:0:
64,192,64721,1,0,0:0:0:0:
192,192,64800,1,0,0:0:0:0:
448,192,64800,1,0,0:0:0:0:
320,192,64878,1,0,0:0:0:0:
64,192,64957,1,8,0:0:0:0:
448,192,64957,1,8,0:0:0:0:
192,192,65036,1,0,0:0:0:0:
320,192,65115,1,0,0:0:0:0:
64,192,65115,1,0,0:0:0:0:
448,192,65194,1,0,0:0:0:0:
192,192,65273,1,8,0:0:0:0:
320,192,65273,1,8,0:0:0:0:
64,192,65352,1,0,0:0:0:0:
448,192,65431,1,0,0:0:0:0:
192,192,65431,1,0,0:0:0:0:
320,192,65510,1,0,0:0:0:0:
448,192,65589,1,8,0:0:0:0:
64,192,65589,1,8,0:0:0:0:
192,192,65668,1,0,0:0:0:0:
64,192,65747,1,0,0:0:0:0:
320,192,65747,1,0,0:0:0:0:
448,192,65826,1,0,0:0:0:0:
320,192,65905,1,8,0:0:0:0:
192,192,65905,1,8,0:0:0:0:
64,192,65984,1,0,0:0:0:0:
192,192,66063,1,0,0:0:0:0:
448,192,66063,1,0,0:0:0:0:
320,192,66142,1,0,0:0:0:0:
64,192,66221,1,8,0:0:0:0:
448,192,66221,1,8,0:0:0:0:
192,192,66300,1,0,0:0:0:0:
320,192,66378,1,0,0:0:0:0:
64,192,66378,1,0,0:0:0:0:
448,192,66457,1,0,0:0:0:0:
192,192,66536,1,8,0:0:0:0:
64,192,66536,1,8,0:0:0:0:
320,192,66615,1,0,0:0:0:0:
448,192,66694,1,0,0:0:0:0:
192,192,66694,1,4,0:0:0:0:
64,192,66694,128,0,67010:0:0:0:0:
320,192,66852,1,8,0:0:0:0:
448,192,66852,1,8,0:0:0:0:
192,192,67010,128,0,67168:0:0:0:0:
448,192,67168,128,8,67326:0:0:0:0:
64,192,67168,1,8,0:0:0:0:
192,192,67326,128,0,67957:0:0:0:0:
320,192,67484,1,8,0:0:0:0:
448,192,67484,1,8,0:0:0:0:
64,192,67642,1,0,0:0:0:0:
320,192,67800,1,8,0:0:0:0:
448,192,67800,1,8,0:0:0:0:
64,192,67957,128,0,68115:0:0:0:0:
320,192,68036,1,0,0:0:0:0:
448,192,68115,1,8,0:0:0:0:
192,192,68115,1,8,0:0:0:0:
320,192,68194,1,0,0:0:0:0:
64,192,68273,1,0,0:0:0:0:
192,192,68352,1,0,0:0:0:0:
448,192,68431,1,8,0:0:0:0:
320,192,68431,1,8,0:0:0:0:
64,192,68510,1,0,0:0:0:0:
192,192,68589,1,0,0:0:0:0:
448,192,68668,1,0,0:0:0:0:
320,192,68747,1,8,0:0:0:0:
64,192,68747,1,8,0:0:0:0:
192,192,68826,1,0,0:0:0:0:
320,192,68905,1,0,0:0:0:0:
192,192,68984,1,0,0:0:0:0:
448,192,69063,1,8,0:0:0:0:
64,192,69063,1,8,0:0:0:0:
320,192,69142,1,0,0:0:0:0:
64,192,69221,1,0,0:0:0:0:
448,192,69221,1,0,0:0:0:0:
192,192,69221,1,4,0:0:0:0:
192,192,69378,1,8,0:0:0:0:
64,192,69378,1,8,0:0:0:0:
320,192,69457,1,0,0:0:0:0:
192,192,69536,1,0,0:0:0:0:
64,192,69536,1,0,0:0:0:0:
320,192,69615,1,0,0:0:0:0:
192,192,69694,1,8,0:0:0:0:
64,192,69694,1,8,0:0:0:0:
320,192,69773,1,0,0:0:0:0:
448,192,69852,1,0,0:0:0:0:
64,192,69852,1,0,0:0:0:0:
64,192,70010,1,8,0:0:0:0:
192,192,70010,1,8,0:0:0:0:
448,192,70089,1,0,0:0:0:0:
192,192,70168,1,0,0:0:0:0:
64,192,70168,1,0,0:0:0:0:
448,192,70247,1,0,0:0:0:0:
192,192,70326,1,8,0:0:0:0:
64,192,70326,1,8,0:0:0:0:
448,192,70405,1,0,0:0:0:0:
192,192,70484,1,0,0:0:0:0:
320,192,70484,1,0,0:0:0:0:
448,192,70642,1,8,0:0:0:0:
320,192,70642,1,8,0:0:0:0:
64,192,70721,1,0,0:0:0:0:
448,192,70800,1,0,0:0:0:0:
320,192,70800,1,0,0:0:0:0:
64,192,70878,1,0,0:0:0:0:
320,192,70957,1,8,0:0:0:0:
448,192,70957,1,8,0:0:0:0:
64,192,71036,1,0,0:0:0:0:
320,192,71115,1,0,0:0:0:0:
192,192,71115,1,0,0:0:0:0:
320,192,71273,1,8,0:0:0:0:
448,192,71273,1,8,0:0:0:0:
192,192,71352,1,0,0:0:0:0:
448,192,71431,1,0,0:0:0:0:
320,192,71431,1,0,0:0:0:0:
192,192,71510,1,0,0:0:0:0:
320,192,71589,1,8,0:0:0:0:
448,192,71589,1,8,0:0:0:0:
192,192,71668,1,0,0:0:0:0:
64,192,71747,1,4,0:0:0:0:
448,192,71747,1,0,0:0:0:0:
320,192,71747,128,0,72063:0:0:0:0:
192,192,71905,1,8,0:0:0:0:
64,192,71905,1,8,0:0:0:0:
64,192,72063,1,0,0:0:0:0:
448,192,72063,1,4,0:0:0:0:
192,192,72063,128,0,72378:0:0:0:0:
448,192,72221,1,8,0:0:0:0:
320,192,72221,1,8,0:0:0:0:
448,192,72378,1,0,0:0:0:0:
64,192,72378,1,4,0:0:0:0:
320,192,72378,128,0,73010:0:0:0:0:
192,192,72536,1,8,0:0:0:0:
64,192,72536,1,8,0:0:0:0:
64,192,72694,1,0,0:0:0:0:
192,192,72694,1,4,0:0:0:0:
448,192,72694,1,0,0:0:0:0:
448,192,72852,1,8,0:0:0:0:
64,192,72852,1,8,0:0:0:0:
64,192,73010,1,0,0:0:0:0:
192,192,73010,1,4,0:0:0:0:
448,192,73010,1,0,0:0:0:0:
320,192,73089,1,8,0:0:0:0:
192,192,73168,1,8,0:0:0:0:
64,192,73168,1,8,0:0:0:0:
448,192,73247,1,8,0:0:0:0:
320,192,73247,1,8,0:0:0:0:
64,192,73326,1,8,0:0:0:0:
192,192,73326,1,8,0:0:0:0:
320,192,73405,1,8,0:0:0:0:
448,192,73484,1,8,0:0:0:0:
192,192,73484,1,8,0:0:0:0:
64,192,73484,1,8,0:0:0:0:
320,192,73563,1,8,0:0:0:0:
448,192,73642,1,8,0:0:0:0:
64,192,73642,1,8,0:0:0:0:
320,192,73721,1,8,0:0:0:0:
192,192,73721,1,8,0:0:0:0:
64,192,73800,1,8,0:0:0:0:
448,192,73800,1,8,0:0:0:0:
320,192,73878,1,8,0:0:0:0:
192,192,73878,1,8,0:0:0:0:
64,192,73957,1,8,0:0:0:0:
448,192,73957,1,8,0:0:0:0:
192,192,74036,1,8,0:0:0:0:
320,192,74036,1,8,0:0:0:0:
448,192,74115,1,8,0:0:0:0:
64,192,74115,1,8,0:0:0:0:
192,192,74194,1,8,0:0:0:0:
320,192,74273,1,4,0:0:0:0:
448,192,74273,1,0,0:0:0:0:
64,192,74273,1,0,0:0:0:0:
64,192,74431,1,8,0:0:0:0:
192,192,74431,1,8,0:0:0:0:
448,192,74510,1,0,0:0:0:0:
320,192,74589,1,0,0:0:0:0:
192,192,74589,1,0,0:0:0:0:
64,192,74668,1,0,0:0:0:0:
448,192,74747,1,8,0:0:0:0:
320,192,74747,1,8,0:0:0:0:
192,192,74826,1,0,0:0:0:0:
320,192,74905,1,0,0:0:0:0:
64,192,74905,1,0,0:0:0:0:
448,192,74984,1,0,0:0:0:0:
192,192,75063,1,8,0:0:0:0:
64,192,75063,1,8,0:0:0:0:
320,192,75142,1,0,0:0:0:0:
192,192,75221,1,0,0:0:0:0:
448,192,75221,1,0,0:0:0:0:
64,192,75300,1,0,0:0:0:0:
320,192,75378,1,8,0:0:0:0:
448,192,75378,1,8,0:0:0:0:
64,192,75457,1,0,0:0:0:0:
320,192,75536,1,0,0:0:0:0:
192,192,75536,1,0,0:0:0:0:
448,192,75615,1,0,0:0:0:0:
64,192,75694,1,8,0:0:0:0:
192,192,75694,1,8,0:0:0:0:
320,192,75773,1,0,0:0:0:0:
448,192,75852,1,0,0:0:0:0:
192,192,75852,1,0,0:0:0:0:
64,192,75931,1,0,0:0:0:0:
448,192,76010,1,8,0:0:0:0:
320,192,76010,1,8,0:0:0:0:
192,192,76089,1,0,0:0:0:0:
320,192,76168,1,0,0:0:0:0:
64,192,76168,1,0,0:0:0:0:
448,192,76247,1,0,0:0:0:0:
64,192,76326,1,8,0:0:0:0:
192,192,76326,1,8,0:0:0:0:
448,192,76405,1,0,0:0:0:0:
192,192,76484,1,0,0:0:0:0:
320,192,76484,1,0,0:0:0:0:
64,192,76563,1,0,0:0:0:0:
448,192,76642,1,8,0:0:0:0:
320,192,76642,1,8,0:0:0:0:
192,192,76721,1,0,0:0:0:0:
320,192,76800,1,0,0:0:0:0:
64,192,76800,1,4,0:0:0:0:
448,192,76800,1,0,0:0:0:0:
192,192,76957,1,8,0:0:0:0:
64,192,76957,1,8,0:0:0:0:
64,192,77115,1,0,0:0:0:0:
448,192,77273,1,8,0:0:0:0:
320,192,77273,1,8,0:0:0:0:
448,192,77431,1,0,0:0:0:0:
192,192,77589,1,8,0:0:0:0:
64,192,77589,1,8,0:0:0:0:
64,192,77747,1,0,0:0:0:0:
192,192,77905,1,8,0:0:0:0:
320,192,77905,1,8,0:0:0:0:
448,192,78063,1,0,0:0:0:0:
320,192,78142,1,0,0:0:0:0:
192,192,78221,1,8,0:0:0:0:
64,192,78221,1,8,0:0:0:0:
448,192,78300,1,0,0:0:0:0:
64,192,78378,1,0,0:0:0:0:
192,192,78457,1,0,0:0:0:0:
320,192,78536,1,8,0:0:0:0:
448,192,78536,1,8,0:0:0:0:
64,192,78615,1,0,0:0:0:0:
448,192,78694,1,0,0:0:0:0:
320,192,78773,1,0,0:0:0:0:
192,192,78852,1,8,0:0:0:0:
64,192,78852,1,8,0:0:0:0:
448,192,78931,1,0,0:0:0:0:
192,192,79010,1,0,0:0:0:0:
320,192,79089,1,0,0:0:0:0:
64,192,79168,1,8,0:0:0:0:
448,192,79168,1,8,0:0:0:0:
192,192,79247,1,0,0:0:0:0:
448,192,79326,1,0,0:0:0:0:
64,192,79326,1,0,0:0:0:0:
320,192,79326,1,4,0:0:0:0:
64,192,79484,1,8,0:0:0:0:
192,192,79484,1,8,0:0:0:0:
320,192,79563,1,0,0:0:0:0:
64,192,79642,1,0,0:0:0:0:
448,192,79642,1,0,0:0:0:0:
192,192,79721,1,0,0:0:0:0:
448,192,79800,1,8,0:0:0:0:
320,192,79800,1,8,0:0:0:0:
192,192,79878,1,0,0:0:0:0:
320,192,79957,1,0,0:0:0:0:
64,192,79957,1,8,0:0:0:0:
448,192,80036,1,0,0:0:0:0:
192,192,80115,1,8,0:0:0:0:
64,192,80115,1,8,0:0:0:0:
320,192,80194,1,0,0:0:0:0:
192,192,80273,1,0,0:0:0:0:
448,192,80273,1,0,0:0:0:0:
64,192,80352,1,0,0:0:0:0:
320,192,80431,1,8,0:0:0:0:
448,192,80431,1,8,0:0:0:0:
192,192,80510,1,0,0:0:0:0:
64,192,80589,1,8,0:0:0:0:
448,192,80589,1,0,0:0:0:0:
320,192,80668,1,0,0:0:0:0:
64,192,80747,1,8,0:0:0:0:
192,192,80747,1,8,0:0:0:0:
320,192,80826,1,0,0:0:0:0:
448,192,80905,1,0,0:0:0:0:
192,192,80905,1,0,0:0:0:0:
64,192,80984,1,0,0:0:0:0:
448,192,81063,1,8,0:0:0:0:
320,192,81063,1,8,0:0:0:0:
192,192,81142,1,0,0:0:0:0:
320,192,81221,1,0,0:0:0:0:
64,192,81221,1,0,0:0:0:0:
448,192,81300,1,0,0:0:0:0:
192,192,81378,1,8,0:0:0:0:
64,192,81378,1,8,0:0:0:0:
320,192,81457,1,0,0:0:0:0:
64,192,81536,1,0,0:0:0:0:
448,192,81536,1,0,0:0:0:0:
192,192,81615,1,0,0:0:0:0:
320,192,81694,1,8,0:0:0:0:
448,192,81694,1,8,0:0:0:0:
448,192,81852,1,4,0:0:0:0:
192,192,81852,1,8,0:0:0:0:
64,192,81852,1,8,0:0:0:0:
320,192,81931,1,0,0:0:0:0:
64,192,82010,1,0,0:0:0:0:
192,192,82089,1,0,0:0:0:0:
320,192,82168,1,8,0:0:0:0:
64,192,82168,1,4,0:0:0:0:
448,192,82168,1,8,0:0:0:0:
192,192,82247,1,0,0:0:0:0:
448,192,82326,1,0,0:0:0:0:
320,192,82405,1,0,0:0:0:0:
448,192,82484,1,4,0:0:0:0:
192,192,82484,1,8,0:0:0:0:
64,192,82484,1,8,0:0:0:0:
320,192,82563,1,0,0:0:0:0:
64,192,82642,1,0,0:0:0:0:
192,192,82721,1,0,0:0:0:0:
320,192,82800,1,8,0:0:0:0:
448,192,82800,1,8,0:0:0:0:
64,192,82800,1,4,0:0:0:0:
192,192,82878,1,0,0:0:0:0:
448,192,82957,1,0,0:0:0:0:
320,192,83036,1,0,0:0:0:0:
192,192,83115,1,8,0:0:0:0:
64,192,83115,1,8,0:0:0:0:
320,192,83194,1,8,0:0:0:0:
448,192,83194,1,8,0:0:0:0:
192,192,83273,1,8,0:0:0:0:
64,192,83273,1,8,0:0:0:0:
320,192,83352,1,8,0:0:0:0:
448,192,83352,1,8,0:0:0:0:
64,192,83431,1,0,0:0:0:0:
192,192,83510,1,0,0:0:0:0:
320,192,83589,1,8,0:0:0:0:
448,192,83589,1,8,0:0:0:0:
192,192,83668,1,8,0:0:0:0:
64,192,83668,1,8,0:0:0:0:
320,192,83747,1,8,0:0:0:0:
448,192,83747,1,8,0:0:0:0:
192,192,83826,1,8,0:0:0:0:
64,192,83826,1,8,0:0:0:0:
448,192,83905,1,0,0:0:0:0:
320,192,83984,1,0,0:0:0:0:
64,192,84063,1,8,0:0:0:0:
192,192,84063,1,8,0:0:0:0:
448,192,84142,1,8,0:0:0:0:
320,192,84142,1,8,0:0:0:0:
64,192,84221,1,0,0:0:0:0:
448,192,84300,1,0,0:0:0:0:
320,192,84378,1,0,0:0:0:0:
192,192,84378,1,0,0:0:0:0:
64,192,84457,1,0,0:0:0:0:
448,192,84536,1,0,0:0:0:0:
320,192,84536,1,0,0:0:0:0:
64,192,84615,1,0,0:0:0:0:
320,192,84694,1,0,0:0:0:0:
192,192,84694,1,0,0:0:0:0:
64,192,84773,1,0,0:0:0:0:
192,192,84852,1,8,0:0:0:0:
448,192,84852,128,4,85168:0:0:0:0:
320,192,84852,1,8,0:0:0:0:
320,192,85168,1,0,0:0:0:0:
64,192,85247,1,0,0:0:0:0:
320,192,85326,1,8,0:0:0:0:
192,192,85326,1,8,0:0:0:0:
448,192,85326,128,4,85642:0:0:0:0:
320,192,85642,1,0,0:0:0:0:
192,192,85642,1,0,0:0:0:0:
448,192,85721,1,0,0:0:0:0:
64,192,85800,1,0,0:0:0:0:
192,192,85800,1,0,0:0:0:0:
448,192,85878,1,0,0:0:0:0:
192,192,85957,1,0,0:0:0:0:
320,192,85957,1,0,0:0:0:0:
448,192,86036,1,0,0:0:0:0:
320,192,86115,1,8,0:0:0:0:
192,192,86115,1,8,0:0:0:0:
64,192,86115,128,4,86431:0:0:0:0:
192,192,86431,1,0,0:0:0:0:
448,192,86510,1,0,0:0:0:0:
320,192,86589,1,8,0:0:0:0:
192,192,86589,1,8,0:0:0:0:
64,192,86589,128,4,86905:0:0:0:0:
192,192,86905,1,0,0:0:0:0:
320,192,86905,1,0,0:0:0:0:
64,192,86984,1,0,0:0:0:0:
448,192,87063,1,0,0:0:0:0:
320,192,87063,1,0,0:0:0:0:
64,192,87142,1,0,0:0:0:0:
320,192,87221,1,0,0:0:0:0:
192,192,87221,1,0,0:0:0:0:
64,192,87300,1,0,0:0:0:0:
192,192,87378,1,8,0:0:0:0:
320,192,87378,1,8,0:0:0:0:
448,192,87378,128,4,87694:0:0:0:0:
320,192,87694,1,0,0:0:0:0:
64,192,87773,1,0,0:0:0:0:
320,192,87852,1,8,0:0:0:0:
192,192,87852,1,8,0:0:0:0:
448,192,87852,128,4,88168:0:0:0:0:
192,192,88168,1,0,0:0:0:0:
64,192,88168,1,0,0:0:0:0:
320,192,88168,1,0,0:0:0:0:
320,192,88326,1,8,0:0:0:0:
64,192,88326,1,0,0:0:0:0:
192,192,88326,1,0,0:0:0:0:
448,192,88484,1,0,0:0:0:0:
192,192,88484,1,8,0:0:0:0:
320,192,88484,1,0,0:0:0:0:
320,192,88642,1,8,0:0:0:0:
448,192,88642,1,0,0:0:0:0:
192,192,88642,1,8,0:0:0:0:
64,192,88800,1,8,0:0:0:0:
192,192,88800,1,8,0:0:0:0:
448,192,88800,1,0,0:0:0:0:
192,192,88957,1,8,0:0:0:0:
320,192,88957,1,8,0:0:0:0:
64,192,88957,1,0,0:0:0:0:
64,192,89115,1,8,0:0:0:0:
320,192,89115,1,8,0:0:0:0:
448,192,89115,1,0,0:0:0:0:
192,192,89273,1,0,0:0:0:0:
320,192,89273,1,0,0:0:0:0:
448,192,89431,1,8,0:0:0:0:
192,192,89431,1,4,0:0:0:0:
64,192,89431,128,8,89589:0:0:0:0:
320,192,89589,1,0,0:0:0:0:
192,192,89668,1,0,0:0:0:0:
64,192,89747,1,8,0:0:0:0:
448,192,89747,1,8,0:0:0:0:
320,192,89905,128,0,90063:0:0:0:0:
64,192,90063,1,8,0:0:0:0:
192,192,90063,1,8,0:0:0:0:
320,192,90221,1,0,0:0:0:0:
64,192,90378,1,8,0:0:0:0:
448,192,90378,128,8,90536:0:0:0:0:
320,192,90536,1,0,0:0:0:0:
192,192,90694,128,8,90852:0:0:0:0:
64,192,90694,1,8,0:0:0:0:
320,192,90852,1,0,0:0:0:0:
192,192,90931,1,0,0:0:0:0:
64,192,91010,1,8,0:0:0:0:
448,192,91010,1,8,0:0:0:0:
320,192,91168,128,0,91326:0:0:0:0:
64,192,91326,1,8,0:0:0:0:
192,192,91326,1,8,0:0:0:0:
320,192,91484,1,0,0:0:0:0:
64,192,91642,1,8,0:0:0:0:
448,192,91642,128,0,91800:0:0:0:0:
320,192,91800,1,0,0:0:0:0:
448,192,91957,1,8,0:0:0:0:
192,192,91957,1,4,0:0:0:0:
64,192,91957,128,8,92115:0:0:0:0:
320,192,92115,1,0,0:0:0:0:
192,192,92194,1,0,0:0:0:0:
64,192,92273,1,8,0:0:0:0:
448,192,92273,1,8,0:0:0:0:
320,192,92431,128,0,92589:0:0:0:0:
64,192,92589,1,8,0:0:0:0:
192,192,92589,1,8,0:0:0:0:
320,192,92747,1,0,0:0:0:0:
64,192,92905,1,8,0:0:0:0:
448,192,92905,128,8,93063:0:0:0:0:
320,192,93063,1,0,0:0:0:0:
192,192,93221,128,8,93378:0:0:0:0:
64,192,93221,1,8,0:0:0:0:
320,192,93378,1,0,0:0:0:0:
192,192,93457,1,0,0:0:0:0:
64,192,93536,1,8,0:0:0:0:
448,192,93536,1,8,0:0:0:0:
320,192,93694,128,0,93852:0:0:0:0:
64,192,93852,1,8,0:0:0:0:
192,192,93852,1,8,0:0:0:0:
320,192,94010,1,8,0:0:0:0:
448,192,94010,1,8,0:0:0:0:
192,192,94089,1,8,0:0:0:0:
64,192,94089,1,8,0:0:0:0:
320,192,94168,1,8,0:0:0:0:
448,192,94168,128,8,94326:0:0:0:0:
64,192,94247,1,8,0:0:0:0:
192,192,94247,1,8,0:0:0:0:
320,192,94326,1,0,0:0:0:0:
192,192,94405,1,0,0:0:0:0:
320,192,94484,1,4,0:0:0:0:
448,192,94484,1,0,0:0:0:0:
64,192,94484,128,0,94642:0:0:0:0:
192,192,94642,1,0,0:0:0:0:
320,192,94721,1,0,0:0:0:0:
64,192,94800,1,8,0:0:0:0:
448,192,94800,1,8,0:0:0:0:
320,192,94957,128,0,95115:0:0:0:0:
192,192,95036,1,0,0:0:0:0:
64,192,95115,1,0,0:0:0:0:
192,192,95273,1,0,0:0:0:0:
320,192,95352,1,0,0:0:0:0:
64,192,95431,1,8,0:0:0:0:
448,192,95431,128,8,95589:0:0:0:0:
320,192,95589,1,0,0:0:0:0:
192,192,95668,1,0,0:0:0:0:
64,192,95747,128,0,95905:0:0:0:0:
320,192,95905,1,0,0:0:0:0:
192,192,95984,1,0,0:0:0:0:
64,192,96063,1,8,0:0:0:0:
448,192,96063,1,8,0:0:0:0:
192,192,96221,128,0,96378:0:0:0:0:
320,192,96300,1,0,0:0:0:0:
448,192,96378,1,0,0:0:0:0:
192,192,96536,1,0,0:0:0:0:
320,192,96615,1,0,0:0:0:0:
64,192,96694,1,8,0:0:0:0:
448,192,96694,128,8,96852:0:0:0:0:
320,192,96852,1,0,0:0:0:0:
192,192,96931,1,0,0:0:0:0:
64,192,97010,1,0,0:0:0:0:
320,192,97010,1,4,0:0:0:0:
448,192,97010,1,0,0:0:0:0:
192,192,97168,1,0,0:0:0:0:
320,192,97247,1,0,0:0:0:0:
64,192,97326,1,8,0:0:0:0:
448,192,97326,1,8,0:0:0:0:
192,192,97484,1,0,0:0:0:0:
64,192,97563,1,0,0:0:0:0:
448,192,97642,1,0,0:0:0:0:
320,192,97800,1,0,0:0:0:0:
448,192,97878,1,0,0:0:0:0:
192,192,97957,1,8,0:0:0:0:
64,192,97957,1,8,0:0:0:0:
320,192,98115,1,0,0:0:0:0:
192,192,98194,1,0,0:0:0:0:
320,192,98273,1,8,0:0:0:0:
448,192,98273,1,8,0:0:0:0:
192,192,98352,1,8,0:0:0:0:
64,192,98352,1,8,0:0:0:0:
448,192,98431,1,8,0:0:0:0:
320,192,98431,1,8,0:0:0:0:
192,192,98510,1,8,0:0:0:0:
64,192,98510,1,8,0:0:0:0:
320,192,98589,1,0,0:0:0:0:
448,192,98668,1,0,0:0:0:0:
64,192,98747,1,0,0:0:0:0:
320,192,98826,1,0,0:0:0:0:
448,192,98905,1,0,0:0:0:0:
192,192,98984,1,0,0:0:0:0:
64,192,99063,1,8,0:0:0:0:
448,192,99063,1,8,0:0:0:0:
192,192,99142,1,8,0:0:0:0:
320,192,99142,1,8,0:0:0:0:
64,192,99221,1,8,0:0:0:0:
448,192,99221,1,8,0:0:0:0:
192,192,99300,1,8,0:0:0:0:
320,192,99300,1,8,0:0:0:0:
64,192,99378,1,0,0:0:0:0:
320,192,99457,1,0,0:0:0:0:
64,192,99536,1,0,0:0:0:0:
192,192,99536,1,4,0:0:0:0:
448,192,99536,128,0,100800:0:0:0:0:
192,192,99694,1,8,0:0:0:0:
320,192,99694,1,8,0:0:0:0:
64,192,99852,1,0,0:0:0:0:
192,192,99931,1,0,0:0:0:0:
320,192,100010,1,8,0:0:0:0:
64,192,100010,1,8,0:0:0:0:
192,192,100168,1,0,0:0:0:0:
192,192,100326,1,8,0:0:0:0:
64,192,100326,1,8,0:0:0:0:
320,192,100484,1,0,0:0:0:0:
64,192,100563,1,0,0:0:0:0:
192,192,100642,1,8,0:0:0:0:
320,192,100642,1,8,0:0:0:0:
64,192,100800,1,0,0:0:0:0:
448,192,100957,1,8,0:0:0:0:
320,192,100957,1,8,0:0:0:0:
64,192,101115,1,0,0:0:0:0:
192,192,101194,1,0,0:0:0:0:
448,192,101273,1,8,0:0:0:0:
320,192,101273,1,8,0:0:0:0:
64,192,101431,1,0,0:0:0:0:
192,192,101589,1,8,0:0:0:0:
320,192,101589,1,8,0:0:0:0:
448,192,101747,1,0,0:0:0:0:
64,192,101747,1,0,0:0:0:0:
192,192,101826,1,0,0:0:0:0:
320,192,101905,1,8,0:0:0:0:
448,192,101905,1,8,0:0:0:0:
64,192,102063,1,0,0:0:0:0:
192,192,102063,1,4,0:0:0:0:
448,192,102063,1,0,0:0:0:0:
64,192,102221,1,8,0:0:0:0:
320,192,102221,1,8,0:0:0:0:
448,192,102378,1,0,0:0:0:0:
192,192,102457,1,0,0:0:0:0:
64,192,102536,1,8,0:0:0:0:
448,192,102536,1,8,0:0:0:0:
320,192,102694,1,0,0:0:0:0:
192,192,102852,1,8,0:0:0:0:
448,192,102852,1,8,0:0:0:0:
64,192,103010,1,0,0:0:0:0:
320,192,103089,1,0,0:0:0:0:
64,192,103168,1,8,0:0:0:0:
448,192,103168,1,8,0:0:0:0:
192,192,103326,1,0,0:0:0:0:
320,192,103484,1,8,0:0:0:0:
448,192,103484,1,8,0:0:0:0:
64,192,103642,1,0,0:0:0:0:
192,192,103721,1,0,0:0:0:0:
320,192,103800,1,8,0:0:0:0:
448,192,103800,1,8,0:0:0:0:
192,192,103957,1,0,0:0:0:0:
64,192,103957,1,0,0:0:0:0:
64,192,104115,1,8,0:0:0:0:
192,192,104115,1,8,0:0:0:0:
448,192,104273,1,0,0:0:0:0:
320,192,104273,1,0,0:0:0:0:
192,192,104352,1,0,0:0:0:0:
64,192,104431,1,8,0:0:0:0:
448,192,104431,1,8,0:0:0:0:
448,192,104589,1,0,0:0:0:0:
320,192,104589,1,4,0:0:0:0:
192,192,104589,1,0,0:0:0:0:
64,192,104747,1,8,0:0:0:0:
192,192,104747,1,8,0:0:0:0:
448,192,104905,1,0,0:0:0:0:
320,192,104984,1,0,0:0:0:0:
64,192,105063,1,8,0:0:0:0:
192,192,105063,1,8,0:0:0:0:
320,192,105221,1,0,0:0:0:0:
448,192,105221,1,0,0:0:0:0:
320,192,105378,1,8,0:0:0:0:
448,192,105378,1,8,0:0:0:0:
64,192,105536,1,0,0:0:0:0:
192,192,105536,1,0,0:0:0:0:
320,192,105615,1,0,0:0:0:0:
448,192,105694,1,8,0:0:0:0:
64,192,105694,1,8,0:0:0:0:
320,192,105852,1,0,0:0:0:0:
192,192,105852,1,4,0:0:0:0:
64,192,105852,1,0,0:0:0:0:
448,192,106010,1,8,0:0:0:0:
320,192,106010,1,8,0:0:0:0:
192,192,106168,1,0,0:0:0:0:
64,192,106247,1,0,0:0:0:0:
320,192,106326,1,8,0:0:0:0:
448,192,106326,1,8,0:0:0:0:
64,192,106484,1,0,0:0:0:0:
192,192,106484,1,0,0:0:0:0:
320,192,106642,1,8,0:0:0:0:
192,192,106642,1,8,0:0:0:0:
448,192,106800,1,0,0:0:0:0:
64,192,106800,1,0,0:0:0:0:
320,192,106878,1,0,0:0:0:0:
448,192,106957,1,8,0:0:0:0:
192,192,106957,1,8,0:0:0:0:
448,192,107115,1,8,0:0:0:0:
64,192,107115,1,8,0:0:0:0:
320,192,107115,128,4,107431:0:0:0:0:
64,192,107431,1,0,0:0:0:0:
192,192,107431,1,0,0:0:0:0:
448,192,107589,1,0,0:0:0:0:
320,192,107589,1,0,0:0:0:0:
192,192,107747,1,8,0:0:0:0:
64,192,107747,1,0,0:0:0:0:
448,192,107747,1,0,0:0:0:0:
320,192,107905,1,8,0:0:0:0:
64,192,107905,1,0,0:0:0:0:
448,192,107905,1,0,0:0:0:0:
320,192,108063,1,8,0:0:0:0:
64,192,108063,1,0,0:0:0:0:
192,192,108063,1,8,0:0:0:0:
320,192,108221,1,8,0:0:0:0:
448,192,108221,1,0,0:0:0:0:
192,192,108221,1,8,0:0:0:0:
64,192,108378,1,8,0:0:0:0:
192,192,108378,1,8,0:0:0:0:
320,192,108457,5,8,0:0:0:0:
448,192,108457,1,8,0:0:0:0:
192,192,108536,1,8,0:0:0:0:
64,192,108536,1,8,0:0:0:0:
320,192,108615,1,8,0:0:0:0:
448,192,108615,1,8,0:0:0:0:
192,192,108694,1,8,0:0:0:0:
64,192,108694,1,8,0:0:0:0:
320,192,108773,1,8,0:0:0:0:
448,192,108852,1,8,0:0:0:0:
192,192,108852,1,8,0:0:0:0:
320,192,108931,1,8,0:0:0:0:
64,192,108931,1,8,0:0:0:0:
192,192,109010,1,8,0:0:0:0:
448,192,109010,1,8,0:0:0:0:
320,192,109089,1,8,0:0:0:0:
192,192,109168,1,8,0:0:0:0:
64,192,109168,1,8,0:0:0:0:
448,192,109247,1,8,0:0:0:0:
320,192,109247,1,8,0:0:0:0:
192,192,109326,1,8,0:0:0:0:
64,192,109326,1,8,0:0:0:0:
320,192,109405,1,8,0:0:0:0:
448,192,109484,1,8,0:0:0:0:
64,192,109484,1,8,0:0:0:0:
192,192,109563,1,8,0:0:0:0:
320,192,109642,128,4,109800:0:0:0:0:
448,192,109642,1,0,0:0:0:0:
64,192,109642,1,0,0:0:0:0:
64,192,109800,1,8,0:0:0:0:
192,192,109800,1,8,0:0:0:0:
320,192,109957,1,0,0:0:0:0:
192,192,110036,1,0,0:0:0:0:
448,192,110115,1,8,0:0:0:0:
64,192,110115,1,8,0:0:0:0:
192,192,110273,128,0,110431:0:0:0:0:
448,192,110431,1,8,0:0:0:0:
320,192,110431,1,8,0:0:0:0:
192,192,110589,1,0,0:0:0:0:
320,192,110668,1,0,0:0:0:0:
448,192,110747,1,8,0:0:0:0:
64,192,110747,1,8,0:0:0:0:
320,192,110905,128,0,111063:0:0:0:0:
192,192,111063,1,8,0:0:0:0:
64,192,111063,1,8,0:0:0:0:
320,192,111221,1,0,0:0:0:0:
192,192,111300,1,0,0:0:0:0:
448,192,111378,1,8,0:0:0:0:
64,192,111378,1,8,0:0:0:0:
192,192,111536,128,0,111694:0:0:0:0:
448,192,111694,1,8,0:0:0:0:
320,192,111694,1,8,0:0:0:0:
192,192,111852,1,0,0:0:0:0:
320,192,111931,1,0,0:0:0:0:
448,192,112010,1,8,0:0:0:0:
64,192,112010,1,8,0:0:0:0:
192,192,112168,1,4,0:0:0:0:
64,192,112168,1,0,0:0:0:0:
320,192,112168,128,0,112326:0:0:0:0:
448,192,112326,1,8,0:0:0:0:
192,192,112326,1,8,0:0:0:0:
64,192,112484,1,0,0:0:0:0:
320,192,112484,1,0,0:0:0:0:
192,192,112563,1,0,0:0:0:0:
448,192,112642,1,8,0:0:0:0:
320,192,112642,1,8,0:0:0:0:
192,192,112800,128,0,112957:0:0:0:0:
320,192,112957,1,8,0:0:0:0:
64,192,112957,1,8,0:0:0:0:
448,192,113115,1,0,0:0:0:0:
192,192,113115,1,0,0:0:0:0:
320,192,113194,1,0,0:0:0:0:
64,192,113273,1,8,0:0:0:0:
192,192,113273,1,8,0:0:0:0:
448,192,113431,1,0,0:0:0:0:
64,192,113431,1,0,0:0:0:0:
320,192,113431,1,4,0:0:0:0:
192,192,113510,1,0,0:0:0:0:
64,192,113589,1,8,0:0:0:0:
448,192,113589,1,8,0:0:0:0:
320,192,113668,1,0,0:0:0:0:
192,192,113747,1,0,0:0:0:0:
320,192,113826,1,0,0:0:0:0:
64,192,113905,1,8,0:0:0:0:
448,192,113905,1,8,0:0:0:0:
192,192,113984,1,0,0:0:0:0:
320,192,114063,1,4,0:0:0:0:
448,192,114063,1,0,0:0:0:0:
64,192,114063,1,0,0:0:0:0:
192,192,114142,1,0,0:0:0:0:
448,192,114221,1,8,0:0:0:0:
320,192,114221,1,8,0:0:0:0:
64,192,114300,1,0,0:0:0:0:
320,192,114378,1,0,0:0:0:0:
192,192,114378,1,0,0:0:0:0:
448,192,114457,1,0,0:0:0:0:
192,192,114536,1,8,0:0:0:0:
64,192,114536,1,4,0:0:0:0:
320,192,114615,1,0,0:0:0:0:
448,192,114694,128,0,114852:0:0:0:0:
192,192,114694,1,4,0:0:0:0:
64,192,114694,1,0,0:0:0:0:
192,192,114852,1,8,0:0:0:0:
320,192,114852,1,8,0:0:0:0:
64,192,115010,1,0,0:0:0:0:
192,192,115089,1,0,0:0:0:0:
448,192,115168,1,8,0:0:0:0:
320,192,115168,1,8,0:0:0:0:
64,192,115326,128,0,115484:0:0:0:0:
320,192,115484,1,8,0:0:0:0:
192,192,115484,1,8,0:0:0:0:
448,192,115642,1,0,0:0:0:0:
320,192,115721,1,0,0:0:0:0:
192,192,115800,1,8,0:0:0:0:
64,192,115800,1,8,0:0:0:0:
448,192,115957,128,0,116115:0:0:0:0:
320,192,116115,1,8,0:0:0:0:
192,192,116115,1,8,0:0:0:0:
64,192,116273,1,0,0:0:0:0:
192,192,116352,1,0,0:0:0:0:
448,192,116431,1,8,0:0:0:0:
320,192,116431,1,8,0:0:0:0:
64,192,116589,128,0,116747:0:0:0:0:
320,192,116747,1,8,0:0:0:0:
192,192,116747,1,8,0:0:0:0:
448,192,116905,1,0,0:0:0:0:
320,192,116984,1,0,0:0:0:0:
192,192,117063,1,8,0:0:0:0:
64,192,117063,1,8,0:0:0:0:
448,192,117221,1,8,0:0:0:0:
192,192,117221,1,8,0:0:0:0:
64,192,117221,1,4,0:0:0:0:
320,192,117300,1,0,0:0:0:0:
192,192,117378,1,0,0:0:0:0:
320,192,117457,1,8,0:0:0:0:
448,192,117457,1,8,0:0:0:0:
64,192,117457,1,4,0:0:0:0:
192,192,117536,1,0,0:0:0:0:
448,192,117615,1,8,0:0:0:0:
320,192,117615,1,8,0:0:0:0:
64,192,117615,1,4,0:0:0:0:
192,192,117694,1,0,0:0:0:0:
320,192,117773,1,0,0:0:0:0:
448,192,117852,1,8,0:0:0:0:
192,192,117852,1,4,0:0:0:0:
64,192,117852,1,8,0:0:0:0:
320,192,117931,1,0,0:0:0:0:
64,192,118010,1,8,0:0:0:0:
448,192,118010,1,8,0:0:0:0:
192,192,118089,1,8,0:0:0:0:
320,192,118089,1,8,0:0:0:0:
64,192,118168,1,8,0:0:0:0:
448,192,118168,1,8,0:0:0:0:
320,192,118247,1,8,0:0:0:0:
192,192,118247,1,8,0:0:0:0:
64,192,118326,1,0,0:0:0:0:
192,192,118405,1,0,0:0:0:0:
448,192,118484,1,8,0:0:0:0:
320,192,118484,1,8,0:0:0:0:
192,192,118563,1,8,0:0:0:0:
64,192,118563,1,8,0:0:0:0:
448,192,118642,1,8,0:0:0:0:
320,192,118642,1,8,0:0:0:0:
192,192,118721,1,8,0:0:0:0:
64,192,118721,1,8,0:0:0:0:
448,192,118800,1,0,0:0:0:0:
320,192,118878,1,0,0:0:0:0:
192,192,118957,1,8,0:0:0:0:
64,192,118957,1,8,0:0:0:0:
320,192,119036,1,8,0:0:0:0:
448,192,119036,1,8,0:0:0:0:
64,192,119115,1,8,0:0:0:0:
192,192,119115,1,8,0:0:0:0:
320,192,119194,1,8,0:0:0:0:
448,192,119194,1,8,0:0:0:0:
192,192,119273,1,0,0:0:0:0:
64,192,119352,1,0,0:0:0:0:
448,192,119431,128,2,119589:1:0:0:0:
320,192,119510,1,2,1:0:0:0:
192,192,119589,128,2,119668:1:0:0:0:
64,192,119668,128,2,119747:1:0:0:0:
320,192,119747,1,0,0:0:0:0:
448,192,119747,1,0,0:0:0:0:
192,192,119747,1,4,0:0:0:0:
64,192,119905,1,8,0:0:0:0:
320,192,119905,1,8,0:0:0:0:
192,192,119984,1,0,0:0:0:0:
448,192,120063,1,0,0:0:0:0:
320,192,120063,1,0,0:0:0:0:
64,192,120142,1,0,0:0:0:0:
192,192,120221,1,8,0:0:0:0:
448,192,120221,1,8,0:0:0:0:
320,192,120300,1,0,0:0:0:0:
192,192,120378,1,0,0:0:0:0:
64,192,120378,1,0,0:0:0:0:
448,192,120457,1,0,0:0:0:0:
320,192,120536,1,8,0:0:0:0:
64,192,120536,1,8,0:0:0:0:
192,192,120615,1,0,0:0:0:0:
320,192,120694,1,0,0:0:0:0:
448,192,120694,1,0,0:0:0:0:
64,192,120773,1,0,0:0:0:0:
448,192,120852,1,8,0:0:0:0:
192,192,120852,1,8,0:0:0:0:
320,192,120931,1,0,0:0:0:0:
192,192,121010,1,0,0:0:0:0:
64,192,121010,1,0,0:0:0:0:
448,192,121089,1,0,0:0:0:0:
64,192,121168,1,8,0:0:0:0:
320,192,121168,1,8,0:0:0:0:
192,192,121247,1,0,0:0:0:0:
448,192,121326,1,0,0:0:0:0:
320,192,121326,1,0,0:0:0:0:
64,192,121405,1,0,0:0:0:0:
192,192,121484,1,8,0:0:0:0:
448,192,121484,1,8,0:0:0:0:
320,192,121563,1,0,0:0:0:0:
192,192,121642,1,0,0:0:0:0:
64,192,121642,1,0,0:0:0:0:
448,192,121721,1,0,0:0:0:0:
320,192,121800,1,8,0:0:0:0:
64,192,121800,1,8,0:0:0:0:
192,192,121878,1,0,0:0:0:0:
320,192,121957,1,0,0:0:0:0:
448,192,121957,1,0,0:0:0:0:
64,192,122036,1,0,0:0:0:0:
192,192,122115,1,8,0:0:0:0:
448,192,122115,1,8,0:0:0:0:
320,192,122194,1,0,0:0:0:0:
64,192,122273,128,0,122589:0:0:0:0:
192,192,122273,1,4,0:0:0:0:
448,192,122273,1,0,0:0:0:0:
320,192,122431,1,8,0:0:0:0:
448,192,122431,1,8,0:0:0:0:
192,192,122589,128,0,122747:0:0:0:0:
448,192,122747,128,8,122905:0:0:0:0:
64,192,122747,1,8,0:0:0:0:
192,192,122905,128,0,123536:0:0:0:0:
64,192,123063,1,8,0:0:0:0:
448,192,123063,1,8,0:0:0:0:
320,192,123221,1,0,0:0:0:0:
64,192,123378,1,8,0:0:0:0:
448,192,123378,1,8,0:0:0:0:
64,192,123536,128,0,123694:0:0:0:0:
320,192,123615,1,0,0:0:0:0:
192,192,123694,1,8,0:0:0:0:
448,192,123694,1,8,0:0:0:0:
320,192,123773,1,0,0:0:0:0:
448,192,123852,128,0,124010:0:0:0:0:
192,192,123931,1,0,0:0:0:0:
64,192,124010,1,8,0:0:0:0:
320,192,124010,1,8,0:0:0:0:
192,192,124089,1,0,0:0:0:0:
448,192,124168,1,0,0:0:0:0:
320,192,124247,1,0,0:0:0:0:
192,192,124326,1,8,0:0:0:0:
64,192,124326,1,8,0:0:0:0:
448,192,124405,1,0,0:0:0:0:
320,192,124484,1,0,0:0:0:0:
64,192,124563,1,0,0:0:0:0:
448,192,124642,1,8,0:0:0:0:
192,192,124642,1,8,0:0:0:0:
320,192,124721,1,0,0:0:0:0:
64,192,124800,1,0,0:0:0:0:
448,192,124800,1,0,0:0:0:0:
192,192,124800,1,4,0:0:0:0:
448,192,124957,1,8,0:0:0:0:
192,192,124957,1,8,0:0:0:0:
320,192,125036,1,0,0:0:0:0:
64,192,125115,1,0,0:0:0:0:
192,192,125115,1,0,0:0:0:0:
320,192,125194,1,0,0:0:0:0:
448,192,125273,1,8,0:0:0:0:
64,192,125273,1,8,0:0:0:0:
192,192,125352,1,0,0:0:0:0:
320,192,125431,1,0,0:0:0:0:
448,192,125431,1,0,0:0:0:0:
64,192,125510,1,0,0:0:0:0:
192,192,125589,1,8,0:0:0:0:
448,192,125589,1,8,0:0:0:0:
320,192,125668,1,0,0:0:0:0:
192,192,125747,1,0,0:0:0:0:
64,192,125747,1,0,0:0:0:0:
448,192,125826,1,0,0:0:0:0:
64,192,125905,1,8,0:0:0:0:
320,192,125905,1,8,0:0:0:0:
192,192,125984,1,0,0:0:0:0:
320,192,126063,1,0,0:0:0:0:
448,192,126063,1,0,0:0:0:0:
192,192,126142,1,0,0:0:0:0:
448,192,126221,1,8,0:0:0:0:
64,192,126221,1,8,0:0:0:0:
320,192,126300,1,0,0:0:0:0:
64,192,126378,1,0,0:0:0:0:
192,192,126378,1,0,0:0:0:0:
448,192,126457,1,0,0:0:0:0:
320,192,126536,1,8,0:0:0:0:
64,192,126536,1,8,0:0:0:0:
192,192,126615,1,0,0:0:0:0:
320,192,126694,1,0,0:0:0:0:
448,192,126694,1,0,0:0:0:0:
64,192,126773,1,0,0:0:0:0:
192,192,126852,1,8,0:0:0:0:
448,192,126852,1,8,0:0:0:0:
320,192,126931,1,0,0:0:0:0:
192,192,127010,1,0,0:0:0:0:
64,192,127010,1,0,0:0:0:0:
320,192,127089,1,0,0:0:0:0:
448,192,127168,1,8,0:0:0:0:
64,192,127168,1,8,0:0:0:0:
192,192,127247,1,0,0:0:0:0:
64,192,127326,1,0,0:0:0:0:
320,192,127326,1,0,0:0:0:0:
448,192,127326,128,4,127642:0:0:0:0:
64,192,127484,1,8,0:0:0:0:
192,192,127484,1,8,0:0:0:0:
320,192,127642,128,0,127957:0:0:0:0:
64,192,127800,1,8,0:0:0:0:
192,192,127800,1,8,0:0:0:0:
192,192,127957,128,0,128589:0:0:0:0:
320,192,128115,1,8,0:0:0:0:
448,192,128115,1,8,0:0:0:0:
64,192,128273,1,0,0:0:0:0:
448,192,128431,1,8,0:0:0:0:
320,192,128431,1,8,0:0:0:0:
320,192,128589,1,4,0:0:0:0:
448,192,128589,1,0,0:0:0:0:
64,192,128589,128,0,128747:0:0:0:0:
192,192,128747,1,8,0:0:0:0:
320,192,128747,1,8,0:0:0:0:
64,192,128905,1,0,0:0:0:0:
192,192,128905,1,4,0:0:0:0:
448,192,128905,128,0,129063:0:0:0:0:
320,192,129063,1,8,0:0:0:0:
192,192,129063,1,8,0:0:0:0:
64,192,129221,1,0,0:0:0:0:
448,192,129221,1,0,0:0:0:0:
320,192,129221,128,4,129378:0:0:0:0:
64,192,129378,1,8,0:0:0:0:
192,192,129378,1,8,0:0:0:0:
320,192,129536,1,8,0:0:0:0:
448,192,129536,1,8,0:0:0:0:
192,192,129615,1,8,0:0:0:0:
64,192,129615,1,8,0:0:0:0:
448,192,129694,1,8,0:0:0:0:
320,192,129694,1,8,0:0:0:0:
64,192,129773,1,8,0:0:0:0:
320,192,129852,1,4,0:0:0:0:
448,192,129852,1,0,0:0:0:0:
192,192,129852,1,0,0:0:0:0:
64,192,130010,1,8,0:0:0:0:
192,192,130010,1,8,0:0:0:0:
320,192,130089,1,0,0:0:0:0:
192,192,130168,1,0,0:0:0:0:
448,192,130168,1,0,0:0:0:0:
64,192,130247,1,0,0:0:0:0:
448,192,130326,1,8,0:0:0:0:
320,192,130326,1,8,0:0:0:0:
192,192,130405,1,0,0:0:0:0:
64,192,130484,1,0,0:0:0:0:
320,192,130484,1,0,0:0:0:0:
448,192,130563,1,0,0:0:0:0:
192,192,130642,1,8,0:0:0:0:
64,192,130642,1,8,0:0:0:0:
320,192,130721,1,0,0:0:0:0:
448,192,130800,1,0,0:0:0:0:
192,192,130800,1,0,0:0:0:0:
64,192,130878,1,0,0:0:0:0:
320,192,130957,1,8,0:0:0:0:
448,192,130957,1,8,0:0:0:0:
192,192,131036,1,0,0:0:0:0:
64,192,131115,1,0,0:0:0:0:
320,192,131115,1,0,0:0:0:0:
448,192,131194,1,0,0:0:0:0:
64,192,131273,1,8,0:0:0:0:
192,192,131273,1,8,0:0:0:0:
320,192,131352,1,0,0:0:0:0:
192,192,131431,1,0,0:0:0:0:
448,192,131431,1,0,0:0:0:0:
64,192,131510,1,0,0:0:0:0:
448,192,131589,1,8,0:0:0:0:
320,192,131589,1,8,0:0:0:0:
192,192,131668,1,0,0:0:0:0:
64,192,131747,1,0,0:0:0:0:
320,192,131747,1,0,0:0:0:0:
448,192,131826,1,0,0:0:0:0:
192,192,131905,1,8,0:0:0:0:
64,192,131905,1,8,0:0:0:0:
320,192,131984,1,0,0:0:0:0:
448,192,132063,1,0,0:0:0:0:
192,192,132063,1,0,0:0:0:0:
64,192,132142,1,0,0:0:0:0:
320,192,132221,1,8,0:0:0:0:
448,192,132221,1,8,0:0:0:0:
192,192,132300,1,0,0:0:0:0:
64,192,132378,1,0,0:0:0:0:
448,192,132378,1,0,0:0:0:0:
320,192,132378,128,4,132694:0:0:0:0:
192,192,132536,1,8,0:0:0:0:
64,192,132536,1,8,0:0:0:0:
448,192,132694,128,0,133010:0:0:0:0:
320,192,132852,1,8,0:0:0:0:
192,192,132852,1,8,0:0:0:0:
64,192,133010,128,0,133642:0:0:0:0:
448,192,133168,1,8,0:0:0:0:
320,192,133168,1,8,0:0:0:0:
448,192,133326,1,0,0:0:0:0:
320,192,133484,1,8,0:0:0:0:
192,192,133484,1,8,0:0:0:0:
448,192,133642,128,0,133800:0:0:0:0:
320,192,133721,1,0,0:0:0:0:
64,192,133800,1,8,0:0:0:0:
192,192,133800,1,8,0:0:0:0:
448,192,133878,1,0,0:0:0:0:
64,192,133957,1,0,0:0:0:0:
192,192,134036,1,0,0:0:0:0:
320,192,134115,1,8,0:0:0:0:
448,192,134115,1,8,0:0:0:0:
64,192,134194,1,0,0:0:0:0:
448,192,134273,1,0,0:0:0:0:
320,192,134352,1,0,0:0:0:0:
192,192,134431,1,8,0:0:0:0:
64,192,134431,1,8,0:0:0:0:
448,192,134510,1,0,0:0:0:0:
320,192,134589,1,0,0:0:0:0:
192,192,134668,1,0,0:0:0:0:
64,192,134747,1,8,0:0:0:0:
448,192,134747,1,8,0:0:0:0:
320,192,134826,1,0,0:0:0:0:
448,192,134905,1,0,0:0:0:0:
64,192,134905,1,0,0:0:0:0:
192,192,134905,1,4,0:0:0:0:
320,192,135063,1,8,0:0:0:0:
448,192,135063,1,8,0:0:0:0:
192,192,135142,1,0,0:0:0:0:
64,192,135221,1,0,0:0:0:0:
448,192,135221,1,0,0:0:0:0:
320,192,135300,1,0,0:0:0:0:
192,192,135378,1,8,0:0:0:0:
64,192,135378,1,8,0:0:0:0:
320,192,135457,1,0,0:0:0:0:
192,192,135536,1,0,0:0:0:0:
448,192,135536,1,0,0:0:0:0:
64,192,135615,1,0,0:0:0:0:
448,192,135694,1,8,0:0:0:0:
320,192,135694,1,8,0:0:0:0:
192,192,135773,1,0,0:0:0:0:
320,192,135852,1,0,0:0:0:0:
64,192,135852,1,0,0:0:0:0:
448,192,135931,1,0,0:0:0:0:
64,192,136010,1,8,0:0:0:0:
192,192,136010,1,8,0:0:0:0:
320,192,136089,1,0,0:0:0:0:
64,192,136168,1,0,0:0:0:0:
448,192,136168,1,0,0:0:0:0:
192,192,136247,1,0,0:0:0:0:
320,192,136326,1,8,0:0:0:0:
448,192,136326,1,8,0:0:0:0:
192,192,136405,1,0,0:0:0:0:
64,192,136484,1,0,0:0:0:0:
320,192,136484,1,0,0:0:0:0:
448,192,136563,1,0,0:0:0:0:
192,192,136642,1,8,0:0:0:0:
64,192,136642,1,8,0:0:0:0:
320,192,136721,1,0,0:0:0:0:
192,192,136800,1,0,0:0:0:0:
448,192,136800,1,0,0:0:0:0:
64,192,136878,1,0,0:0:0:0:
448,192,136957,1,8,0:0:0:0:
320,192,136957,1,8,0:0:0:0:
192,192,137036,1,0,0:0:0:0:
448,192,137115,1,0,0:0:0:0:
64,192,137115,1,0,0:0:0:0:
320,192,137194,1,0,0:0:0:0:
64,192,137273,1,8,0:0:0:0:
192,192,137273,1,8,0:0:0:0:
320,192,137352,1,0,0:0:0:0:
64,192,137431,1,8,0:0:0:0:
448,192,137431,1,8,0:0:0:0:
192,192,137510,1,8,0:0:0:0:
320,192,137510,1,8,0:0:0:0:
64,192,137589,1,8,0:0:0:0:
448,192,137589,1,8,0:0:0:0:
192,192,137668,1,8,0:0:0:0:
320,192,137668,1,8,0:0:0:0:
64,192,137747,1,8,3:0:0:0:
448,192,137747,1,8,3:0:0:0:
192,192,137826,1,8,3:0:0:0:
320,192,137905,1,8,3:0:0:0:
448,192,137984,1,8,3:0:0:0:
64,192,138063,1,0,0:0:0:0:
320,192,138142,1,0,0:0:0:0:
192,192,138221,1,0,0:0:0:0:
448,192,138300,1,0,0:0:0:0:
64,192,138378,1,0,0:0:0:0:
448,192,138457,1,0,0:0:0:0:
192,192,138536,1,0,0:0:0:0:
320,192,138615,1,0,0:0:0:0:
64,192,138694,1,0,3:0:0:0:
448,192,138694,1,0,3:0:0:0:
320,192,138852,1,0,3:0:0:0:
192,192,138852,1,0,3:0:0:0:
320,192,139010,1,8,0:0:0:0:
448,192,139010,1,8,0:0:0:0:
192,192,139089,1,8,0:0:0:0:
64,192,139089,1,8,0:0:0:0:
320,192,139168,1,0,3:0:0:0:
448,192,139168,1,0,3:0:0:0:
192,192,139326,1,0,3:0:0:0:
448,192,139326,1,0,3:0:0:0:
64,192,139484,1,8,0:0:0:0:
192,192,139484,1,8,0:0:0:0:
320,192,139563,1,8,0:0:0:0:
448,192,139563,1,8,0:0:0:0:
192,192,139642,1,8,0:0:0:0:
64,192,139642,1,8,0:0:0:0:
320,192,139721,1,8,0:0:0:0:
448,192,139721,1,8,0:0:0:0:
64,192,139800,1,8,0:0:0:0:
192,192,139800,1,8,0:0:0:0:
320,192,139878,1,8,0:0:0:0:
448,192,139878,1,8,0:0:0:0:
192,192,139957,1,0,0:0:0:0:
64,192,139957,1,0,0:0:0:0:
320,192,140036,1,0,0:0:0:0:
448,192,140115,1,0,0:0:0:0:
64,192,140115,1,0,0:0:0:0:
192,192,140194,1,0,0:0:0:0:
64,192,140273,1,0,0:0:0:0:
448,192,140273,1,0,0:0:0:0:
320,192,140352,1,0,0:0:0:0:
192,192,140431,128,8,140747:0:0:0:0:
448,192,140431,1,4,0:0:0:0:
64,192,140431,1,8,0:0:0:0:
448,192,140747,1,0,0:0:0:0:
64,192,140747,1,0,0:0:0:0:
320,192,140826,1,0,0:0:0:0:
192,192,140905,128,8,141221:0:0:0:0:
448,192,140905,1,4,0:0:0:0:
64,192,140905,1,8,0:0:0:0:
448,192,141221,1,0,0:0:0:0:
320,192,141221,1,0,0:0:0:0:
192,192,141300,1,0,0:0:0:0:
64,192,141378,1,0,0:0:0:0:
448,192,141378,1,0,0:0:0:0:
320,192,141457,1,0,0:0:0:0:
64,192,141536,1,0,0:0:0:0:
448,192,141536,1,0,0:0:0:0:
192,192,141615,1,0,0:0:0:0:
448,192,141694,1,8,0:0:0:0:
64,192,141694,1,4,0:0:0:0:
320,192,141694,128,8,142010:0:0:0:0:
448,192,142010,1,0,0:0:0:0:
64,192,142010,1,0,0:0:0:0:
192,192,142089,1,0,0:0:0:0:
64,192,142168,1,4,0:0:0:0:
448,192,142168,1,8,0:0:0:0:
320,192,142168,128,8,142484:0:0:0:0:
192,192,142484,1,0,0:0:0:0:
64,192,142484,1,0,0:0:0:0:
320,192,142563,1,0,0:0:0:0:
448,192,142642,1,0,0:0:0:0:
64,192,142642,1,0,0:0:0:0:
192,192,142721,1,0,0:0:0:0:
448,192,142800,1,0,0:0:0:0:
64,192,142800,1,0,0:0:0:0:
320,192,142878,1,0,0:0:0:0:
448,192,142957,1,4,0:0:0:0:
64,192,142957,1,8,0:0:0:0:
192,192,142957,128,8,143273:0:0:0:0:
448,192,143273,1,0,0:0:0:0:
64,192,143273,1,0,0:0:0:0:
320,192,143352,1,0,0:0:0:0:
192,192,143431,128,8,143747:0:0:0:0:
64,192,143431,1,8,0:0:0:0:
448,192,143431,1,4,0:0:0:0:
64,192,143747,1,0,0:0:0:0:
448,192,143747,1,0,0:0:0:0:
320,192,143747,1,8,0:0:0:0:
320,192,143905,1,0,0:0:0:0:
192,192,143905,1,8,0:0:0:0:
64,192,143905,1,0,0:0:0:0:
192,192,144063,1,8,0:0:0:0:
320,192,144063,1,8,0:0:0:0:
448,192,144063,1,0,0:0:0:0:
448,192,144221,1,8,0:0:0:0:
64,192,144221,1,0,0:0:0:0:
192,192,144221,1,8,0:0:0:0:
320,192,144378,1,8,0:0:0:0:
448,192,144378,1,8,0:0:0:0:
64,192,144457,1,8,0:0:0:0:
192,192,144457,1,8,0:0:0:0:
320,192,144536,1,0,0:0:0:0:
64,192,144615,1,0,0:0:0:0:
320,192,144694,1,8,0:0:0:0:
448,192,144694,128,8,144773:0:0:0:0:
64,192,144773,128,8,144852:0:0:0:0:
192,192,144773,1,8,0:0:0:0:
320,192,144852,128,0,144931:0:0:0:0:
192,192,144931,1,0,0:0:0:0:
448,192,145010,128,8,145168:0:0:0:0:
320,192,145010,1,8,0:0:0:0:
64,192,145010,1,4,0:0:0:0:
192,192,145168,1,0,0:0:0:0:
320,192,145247,1,0,0:0:0:0:
448,192,145326,1,8,0:0:0:0:
64,192,145326,1,8,0:0:0:0:
192,192,145484,128,0,145642:0:0:0:0:
448,192,145642,1,8,0:0:0:0:
320,192,145642,1,8,0:0:0:0:
192,192,145800,1,0,0:0:0:0:
448,192,145957,1,8,0:0:0:0:
64,192,145957,128,8,146115:0:0:0:0:
192,192,146115,1,0,0:0:0:0:
320,192,146273,128,8,146431:0:0:0:0:
448,192,146273,1,8,0:0:0:0:
192,192,146431,1,0,0:0:0:0:
320,192,146510,1,0,0:0:0:0:
448,192,146589,1,8,0:0:0:0:
64,192,146589,1,8,0:0:0:0:
192,192,146747,128,0,146905:0:0:0:0:
448,192,146905,1,8,0:0:0:0:
320,192,146905,1,8,0:0:0:0:
192,192,147063,1,0,0:0:0:0:
448,192,147221,1,8,0:0:0:0:
64,192,147221,128,8,147378:0:0:0:0:
192,192,147378,1,0,0:0:0:0:
64,192,147536,1,4,0:0:0:0:
320,192,147536,1,8,0:0:0:0:
448,192,147536,128,8,147694:0:0:0:0:
192,192,147694,1,0,0:0:0:0:
320,192,147773,1,0,0:0:0:0:
448,192,147852,1,8,0:0:0:0:
64,192,147852,1,8,0:0:0:0:
192,192,148010,128,0,148168:0:0:0:0:
448,192,148168,1,8,0:0:0:0:
320,192,148168,1,8,0:0:0:0:
192,192,148326,1,0,0:0:0:0:
448,192,148484,1,8,0:0:0:0:
64,192,148484,128,8,148642:0:0:0:0:
192,192,148642,1,0,0:0:0:0:
320,192,148800,128,8,148957:0:0:0:0:
448,192,148800,1,8,0:0:0:0:
192,192,148957,1,0,0:0:0:0:
320,192,149036,1,0,0:0:0:0:
448,192,149115,1,8,0:0:0:0:
64,192,149115,1,8,0:0:0:0:
192,192,149273,128,0,149431:0:0:0:0:
448,192,149431,1,8,0:0:0:0:
320,192,149431,1,8,0:0:0:0:
192,192,149589,1,8,0:0:0:0:
64,192,149589,1,8,0:0:0:0:
320,192,149668,1,8,0:0:0:0:
448,192,149668,1,8,0:0:0:0:
64,192,149747,128,8,149905:0:0:0:0:
192,192,149747,1,0,0:0:0:0:
448,192,149826,1,8,0:0:0:0:
320,192,149826,1,8,0:0:0:0:
192,192,149905,1,8,0:0:0:0:
320,192,149984,1,0,0:0:0:0:
192,192,150063,1,4,0:0:0:0:
64,192,150063,1,0,0:0:0:0:
448,192,150063,128,0,150221:0:0:0:0:
320,192,150221,1,0,0:0:0:0:
192,192,150300,1,0,0:0:0:0:
448,192,150378,1,8,0:0:0:0:
64,192,150378,1,8,0:0:0:0:
192,192,150536,128,0,150694:0:0:0:0:
320,192,150615,1,0,0:0:0:0:
448,192,150694,1,0,0:0:0:0:
320,192,150852,1,0,0:0:0:0:
192,192,150931,1,0,0:0:0:0:
448,192,151010,1,8,0:0:0:0:
64,192,151010,128,8,151168:0:0:0:0:
192,192,151168,1,0,0:0:0:0:
320,192,151247,1,0,0:0:0:0:
448,192,151326,128,0,151484:0:0:0:0:
192,192,151484,1,0,0:0:0:0:
320,192,151563,1,0,0:0:0:0:
448,192,151642,1,8,0:0:0:0:
64,192,151642,1,8,0:0:0:0:
320,192,151800,128,0,151957:0:0:0:0:
192,192,151878,1,0,0:0:0:0:
64,192,151957,1,0,0:0:0:0:
320,192,152115,1,0,0:0:0:0:
192,192,152194,1,0,0:0:0:0:
448,192,152273,1,8,0:0:0:0:
64,192,152273,128,8,152431:0:0:0:0:
192,192,152431,1,0,0:0:0:0:
320,192,152510,1,0,0:0:0:0:
448,192,152589,128,0,152747:0:0:0:0:
64,192,152589,128,0,152747:0:0:0:0:
320,192,152747,1,0,0:0:0:0:
192,192,152826,1,0,0:0:0:0:
448,192,152905,1,8,0:0:0:0:
64,192,152905,1,4,0:0:0:0:
320,192,152905,1,8,0:0:0:0:
192,192,153063,128,0,153142:0:0:0:0:
448,192,153142,1,0,0:0:0:0:
320,192,153221,128,0,153300:0:0:0:0:
192,192,153378,1,0,0:0:0:0:
320,192,153457,1,0,0:0:0:0:
448,192,153536,1,4,0:0:0:0:
64,192,153536,1,8,0:0:0:0:
192,192,153536,1,8,0:0:0:0:
320,192,153694,1,0,0:0:0:0:
64,192,153852,1,8,0:0:0:0:
192,192,153852,128,8,154010:0:0:0:0:
320,192,153931,1,8,0:0:0:0:
448,192,153931,1,8,0:0:0:0:
64,192,154010,128,0,154168:0:0:0:0:
320,192,154168,128,0,154326:0:0:0:0:
448,192,154326,128,8,154484:0:0:0:0:
192,192,154326,1,8,0:0:0:0:
64,192,154484,1,8,0:0:0:0:
192,192,154484,1,8,0:0:0:0:
320,192,154563,1,8,0:0:0:0:
448,192,154563,1,8,0:0:0:0:
64,192,154642,1,8,0:0:0:0:
192,192,154642,1,8,0:0:0:0:
320,192,154721,1,8,0:0:0:0:
448,192,154721,1,8,0:0:0:0:
192,192,154800,1,8,0:0:0:0:
64,192,154800,1,8,0:0:0:0:
448,192,154878,1,8,0:0:0:0:
320,192,154878,1,8,0:0:0:0:
64,192,154957,1,8,0:0:0:0:
192,192,154957,1,8,0:0:0:0:
320,192,155036,1,8,0:0:0:0:
448,192,155115,1,0,0:0:0:0:
192,192,155115,1,4,0:0:0:0:
64,192,155115,1,0,0:0:0:0:
320,192,155273,1,8,0:0:0:0:
64,192,155273,1,8,0:0:0:0:
320,192,155431,1,0,0:0:0:0:
64,192,155510,1,0,0:0:0:0:
448,192,155589,1,8,0:0:0:0:
192,192,155589,1,8,0:0:0:0:
448,192,155747,1,0,0:0:0:0:
320,192,155905,1,8,0:0:0:0:
192,192,155905,1,8,0:0:0:0:
64,192,156063,1,0,0:0:0:0:
448,192,156142,1,0,0:0:0:0:
320,192,156221,1,8,0:0:0:0:
192,192,156221,1,8,0:0:0:0:
448,192,156378,1,0,0:0:0:0:
64,192,156536,1,8,0:0:0:0:
192,192,156536,1,8,0:0:0:0:
448,192,156694,1,0,0:0:0:0:
320,192,156773,1,0,0:0:0:0:
64,192,156852,1,8,0:0:0:0:
192,192,156852,1,8,0:0:0:0:
448,192,157010,1,0,0:0:0:0:
320,192,157168,1,8,0:0:0:0:
192,192,157168,1,8,0:0:0:0:
64,192,157326,1,0,0:0:0:0:
448,192,157326,1,0,0:0:0:0:
320,192,157405,1,0,0:0:0:0:
192,192,157484,1,8,0:0:0:0:
64,192,157484,1,8,0:0:0:0:
448,192,157642,1,0,0:0:0:0:
320,192,157642,1,4,0:0:0:0:
64,192,157642,1,0,0:0:0:0:
448,192,157800,1,8,0:0:0:0:
192,192,157800,1,8,0:0:0:0:
64,192,157957,1,0,0:0:0:0:
320,192,158036,1,0,0:0:0:0:
448,192,158115,1,8,0:0:0:0:
64,192,158115,1,8,0:0:0:0:
192,192,158273,1,0,0:0:0:0:
320,192,158431,1,8,0:0:0:0:
64,192,158431,1,8,0:0:0:0:
448,192,158589,1,0,0:0:0:0:
192,192,158668,1,0,0:0:0:0:
448,192,158747,1,8,0:0:0:0:
64,192,158747,1,8,0:0:0:0:
320,192,158905,1,0,0:0:0:0:
192,192,159063,1,8,0:0:0:0:
64,192,159063,1,8,0:0:0:0:
448,192,159221,1,0,0:0:0:0:
320,192,159300,1,0,0:0:0:0:
192,192,159378,1,8,0:0:0:0:
64,192,159378,1,8,0:0:0:0:
320,192,159536,1,0,0:0:0:0:
448,192,159536,1,0,0:0:0:0:
448,192,159694,1,8,0:0:0:0:
320,192,159694,1,8,0:0:0:0:
64,192,159852,1,0,0:0:0:0:
192,192,159852,1,0,0:0:0:0:
320,192,159931,1,0,0:0:0:0:
448,192,160010,1,8,0:0:0:0:
64,192,160010,1,8,0:0:0:0:
64,192,160168,1,0,0:0:0:0:
192,192,160168,1,4,0:0:0:0:
320,192,160168,1,0,0:0:0:0:
448,192,160326,1,8,0:0:0:0:
320,192,160326,1,8,0:0:0:0:
64,192,160484,1,0,0:0:0:0:
192,192,160563,1,0,0:0:0:0:
448,192,160642,1,8,0:0:0:0:
320,192,160642,1,8,0:0:0:0:
192,192,160800,1,0,0:0:0:0:
64,192,160800,1,0,0:0:0:0:
192,192,160957,1,8,0:0:0:0:
64,192,160957,1,8,0:0:0:0:
448,192,161115,1,0,0:0:0:0:
320,192,161115,1,0,0:0:0:0:
192,192,161194,1,0,0:0:0:0:
64,192,161273,1,8,0:0:0:0:
448,192,161273,1,8,0:0:0:0:
192,192,161431,1,0,0:0:0:0:
320,192,161431,1,4,0:0:0:0:
448,192,161431,1,0,0:0:0:0:
64,192,161589,1,8,0:0:0:0:
192,192,161589,1,8,0:0:0:0:
320,192,161747,1,0,0:0:0:0:
448,192,161826,1,0,0:0:0:0:
192,192,161905,1,8,0:0:0:0:
64,192,161905,1,8,0:0:0:0:
448,192,162063,1,0,0:0:0:0:
320,192,162063,1,0,0:0:0:0:
192,192,162221,1,8,0:0:0:0:
320,192,162221,1,8,0:0:0:0:
448,192,162378,1,0,0:0:0:0:
64,192,162378,1,0,0:0:0:0:
192,192,162457,1,0,0:0:0:0:
64,192,162536,1,8,0:0:0:0:
320,192,162536,1,8,0:0:0:0:
320,192,162694,1,8,0:0:0:0:
448,192,162694,1,8,0:0:0:0:
64,192,162773,1,8,0:0:0:0:
192,192,162773,1,8,0:0:0:0:
448,192,162852,1,8,0:0:0:0:
320,192,162852,1,8,0:0:0:0:
64,192,162931,1,8,0:0:0:0:
192,192,162931,1,8,0:0:0:0:
448,192,163010,1,0,0:0:0:0:
64,192,163089,1,0,0:0:0:0:
320,192,163168,1,8,0:0:0:0:
192,192,163168,1,8,0:0:0:0:
64,192,163247,1,8,0:0:0:0:
448,192,163247,1,8,0:0:0:0:
192,192,163326,1,8,0:0:0:0:
320,192,163326,1,8,0:0:0:0:
64,192,163405,1,8,0:0:0:0:
448,192,163405,1,8,0:0:0:0:
320,192,163484,1,0,0:0:0:0:
64,192,163563,1,0,0:0:0:0:
192,192,163642,1,8,0:0:0:0:
448,192,163642,1,8,0:0:0:0:
320,192,163721,1,8,0:0:0:0:
64,192,163721,1,8,0:0:0:0:
448,192,163800,1,0,0:0:0:0:
192,192,163878,1,0,0:0:0:0:
448,192,163957,1,8,0:0:0:0:
64,192,163957,1,8,0:0:0:0:
192,192,164036,1,8,0:0:0:0:
320,192,164036,1,8,0:0:0:0:
448,192,164115,1,8,0:0:0:0:
64,192,164115,1,8,0:0:0:0:
192,192,164194,1,8,0:0:0:0:
320,192,164194,1,8,0:0:0:0:
448,192,164273,1,0,0:0:0:0:
64,192,164352,1,0,0:0:0:0:
320,192,164431,1,8,0:0:0:0:
448,192,164431,1,8,0:0:0:0:
192,192,164510,1,8,0:0:0:0:
64,192,164510,1,8,0:0:0:0:
320,192,164589,1,8,0:0:0:0:
448,192,164589,1,8,0:0:0:0:
64,192,164668,1,8,0:0:0:0:
192,192,164668,1,8,0:0:0:0:
448,192,164747,1,0,0:0:0:0:
64,192,164826,1,0,0:0:0:0:
192,192,164905,1,8,0:0:0:0:
320,192,164905,1,8,0:0:0:0:
64,192,164984,1,8,0:0:0:0:
448,192,164984,1,8,0:0:0:0:
320,192,165063,1,0,0:0:0:0:
192,192,165142,1,0,0:0:0:0:
64,192,165221,128,0,167868:0:0:0:0:
320,192,165221,1,4,0:0:0:0:
448,192,165221,1,0,0:0:0:0:
192,192,165331,1,0,0:0:0:0:
448,192,165441,1,0,0:0:0:0:
192,192,165551,1,0,0:0:0:0:
448,192,165662,1,0,0:0:0:0:
192,192,165772,1,0,0:0:0:0:
448,192,165882,1,0,0:0:0:0:
192,192,165993,1,0,0:0:0:0:
448,192,166103,1,0,0:0:0:0:
192,192,166213,1,0,0:0:0:0:
448,192,166323,1,0,0:0:0:0:
192,192,166434,1,0,0:0:0:0:
448,192,166544,1,0,0:0:0:0:
192,192,166654,1,0,0:0:0:0:
448,192,166765,1,0,0:0:0:0:
192,192,166875,1,0,0:0:0:0:
448,192,166985,1,0,0:0:0:0:
192,192,167096,1,0,0:0:0:0:
448,192,167206,1,0,0:0:0:0:
192,192,167316,1,0,0:0:0:0:
448,192,167426,1,0,0:0:0:0:
192,192,167537,1,0,0:0:0:0:
448,192,167647,1,0,0:0:0:0:
320,192,167757,1,0,0:0:0:0:
192,192,167868,1,0,0:0:0:0:
448,192,167868,128,0,168309:0:0:0:0:
320,192,167978,1,0,0:0:0:0:
192,192,168088,1,0,0:0:0:0:
320,192,168198,1,0,0:0:0:0:
64,192,168309,128,0,168529:0:0:0:0:
192,192,168309,1,0,0:0:0:0:
320,192,168419,1,0,0:0:0:0:
192,192,168529,1,0,0:0:0:0:
320,192,168640,1,0,0:0:0:0:
64,192,168750,1,0,0:0:0:0:
448,192,168750,128,0,170515:0:0:0:0:
192,192,168750,1,4,0:0:0:0:
320,192,168860,1,0,0:0:0:0:
64,192,168971,1,0,0:0:0:0:
320,192,169081,1,0,0:0:0:0:
64,192,169191,1,0,0:0:0:0:
320,192,169301,1,0,0:0:0:0:
64,192,169412,1,0,0:0:0:0:
320,192,169522,1,0,0:0:0:0:
64,192,169632,1,0,0:0:0:0:
320,192,169743,1,0,0:0:0:0:
64,192,169853,1,0,0:0:0:0:
320,192,169963,1,0,0:0:0:0:
64,192,170073,1,0,0:0:0:0:
320,192,170184,1,0,0:0:0:0:
64,192,170294,1,0,0:0:0:0:
320,192,170404,1,0,0:0:0:0:
64,192,170515,1,8,0:0:0:0:
192,192,170515,1,8,0:0:0:0:
320,192,170625,1,0,0:0:0:0:
64,192,170735,1,8,0:0:0:0:
448,192,170735,1,8,0:0:0:0:
192,192,170846,1,8,0:0:0:0:
320,192,170846,1,8,0:0:0:0:
64,192,170956,1,0,0:0:0:0:
448,192,171066,1,8,0:0:0:0:
320,192,171066,1,8,0:0:0:0:
64,192,171176,1,8,0:0:0:0:
192,192,171176,1,8,0:0:0:0:
448,192,171287,1,0,0:0:0:0:
320,192,171397,1,8,0:0:0:0:
192,192,171397,1,8,0:0:0:0:
64,192,171507,1,0,0:0:0:0:
192,192,171618,1,8,0:0:0:0:
320,192,171618,1,8,0:0:0:0:
448,192,171728,1,0,0:0:0:0:
192,192,171838,1,8,0:0:0:0:
64,192,171838,1,8,0:0:0:0:
320,192,171948,1,8,0:0:0:0:
448,192,171948,1,8,0:0:0:0:
192,192,172059,1,8,0:0:0:0:
64,192,172059,1,8,0:0:0:0:
320,192,172169,1,0,0:0:0:0:
448,192,172279,128,0,172390:0:0:0:0:
64,192,172279,1,0,0:0:0:0:
192,192,172279,1,4,0:0:0:0:
320,192,172390,128,2,172500:3:0:0:0:
192,192,172500,128,2,172610:3:0:0:0:
64,192,172610,128,2,172721:3:0:0:0:
448,192,172721,128,2,172831:3:0:0:0:
320,192,172831,128,2,172941:3:0:0:0:
64,192,172941,128,2,173051:3:0:0:0:
192,192,173051,128,2,173162:3:0:0:0:
320,192,173162,128,8,173272:0:0:0:0:
448,192,173162,1,8,0:0:0:0:
64,192,173272,128,2,173382:3:0:0:0:
448,192,173382,128,2,173493:3:0:0:0:
320,192,173493,128,2,173603:3:0:0:0:
64,192,173603,128,2,173713:3:0:0:0:
448,192,173713,128,2,173823:3:0:0:0:
192,192,173823,128,0,173934:0:0:0:0:
320,192,173934,128,0,174044:0:0:0:0:
448,192,174044,1,0,3:0:0:0:
64,192,174044,128,0,174154:0:0:0:0:
192,192,174154,128,2,174265:3:0:0:0:
448,192,174265,128,2,174375:3:0:0:0:
192,192,174375,128,2,174485:3:0:0:0:
320,192,174485,128,2,174596:3:0:0:0:
64,192,174596,128,2,174706:3:0:0:0:
192,192,174706,128,2,174816:3:0:0:0:
448,192,174816,128,2,174926:3:0:0:0:
64,192,174926,128,8,175037:0:0:0:0:
320,192,174926,1,8,0:0:0:0:
448,192,175037,128,2,175147:3:0:0:0:
192,192,175147,128,2,175257:3:0:0:0:
320,192,175257,128,2,175368:3:0:0:0:
448,192,175368,128,0,175478:0:0:0:0:
64,192,175478,128,0,175588:0:0:0:0:
320,192,175588,128,0,175698:0:0:0:0:
192,192,175698,128,0,175809:0:0:0:0:
64,192,175809,1,0,0:0:0:0:
448,192,175809,128,0,175919:0:0:0:0:
320,192,175919,128,2,176029:3:0:0:0:
192,192,176029,128,2,176140:3:0:0:0:
64,192,176140,128,2,176250:3:0:0:0:
448,192,176250,128,2,176360:3:0:0:0:
320,192,176360,128,2,176471:3:0:0:0:
64,192,176471,128,2,176581:3:0:0:0:
192,192,176581,128,2,176691:3:0:0:0:
320,192,176691,128,8,176801:0:0:0:0:
448,192,176691,1,8,0:0:0:0:
64,192,176801,128,2,176912:3:0:0:0:
448,192,176912,128,2,177022:3:0:0:0:
320,192,177022,128,2,177132:3:0:0:0:
64,192,177132,128,2,177243:3:0:0:0:
448,192,177243,128,2,177353:3:0:0:0:
192,192,177353,128,0,177463:0:0:0:0:
320,192,177463,128,0,177573:0:0:0:0:
448,192,177573,1,0,0:0:0:0:
64,192,177573,128,0,177684:0:0:0:0:
192,192,177684,128,2,177794:3:0:0:0:
448,192,177794,128,2,177904:3:0:0:0:
64,192,177904,128,2,178015:3:0:0:0:
320,192,178015,128,2,178125:3:0:0:0:
448,192,178125,128,2,178235:3:0:0:0:
192,192,178235,128,2,178346:3:0:0:0:
320,192,178346,128,2,178456:3:0:0:0:
64,192,178456,128,8,178566:0:0:0:0:
192,192,178456,1,8,0:0:0:0:
448,192,178566,128,2,178676:3:0:0:0:
192,192,178676,128,2,178787:3:0:0:0:
320,192,178787,128,2,178897:3:0:0:0:
64,192,178897,128,2,179007:3:0:0:0:
192,192,179007,128,2,179118:3:0:0:0:
448,192,179118,128,2,179228:3:0:0:0:
320,192,179228,128,2,179338:3:0:0:0:
448,192,179338,1,2,3:0:0:0:
64,192,179338,128,0,179448:0:0:0:0:
192,192,179338,1,4,0:0:0:0:
320,192,179448,128,2,179559:3:0:0:0:
192,192,179559,128,2,179669:3:0:0:0:
448,192,179669,128,2,179779:3:0:0:0:
64,192,179779,128,2,179890:3:0:0:0:
192,192,179890,128,2,180000:3:0:0:0:
448,192,180000,128,2,180110:3:0:0:0:
320,192,180110,128,2,180221:3:0:0:0:
64,192,180221,1,8,0:0:0:0:
192,192,180221,128,8,180331:0:0:0:0:
448,192,180331,128,2,180441:3:0:0:0:
64,192,180441,128,2,180551:3:0:0:0:
320,192,180551,128,2,180662:3:0:0:0:
448,192,180662,128,2,180772:3:0:0:0:
64,192,180772,128,2,180882:3:0:0:0:
192,192,180882,128,0,180993:0:0:0:0:
320,192,180993,128,0,181103:0:0:0:0:
448,192,181103,128,0,181213:0:0:0:0:
64,192,181103,1,0,0:0:0:0:
192,192,181213,128,2,181323:3:0:0:0:
320,192,181323,128,2,181434:3:0:0:0:
64,192,181434,128,2,181544:3:0:0:0:
192,192,181544,128,2,181654:3:0:0:0:
448,192,181654,128,2,181765:3:0:0:0:
192,192,181765,128,2,181875:3:0:0:0:
64,192,181875,128,2,181985:3:0:0:0:
320,192,181985,1,8,0:0:0:0:
448,192,181985,128,8,182096:0:0:0:0:
64,192,182096,128,2,182206:3:0:0:0:
320,192,182206,128,2,182316:3:0:0:0:
192,192,182316,128,2,182426:3:0:0:0:
64,192,182426,128,0,182537:0:0:0:0:
448,192,182537,128,0,182647:0:0:0:0:
192,192,182647,128,0,182757:0:0:0:0:
320,192,182757,128,0,182868:0:0:0:0:
448,192,182868,1,0,0:0:0:0:
192,192,182868,1,4,0:0:0:0:
64,192,182868,1,0,0:0:0:0:
320,192,182978,1,0,0:0:0:0:
64,192,183088,1,8,0:0:0:0:
448,192,183088,1,8,0:0:0:0:
320,192,183198,1,0,0:0:0:0:
64,192,183309,1,8,0:0:0:0:
192,192,183309,1,8,0:0:0:0:
448,192,183419,1,0,0:0:0:0:
192,192,183529,1,8,0:0:0:0:
320,192,183529,1,8,0:0:0:0:
448,192,183640,1,8,0:0:0:0:
64,192,183640,1,8,0:0:0:0:
192,192,183750,1,0,0:0:0:0:
448,192,183860,1,8,0:0:0:0:
320,192,183860,1,8,0:0:0:0:
192,192,183971,1,8,0:0:0:0:
64,192,183971,1,8,0:0:0:0:
320,192,184081,1,0,0:0:0:0:
64,192,184191,1,8,0:0:0:0:
448,192,184191,1,8,0:0:0:0:
192,192,184301,1,0,0:0:0:0:
448,192,184412,1,8,0:0:0:0:
64,192,184412,1,8,0:0:0:0:
192,192,184522,1,8,0:0:0:0:
320,192,184522,1,8,0:0:0:0:
448,192,184632,1,8,0:0:0:0:
64,192,184632,1,8,0:0:0:0:
320,192,184743,1,0,0:0:0:0:
448,192,184853,1,8,0:0:0:0:
64,192,184853,1,8,0:0:0:0:
320,192,184963,1,8,0:0:0:0:
192,192,184963,1,8,0:0:0:0:
448,192,185073,1,0,0:0:0:0:
192,192,185184,1,8,0:0:0:0:
320,192,185184,1,8,0:0:0:0:
64,192,185294,1,0,0:0:0:0:
320,192,185404,1,8,0:0:0:0:
448,192,185404,1,8,0:0:0:0:
192,192,185515,1,8,0:0:0:0:
64,192,185515,1,8,0:0:0:0:
448,192,185625,1,8,0:0:0:0:
320,192,185625,1,8,0:0:0:0:
192,192,185735,1,8,0:0:0:0:
64,192,185735,1,8,0:0:0:0:
320,192,185846,1,8,0:0:0:0:
448,192,185846,1,8,0:0:0:0:
192,192,185956,1,8,0:0:0:0:
64,192,185956,1,8,0:0:0:0:
320,192,186066,1,8,0:0:0:0:
448,192,186066,1,8,0:0:0:0:
64,192,186176,1,8,0:0:0:0:
192,192,186176,1,8,0:0:0:0:
448,192,186287,1,8,0:0:0:0:
320,192,186287,1,8,0:0:0:0:
448,192,186397,1,0,0:0:0:0:
64,192,186397,1,0,0:0:0:0:
192,192,186397,128,4,186507:0:0:0:0:
320,192,186507,128,0,186618:0:0:0:0:
64,192,186618,128,8,186728:0:0:0:0:
192,192,186618,1,8,0:0:0:0:
448,192,186728,128,0,186838:0:0:0:0:
320,192,186838,128,0,186948:0:0:0:0:
192,192,186948,128,0,187059:0:0:0:0:
448,192,187059,128,8,187169:0:0:0:0:
320,192,187059,1,8,0:0:0:0:
64,192,187169,128,0,187279:0:0:0:0:
192,192,187279,1,0,0:0:0:0:
320,192,187334,1,0,0:0:0:0:
448,192,187390,1,0,0:0:0:0:
192,192,187500,1,8,0:0:0:0:
64,192,187500,1,8,0:0:0:0:
320,192,187555,1,0,0:0:0:0:
448,192,187610,1,0,0:0:0:0:
64,192,187721,1,0,0:0:0:0:
192,192,187776,1,0,0:0:0:0:
320,192,187831,1,0,0:0:0:0:
64,192,187941,1,8,0:0:0:0:
192,192,187941,128,8,188015:0:0:0:0:
448,192,188015,128,0,188079:0:0:0:0:
320,192,188079,128,0,188162:0:0:0:0:
64,192,188162,128,2,188217:0:0:0:0:
64,192,188272,128,2,188382:0:0:0:0:
320,192,188382,1,8,0:0:0:0:
448,192,188382,128,2,188603:0:0:0:0:
192,192,188493,1,0,0:0:0:0:
64,192,188603,128,2,188658:0:0:0:0:
64,192,188713,128,2,188823:0:0:0:0:
320,192,188823,1,8,0:0:0:0:
448,192,188823,128,2,189044:0:0:0:0:
192,192,188934,1,0,0:0:0:0:
64,192,189044,128,2,189099:0:0:0:0:
64,192,189154,128,2,189265:0:0:0:0:
448,192,189265,1,8,0:0:0:0:
192,192,189265,1,2,0:0:0:0:
192,192,189375,1,2,0:0:0:0:
448,192,189485,1,2,0:0:0:0:
448,192,189596,1,2,0:0:0:0:
64,192,189706,1,8,0:0:0:0:
320,192,189706,1,2,0:0:0:0:
320,192,189816,1,2,0:0:0:0:
192,192,189926,128,2,190588:0:0:0:0:
448,192,189926,1,0,0:0:0:0:
64,192,189926,1,4,0:0:0:0:
320,192,190147,1,8,0:0:0:0:
448,192,190147,1,8,0:0:0:0:
320,192,190478,1,0,0:0:0:0:
448,192,190588,128,10,190698:0:0:0:0:
64,192,190588,1,0,0:0:0:0:
320,192,190698,128,2,190809:0:0:0:0:
192,192,190809,128,2,191471:0:0:0:0:
64,192,191029,1,8,0:0:0:0:
448,192,191029,1,8,0:0:0:0:
320,192,191360,1,0,0:0:0:0:
448,192,191471,128,10,191581:0:0:0:0:
64,192,191471,1,8,0:0:0:0:
192,192,191581,128,2,191691:0:0:0:0:
320,192,191691,128,0,192353:0:0:0:0:
64,192,191691,1,4,0:0:0:0:
448,192,191691,1,2,0:0:0:0:
192,192,191912,1,8,0:0:0:0:
64,192,191912,1,8,0:0:0:0:
448,192,192022,1,0,0:0:0:0:
192,192,192243,1,0,0:0:0:0:
448,192,192353,1,8,0:0:0:0:
64,192,192353,128,2,192463:0:0:0:0:
192,192,192463,128,2,192573:0:0:0:0:
448,192,192573,1,0,0:0:0:0:
320,192,192573,1,0,0:0:0:0:
448,192,192684,1,8,0:0:0:0:
320,192,192684,1,8,0:0:0:0:
192,192,192794,1,8,0:0:0:0:
64,192,192794,1,2,0:0:0:0:
320,192,192904,1,8,0:0:0:0:
448,192,192904,1,8,0:0:0:0:
192,192,193015,1,8,0:0:0:0:
64,192,193015,1,8,0:0:0:0:
192,192,193125,1,8,0:0:0:0:
64,192,193125,1,8,0:0:0:0:
320,192,193235,1,8,0:0:0:0:
448,192,193235,1,2,0:0:0:0:
448,192,193346,1,8,0:0:0:0:
320,192,193346,1,8,0:0:0:0:
192,192,193456,1,4,0:0:0:0:
448,192,193456,1,0,0:0:0:0:
64,192,193456,128,0,193566:0:0:0:0:
320,192,193566,1,0,0:0:0:0:
64,192,193676,1,8,0:0:0:0:
192,192,193676,128,8,193787:0:0:0:0:
320,192,193787,1,0,0:0:0:0:
192,192,193897,1,0,0:0:0:0:
448,192,193897,128,0,194007:0:0:0:0:
64,192,194007,1,0,0:0:0:0:
448,192,194118,1,8,0:0:0:0:
320,192,194118,128,8,194228:0:0:0:0:
192,192,194228,1,0,0:0:0:0:
448,192,194338,1,0,0:0:0:0:
64,192,194338,128,0,194448:0:0:0:0:
192,192,194448,1,0,0:0:0:0:
448,192,194559,128,8,194669:0:0:0:0:
320,192,194559,1,8,0:0:0:0:
192,192,194669,1,0,0:0:0:0:
64,192,194779,128,0,194890:0:0:0:0:
192,192,194890,128,0,195000:0:0:0:0:
320,192,195000,128,8,195110:0:0:0:0:
64,192,195000,1,8,0:0:0:0:
448,192,195110,128,0,195220:0:0:0:0:
192,192,195220,128,0,195331:0:0:0:0:
64,192,195331,128,0,195441:0:0:0:0:
448,192,195441,1,8,0:0:0:0:
192,192,195441,128,8,195551:0:0:0:0:
320,192,195551,128,0,195662:0:0:0:0:
192,192,195662,128,0,195772:0:0:0:0:
448,192,195772,128,0,195882:0:0:0:0:
320,192,195882,128,8,195993:0:0:0:0:
64,192,195882,128,8,195993:0:0:0:0:
192,192,195993,128,0,196103:0:0:0:0:
448,192,196103,128,0,196213:0:0:0:0:
64,192,196213,128,0,196323:0:0:0:0:
320,192,196323,128,8,196434:0:0:0:0:
448,192,196323,128,8,196434:0:0:0:0:
192,192,196434,128,0,196544:0:0:0:0:
448,192,196544,128,0,196654:0:0:0:0:
192,192,196654,128,0,196765:0:0:0:0:
64,192,196765,128,8,196875:0:0:0:0:
448,192,196765,128,8,196875:0:0:0:0:
320,192,196875,128,0,196985:0:0:0:0:
64,192,196985,1,0,0:0:0:0:
192,192,196985,1,4,0:0:0:0:
448,192,196985,1,0,0:0:0:0:
320,192,197059,1,0,0:0:0:0:
192,192,197132,1,0,0:0:0:0:
64,192,197206,1,8,0:0:0:0:
448,192,197206,1,8,0:0:0:0:
320,192,197279,1,0,0:0:0:0:
192,192,197353,1,0,0:0:0:0:
64,192,197426,1,0,0:0:0:0:
320,192,197537,1,0,0:0:0:0:
192,192,197592,1,0,0:0:0:0:
64,192,197647,1,8,0:0:0:0:
448,192,197647,1,8,0:0:0:0:
320,192,197757,1,0,0:0:0:0:
64,192,197868,1,0,0:0:0:0:
192,192,197923,1,0,0:0:0:0:
448,192,197978,1,0,0:0:0:0:
320,192,198033,1,0,0:0:0:0:
192,192,198088,1,8,0:0:0:0:
64,192,198088,1,8,0:0:0:0:
320,192,198198,1,0,0:0:0:0:
192,192,198254,1,0,0:0:0:0:
448,192,198309,1,0,0:0:0:0:
64,192,198419,1,0,0:0:0:0:
192,192,198474,1,0,0:0:0:0:
320,192,198529,1,8,0:0:0:0:
448,192,198529,1,8,0:0:0:0:
64,192,198603,1,0,0:0:0:0:
320,192,198676,1,0,0:0:0:0:
64,192,198750,1,8,0:0:0:0:
192,192,198750,1,8,0:0:0:0:
448,192,198750,128,4,198970:0:0:0:0:
320,192,198860,1,0,0:0:0:0:
64,192,198970,128,0,199301:0:0:0:0:
192,192,199081,1,0,0:0:0:0:
448,192,199191,1,8,0:0:0:0:
320,192,199191,1,8,0:0:0:0:
192,192,199301,128,0,199412:0:0:0:0:
448,192,199412,1,8,0:0:0:0:
320,192,199412,1,8,0:0:0:0:
64,192,199412,1,4,0:0:0:0:
192,192,199522,1,8,0:0:0:0:
448,192,199577,1,0,0:0:0:0:
192,192,199632,128,8,200073:0:0:0:0:
64,192,199632,1,8,0:0:0:0:
320,192,199743,1,8,0:0:0:0:
448,192,199743,1,8,0:0:0:0:
64,192,199853,1,0,0:0:0:0:
448,192,199963,1,0,0:0:0:0:
64,192,200073,128,0,200404:0:0:0:0:
320,192,200184,1,0,0:0:0:0:
448,192,200294,128,0,200404:0:0:0:0:
192,192,200404,1,0,0:0:0:0:
64,192,200515,1,0,0:0:0:0:
448,192,200515,1,0,0:0:0:0:
320,192,200515,1,4,0:0:0:0:
192,192,200588,1,0,0:0:0:0:
320,192,200662,1,0,0:0:0:0:
64,192,200735,1,8,0:0:0:0:
192,192,200735,1,8,0:0:0:0:
448,192,200790,1,0,0:0:0:0:
320,192,200845,1,0,0:0:0:0:
192,192,200901,1,0,0:0:0:0:
64,192,200956,1,0,0:0:0:0:
448,192,201029,1,0,0:0:0:0:
192,192,201103,1,0,0:0:0:0:
320,192,201176,1,8,0:0:0:0:
448,192,201176,1,8,0:0:0:0:
192,192,201250,1,0,0:0:0:0:
64,192,201342,1,0,0:0:0:0:
192,192,201397,1,0,0:0:0:0:
320,192,201452,1,0,0:0:0:0:
448,192,201507,1,0,0:0:0:0:
64,192,201562,1,0,0:0:0:0:
192,192,201618,1,8,0:0:0:0:
320,192,201618,1,8,0:0:0:0:
448,192,201673,1,0,0:0:0:0:
64,192,201728,1,0,0:0:0:0:
192,192,201783,1,0,0:0:0:0:
320,192,201838,1,0,0:0:0:0:
448,192,201893,1,0,0:0:0:0:
192,192,201948,1,0,0:0:0:0:
320,192,202004,1,0,0:0:0:0:
64,192,202059,1,8,0:0:0:0:
448,192,202059,1,8,0:0:0:0:
192,192,202114,1,0,0:0:0:0:
320,192,202169,1,0,0:0:0:0:
192,192,202224,1,0,0:0:0:0:
64,192,202279,1,0,0:0:0:0:
448,192,202279,1,0,0:0:0:0:
192,192,202390,1,0,0:0:0:0:
320,192,202390,1,0,0:0:0:0:
64,192,202500,1,8,0:0:0:0:
448,192,202500,1,8,0:0:0:0:
192,192,202573,1,0,0:0:0:0:
320,192,202647,1,0,0:0:0:0:
64,192,202720,128,0,202941:0:0:0:0:
448,192,202831,128,0,202941:0:0:0:0:
192,192,202941,128,8,203162:0:0:0:0:
320,192,202941,1,8,0:0:0:0:
448,192,203051,128,0,203162:0:0:0:0:
320,192,203162,128,0,203272:0:0:0:0:
448,192,203272,1,8,0:0:0:0:
64,192,203272,128,8,203382:0:0:0:0:
192,192,203382,128,0,203493:0:0:0:0:
448,192,203493,1,8,0:0:0:0:
64,192,203493,1,8,0:0:0:0:
320,192,203603,128,0,203713:0:0:0:0:
192,192,203713,128,0,204044:0:0:0:0:
64,192,203823,1,8,0:0:0:0:
448,192,203823,1,8,0:0:0:0:
320,192,203934,1,0,0:0:0:0:
448,192,204044,1,4,0:0:0:0:
64,192,204044,1,0,0:0:0:0:
192,192,204154,1,0,0:0:0:0:
320,192,204209,1,0,0:0:0:0:
64,192,204265,1,8,0:0:0:0:
448,192,204265,1,8,0:0:0:0:
192,192,204375,1,0,0:0:0:0:
448,192,204430,1,8,0:0:0:0:
320,192,204430,1,8,0:0:0:0:
64,192,204485,1,0,0:0:0:0:
192,192,204540,1,0,0:0:0:0:
448,192,204595,1,0,0:0:0:0:
320,192,204651,1,0,0:0:0:0:
192,192,204706,1,8,0:0:0:0:
64,192,204706,1,8,0:0:0:0:
448,192,204779,1,0,0:0:0:0:
320,192,204853,1,0,0:0:0:0:
64,192,204926,1,0,0:0:0:0:
320,192,205037,1,0,0:0:0:0:
192,192,205092,1,0,0:0:0:0:
448,192,205147,1,8,0:0:0:0:
64,192,205147,1,8,0:0:0:0:
320,192,205202,1,0,0:0:0:0:
192,192,205257,1,0,0:0:0:0:
448,192,205312,1,0,0:0:0:0:
64,192,205368,1,0,0:0:0:0:
192,192,205423,1,0,0:0:0:0:
320,192,205478,1,0,0:0:0:0:
448,192,205533,1,0,0:0:0:0:
64,192,205588,1,8,0:0:0:0:
192,192,205588,1,8,0:0:0:0:
320,192,205662,1,0,0:0:0:0:
448,192,205726,1,0,0:0:0:0:
64,192,205809,1,0,0:0:0:0:
192,192,205864,1,0,0:0:0:0:
320,192,205919,1,8,0:0:0:0:
448,192,205919,1,8,0:0:0:0:
320,192,206029,1,8,0:0:0:0:
448,192,206029,1,8,0:0:0:0:
64,192,206103,1,0,0:0:0:0:
192,192,206176,1,0,0:0:0:0:
448,192,206250,1,0,0:0:0:0:
320,192,206305,1,0,0:0:0:0:
192,192,206360,1,8,0:0:0:0:
64,192,206360,1,8,0:0:0:0:
192,192,206470,1,8,0:0:0:0:
64,192,206470,1,8,0:0:0:0:
448,192,206544,1,0,0:0:0:0:
320,192,206618,1,0,0:0:0:0:
192,192,206691,1,0,0:0:0:0:
448,192,206801,1,8,0:0:0:0:
320,192,206801,1,8,0:0:0:0:
64,192,206857,1,0,0:0:0:0:
192,192,206912,1,8,0:0:0:0:
320,192,206912,1,8,0:0:0:0:
448,192,206967,1,0,0:0:0:0:
64,192,207022,1,8,0:0:0:0:
192,192,207022,1,8,0:0:0:0:
320,192,207077,1,0,0:0:0:0:
64,192,207132,128,0,207573:0:0:0:0:
448,192,207132,128,0,207243:0:0:0:0:
192,192,207243,128,0,207353:0:0:0:0:
448,192,207353,128,0,207463:0:0:0:0:
320,192,207463,128,0,207573:0:0:0:0:
448,192,207573,1,0,0:0:0:0:
192,192,207573,1,0,0:0:0:0:
64,192,207684,128,2,207739:1:0:0:0:
320,192,207739,128,2,207794:1:0:0:0:
192,192,207794,128,2,207849:1:0:0:0:
448,192,207849,128,2,207904:1:0:0:0:
64,192,207904,128,2,207959:1:0:0:0:
320,192,207959,128,2,208015:1:0:0:0:
192,192,208015,128,2,208070:1:0:0:0:
448,192,208070,128,2,208125:1:0:0:0:
64,192,208125,128,2,208235:1:0:0:0:
448,192,208235,128,2,208290:1:0:0:0:
320,192,208290,128,2,208345:1:0:0:0:
192,192,208345,128,2,208401:1:0:0:0:
64,192,208401,128,2,208456:1:0:0:0:
320,192,208456,128,2,208511:1:0:0:0:
448,192,208456,128,2,208511:1:0:0:0:
192,192,208566,128,2,208621:1:0:0:0:
320,192,208621,128,2,208676:1:0:0:0:
448,192,208676,128,2,208732:1:0:0:0:
64,192,208732,128,2,208787:1:0:0:0:
192,192,208787,128,2,208842:1:0:0:0:
448,192,208842,128,2,208897:1:0:0:0:
320,192,208897,128,2,208952:1:0:0:0:
64,192,208952,128,2,209007:1:0:0:0:
192,192,209007,128,2,209062:1:0:0:0:
320,192,209062,128,2,209118:1:0:0:0:
448,192,209118,128,2,209173:1:0:0:0:
192,192,209173,128,2,209228:1:0:0:0:
64,192,209228,128,2,209283:1:0:0:0:
320,192,209283,128,2,209338:1:0:0:0:
448,192,209338,128,2,209393:1:0:0:0:
192,192,209393,128,2,209448:1:0:0:0:
320,192,209448,128,2,209504:1:0:0:0:
64,192,209504,128,2,209559:1:0:0:0:
192,192,209559,128,2,209614:1:0:0:0:
320,192,209614,128,2,209669:1:0:0:0:
448,192,209669,128,2,209779:1:0:0:0:
64,192,209779,128,2,209834:1:0:0:0:
320,192,209834,128,2,209890:1:0:0:0:
192,192,209890,128,2,209945:1:0:0:0:
448,192,209945,128,2,210000:1:0:0:0:
320,192,210000,128,2,210055:1:0:0:0:
192,192,210055,128,2,210110:1:0:0:0:
64,192,210110,128,2,210220:1:0:0:0:
448,192,210220,128,2,210276:1:0:0:0:
320,192,210276,128,2,210331:1:0:0:0:
64,192,210331,128,2,210386:1:0:0:0:
192,192,210386,128,2,210441:1:0:0:0:
448,192,210441,128,2,210496:1:0:0:0:
320,192,210496,128,2,210551:1:0:0:0:
64,192,210551,128,2,210607:1:0:0:0:
192,192,210607,128,2,210662:1:0:0:0:
448,192,210662,128,2,210717:1:0:0:0:
320,192,210717,128,2,210772:1:0:0:0:
64,192,210772,128,2,210827:1:0:0:0:
192,192,210827,128,2,210882:1:0:0:0:
448,192,210882,128,8,210993:0:0:0:0:
320,192,210882,1,8,0:0:0:0:
64,192,210993,128,8,211103:0:0:0:0:
192,192,210993,1,0,0:0:0:0:
320,192,211103,1,8,0:0:0:0:
448,192,211103,1,8,0:0:0:0:
64,192,211176,1,8,0:0:0:0:
192,192,211176,1,8,0:0:0:0:
448,192,211241,1,8,0:0:0:0:
320,192,211241,1,8,0:0:0:0:
64,192,211323,1,8,0:0:0:0:
192,192,211323,1,8,0:0:0:0:
320,192,211397,1,8,0:0:0:0:
448,192,211397,1,8,0:0:0:0:
64,192,211461,1,8,0:0:0:0:
192,192,211461,1,8,0:0:0:0:
320,192,211544,1,8,3:0:0:0:
448,192,211544,1,8,3:0:0:0:
192,192,211618,1,8,3:0:0:0:
64,192,211691,1,8,3:0:0:0:
320,192,211765,1,8,3:0:0:0:
448,192,211838,1,8,3:0:0:0:
320,192,211912,1,8,3:0:0:0:
192,192,211985,1,8,3:0:0:0:
64,192,211985,1,8,3:0:0:0:
320,192,212059,1,8,3:0:0:0:
448,192,212132,1,8,3:0:0:0:
192,192,212206,1,8,3:0:0:0:
64,192,212279,1,8,3:0:0:0:
192,192,212353,1,8,3:0:0:0:
320,192,212426,1,8,3:0:0:0:
448,192,212426,1,8,3:0:0:0:
192,192,212500,1,8,3:0:0:0:
64,192,212573,1,8,3:0:0:0:
192,192,212647,1,8,3:0:0:0:
320,192,212720,1,8,3:0:0:0:
448,192,212794,1,8,3:0:0:0:
320,192,212868,1,0,0:0:0:0:
64,192,212868,128,0,213033:0:0:0:0:
192,192,212868,128,4,213033:0:0:0:0:
448,192,213033,128,0,213198:0:0:0:0:
320,192,213033,128,0,213198:0:0:0:0:
192,192,213198,128,0,213309:0:0:0:0:
64,192,213309,128,0,213419:3:0:0:0:
448,192,213309,1,0,3:0:0:0:
192,192,213419,128,0,213584:0:0:0:0:
448,192,213584,128,0,213750:0:0:0:0:
320,192,213750,128,0,214522:3:0:0:0:
192,192,213750,128,0,214412:3:0:0:0:
64,192,214191,1,2,3:0:0:0:
448,192,214191,1,2,3:0:0:0:
448,192,214632,1,0,0:0:0:0:
192,192,214632,1,4,0:0:0:0:
64,192,214632,1,0,0:0:0:0:
320,192,214684,1,0,0:0:0:0:
192,192,214737,1,0,0:0:0:0:
448,192,214789,1,8,0:0:0:0:
64,192,214789,1,8,0:0:0:0:
320,192,214868,1,0,0:0:0:0:
192,192,214947,1,0,0:0:0:0:
320,192,215026,1,0,0:0:0:0:
64,192,215105,1,8,0:0:0:0:
192,192,215105,1,8,0:0:0:0:
448,192,215184,1,0,0:0:0:0:
192,192,215263,1,2,0:0:0:0:
320,192,215342,1,2,0:0:0:0:
448,192,215421,1,8,0:0:0:0:
64,192,215421,1,2,0:0:0:0:
192,192,215474,1,2,0:0:0:0:
320,192,215526,1,2,0:0:0:0:
64,192,215579,128,2,215658:0:0:0:0:
320,192,215658,128,2,215737:0:0:0:0:
192,192,215737,128,8,215816:0:0:0:0:
64,192,215737,1,8,0:0:0:0:
448,192,215816,128,0,215895:0:0:0:0:
64,192,215895,1,2,0:0:0:0:
320,192,215947,1,2,0:0:0:0:
192,192,216000,1,2,0:0:0:0:
64,192,216053,1,8,0:0:0:0:
448,192,216053,1,8,0:0:0:0:
320,192,216132,1,0,0:0:0:0:
192,192,216210,128,0,216289:0:0:0:0:
320,192,216289,128,0,216368:0:0:0:0:
448,192,216368,128,2,216447:0:0:0:0:
64,192,216368,1,8,0:0:0:0:
192,192,216447,128,2,216526:0:0:0:0:
64,192,216526,1,2,0:0:0:0:
448,192,216579,1,2,0:0:0:0:
320,192,216632,1,2,0:0:0:0:
192,192,216684,128,8,216763:0:0:0:0:
64,192,216684,1,8,0:0:0:0:
320,192,216763,128,0,216842:0:0:0:0:
448,192,216842,128,2,217158:0:0:0:0:
192,192,216921,1,0,0:0:0:0:
320,192,217000,1,8,0:0:0:0:
64,192,217000,128,8,217158:0:0:0:0:
192,192,217158,1,0,0:0:0:0:
320,192,217158,1,0,0:0:0:0:
64,192,217237,1,0,0:0:0:0:
320,192,217316,1,0,0:0:0:0:
448,192,217316,1,8,0:0:0:0:
192,192,217395,1,0,0:0:0:0:
448,192,217474,1,0,0:0:0:0:
64,192,217474,1,0,0:0:0:0:
320,192,217553,1,0,0:0:0:0:
192,192,217632,128,8,217789:0:0:0:0:
448,192,217632,1,8,0:0:0:0:
320,192,217789,128,0,217868:0:0:0:0:
64,192,217789,1,0,0:0:0:0:
448,192,217868,128,0,217947:0:0:0:0:
64,192,217947,1,8,0:0:0:0:
192,192,217947,128,8,218026:0:0:0:0:
320,192,218026,128,0,218105:0:0:0:0:
64,192,218105,128,0,218184:0:0:0:0:
448,192,218184,128,0,218421:0:0:0:0:
192,192,218263,1,8,0:0:0:0:
320,192,218263,1,8,0:0:0:0:
64,192,218421,1,0,0:0:0:0:
320,192,218421,1,0,0:0:0:0:
192,192,218421,128,4,218895:0:0:0:0:
448,192,218500,1,0,0:0:0:0:
320,192,218579,1,8,0:0:0:0:
64,192,218579,1,8,0:0:0:0:
448,192,218658,1,0,0:0:0:0:
64,192,218737,1,0,0:0:0:0:
320,192,218816,1,0,0:0:0:0:
64,192,218895,128,8,218974:0:0:0:0:
448,192,218895,1,8,0:0:0:0:
192,192,218974,128,0,219053:0:0:0:0:
320,192,219053,128,2,219132:1:0:0:0:
448,192,219053,128,2,219132:1:0:0:0:
192,192,219132,128,2,219210:1:0:0:0:
64,192,219132,128,2,219210:1:0:0:0:
320,192,219210,128,8,219289:0:0:0:0:
448,192,219210,128,8,219289:0:0:0:0:
192,192,219289,128,2,219368:1:0:0:0:
64,192,219289,128,2,219368:1:0:0:0:
320,192,219368,128,2,219447:1:0:0:0:
448,192,219368,128,2,219447:1:0:0:0:
192,192,219447,128,2,219526:1:0:0:0:
64,192,219447,128,2,219526:1:0:0:0:
320,192,219526,128,8,219605:0:0:0:0:
448,192,219526,128,8,219605:0:0:0:0:
64,192,219605,128,0,219684:0:0:0:0:
448,192,219684,1,4,0:0:0:0:
192,192,219684,1,0,0:0:0:0:
320,192,219684,128,4,220158:0:0:0:0:
192,192,219842,1,8,0:0:0:0:
64,192,219842,1,8,0:0:0:0:
448,192,219921,1,0,0:0:0:0:
64,192,220000,1,0,0:0:0:0:
192,192,220079,1,0,0:0:0:0:
448,192,220158,1,8,0:0:0:0:
64,192,220158,128,8,220237:0:0:0:0:
192,192,220237,128,0,220316:0:0:0:0:
320,192,220316,128,2,220474:1:0:0:0:
448,192,220316,128,2,220789:1:0:0:0:
64,192,220474,128,8,220553:0:0:0:0:
192,192,220474,1,8,0:0:0:0:
320,192,220553,128,2,220632:1:0:0:0:
64,192,220632,128,2,220710:1:0:0:0:
320,192,220710,128,2,220789:1:0:0:0:
64,192,220789,1,8,0:0:0:0:
192,192,220789,1,8,0:0:0:0:
320,192,220842,1,0,0:0:0:0:
448,192,220895,1,0,0:0:0:0:
64,192,220947,128,0,221105:0:0:0:0:
320,192,221105,128,8,221263:0:0:0:0:
192,192,221105,1,8,0:0:0:0:
192,192,221263,128,0,221421:0:0:0:0:
448,192,221342,1,0,0:0:0:0:
64,192,221421,1,8,0:0:0:0:
320,192,221421,128,8,221579:0:0:0:0:
448,192,221579,128,0,221737:0:0:0:0:
320,192,221737,128,8,222210:0:0:0:0:
64,192,221737,128,8,221895:0:0:0:0:
448,192,221895,128,2,221974:1:0:0:0:
192,192,221974,128,2,222053:1:0:0:0:
448,192,222053,128,8,222132:0:0:0:0:
64,192,222053,1,8,0:0:0:0:
192,192,222132,128,2,222210:1:0:0:0:
64,192,222210,1,0,0:0:0:0:
448,192,222210,1,0,0:0:0:0:
320,192,222289,1,0,0:0:0:0:
192,192,222368,1,8,0:0:0:0:
64,192,222368,1,8,0:0:0:0:
320,192,222447,1,0,0:0:0:0:
448,192,222526,128,0,222684:0:0:0:0:
64,192,222526,1,0,0:0:0:0:
320,192,222605,1,0,0:0:0:0:
64,192,222684,1,8,0:0:0:0:
192,192,222684,1,8,0:0:0:0:
320,192,222763,1,0,0:0:0:0:
448,192,222842,1,0,0:0:0:0:
64,192,222842,1,0,0:0:0:0:
192,192,222921,1,0,0:0:0:0:
320,192,223000,1,8,0:0:0:0:
448,192,223000,1,8,0:0:0:0:
192,192,223079,1,0,0:0:0:0:
64,192,223158,128,0,223237:0:0:0:0:
320,192,223158,1,0,0:0:0:0:
448,192,223237,128,0,223316:0:0:0:0:
320,192,223316,128,8,223474:0:0:0:0:
192,192,223316,1,8,0:0:0:0:
64,192,223474,1,0,0:0:0:0:
192,192,223474,1,4,0:0:0:0:
448,192,223474,1,0,0:0:0:0:
320,192,223553,1,8,3:0:0:0:
64,192,223632,1,8,3:0:0:0:
448,192,223632,1,8,3:0:0:0:
192,192,223710,1,8,3:0:0:0:
320,192,223789,1,8,3:0:0:0:
448,192,223789,1,0,0:0:0:0:
192,192,223868,1,8,3:0:0:0:
320,192,223947,1,8,3:0:0:0:
448,192,223947,1,8,3:0:0:0:
64,192,223947,1,4,0:0:0:0:
192,192,224026,1,0,0:0:0:0:
64,192,224105,1,0,0:0:0:0:
448,192,224184,1,0,0:0:0:0:
320,192,224263,1,0,0:0:0:0:
192,192,224342,1,0,0:0:0:0:
448,192,224421,1,0,0:0:0:0:
64,192,224421,1,0,0:0:0:0:
320,192,224500,1,0,0:0:0:0:
192,192,224579,1,0,0:0:0:0:
320,192,224658,1,0,0:0:0:0:
192,192,224737,1,4,0:0:0:0:
64,192,224737,1,0,0:0:0:0:
448,192,224737,128,0,224816:0:0:0:0:
320,192,224816,128,0,224895:0:0:0:0:
64,192,224895,1,8,0:0:0:0:
192,192,224895,1,8,0:0:0:0:
320,192,224974,1,0,0:0:0:0:
448,192,225053,128,0,225132:0:0:0:0:
192,192,225132,1,0,0:0:0:0:
320,192,225210,1,8,0:0:0:0:
448,192,225210,128,8,225289:0:0:0:0:
64,192,225289,1,0,0:0:0:0:
192,192,225368,1,0,0:0:0:0:
320,192,225447,1,0,0:0:0:0:
64,192,225526,1,8,0:0:0:0:
448,192,225526,128,8,225605:0:0:0:0:
192,192,225605,1,0,0:0:0:0:
448,192,225684,128,0,225763:0:0:0:0:
320,192,225763,1,0,0:0:0:0:
192,192,225842,1,8,0:0:0:0:
64,192,225842,1,8,0:0:0:0:
320,192,225921,1,0,0:0:0:0:
448,192,226000,1,2,0:0:0:0:
64,192,226053,1,2,0:0:0:0:
192,192,226105,1,2,0:0:0:0:
448,192,226158,1,8,0:0:0:0:
320,192,226158,1,8,0:0:0:0:
64,192,226237,1,0,0:0:0:0:
192,192,226316,128,2,226395:0:0:0:0:
320,192,226395,128,2,226474:0:0:0:0:
448,192,226474,1,8,0:0:0:0:
64,192,226474,1,8,0:0:0:0:
192,192,226553,1,0,0:0:0:0:
320,192,226632,1,4,0:0:0:0:
64,192,226632,1,0,0:0:0:0:
448,192,226632,1,10,0:0:0:0:
192,192,226684,1,2,0:0:0:0:
320,192,226737,1,2,0:0:0:0:
64,192,226789,1,8,0:0:0:0:
448,192,226789,1,8,0:0:0:0:
192,192,226868,128,2,226947:0:0:0:0:
448,192,226947,1,8,0:0:0:0:
320,192,226947,1,0,0:0:0:0:
64,192,226947,1,4,0:0:0:0:
192,192,227026,1,0,0:0:0:0:
448,192,227105,1,8,0:0:0:0:
64,192,227105,1,4,0:0:0:0:
320,192,227105,1,0,0:0:0:0:
192,192,227184,1,0,0:0:0:0:
64,192,227263,1,4,0:0:0:0:
320,192,227263,1,8,0:0:0:0:
448,192,227263,1,2,0:0:0:0:
448,192,227342,1,2,0:0:0:0:
192,192,227421,1,8,0:0:0:0:
320,192,227421,1,8,0:0:0:0:
64,192,227500,1,2,0:0:0:0:
64,192,227579,1,2,0:0:0:0:
320,192,227658,1,0,0:0:0:0:
192,192,227737,1,8,0:0:0:0:
448,192,227737,1,10,0:0:0:0:
64,192,227816,1,0,0:0:0:0:
320,192,227895,1,2,0:0:0:0:
320,192,227974,1,2,0:0:0:0:
64,192,228053,1,8,0:0:0:0:
448,192,228053,1,8,0:0:0:0:
192,192,228132,1,2,0:0:0:0:
192,192,228210,1,2,0:0:0:0:
448,192,228289,1,0,0:0:0:0:
64,192,228368,1,10,0:0:0:0:
320,192,228368,1,8,0:0:0:0:
192,192,228447,1,0,0:0:0:0:
448,192,228526,1,0,0:0:0:0:
320,192,228526,1,4,0:0:0:0:
64,192,228526,1,0,0:0:0:0:
192,192,228605,1,0,0:0:0:0:
448,192,228684,1,8,0:0:0:0:
320,192,228684,1,8,0:0:0:0:
64,192,228763,1,0,0:0:0:0:
192,192,228842,1,0,0:0:0:0:
320,192,228921,1,0,0:0:0:0:
192,192,229000,1,8,0:0:0:0:
64,192,229000,1,8,0:0:0:0:
320,192,229079,1,0,0:0:0:0:
448,192,229158,1,0,0:0:0:0:
192,192,229237,1,0,0:0:0:0:
320,192,229316,1,8,0:0:0:0:
448,192,229316,1,8,0:0:0:0:
64,192,229395,1,0,0:0:0:0:
192,192,229474,1,0,0:0:0:0:
320,192,229553,1,0,0:0:0:0:
64,192,229632,1,8,0:0:0:0:
448,192,229632,128,2,229710:0:0:0:0:
320,192,229710,128,2,229789:0:0:0:0:
192,192,229789,1,4,0:0:0:0:
448,192,229789,1,0,0:0:0:0:
64,192,229789,1,0,0:0:0:0:
320,192,229868,1,0,0:0:0:0:
192,192,229947,1,8,0:0:0:0:
64,192,229947,1,8,0:0:0:0:
320,192,230026,1,0,0:0:0:0:
64,192,230105,1,0,0:0:0:0:
448,192,230184,1,0,0:0:0:0:
192,192,230263,1,8,0:0:0:0:
320,192,230263,1,8,0:0:0:0:
64,192,230342,1,0,0:0:0:0:
448,192,230421,1,0,0:0:0:0:
320,192,230421,1,0,0:0:0:0:
192,192,230500,1,0,0:0:0:0:
320,192,230579,1,8,0:0:0:0:
448,192,230579,1,8,0:0:0:0:
192,192,230658,1,0,0:0:0:0:
448,192,230737,1,0,0:0:0:0:
64,192,230816,1,0,0:0:0:0:
320,192,230895,1,8,0:0:0:0:
192,192,230895,1,8,0:0:0:0:
448,192,230974,1,0,0:0:0:0:
64,192,231053,1,0,0:0:0:0:
192,192,231053,1,0,0:0:0:0:
320,192,231132,1,0,0:0:0:0:
448,192,231210,1,8,0:0:0:0:
64,192,231210,1,0,0:0:0:0:
192,192,231289,1,0,0:0:0:0:
320,192,231368,1,0,0:0:0:0:
64,192,231447,1,0,0:0:0:0:
320,192,231526,1,8,0:0:0:0:
448,192,231526,1,0,0:0:0:0:
64,192,231605,1,8,0:0:0:0:
448,192,231684,1,0,0:0:0:0:
320,192,231684,1,0,0:0:0:0:
192,192,231684,1,0,0:0:0:0:
64,192,231763,1,4,0:0:0:0:
192,192,231842,1,0,0:0:0:0:
448,192,231842,1,0,0:0:0:0:
320,192,231921,1,0,0:0:0:0:
448,192,232000,1,4,0:0:0:0:
64,192,232000,1,8,0:0:0:0:
192,192,232000,1,8,0:0:0:0:
320,192,232079,1,0,0:0:0:0:
64,192,232158,1,8,0:0:0:0:
192,192,232158,1,8,0:0:0:0:
448,192,232158,1,4,0:0:0:0:
320,192,232237,1,0,0:0:0:0:
192,192,232316,1,2,0:0:0:0:
64,192,232316,1,8,0:0:0:0:
448,192,232316,1,4,0:0:0:0:
64,192,232395,1,2,0:0:0:0:
192,192,232474,1,8,0:0:0:0:
320,192,232474,1,8,0:0:0:0:
448,192,232553,1,2,0:0:0:0:
64,192,232632,1,2,0:0:0:0:
448,192,232710,1,0,0:0:0:0:
320,192,232789,1,8,0:0:0:0:
192,192,232789,1,8,0:0:0:0:
64,192,232868,1,0,0:0:0:0:
192,192,232947,128,2,233026:0:0:0:0:
448,192,233026,128,0,233105:0:0:0:0:
320,192,233105,1,8,0:0:0:0:
64,192,233105,1,8,0:0:0:0:
192,192,233184,1,0,0:0:0:0:
320,192,233263,128,2,233342:0:0:0:0:
64,192,233342,128,2,233421:0:0:0:0:
448,192,233421,1,8,0:0:0:0:
192,192,233421,128,8,233500:0:0:0:0:
320,192,233500,1,0,0:0:0:0:
64,192,233579,128,8,233737:3:0:0:0:
448,192,233579,128,8,233737:3:0:0:0:
192,192,233737,128,2,233816:1:0:0:0:
320,192,233816,128,2,233895:1:0:0:0:
64,192,233895,128,2,233974:1:0:0:0:
448,192,233974,128,2,234053:1:0:0:0:
192,192,234053,128,0,234132:0:0:0:0:
448,192,234132,128,2,234210:1:0:0:0:
320,192,234210,128,2,234289:1:0:0:0:
64,192,234289,128,2,234368:1:0:0:0:
448,192,234368,128,2,234447:1:0:0:0:
192,192,234447,128,2,234526:1:0:0:0:
448,192,234526,128,0,234605:0:0:0:0:
320,192,234605,128,2,234684:1:0:0:0:
64,192,234684,128,2,234763:1:0:0:0:
448,192,234763,128,2,234842:1:0:0:0:
192,192,234842,1,4,0:0:0:0:
64,192,234842,1,0,0:0:0:0:
320,192,234842,1,0,0:0:0:0:
448,192,234921,1,0,0:0:0:0:
320,192,235000,1,0,0:0:0:0:
192,192,235000,1,0,0:0:0:0:
64,192,235079,1,0,0:0:0:0:
192,192,235158,1,0,0:0:0:0:
448,192,235158,1,0,0:0:0:0:
320,192,235237,1,0,0:0:0:0:
64,192,235316,1,8,0:0:0:0:
448,192,235316,128,8,235632:0:0:0:0:
320,192,235632,1,0,0:0:0:0:
192,192,235710,1,0,0:0:0:0:
448,192,235789,1,8,0:0:0:0:
64,192,235789,128,8,235947:0:0:0:0:
320,192,235947,128,0,236105:0:0:0:0:
192,192,236105,1,0,0:0:0:0:
448,192,236105,1,0,0:0:0:0:
320,192,236184,1,0,0:0:0:0:
64,192,236263,1,0,0:0:0:0:
192,192,236263,1,0,0:0:0:0:
448,192,236342,1,0,0:0:0:0:
320,192,236421,1,0,0:0:0:0:
64,192,236421,1,0,0:0:0:0:
192,192,236500,1,0,0:0:0:0:
448,192,236579,128,8,236895:0:0:0:0:
320,192,236579,128,8,236895:0:0:0:0:
192,192,236895,128,0,237053:0:0:0:0:
320,192,236974,1,0,0:0:0:0:
64,192,237053,128,8,237210:0:0:0:0:
448,192,237053,128,8,237210:0:0:0:0:
320,192,237210,128,0,237368:0:0:0:0:
448,192,237368,1,0,0:0:0:0:
64,192,237368,1,0,0:0:0:0:
192,192,237447,1,0,0:0:0:0:
448,192,237526,1,0,0:0:0:0:
320,192,237526,1,0,0:0:0:0:
64,192,237605,1,0,0:0:0:0:
320,192,237684,1,0,0:0:0:0:
192,192,237684,1,0,0:0:0:0:
448,192,237763,1,0,0:0:0:0:
64,192,237842,128,8,238158:0:0:0:0:
192,192,237842,128,8,238000:0:0:0:0:
320,192,238158,1,0,0:0:0:0:
192,192,238237,1,0,0:0:0:0:
64,192,238316,1,8,0:0:0:0:
320,192,238316,128,8,238474:0:0:0:0:
448,192,238474,128,0,238632:0:0:0:0:
64,192,238632,1,8,0:0:0:0:
320,192,238671,128,8,238868:0:0:0:0:
192,192,238671,1,8,0:0:0:0:
448,192,238868,1,0,0:0:0:0:
64,192,238868,1,0,0:0:0:0:
192,192,238868,128,4,239105:0:0:0:0:
64,192,239105,128,0,239263:0:0:0:0:
448,192,239105,1,0,0:0:0:0:
320,192,239105,1,4,0:0:0:0:
448,192,239263,1,8,0:0:0:0:
320,192,239303,1,8,0:0:0:0:
192,192,239303,128,8,239500:0:0:0:0:
320,192,239500,128,4,239737:0:0:0:0:
64,192,239500,1,0,0:0:0:0:
448,192,239500,1,0,0:0:0:0:
448,192,239737,128,0,239895:0:0:0:0:
192,192,239737,1,4,0:0:0:0:
64,192,239737,1,0,0:0:0:0:
192,192,239895,1,0,0:0:0:0:
64,192,239895,1,0,0:0:0:0:
320,192,239895,1,4,0:0:0:0:
448,192,239974,1,0,0:0:0:0:
192,192,240053,1,0,0:0:0:0:
320,192,240053,1,0,0:0:0:0:
64,192,240132,1,0,0:0:0:0:
192,192,240210,1,0,0:0:0:0:
320,192,240210,1,0,0:0:0:0:
448,192,240289,1,0,0:0:0:0:
320,192,240368,128,8,240684:0:0:0:0:
64,192,240368,128,8,240526:0:0:0:0:
192,192,240684,1,0,0:0:0:0:
320,192,240763,1,0,0:0:0:0:
448,192,240842,1,8,0:0:0:0:
64,192,240842,128,8,241000:0:0:0:0:
448,192,241000,128,0,241158:0:0:0:0:
192,192,241158,1,0,0:0:0:0:
64,192,241158,1,0,0:0:0:0:
448,192,241237,1,0,0:0:0:0:
320,192,241316,1,0,0:0:0:0:
192,192,241316,1,0,0:0:0:0:
64,192,241395,1,0,0:0:0:0:
320,192,241474,1,0,0:0:0:0:
192,192,241474,1,0,0:0:0:0:
448,192,241553,1,0,0:0:0:0:
192,192,241632,128,8,241947:0:0:0:0:
64,192,241632,128,8,241947:0:0:0:0:
320,192,241947,128,0,242105:0:0:0:0:
192,192,242026,1,0,0:0:0:0:
448,192,242105,128,8,242263:0:0:0:0:
64,192,242105,128,8,242263:0:0:0:0:
320,192,242263,128,0,242421:0:0:0:0:
448,192,242421,1,0,0:0:0:0:
192,192,242421,1,0,0:0:0:0:
320,192,242500,1,0,0:0:0:0:
64,192,242579,1,0,0:0:0:0:
192,192,242579,1,0,0:0:0:0:
448,192,242658,1,0,0:0:0:0:
192,192,242737,1,0,0:0:0:0:
320,192,242737,1,0,0:0:0:0:
64,192,242816,1,0,0:0:0:0:
448,192,242895,128,8,243210:0:0:0:0:
320,192,242895,1,8,0:0:0:0:
192,192,243210,1,0,0:0:0:0:
320,192,243289,1,0,0:0:0:0:
448,192,243368,1,8,0:0:0:0:
192,192,243368,128,8,243526:0:0:0:0:
64,192,243526,128,0,243684:0:0:0:0:
192,192,243684,1,4,0:0:0:0:
320,192,243684,1,8,0:0:0:0:
448,192,243684,1,4,0:0:0:0:
320,192,243842,1,0,0:0:0:0:
192,192,243842,1,0,0:0:0:0:
448,192,243842,1,0,0:0:0:0:
320,192,244000,1,0,0:0:0:0:
192,192,244000,1,8,0:0:0:0:
64,192,244000,1,0,0:0:0:0:
320,192,244158,1,8,0:0:0:0:
192,192,244158,1,0,0:0:0:0:
64,192,244158,1,0,0:0:0:0:
448,192,244316,1,8,0:0:0:0:
64,192,244316,1,0,0:0:0:0:
320,192,244316,1,8,0:0:0:0:
448,192,244474,1,8,0:0:0:0:
64,192,244474,1,0,0:0:0:0:
320,192,244474,1,8,0:0:0:0:
64,192,244632,1,8,0:0:0:0:
448,192,244632,1,0,0:0:0:0:
192,192,244632,1,8,0:0:0:0:
64,192,244789,1,8,0:0:0:0:
448,192,244789,1,8,0:0:0:0:
192,192,244789,1,8,0:0:0:0:
64,192,244947,128,4,247158:0:0:0:0:
448,192,244947,128,8,247395:0:0:0:0:
192,192,244947,128,8,247237:0:0:0:0:
320,192,244947,128,4,247316:0:0:0:0:
192,192,247474,128,6,247632:0:0:0:0:
64,192,247474,1,4,0:0:0:0:
320,192,247632,128,2,247789:0:0:0:0:
64,192,247789,128,2,247947:0:0:0:0:
448,192,247947,128,2,248105:0:0:0:0:
320,192,248105,128,2,248263:0:0:0:0:
64,192,248263,128,2,248421:0:0:0:0:
192,192,248421,128,2,248579:0:0:0:0:
448,192,248579,128,2,248737:0:0:0:0:
320,192,248737,128,2,248895:0:0:0:0:
192,192,248895,128,2,249053:0:0:0:0:
448,192,249053,128,2,249210:0:0:0:0:
320,192,249210,128,2,249368:0:0:0:0:
64,192,249368,128,2,249526:0:0:0:0:
192,192,249526,128,2,249684:0:0:0:0:
448,192,249684,128,2,249842:0:0:0:0:
64,192,249842,128,2,250000:0:0:0:0:
320,192,250000,128,2,250158:0:0:0:0:
192,192,250158,128,2,250316:0:0:0:0:
448,192,250316,128,2,250474:0:0:0:0:
320,192,250474,128,2,250632:0:0:0:0:
192,192,250632,128,2,250789:0:0:0:0:
448,192,250789,128,2,250947:0:0:0:0:
64,192,250947,128,2,251105:0:0:0:0:
192,192,251105,128,2,251263:0:0:0:0:
448,192,251263,128,2,251421:0:0:0:0:
64,192,251421,128,2,251579:0:0:0:0:
320,192,251579,128,2,251737:0:0:0:0:
448,192,251737,128,2,251895:0:0:0:0:
64,192,251895,128,2,252053:0:0:0:0:
320,192,252053,128,2,252210:0:0:0:0:
192,192,252210,128,2,252368:0:0:0:0:
448,192,252368,128,2,252526:0:0:0:0:
320,192,252526,128,2,252684:0:0:0:0:
64,192,252684,128,2,252842:0:0:0:0:
192,192,252842,128,2,253000:0:0:0:0:
320,192,253000,128,2,253158:0:0:0:0:
192,192,253158,128,2,253316:0:0:0:0:
448,192,253316,128,2,253474:0:0:0:0:
320,192,253474,128,2,253632:0:0:0:0:
192,192,253632,128,2,253789:0:0:0:0:
448,192,253789,128,2,253947:0:0:0:0:
64,192,253947,128,2,254105:0:0:0:0:
192,192,254105,128,2,254263:0:0:0:0:
448,192,254263,128,2,254421:0:0:0:0:
64,192,254421,128,2,254579:0:0:0:0:
320,192,254579,128,2,254737:0:0:0:0:
64,192,254737,128,2,254895:0:0:0:0:
448,192,254895,128,2,255053:0:0:0:0:
192,192,255053,128,2,255210:0:0:0:0:
64,192,255210,128,2,255368:0:0:0:0:
448,192,255368,128,2,255526:0:0:0:0:
192,192,255526,128,2,255684:0:0:0:0:
320,192,255684,128,2,255842:0:0:0:0:
448,192,255842,128,2,256000:0:0:0:0:
64,192,256000,128,2,256158:0:0:0:0:
320,192,256158,128,2,256316:0:0:0:0:
192,192,256316,128,2,256474:0:0:0:0:
448,192,256474,128,2,256632:0:0:0:0:
64,192,256632,128,2,256789:0:0:0:0:
320,192,256789,128,2,256947:0:0:0:0:
192,192,256947,128,2,257105:0:0:0:0:
448,192,257105,128,2,257263:0:0:0:0:
320,192,257105,1,0,0:0:0:0:
64,192,257263,128,10,257421:0:0:0:0:
192,192,257263,1,8,0:0:0:0:
320,192,257421,128,2,257579:0:0:0:0:
448,192,257579,1,0,0:0:0:0:
64,192,257579,1,0,0:0:0:0:
192,192,257579,128,4,258842:0:0:0:0:
320,192,258053,1,0,0:0:0:0:
448,192,258210,1,8,0:0:0:0:
64,192,258210,1,8,0:0:0:0:
448,192,258526,128,2,258605:3:0:0:0:
320,192,258684,1,0,0:0:0:0:
64,192,258842,128,0,259947:0:0:0:0:
448,192,259000,1,0,0:0:0:0:
192,192,259316,1,0,0:0:0:0:
320,192,259395,1,0,0:0:0:0:
192,192,259474,1,8,0:0:0:0:
448,192,259474,1,8,0:0:0:0:
320,192,259632,1,0,0:0:0:0:
320,192,259947,1,0,0:0:0:0:
192,192,260026,1,0,0:0:0:0:
448,192,260105,128,4,262316:0:0:0:0:
320,192,260105,1,0,0:0:0:0:
64,192,260105,1,0,0:0:0:0:
192,192,260579,1,0,0:0:0:0:
64,192,260737,1,8,0:0:0:0:
320,192,260737,1,8,0:0:0:0:
192,192,261053,1,0,0:0:0:0:
192,192,261210,1,0,0:0:0:0:
64,192,261526,1,0,0:0:0:0:
192,192,261842,1,0,0:0:0:0:
64,192,262000,1,8,0:0:0:0:
320,192,262000,1,8,0:0:0:0:
192,192,262158,1,0,0:0:0:0:
320,192,262316,128,2,262474:1:0:0:0:
64,192,262316,128,0,262632:0:0:0:0:
320,192,262632,1,8,0:0:0:0:
448,192,262632,1,8,0:0:0:0:
192,192,262632,1,4,0:0:0:0:
448,192,262947,1,0,0:0:0:0:
192,192,262947,1,0,0:0:0:0:
320,192,263105,1,0,0:0:0:0:
192,192,263105,1,0,0:0:0:0:
64,192,263263,1,8,0:0:0:0:
448,192,263263,1,0,0:0:0:0:
64,192,263421,1,0,0:0:0:0:
448,192,263421,1,8,0:0:0:0:
320,192,263579,1,8,0:0:0:0:
192,192,263579,1,0,0:0:0:0:
64,192,263737,1,8,0:0:0:0:
320,192,263737,1,8,0:0:0:0:
192,192,263895,1,8,0:0:0:0:
64,192,263895,1,8,0:0:0:0:
448,192,263895,1,0,0:0:0:0:
64,192,264053,1,8,0:0:0:0:
192,192,264053,1,8,0:0:0:0:
448,192,264053,1,0,0:0:0:0:
448,192,264210,1,0,0:0:0:0:
192,192,264210,1,8,0:0:0:0:
64,192,264210,1,8,0:0:0:0:
192,192,264368,1,8,0:0:0:0:
320,192,264368,1,8,0:0:0:0:
448,192,264368,1,0,0:0:0:0:
64,192,264526,1,0,0:0:0:0:
320,192,264526,1,8,0:0:0:0:
448,192,264526,1,8,0:0:0:0:
64,192,264684,1,0,0:0:0:0:
320,192,264684,1,8,0:0:0:0:
448,192,264684,1,8,0:0:0:0:
320,192,264842,1,8,0:0:0:0:
448,192,264842,1,8,0:0:0:0:
64,192,264842,1,0,0:0:0:0:
64,192,265000,1,0,0:0:0:0:
320,192,265000,1,8,0:0:0:0:
192,192,265000,1,8,0:0:0:0:
448,192,265158,1,4,0:0:0:0:
320,192,265158,1,8,0:0:0:0:
64,192,265197,1,8,0:0:0:0:
192,192,265197,1,8,0:0:0:0:
448,192,265316,1,8,0:0:0:0:
320,192,265316,1,8,0:0:0:0:
192,192,265395,1,8,0:0:0:0:
64,192,265395,1,8,0:0:0:0:
320,192,265474,1,8,0:0:0:0:
448,192,265474,1,8,0:0:0:0:
192,192,265513,1,8,0:0:0:0:
64,192,265513,1,8,0:0:0:0:
448,192,265632,1,4,0:0:0:0:
320,192,265632,1,8,0:0:0:0:
192,192,265710,1,8,0:0:0:0:
64,192,265710,1,8,0:0:0:0:
448,192,265789,1,8,0:0:0:0:
320,192,265789,1,0,0:0:0:0:
192,192,265868,1,8,0:0:0:0:
64,192,265868,1,8,0:0:0:0:
448,192,265947,1,8,0:0:0:0:
320,192,265947,1,8,0:0:0:0:
64,192,266026,1,8,0:0:0:0:
192,192,266026,1,8,0:0:0:0:
448,192,266105,1,0,0:0:0:0:
64,192,266184,1,8,0:0:0:0:
192,192,266184,1,8,0:0:0:0:
320,192,266263,1,8,0:0:0:0:
448,192,266263,1,8,0:0:0:0:
64,192,266342,1,0,0:0:0:0:
448,192,266421,1,8,0:0:0:0:
320,192,266421,1,8,0:0:0:0:
192,192,266500,1,8,0:0:0:0:
64,192,266500,1,8,0:0:0:0:
448,192,266579,1,8,3:0:0:0:
320,192,266658,1,8,3:0:0:0:
64,192,266737,1,8,3:0:0:0:
448,192,266816,1,8,3:0:0:0:
192,192,266895,1,8,0:0:0:0:
64,192,266895,1,8,0:0:0:0:
320,192,266974,1,0,0:0:0:0:
448,192,267053,128,2,267132:1:0:0:0:
320,192,267132,128,2,267210:1:0:0:0:
64,192,267210,128,2,267289:1:0:0:0:
192,192,267289,128,2,267368:1:0:0:0:
448,192,267368,128,2,267447:0:0:0:0:
64,192,267368,1,8,0:0:0:0:
320,192,267447,128,2,267526:1:0:0:0:
64,192,267526,128,2,267605:1:0:0:0:
192,192,267605,1,0,0:0:0:0:
64,192,267684,1,4,0:0:0:0:
448,192,267684,128,8,267842:0:0:0:0:
320,192,267684,1,8,0:0:0:0:
192,192,267842,1,0,0:0:0:0:
320,192,267921,1,0,0:0:0:0:
448,192,268000,1,8,0:0:0:0:
64,192,268000,1,8,0:0:0:0:
192,192,268158,128,0,268316:0:0:0:0:
448,192,268316,1,8,0:0:0:0:
320,192,268316,1,8,0:0:0:0:
192,192,268474,1,0,0:0:0:0:
448,192,268632,1,8,0:0:0:0:
64,192,268632,128,8,268789:0:0:0:0:
192,192,268789,1,0,0:0:0:0:
320,192,268947,128,8,269105:0:0:0:0:
448,192,268947,1,8,0:0:0:0:
192,192,269105,1,0,0:0:0:0:
320,192,269184,1,0,0:0:0:0:
448,192,269263,1,8,0:0:0:0:
64,192,269263,1,8,0:0:0:0:
192,192,269421,128,0,269579:0:0:0:0:
448,192,269579,1,8,0:0:0:0:
320,192,269579,1,8,0:0:0:0:
192,192,269737,1,0,0:0:0:0:
448,192,269895,1,8,0:0:0:0:
64,192,269895,128,8,270053:0:0:0:0:
192,192,270053,1,0,0:0:0:0:
64,192,270210,1,4,0:0:0:0:
320,192,270210,1,8,0:0:0:0:
448,192,270210,128,8,270368:0:0:0:0:
192,192,270368,1,0,0:0:0:0:
320,192,270447,1,0,0:0:0:0:
448,192,270526,1,8,0:0:0:0:
64,192,270526,1,8,0:0:0:0:
192,192,270684,128,0,270842:0:0:0:0:
448,192,270842,1,8,0:0:0:0:
320,192,270842,1,8,0:0:0:0:
192,192,271000,1,0,0:0:0:0:
448,192,271158,1,8,0:0:0:0:
64,192,271158,128,8,271316:0:0:0:0:
192,192,271316,1,0,0:0:0:0:
320,192,271474,128,8,271632:0:0:0:0:
448,192,271474,1,8,0:0:0:0:
192,192,271632,1,0,0:0:0:0:
320,192,271710,1,0,0:0:0:0:
448,192,271789,1,8,0:0:0:0:
64,192,271789,1,8,0:0:0:0:
192,192,271947,128,0,272105:0:0:0:0:
448,192,272105,1,8,0:0:0:0:
320,192,272105,1,8,0:0:0:0:
192,192,272263,1,8,0:0:0:0:
64,192,272263,1,8,0:0:0:0:
320,192,272342,1,8,0:0:0:0:
448,192,272342,1,8,0:0:0:0:
192,192,272421,1,8,0:0:0:0:
64,192,272421,128,8,272579:0:0:0:0:
448,192,272500,1,8,0:0:0:0:
320,192,272500,1,8,0:0:0:0:
192,192,272579,1,0,0:0:0:0:
320,192,272658,1,0,0:0:0:0:
192,192,272737,1,4,0:0:0:0:
64,192,272737,1,0,0:0:0:0:
448,192,272737,128,0,272895:0:0:0:0:
320,192,272895,1,0,0:0:0:0:
192,192,272974,1,0,0:0:0:0:
448,192,273053,1,8,0:0:0:0:
64,192,273053,1,8,0:0:0:0:
192,192,273210,128,0,273368:0:0:0:0:
320,192,273289,1,0,0:0:0:0:
448,192,273368,1,0,0:0:0:0:
320,192,273526,1,0,0:0:0:0:
192,192,273605,1,0,0:0:0:0:
448,192,273684,1,8,0:0:0:0:
64,192,273684,128,8,273842:0:0:0:0:
192,192,273842,1,0,0:0:0:0:
320,192,273921,1,0,0:0:0:0:
448,192,274000,128,0,274158:0:0:0:0:
192,192,274158,1,0,0:0:0:0:
320,192,274237,1,0,0:0:0:0:
448,192,274316,1,8,0:0:0:0:
64,192,274316,1,8,0:0:0:0:
320,192,274474,128,0,274632:0:0:0:0:
192,192,274553,1,0,0:0:0:0:
64,192,274632,1,0,0:0:0:0:
320,192,274789,1,0,0:0:0:0:
192,192,274868,1,0,0:0:0:0:
448,192,274947,1,8,0:0:0:0:
64,192,274947,128,8,275105:0:0:0:0:
192,192,275105,1,0,0:0:0:0:
320,192,275184,1,0,0:0:0:0:
64,192,275263,1,0,0:0:0:0:
448,192,275263,1,0,0:0:0:0:
192,192,275421,1,0,0:0:0:0:
320,192,275500,1,0,0:0:0:0:
448,192,275579,1,4,0:0:0:0:
64,192,275579,1,8,0:0:0:0:
192,192,275579,1,8,0:0:0:0:
320,192,275737,128,0,275816:0:0:0:0:
448,192,275816,128,0,275895:0:0:0:0:
64,192,275895,128,0,276053:0:0:0:0:
192,192,275895,1,0,0:0:0:0:
320,192,276053,1,0,0:0:0:0:
192,192,276132,1,0,0:0:0:0:
448,192,276210,128,8,276368:0:0:0:0:
64,192,276210,128,4,276368:0:0:0:0:
320,192,276210,1,8,0:0:0:0:
320,192,276368,128,0,276526:0:0:0:0:
192,192,276526,1,4,0:0:0:0:
64,192,276526,1,0,0:0:0:0:
448,192,276526,1,0,0:0:0:0:
320,192,276605,1,8,0:0:0:0:
192,192,276684,1,8,0:0:0:0:
64,192,276684,1,8,0:0:0:0:
320,192,276763,1,8,0:0:0:0:
448,192,276763,1,8,0:0:0:0:
64,192,276842,1,8,0:0:0:0:
192,192,276842,1,8,0:0:0:0:
320,192,276921,1,8,0:0:0:0:
448,192,276921,1,8,0:0:0:0:
192,192,277000,1,0,0:0:0:0:
320,192,277079,1,0,0:0:0:0:
64,192,277158,1,8,0:0:0:0:
192,192,277158,1,8,0:0:0:0:
320,192,277237,1,8,0:0:0:0:
448,192,277237,1,8,0:0:0:0:
64,192,277316,1,8,0:0:0:0:
192,192,277316,1,8,0:0:0:0:
320,192,277395,1,8,0:0:0:0:
448,192,277395,1,8,0:0:0:0:
192,192,277474,1,8,0:0:0:0:
64,192,277474,1,8,0:0:0:0:
448,192,277553,1,8,0:0:0:0:
320,192,277553,1,8,0:0:0:0:
64,192,277632,1,8,0:0:0:0:
192,192,277632,1,8,0:0:0:0:
320,192,277710,1,8,0:0:0:0:
448,192,277789,1,0,0:0:0:0:
192,192,277789,1,4,0:0:0:0:
64,192,277789,128,0,279053:0:0:0:0:
320,192,277947,1,8,0:0:0:0:
448,192,277947,1,8,0:0:0:0:
192,192,278105,1,0,0:0:0:0:
320,192,278184,1,0,0:0:0:0:
192,192,278263,1,8,0:0:0:0:
448,192,278263,1,8,0:0:0:0:
320,192,278421,1,0,0:0:0:0:
320,192,278579,1,8,0:0:0:0:
448,192,278579,1,8,0:0:0:0:
192,192,278737,1,0,0:0:0:0:
448,192,278816,1,0,0:0:0:0:
320,192,278895,1,8,0:0:0:0:
192,192,278895,1,8,0:0:0:0:
448,192,279053,1,0,0:0:0:0:
64,192,279210,1,8,0:0:0:0:
192,192,279210,1,8,0:0:0:0:
448,192,279368,1,0,0:0:0:0:
320,192,279447,1,0,0:0:0:0:
64,192,279526,1,8,0:0:0:0:
192,192,279526,1,8,0:0:0:0:
448,192,279684,1,0,0:0:0:0:
320,192,279842,1,8,0:0:0:0:
192,192,279842,1,8,0:0:0:0:
64,192,280000,1,0,0:0:0:0:
448,192,280000,1,0,0:0:0:0:
320,192,280079,1,0,0:0:0:0:
192,192,280158,1,8,0:0:0:0:
64,192,280158,1,8,0:0:0:0:
448,192,280316,1,0,0:0:0:0:
320,192,280316,1,4,0:0:0:0:
64,192,280316,1,0,0:0:0:0:
448,192,280474,1,8,0:0:0:0:
192,192,280474,1,8,0:0:0:0:
64,192,280632,1,0,0:0:0:0:
320,192,280710,1,0,0:0:0:0:
448,192,280789,1,8,0:0:0:0:
64,192,280789,1,8,0:0:0:0:
192,192,280947,1,0,0:0:0:0:
320,192,281105,1,8,0:0:0:0:
64,192,281105,1,8,0:0:0:0:
448,192,281263,1,0,0:0:0:0:
192,192,281342,1,0,0:0:0:0:
448,192,281421,1,8,0:0:0:0:
64,192,281421,1,8,0:0:0:0:
320,192,281579,1,0,0:0:0:0:
192,192,281737,1,8,0:0:0:0:
64,192,281737,1,8,0:0:0:0:
448,192,281895,1,0,0:0:0:0:
320,192,281974,1,0,0:0:0:0:
192,192,282053,1,8,0:0:0:0:
64,192,282053,1,8,0:0:0:0:
320,192,282210,1,0,0:0:0:0:
448,192,282210,1,0,0:0:0:0:
448,192,282368,1,8,0:0:0:0:
320,192,282368,1,8,0:0:0:0:
64,192,282526,1,0,0:0:0:0:
192,192,282526,1,0,0:0:0:0:
320,192,282605,1,0,0:0:0:0:
448,192,282684,1,8,0:0:0:0:
64,192,282684,1,8,0:0:0:0:
448,192,282842,1,0,0:0:0:0:
320,192,282842,128,4,282921:0:0:0:0:
64,192,282842,1,0,0:0:0:0:
192,192,282921,1,8,0:0:0:0:
64,192,283000,1,8,0:0:0:0:
448,192,283000,1,8,0:0:0:0:
192,192,283079,1,8,0:0:0:0:
320,192,283079,1,8,0:0:0:0:
448,192,283158,1,8,0:0:0:0:
64,192,283158,128,8,283237:0:0:0:0:
320,192,283237,1,8,0:0:0:0:
448,192,283316,128,4,283395:0:0:0:0:
192,192,283316,1,8,0:0:0:0:
64,192,283316,1,8,0:0:0:0:
320,192,283395,1,8,0:0:0:0:
64,192,283474,1,8,0:0:0:0:
192,192,283474,1,8,0:0:0:0:
320,192,283553,1,8,0:0:0:0:
448,192,283553,1,8,0:0:0:0:
192,192,283632,128,8,283710:0:0:0:0:
64,192,283632,1,8,0:0:0:0:
448,192,283710,1,8,0:0:0:0:
320,192,283710,128,8,283789:0:0:0:0:
192,192,283789,128,8,283868:0:0:0:0:
64,192,283789,1,8,0:0:0:0:
320,192,283868,1,8,0:0:0:0:
448,192,283868,1,8,0:0:0:0:
64,192,283947,1,8,0:0:0:0:
192,192,283947,1,8,0:0:0:0:
448,192,284026,1,8,0:0:0:0:
320,192,284026,1,8,0:0:0:0:
192,192,284105,1,8,3:0:0:0:
64,192,284105,1,8,3:0:0:0:
320,192,284184,1,8,3:0:0:0:
64,192,284263,1,8,3:0:0:0:
192,192,284342,1,8,3:0:0:0:
320,192,284421,1,8,3:0:0:0:
448,192,284421,1,8,3:0:0:0:
192,192,284500,1,8,3:0:0:0:
448,192,284579,1,8,3:0:0:0:
320,192,284658,1,8,3:0:0:0:
192,192,284737,1,0,0:0:0:0:
64,192,284737,1,0,0:0:0:0:
320,192,284816,1,8,3:0:0:0:
448,192,284895,1,0,0:0:0:0:
64,192,284895,1,0,0:0:0:0:
192,192,284974,1,8,3:0:0:0:
320,192,285053,128,0,285210:0:0:0:0:
448,192,285053,1,0,0:0:0:0:
64,192,285132,128,0,285210:0:0:0:0:
192,192,285210,128,0,285289:0:0:0:0:
320,192,285289,128,0,285368:0:0:0:0:
64,192,285368,1,0,0:0:0:0:
448,192,285368,1,0,0:0:0:0:
192,192,285368,128,4,285526:0:0:0:0:
448,192,285526,1,8,0:0:0:0:
320,192,285526,1,0,0:0:0:0:
192,192,285684,1,0,0:0:0:0:
320,192,285763,1,0,0:0:0:0:
64,192,285842,1,8,0:0:0:0:
448,192,285842,1,8,0:0:0:0:
320,192,286000,128,0,286158:0:0:0:0:
64,192,286158,1,8,0:0:0:0:
192,192,286158,1,8,0:0:0:0:
320,192,286316,1,0,0:0:0:0:
192,192,286395,1,0,0:0:0:0:
64,192,286474,1,8,0:0:0:0:
448,192,286474,1,8,0:0:0:0:
192,192,286632,128,0,286789:0:0:0:0:
64,192,286632,1,0,0:0:0:0:
320,192,286789,1,8,0:0:0:0:
448,192,286789,1,8,0:0:0:0:
192,192,286947,1,0,0:0:0:0:
320,192,287026,1,0,0:0:0:0:
64,192,287105,1,8,0:0:0:0:
448,192,287105,1,8,0:0:0:0:
320,192,287263,128,0,287421:0:0:0:0:
64,192,287421,1,8,0:0:0:0:
192,192,287421,1,8,0:0:0:0:
320,192,287579,1,0,0:0:0:0:
192,192,287658,1,0,0:0:0:0:
64,192,287737,1,8,0:0:0:0:
448,192,287737,1,8,0:0:0:0:
320,192,287895,1,0,0:0:0:0:
448,192,287895,1,0,0:0:0:0:
192,192,287895,128,4,288053:0:0:0:0:
64,192,288053,1,8,0:0:0:0:
320,192,288053,1,8,0:0:0:0:
448,192,288210,1,0,0:0:0:0:
192,192,288210,1,0,0:0:0:0:
320,192,288289,1,0,0:0:0:0:
64,192,288368,1,8,0:0:0:0:
192,192,288368,1,8,0:0:0:0:
320,192,288526,128,0,288684:0:0:0:0:
192,192,288684,1,8,0:0:0:0:
448,192,288684,1,8,0:0:0:0:
64,192,288842,1,0,0:0:0:0:
320,192,288842,1,0,0:0:0:0:
192,192,288921,1,0,0:0:0:0:
448,192,289000,1,8,0:0:0:0:
320,192,289000,1,8,0:0:0:0:
64,192,289158,1,0,0:0:0:0:
448,192,289158,1,0,0:0:0:0:
192,192,289158,1,4,0:0:0:0:
320,192,289237,1,0,0:0:0:0:
448,192,289316,1,8,0:0:0:0:
64,192,289316,1,8,0:0:0:0:
192,192,289395,1,0,0:0:0:0:
320,192,289474,1,0,0:0:0:0:
192,192,289553,1,0,0:0:0:0:
448,192,289632,1,8,0:0:0:0:
64,192,289632,1,8,0:0:0:0:
320,192,289710,1,0,0:0:0:0:
192,192,289789,1,4,0:0:0:0:
64,192,289789,1,0,0:0:0:0:
448,192,289789,1,0,0:0:0:0:
320,192,289868,1,0,0:0:0:0:
64,192,289947,1,8,0:0:0:0:
192,192,289947,1,8,0:0:0:0:
448,192,290026,1,0,0:0:0:0:
192,192,290105,1,4,0:0:0:0:
320,192,290105,1,0,0:0:0:0:
64,192,290184,1,0,0:0:0:0:
320,192,290263,1,4,0:0:0:0:
448,192,290263,1,8,0:0:0:0:
192,192,290342,1,0,0:0:0:0:
320,192,290421,1,0,0:0:0:0:
448,192,290421,1,0,0:0:0:0:
64,192,290421,128,4,290579:0:0:0:0:
320,192,290579,1,8,0:0:0:0:
192,192,290579,1,8,0:0:0:0:
448,192,290737,1,0,0:0:0:0:
320,192,290816,1,0,0:0:0:0:
192,192,290895,1,8,0:0:0:0:
64,192,290895,1,8,0:0:0:0:
448,192,291053,128,0,291210:0:0:0:0:
192,192,291210,1,8,0:0:0:0:
320,192,291210,1,8,0:0:0:0:
64,192,291368,1,0,0:0:0:0:
192,192,291447,1,0,0:0:0:0:
320,192,291526,1,8,0:0:0:0:
448,192,291526,1,8,0:0:0:0:
64,192,291684,128,0,291842:0:0:0:0:
192,192,291684,128,0,292000:0:0:0:0:
320,192,291842,1,8,0:0:0:0:
448,192,291842,1,8,0:0:0:0:
448,192,292000,1,0,0:0:0:0:
320,192,292079,1,0,0:0:0:0:
64,192,292158,1,8,0:0:0:0:
192,192,292158,1,8,0:0:0:0:
448,192,292316,128,0,292474:0:0:0:0:
320,192,292316,128,0,292632:0:0:0:0:
192,192,292474,1,8,0:0:0:0:
64,192,292474,1,8,0:0:0:0:
64,192,292632,1,0,0:0:0:0:
192,192,292710,1,0,0:0:0:0:
448,192,292789,1,8,0:0:0:0:
320,192,292789,128,8,292868:0:0:0:0:
64,192,292868,128,0,292947:0:0:0:0:
448,192,292947,128,0,293105:0:0:0:0:
192,192,292947,1,0,0:0:0:0:
64,192,293105,1,8,0:0:0:0:
320,192,293105,128,8,293184:0:0:0:0:
192,192,293184,128,0,293895:0:0:0:0:
448,192,293263,1,0,0:0:0:0:
64,192,293342,1,0,0:0:0:0:
448,192,293421,1,8,0:0:0:0:
320,192,293421,1,8,0:0:0:0:
64,192,293500,1,0,0:0:0:0:
320,192,293579,128,0,293737:0:0:0:0:
448,192,293737,1,8,0:0:0:0:
64,192,293737,1,8,0:0:0:0:
64,192,293895,128,0,293974:0:0:0:0:
448,192,293974,128,0,294053:0:0:0:0:
320,192,294053,1,8,0:0:0:0:
192,192,294053,128,8,294210:0:0:0:0:
64,192,294210,1,8,0:0:0:0:
448,192,294210,1,8,0:0:0:0:
192,192,294289,1,8,0:0:0:0:
320,192,294289,1,8,0:0:0:0:
64,192,294368,1,0,0:0:0:0:
448,192,294447,1,0,0:0:0:0:
192,192,294526,1,8,0:0:0:0:
64,192,294526,1,8,0:0:0:0:
320,192,294605,1,8,0:0:0:0:
448,192,294605,1,8,0:0:0:0:
192,192,294684,1,0,0:0:0:0:
320,192,294763,1,0,0:0:0:0:
192,192,294842,1,8,0:0:0:0:
64,192,294842,1,8,0:0:0:0:
448,192,294921,1,8,0:0:0:0:
320,192,294921,1,8,0:0:0:0:
192,192,295000,1,8,0:0:0:0:
64,192,295000,1,8,0:0:0:0:
448,192,295079,1,8,0:0:0:0:
320,192,295079,1,8,0:0:0:0:
192,192,295158,1,8,0:0:0:0:
64,192,295158,1,8,0:0:0:0:
448,192,295237,1,8,0:0:0:0:
320,192,295237,1,8,0:0:0:0:
192,192,295316,1,8,0:0:0:0:
64,192,295316,1,8,0:0:0:0:
320,192,295474,1,4,0:0:0:0:
448,192,295474,1,8,0:0:0:0:
192,192,295474,1,8,0:0:0:0:
64,192,295553,1,0,0:0:0:0:
448,192,295632,1,8,0:0:0:0:
320,192,295632,1,8,0:0:0:0:
64,192,295710,1,0,0:0:0:0:
320,192,295789,1,8,0:0:0:0:
192,192,295789,1,8,0:0:0:0:
448,192,295868,1,0,0:0:0:0:
320,192,295947,1,8,0:0:0:0:
192,192,295947,1,8,0:0:0:0:
448,192,296026,1,0,0:0:0:0:
192,192,296105,1,8,0:0:0:0:
64,192,296105,1,8,0:0:0:0:
448,192,296184,1,0,0:0:0:0:
64,192,296263,1,8,0:0:0:0:
192,192,296263,1,8,0:0:0:0:
448,192,296342,1,0,0:0:0:0:
320,192,296421,1,8,0:0:0:0:
192,192,296421,1,8,0:0:0:0:
64,192,296500,1,0,0:0:0:0:
320,192,296579,1,8,0:0:0:0:
192,192,296579,1,8,0:0:0:0:
64,192,296658,1,0,0:0:0:0:
320,192,296737,1,8,0:0:0:0:
448,192,296737,1,8,0:0:0:0:
64,192,296816,1,0,0:0:0:0:
448,192,296895,1,8,0:0:0:0:
320,192,296895,1,8,0:0:0:0:
64,192,296974,1,0,0:0:0:0:
320,192,297053,1,8,0:0:0:0:
192,192,297053,1,8,0:0:0:0:
448,192,297132,1,0,0:0:0:0:
320,192,297210,1,8,0:0:0:0:
192,192,297210,1,8,0:0:0:0:
448,192,297289,1,0,0:0:0:0:
64,192,297368,1,8,0:0:0:0:
192,192,297368,1,8,0:0:0:0:
448,192,297447,1,0,0:0:0:0:
64,192,297526,1,8,0:0:0:0:
192,192,297526,1,8,0:0:0:0:
448,192,297605,1,0,0:0:0:0:
320,192,297684,1,8,0:0:0:0:
192,192,297684,1,8,0:0:0:0:
64,192,297763,1,0,0:0:0:0:
320,192,297842,1,8,0:0:0:0:
192,192,297842,1,8,0:0:0:0:
64,192,297921,1,0,0:0:0:0:
448,192,298000,1,8,0:0:0:0:
192,192,298000,1,8,0:0:0:0:
64,192,298079,1,0,0:0:0:0:
448,192,298158,1,8,0:0:0:0:
320,192,298158,1,8,0:0:0:0:
64,192,298237,1,0,0:0:0:0:
192,192,298316,1,8,0:0:0:0:
320,192,298316,1,8,0:0:0:0:
448,192,298395,1,0,0:0:0:0:
64,192,298474,1,8,0:0:0:0:
192,192,298474,1,8,0:0:0:0:
448,192,298553,1,0,0:0:0:0:
320,192,298632,1,8,0:0:0:0:
64,192,298632,1,8,0:0:0:0:
448,192,298710,1,0,0:0:0:0:
64,192,298789,1,8,0:0:0:0:
192,192,298789,1,8,0:0:0:0:
448,192,298868,1,0,0:0:0:0:
320,192,298947,1,8,0:0:0:0:
192,192,298947,1,8,0:0:0:0:
64,192,299026,1,0,0:0:0:0:
320,192,299105,1,8,0:0:0:0:
448,192,299105,1,8,0:0:0:0:
192,192,299184,1,0,0:0:0:0:
64,192,299263,1,12,0:0:0:0:
320,192,299263,1,8,0:0:0:0:
448,192,299263,1,8,0:0:0:0:
192,192,299421,1,8,0:0:0:0:
320,192,299421,1,4,0:0:0:0:
448,192,299421,1,8,0:0:0:0:
64,192,299579,1,8,0:0:0:0:
320,192,299579,1,8,0:0:0:0:
192,192,299579,1,4,0:0:0:0:
192,192,299737,1,8,0:0:0:0:
64,192,299737,1,8,0:0:0:0:
448,192,299737,1,12,0:0:0:0:
192,192,299895,1,8,0:0:0:0:
64,192,299895,1,8,0:0:0:0:
320,192,299934,1,8,0:0:0:0:
448,192,299934,1,8,0:0:0:0:
192,192,300053,1,0,0:0:0:0:
320,192,300132,1,0,0:0:0:0:
192,192,300210,1,8,0:0:0:0:
64,192,300210,1,8,0:0:0:0:
320,192,300289,1,8,0:0:0:0:
448,192,300289,1,8,0:0:0:0:
192,192,300368,1,0,0:0:0:0:
320,192,300447,1,0,0:0:0:0:
192,192,300526,1,4,0:0:0:0:
64,192,300526,1,0,0:0:0:0:
448,192,300526,1,0,0:0:0:0:
320,192,300605,1,0,0:0:0:0:
64,192,300684,1,8,0:0:0:0:
192,192,300684,1,8,0:0:0:0:
448,192,300763,1,0,0:0:0:0:
192,192,300842,1,8,0:0:0:0:
320,192,300842,1,8,0:0:0:0:
64,192,300921,1,0,0:0:0:0:
192,192,301000,1,8,0:0:0:0:
320,192,301000,1,8,0:0:0:0:
64,192,301079,1,0,0:0:0:0:
320,192,301158,1,8,0:0:0:0:
448,192,301158,1,8,0:0:0:0:
192,192,301237,1,0,0:0:0:0:
448,192,301316,1,8,0:0:0:0:
320,192,301316,1,8,0:0:0:0:
64,192,301395,1,0,0:0:0:0:
192,192,301474,1,8,0:0:0:0:
320,192,301474,1,8,0:0:0:0:
448,192,301553,1,0,0:0:0:0:
192,192,301632,1,8,0:0:0:0:
320,192,301632,1,8,0:0:0:0:
448,192,301710,1,0,0:0:0:0:
192,192,301789,1,8,0:0:0:0:
64,192,301789,1,8,0:0:0:0:
320,192,301868,1,0,0:0:0:0:
64,192,301947,1,8,0:0:0:0:
192,192,301947,1,8,0:0:0:0:
448,192,302026,1,0,0:0:0:0:
192,192,302105,1,8,0:0:0:0:
320,192,302105,1,8,0:0:0:0:
64,192,302184,1,0,0:0:0:0:
192,192,302263,1,8,0:0:0:0:
320,192,302263,1,8,0:0:0:0:
64,192,302342,1,0,0:0:0:0:
448,192,302421,1,8,0:0:0:0:
192,192,302421,1,8,0:0:0:0:
320,192,302500,1,0,0:0:0:0:
448,192,302579,1,8,0:0:0:0:
192,192,302579,1,8,0:0:0:0:
64,192,302658,1,0,0:0:0:0:
192,192,302737,1,8,0:0:0:0:
320,192,302737,1,8,0:0:0:0:
448,192,302816,1,0,0:0:0:0:
192,192,302895,1,8,0:0:0:0:
320,192,302895,1,8,0:0:0:0:
448,192,302974,1,0,0:0:0:0:
64,192,303053,1,8,0:0:0:0:
320,192,303053,1,4,0:0:0:0:
192,192,303132,1,0,0:0:0:0:
64,192,303210,1,8,0:0:0:0:
320,192,303210,1,8,0:0:0:0:
448,192,303289,1,0,0:0:0:0:
320,192,303368,1,8,0:0:0:0:
192,192,303368,1,8,0:0:0:0:
64,192,303447,1,0,0:0:0:0:
320,192,303526,1,8,0:0:0:0:
448,192,303526,1,8,0:0:0:0:
64,192,303605,1,0,0:0:0:0:
192,192,303684,1,8,0:0:0:0:
448,192,303684,1,8,0:0:0:0:
320,192,303763,1,0,0:0:0:0:
192,192,303842,1,8,0:0:0:0:
448,192,303842,1,8,0:0:0:0:
64,192,303921,1,0,0:0:0:0:
320,192,304000,1,8,0:0:0:0:
192,192,304000,1,8,0:0:0:0:
448,192,304079,1,0,0:0:0:0:
192,192,304158,1,8,0:0:0:0:
64,192,304158,1,8,0:0:0:0:
448,192,304237,1,0,0:0:0:0:
320,192,304316,1,8,0:0:0:0:
64,192,304316,1,8,0:0:0:0:
192,192,304395,1,0,0:0:0:0:
320,192,304474,1,8,0:0:0:0:
448,192,304474,1,8,0:0:0:0:
64,192,304553,1,0,0:0:0:0:
448,192,304632,1,8,0:0:0:0:
192,192,304632,1,8,0:0:0:0:
320,192,304710,1,0,0:0:0:0:
64,192,304789,1,8,0:0:0:0:
192,192,304789,1,8,0:0:0:0:
320,192,304868,1,0,0:0:0:0:
448,192,304947,1,8,0:0:0:0:
64,192,304947,1,8,0:0:0:0:
320,192,305026,1,8,0:0:0:0:
192,192,305026,1,8,0:0:0:0:
448,192,305105,1,8,0:0:0:0:
64,192,305105,1,8,0:0:0:0:
320,192,305184,1,8,0:0:0:0:
192,192,305184,1,8,0:0:0:0:
448,192,305263,1,8,0:0:0:0:
64,192,305263,1,8,0:0:0:0:
192,192,305342,1,8,0:0:0:0:
320,192,305342,1,8,0:0:0:0:
448,192,305421,1,8,0:0:0:0:
64,192,305421,128,8,305579:0:0:0:0:
192,192,305579,1,0,0:0:0:0:
448,192,305579,1,0,0:0:0:0:
320,192,305658,1,0,0:0:0:0:
448,192,305737,1,0,0:0:0:0:
64,192,305737,1,0,0:0:0:0:
192,192,305816,1,0,0:0:0:0:
448,192,305895,1,0,0:0:0:0:
64,192,305895,1,0,0:0:0:0:
320,192,305974,1,0,0:0:0:0:
192,192,306053,1,4,0:0:0:0:
448,192,306053,128,8,306368:0:0:0:0:
64,192,306053,128,8,306368:0:0:0:0:
192,192,306368,1,0,0:0:0:0:
320,192,306447,1,0,0:0:0:0:
192,192,306526,1,4,0:0:0:0:
448,192,306526,128,8,306842:0:0:0:0:
64,192,306526,128,8,306842:0:0:0:0:
320,192,306842,1,0,0:0:0:0:
448,192,306921,1,0,0:0:0:0:
192,192,307000,1,0,0:0:0:0:
320,192,307079,1,0,0:0:0:0:
64,192,307158,1,0,0:0:0:0:
192,192,307237,1,0,0:0:0:0:
64,192,307316,1,4,0:0:0:0:
320,192,307316,128,8,307632:0:0:0:0:
448,192,307316,128,8,307632:0:0:0:0:
64,192,307632,1,0,0:0:0:0:
192,192,307710,1,0,0:0:0:0:
64,192,307789,1,4,0:0:0:0:
320,192,307789,128,8,308105:0:0:0:0:
448,192,307789,128,8,308105:0:0:0:0:
192,192,308105,1,0,0:0:0:0:
64,192,308184,1,0,0:0:0:0:
320,192,308263,1,0,0:0:0:0:
192,192,308342,1,0,0:0:0:0:
448,192,308421,1,0,0:0:0:0:
320,192,308500,1,0,0:0:0:0:
448,192,308579,1,4,0:0:0:0:
64,192,308579,128,8,308895:0:0:0:0:
192,192,308579,128,8,308895:0:0:0:0:
448,192,308895,1,0,0:0:0:0:
320,192,308974,1,0,0:0:0:0:
448,192,309053,1,4,0:0:0:0:
64,192,309053,128,8,309368:0:0:0:0:
192,192,309053,128,8,309368:0:0:0:0:
320,192,309368,1,4,0:0:0:0:
448,192,309368,128,8,309526:0:0:0:0:
64,192,309526,1,8,0:0:0:0:
192,192,309526,128,4,309684:0:0:0:0:
64,192,309684,1,4,0:0:0:0:
448,192,309684,1,8,0:0:0:0:
320,192,309684,128,8,309842:0:0:0:0:
192,192,309842,1,8,0:0:0:0:
64,192,309842,128,4,310000:0:0:0:0:
448,192,309842,128,8,310000:0:0:0:0:
