osu file format v14

[General]
AudioFilename: audio.mp3
AudioLeadIn: 0
PreviewTime: 71004
Countdown: 1
SampleSet: Normal
StackLeniency: 0.7
Mode: 0
LetterboxInBreaks: 0
WidescreenStoryboard: 0

[Editor]
DistanceSpacing: 0.6
BeatDivisor: 4
GridSize: 32
TimelineZoom: 1

[Metadata]
Title:Astral Empire
TitleUnicode:Astral Empire
Artist:DragonForce
ArtistUnicode:DragonForce
Creator:Kyshiro
Version:Surrender
Source:
Tags:
BeatmapID:1298343
BeatmapSetID:615575

[Difficulty]
HPDrainRate:5
CircleSize:4.3
OverallDifficulty:9
ApproachRate:9.8
SliderMultiplier:1.8
SliderTickRate:1

[Events]
//Background and Video events
0,0,"wallhaven-25971.jpg",0,0
//Break Periods
2,141918,143440
2,255363,258970
//Storyboard Layer 0 (Background)
//Storyboard Layer 1 (Fail)
//Storyboard Layer 2 (Pass)
//Storyboard Layer 3 (Foreground)
//Storyboard Sound Samples

[TimingPoints]
290,267.857142857143,4,1,1,65,1,0
71004,-90.9090909090909,4,1,1,65,0,1
88147,-100,4,1,1,65,0,0
113861,-66.6666666666667,4,1,1,65,0,0
122432,-90.9090909090909,4,1,1,65,0,1
141718,550.45871559633,4,1,1,65,1,0
143919,-285.714285714286,4,1,1,40,0,0
145984,-285.714285714286,4,2,0,5,0,0
146121,-200,4,1,1,40,0,0
148323,-153.846153846154,4,1,1,40,0,0
148736,-153.846153846154,4,2,0,5,0,0
148873,-285.714285714286,4,1,1,40,0,0
152589,-285.714285714286,4,2,0,5,0,0
152727,-200,4,1,1,40,0,0
154929,-153.846153846154,4,1,1,40,0,0
159332,555.555555555556,4,1,1,65,1,0
199332,275.229357798165,4,1,1,65,1,0
200983,-133.333333333333,4,1,1,65,0,0
203735,267.857142857143,4,1,1,65,1,1
203735,-80,4,1,1,65,0,1
207083,-80,4,2,0,5,0,0
207127,-80,4,1,1,65,0,0
207261,-80,4,2,0,5,0,0
207305,-80,4,1,1,65,0,0
207440,-80,4,2,0,5,0,0
207484,-80,4,1,1,65,0,0
207618,-80,4,2,0,5,0,0
207662,-80,4,1,1,65,0,0
207797,-80,4,2,0,5,0,0
207841,-80,4,1,1,65,0,0
207976,-80,4,2,0,5,0,0
208020,-80,4,1,1,65,0,1
211770,-100,4,1,1,65,0,0
212038,-100,4,2,0,5,0,0
212055,-100,4,1,1,65,0,0
212306,-80,4,1,1,65,0,1
215520,-80,4,1,1,65,0,0
216592,-100,4,1,1,65,0,1
220877,-80,4,1,1,65,0,0
225163,-80,4,1,1,65,0,1
229449,-80,4,1,1,65,0,0
233735,-80,4,1,1,65,0,1
237953,-80,4,1,1,65,0,0
238020,-80,4,1,1,65,0,1
246056,-80,4,1,1,65,0,0
246592,-80,4,1,1,65,0,1
255163,-100,4,1,1,65,0,0
259449,-100,4,1,1,65,0,0
262663,-80,4,1,1,65,0,0
263132,-71.4285714285714,4,2,0,5,0,0
263199,-71.4285714285714,4,1,1,65,0,0
263668,-71.4285714285714,4,2,0,5,0,0
263735,-80,4,1,1,65,0,1
274449,-74.0740740740741,4,1,1,65,0,0
283020,-83.3333333333333,4,1,1,65,0,1
300163,-80,4,1,1,65,0,0

[Colours]
Combo1 : 252,194,203
Combo2 : 205,202,232
Combo3 : 242,227,204

[HitObjects]
166,123,4575,6,0,L|155:230,1,90
75,77,4843,1,0,0:0:0:0:
272,178,4977,1,0,0:0:0:0:
46,216,5111,2,0,P|117:230|150:247,1,90
362,133,5379,2,0,B|273:166|273:99|185:133,1,180
309,275,5781,5,0,0:0:0:0:
457,179,5915,2,0,P|468:121|458:84,1,90
256,159,6182,2,0,L|359:181,1,90
159,75,6450,2,0,B|122:126|122:126|152:260,1,180
256,159,6852,5,0,0:0:0:0:
70,242,6986,2,0,L|173:268,1,90
332,156,7254,2,0,L|229:182,1,90
449,228,7522,2,0,L|508:147,1,90
302,33,7790,5,0,0:0:0:0:
282,62,7856,1,0,0:0:0:0:
268,95,7923,1,0,0:0:0:0:
257,129,7990,1,0,0:0:0:0:
250,164,8057,1,0,0:0:0:0:
181,63,8191,1,0,0:0:0:0:
353,139,8325,1,0,0:0:0:0:
208,231,8459,1,0,0:0:0:0:
362,116,8593,2,0,L|464:133,1,90
318,319,8861,6,0,L|335:217,1,90
416,373,9129,1,0,0:0:0:0:
220,259,9263,1,0,0:0:0:0:
413,288,9397,2,0,P|465:280|505:266,1,90
347,103,9665,2,0,B|318:156|318:156|340:214|340:214|316:268,1,180
437,163,10066,5,0,0:0:0:0:
230,89,10200,2,0,P|204:140|202:181,1,90
103,319,10468,2,0,P|96:274|74:236,1,90
133,71,10736,2,0,P|199:82|294:20,1,180
31,132,11138,5,0,0:0:0:0:
225,174,11272,2,0,P|164:178|125:194,1,90
323,294,11540,1,0,0:0:0:0:
353,176,11673,1,0,0:0:0:0:
211,278,11807,1,0,0:0:0:0:
438,322,11941,1,0,0:0:0:0:
188,283,12075,5,0,0:0:0:0:
265,109,12209,1,0,0:0:0:0:
333,312,12343,1,0,0:0:0:0:
88,335,12477,1,0,0:0:0:0:
306,207,12611,5,0,0:0:0:0:
97,170,12745,1,0,0:0:0:0:
344,325,12879,1,0,0:0:0:0:
393,119,13013,1,0,0:0:0:0:
184,232,13147,6,0,L|168:288,3,45
254,296,13415,2,0,L|268:352,3,45
348,312,13682,2,0,L|388:353,3,45
447,286,13950,2,0,L|502:302,3,45
436,188,14218,5,0,0:0:0:0:
400,167,14285,1,0,0:0:0:0:
359,165,14352,1,0,0:0:0:0:
320,178,14419,1,0,0:0:0:0:
293,208,14486,1,0,0:0:0:0:
255,223,14553,1,0,0:0:0:0:
214,220,14620,1,0,0:0:0:0:
179,198,14687,1,0,0:0:0:0:
162,161,14754,5,0,0:0:0:0:
162,178,14821,1,0,0:0:0:0:
160,195,14888,1,0,0:0:0:0:
156,212,14955,1,0,0:0:0:0:
151,229,15022,1,0,0:0:0:0:
144,245,15089,1,0,0:0:0:0:
135,260,15156,1,0,0:0:0:0:
124,274,15223,1,0,0:0:0:0:
112,287,15290,1,0,0:0:0:0:
96,294,15557,6,0,L|193:307,1,90
384,214,15825,2,0,L|287:227,1,90
60,127,16093,2,0,B|111:134|146:153|146:153|178:117|221:101,1,180
126,33,16495,5,0,0:0:0:0:
334,67,16629,2,0,P|335:122|319:159,1,90
454,333,16897,2,0,P|439:290|442:246,1,90
147,269,17165,2,0,P|216:249|320:295,1,180
89,368,17566,5,0,0:0:0:0:
3,192,17700,2,0,L|10:291,1,90
123,63,17968,2,0,L|116:162,1,90
239,123,18236,1,0,0:0:0:0:
22,51,18370,1,0,0:0:0:0:
206,235,18504,5,0,0:0:0:0:
246,240,18571,1,0,0:0:0:0:
285,231,18638,1,0,0:0:0:0:
316,205,18705,1,0,0:0:0:0:
351,184,18772,1,0,0:0:0:0:
391,180,18839,1,0,0:0:0:0:
430,190,18906,1,0,0:0:0:0:
461,215,18973,1,0,0:0:0:0:
471,254,19040,2,0,L|464:307,3,45
385,273,19307,1,0,0:0:0:0:
385,273,19575,6,0,P|366:221|371:176,1,90
461,107,19843,1,0,0:0:0:0:
247,43,19977,2,0,P|272:84|249:211,1,180
65,164,20379,2,0,L|161:149,1,90
329,256,20647,5,0,0:0:0:0:
191,270,20781,1,0,0:0:0:0:
381,168,20915,1,0,0:0:0:0:
381,168,20981,1,0,0:0:0:0:
381,168,21048,1,0,0:0:0:0:
273,340,21182,1,0,0:0:0:0:
284,125,21316,1,0,0:0:0:0:
435,258,21450,1,0,0:0:0:0:
435,258,21517,1,0,0:0:0:0:
435,258,21584,1,0,0:0:0:0:
192,182,21718,6,0,L|180:126,3,45
270,255,21986,2,0,L|282:199,3,45
195,333,22254,2,0,L|183:277,3,45
295,356,22523,1,0,0:0:0:0:
330,348,22590,1,0,0:0:0:0:
365,341,22657,1,0,0:0:0:0:
399,334,22723,1,0,0:0:0:0:
434,327,22790,6,0,P|457:271|458:236,1,90
273,102,23057,2,0,P|278:146|297:186,1,90
493,51,23325,1,0,0:0:0:0:
453,30,23392,1,0,0:0:0:0:
408,27,23459,1,0,0:0:0:0:
365,40,23526,1,0,0:0:0:0:
330,68,23593,1,0,0:0:0:0:
288,84,23660,1,0,0:0:0:0:
243,81,23727,1,0,0:0:0:0:
201,62,23794,1,0,0:0:0:0:
172,27,23861,1,0,0:0:0:0:
154,6,24129,6,0,P|142:73|120:112,1,90
234,283,24397,2,0,P|217:241|212:196,1,90
465,100,24665,2,0,B|407:131|407:131|287:105,1,180
391,32,25066,5,0,0:0:0:0:
489,205,25200,2,0,L|471:313,1,90
252,209,25468,2,0,L|360:227,1,90
207,325,25736,2,0,B|118:358|118:291|30:325,1,180
316,321,26138,5,0,0:0:0:0:
178,147,26272,2,0,P|158:209|164:244,1,90
291,130,26540,1,0,0:0:0:0:
116,77,26673,1,0,0:0:0:0:
334,48,26807,1,0,0:0:0:0:
68,161,26941,1,0,0:0:0:0:
290,251,27075,5,0,0:0:0:0:
316,226,27142,1,0,0:0:0:0:
349,213,27209,1,0,0:0:0:0:
385,213,27276,1,0,0:0:0:0:
416,231,27343,1,0,0:0:0:0:
446,224,27410,1,0,0:0:0:0:
474,210,27477,1,0,0:0:0:0:
498,190,27544,1,0,0:0:0:0:
511,161,27611,1,0,0:0:0:0:
489,126,27678,1,0,0:0:0:0:
452,108,27745,1,0,0:0:0:0:
411,107,27812,1,0,0:0:0:0:
374,125,27879,1,0,0:0:0:0:
339,145,27946,1,0,0:0:0:0:
298,146,28013,1,0,0:0:0:0:
260,130,28080,1,0,0:0:0:0:
235,97,28147,6,0,L|132:83,1,90
59,152,28415,1,0,0:0:0:0:
280,210,28548,2,0,P|203:194|107:259,1,180
291,316,28950,2,0,L|397:302,1,90
104,247,29218,6,0,L|-2:233,1,90
89,104,29486,1,0,0:0:0:0:
191,192,29620,2,0,B|212:250|212:250|186:305|186:305|204:363,1,180
291,316,30022,1,0,0:0:0:0:
104,247,30156,1,0,0:0:0:0:
351,233,30290,6,0,L|400:220,3,45
272,171,30557,2,0,L|223:158,3,45
350,115,30825,2,0,L|399:102,3,45
488,54,31093,1,0,0:0:0:0:
478,79,31160,1,0,0:0:0:0:
471,105,31227,1,0,0:0:0:0:
465,131,31294,1,0,0:0:0:0:
461,157,31361,1,0,0:0:0:0:
501,243,31495,5,0,0:0:0:0:
334,196,31629,1,0,0:0:0:0:
423,328,31763,1,0,0:0:0:0:
376,108,31897,1,0,0:0:0:0:
345,100,31964,1,0,0:0:0:0:
313,100,32031,1,0,0:0:0:0:
283,112,32098,1,0,0:0:0:0:
260,133,32165,1,0,0:0:0:0:
232,146,32231,1,0,0:0:0:0:
200,149,32298,1,0,0:0:0:0:
169,141,32365,1,0,0:0:0:0:
143,122,32432,1,0,0:0:0:0:
127,99,32700,6,0,L|136:7,1,90
277,232,32968,2,0,L|285:321,1,90
64,237,33236,2,0,B|106:217|106:217|159:226,1,90
414,139,33504,6,0,B|349:159|349:159|234:119,1,180
348,55,33906,1,0,0:0:0:0:
460,230,34040,2,0,L|448:330,1,90
230,112,34307,2,0,L|219:22,1,90
152,262,34575,6,0,B|240:294|240:228|328:262,1,180
283,345,34977,1,0,0:0:0:0:
195,180,35111,1,0,0:0:0:0:
407,305,35245,1,0,0:0:0:0:
173,357,35379,2,0,L|74:343,1,90
301,220,35647,6,0,L|436:209,2,135
155,111,36182,2,0,L|20:100,2,135
285,27,36718,6,0,P|313:71|325:109,1,90
359,291,36986,1,0,0:0:0:0:
359,291,37053,1,0,0:0:0:0:
359,291,37120,2,0,P|373:248|398:211,1,90
493,315,37388,1,0,0:0:0:0:
266,353,37522,2,0,L|171:343,1,90
76,202,37790,6,0,P|152:187|232:248,1,180
405,135,38191,2,0,P|350:161|314:164,1,90
213,107,38459,1,0,0:0:0:0:
503,93,38593,2,0,L|483:197,1,90
344,293,38861,6,0,B|283:280|283:280|225:297|225:297|165:284,1,180
203,110,39263,2,0,L|221:205,1,90
106,80,39531,1,0,0:0:0:0:
353,60,39665,2,0,P|309:55|263:37,1,90
329,194,39932,6,0,P|389:157|505:157,1,180
287,311,40334,1,0,0:0:0:0:
196,186,40468,1,0,0:0:0:0:
181,157,40535,1,0,0:0:0:0:
170,127,40602,1,0,0:0:0:0:
163,96,40669,1,0,0:0:0:0:
160,64,40736,1,0,0:0:0:0:
151,108,40803,1,0,0:0:0:0:
134,149,40870,1,0,0:0:0:0:
109,187,40937,1,0,0:0:0:0:
77,218,41004,6,0,L|51:113,1,90
193,321,41272,2,0,L|219:216,1,90
313,135,41540,1,0,0:0:0:0:
378,281,41673,1,0,0:0:0:0:
299,112,41807,2,0,P|289:59|294:21,1,90
505,175,42075,6,0,P|460:170|415:186,1,90
275,242,42343,1,0,0:0:0:0:
472,282,42477,1,0,0:0:0:0:
415,79,42611,2,0,L|396:185,1,90
273,347,42879,2,0,L|257:258,1,90
274,52,43147,6,0,P|186:44|115:114,1,180
220,150,43548,1,0,0:0:0:0:
87,201,43682,2,0,B|42:206|42:206|-2:189,1,90
264,241,43950,2,0,B|305:224|305:224|350:229,1,90
318,337,44218,5,0,0:0:0:0:
173,269,44352,1,0,0:0:0:0:
424,303,44486,1,0,0:0:0:0:
424,303,44553,1,0,0:0:0:0:
424,303,44620,1,0,0:0:0:0:
215,368,44754,1,0,0:0:0:0:
131,177,44888,1,0,0:0:0:0:
315,133,45022,1,0,0:0:0:0:
311,159,45089,1,0,0:0:0:0:
307,185,45156,1,0,0:0:0:0:
304,211,45223,1,0,0:0:0:0:
301,237,45290,6,0,L|396:224,1,90
490,170,45557,1,0,0:0:0:0:
215,157,45691,2,0,L|25:131,1,180
322,17,46093,2,0,P|336:71|330:116,1,90
113,66,46361,6,0,P|167:52|212:58,1,90
404,162,46629,1,0,0:0:0:0:
263,310,46763,2,0,B|238:256|238:256|259:199|259:199|239:142,1,180
69,180,47165,2,0,B|111:201|111:201|160:197,1,90
421,239,47432,6,0,B|378:235|378:235|336:256,1,90
205,83,47700,1,0,0:0:0:0:
205,83,47767,1,0,0:0:0:0:
205,83,47834,2,0,B|230:118|276:138|276:138|325:124|361:98,1,180
289,14,48236,1,0,0:0:0:0:
289,14,48303,1,0,0:0:0:0:
289,14,48370,1,0,0:0:0:0:
461,67,48504,6,0,L|448:164,1,90
478,280,48772,1,0,0:0:0:0:
329,208,48906,1,0,0:0:0:0:
295,193,48973,1,0,0:0:0:0:
259,188,49040,1,0,0:0:0:0:
223,191,49106,1,0,0:0:0:0:
189,204,49173,1,0,0:0:0:0:
161,227,49240,1,0,0:0:0:0:
140,256,49307,1,0,0:0:0:0:
140,219,49374,1,0,0:0:0:0:
129,184,49441,1,0,0:0:0:0:
110,152,49508,1,0,0:0:0:0:
86,124,49575,6,0,L|-11:134,1,90
195,103,49843,1,0,0:0:0:0:
62,228,49977,2,0,P|126:217|236:284,1,180
387,142,50379,2,0,P|337:165|293:166,1,90
374,371,50647,6,0,P|351:321|350:277,1,90
319,59,50915,1,0,0:0:0:0:
497,110,51048,2,0,B|472:167|472:167|501:219|501:219|480:276,1,180
303,207,51450,2,0,L|404:222,1,90
210,295,51718,6,0,L|109:310,1,90
3,158,51986,1,0,0:0:0:0:
3,158,52053,1,0,0:0:0:0:
3,158,52120,2,0,B|70:131|70:131|181:172,1,180
66,240,52522,1,0,0:0:0:0:
260,198,52656,1,0,0:0:0:0:
169,59,52790,6,0,L|148:159,1,90
187,291,53057,1,0,0:0:0:0:
57,101,53191,1,0,0:0:0:0:
291,175,53325,1,0,0:0:0:0:
306,196,53392,1,0,0:0:0:0:
319,219,53459,1,0,0:0:0:0:
331,242,53526,1,0,0:0:0:0:
341,267,53593,1,0,0:0:0:0:
348,227,53660,1,0,0:0:0:0:
363,189,53727,1,0,0:0:0:0:
383,153,53794,1,0,0:0:0:0:
409,122,53861,6,0,L|503:137,1,90
274,152,54129,2,0,L|289:58,1,90
300,278,54397,2,0,L|211:263,1,90
179,258,54598,1,0,0:0:0:0:
179,258,54665,1,0,0:0:0:0:
391,212,54798,1,0,0:0:0:0:
78,205,54932,6,0,P|68:269|82:310,1,90
196,149,55200,1,0,0:0:0:0:
181,137,55267,1,0,0:0:0:0:
166,126,55334,1,0,0:0:0:0:
151,114,55401,1,0,0:0:0:0:
137,102,55468,2,0,P|85:90|47:96,1,90
222,265,55736,1,0,0:0:0:0:
248,259,55803,1,0,0:0:0:0:
274,254,55870,1,0,0:0:0:0:
300,249,55937,1,0,0:0:0:0:
326,244,56004,6,0,P|349:197|347:148,1,90
147,108,56272,2,0,P|176:151|219:174,1,90
354,33,56540,2,0,P|301:36|260:62,1,90
427,259,56807,1,0,0:0:0:0:
436,243,56874,1,0,0:0:0:0:
445,227,56941,1,0,0:0:0:0:
454,211,57008,1,0,0:0:0:0:
463,196,57075,6,0,L|456:96,1,90
318,225,57343,2,0,L|311:314,1,90
144,345,57611,1,0,0:0:0:0:
127,323,57678,1,0,0:0:0:0:
114,298,57745,1,0,0:0:0:0:
105,272,57812,1,0,0:0:0:0:
101,245,57879,1,0,0:0:0:0:
113,221,57946,1,0,0:0:0:0:
121,195,58013,1,0,0:0:0:0:
125,168,58080,1,0,0:0:0:0:
127,141,58147,6,0,L|30:125,1,90
195,261,58415,1,0,0:0:0:0:
4,311,58548,2,0,L|20:214,1,90
210,47,58816,1,0,0:0:0:0:
224,64,58883,1,0,0:0:0:0:
237,82,58950,1,0,0:0:0:0:
249,100,59017,1,0,0:0:0:0:
259,119,59084,1,0,0:0:0:0:
269,138,59151,1,0,0:0:0:0:
277,158,59218,6,0,P|331:160|386:142,1,90
474,211,59486,1,0,0:0:0:0:
210,263,59620,2,0,P|291:251|394:301,1,180
115,332,60022,2,0,P|95:281|100:234,1,90
190,78,60290,6,0,P|189:122|171:163,1,90
53,136,60557,1,0,0:0:0:0:
210,263,60691,2,0,L|323:250,1,90
430,198,60959,1,0,0:0:0:0:
304,30,61093,2,0,L|317:143,1,90
247,348,61361,5,0,0:0:0:0:
245,312,61428,1,0,0:0:0:0:
237,276,61495,1,0,0:0:0:0:
225,241,61562,1,0,0:0:0:0:
210,207,61629,2,0,L|147:197,3,45
85,124,61897,1,0,0:0:0:0:
120,125,61964,1,0,0:0:0:0:
155,116,62031,1,0,0:0:0:0:
182,99,62098,1,0,0:0:0:0:
205,77,62165,2,0,L|259:87,3,45
301,163,62432,6,0,P|353:158|402:141,1,90
481,220,62700,1,0,0:0:0:0:
481,220,62767,1,0,0:0:0:0:
481,220,62834,1,0,0:0:0:0:
320,271,62968,2,0,P|276:258|232:254,1,90
130,313,63236,1,0,0:0:0:0:
130,313,63303,1,0,0:0:0:0:
130,313,63370,1,0,0:0:0:0:
317,368,63504,6,0,L|420:361,1,90
459,252,63772,1,0,0:0:0:0:
459,252,63839,1,0,0:0:0:0:
459,252,63906,1,0,0:0:0:0:
330,154,64040,2,0,P|314:201|316:249,1,90
218,120,64307,2,0,P|217:75|202:33,1,90
94,98,64575,5,0,0:0:0:0:
195,200,64709,1,0,0:0:0:0:
307,62,64843,1,0,0:0:0:0:
92,198,64977,1,0,0:0:0:0:
246,285,65111,1,0,0:0:0:0:
200,42,65245,1,0,0:0:0:0:
66,208,65379,2,0,L|56:314,1,90
281,182,65647,5,0,0:0:0:0:
141,126,65781,1,0,0:0:0:0:
255,297,65915,2,0,L|355:285,1,90
486,147,66182,1,0,0:0:0:0:
455,165,66249,1,0,0:0:0:0:
420,175,66316,1,0,0:0:0:0:
383,174,66383,1,0,0:0:0:0:
349,161,66450,1,0,0:0:0:0:
316,145,66517,1,0,0:0:0:0:
280,139,66584,1,0,0:0:0:0:
244,143,66651,1,0,0:0:0:0:
212,161,66718,6,0,P|190:202|181:257,1,90
85,137,66986,1,0,0:0:0:0:
85,137,67053,1,0,0:0:0:0:
85,137,67120,2,0,P|75:93|54:53,1,90
66,245,67388,1,0,0:0:0:0:
269,71,67522,2,0,L|165:61,1,90
304,214,67790,6,0,L|408:204,1,90
495,105,68057,1,0,0:0:0:0:
495,105,68124,1,0,0:0:0:0:
495,105,68191,2,0,P|432:84|396:87,1,90
231,159,68459,1,0,0:0:0:0:
394,309,68593,2,0,L|416:213,1,90
327,26,68861,6,0,L|332:80,5,45
251,101,69263,6,0,L|246:155,5,45
332,186,69665,6,0,L|337:240,3,45
277,291,69932,5,0,0:0:0:0:
249,261,69999,1,0,0:0:0:0:
210,247,70066,1,0,0:0:0:0:
169,251,70133,1,0,0:0:0:0:
136,275,70200,1,0,0:0:0:0:
95,277,70267,1,0,0:0:0:0:
62,252,70334,5,0,0:0:0:0:
58,211,70401,1,0,0:0:0:0:
81,177,70468,1,0,0:0:0:0:
120,169,70535,1,0,0:0:0:0:
152,144,70602,1,0,0:0:0:0:
155,103,70669,1,0,0:0:0:0:
132,69,70736,5,0,0:0:0:0:
92,58,70803,1,0,0:0:0:0:
54,72,70870,1,0,0:0:0:0:
39,110,70937,1,0,0:0:0:0:
53,153,71004,6,0,L|162:143,1,99.0000030212403
1,252,71272,1,0,0:0:0:0:
259,255,71406,2,0,P|188:244|84:324,1,198.000006042481
361,316,71807,2,0,P|378:250|370:214,1,99.0000030212403
282,144,72075,5,0,0:0:0:0:
270,352,72209,1,0,0:0:0:0:
413,109,72343,1,0,0:0:0:0:
170,130,72477,2,0,L|268:153,1,99.0000030212403
72,192,72745,1,0,0:0:0:0:
273,253,72879,2,0,L|371:230,1,99.0000030212403
71,70,73147,6,0,P|52:136|63:176,1,99.0000030212403
149,243,73415,1,0,0:0:0:0:
362,129,73548,2,0,B|265:164|265:92|169:129,1,198.000006042481
344,264,73950,1,0,0:0:0:0:
372,257,74017,1,0,0:0:0:0:
401,250,74084,1,0,0:0:0:0:
258,230,74218,5,0,0:0:0:0:
476,301,74352,1,0,0:0:0:0:
257,335,74486,1,0,0:0:0:0:
229,328,74553,1,0,0:0:0:0:
200,321,74620,1,0,0:0:0:0:
98,205,74754,2,0,L|88:156,3,49.5000015106202
188,78,75022,2,0,L|178:127,3,49.5000015106202
250,205,75290,6,0,P|311:211|353:196,1,99.0000030212403
292,95,75557,1,0,0:0:0:0:
461,159,75691,2,0,L|444:267,1,99.0000030212403
341,309,75959,1,0,0:0:0:0:
144,137,76093,1,0,0:0:0:0:
177,115,76160,1,0,0:0:0:0:
214,102,76227,1,0,0:0:0:0:
253,95,76294,1,0,0:0:0:0:
292,95,76361,6,0,L|310:201,1,99.0000030212403
127,295,76629,1,0,0:0:0:0:
103,288,76696,1,0,0:0:0:0:
79,281,76763,2,0,P|61:235|68:181,1,99.0000030212403
179,87,77031,1,0,0:0:0:0:
388,184,77165,1,0,0:0:0:0:
356,207,77231,1,0,0:0:0:0:
319,223,77298,1,0,0:0:0:0:
279,227,77365,1,0,0:0:0:0:
240,219,77432,1,0,0:0:0:0:
290,120,77566,5,0,0:0:0:0:
384,293,77700,1,0,0:0:0:0:
390,72,77834,1,0,0:0:0:0:
279,227,77968,2,0,L|263:332,1,99.0000030212403
179,161,78236,2,0,L|164:63,1,99.0000030212403
46,216,78504,5,0,0:0:0:0:
42,245,78571,1,0,0:0:0:0:
38,274,78638,1,0,0:0:0:0:
199,266,78772,1,0,0:0:0:0:
170,262,78839,1,0,0:0:0:0:
141,258,78906,1,0,0:0:0:0:
279,339,79040,2,0,L|382:332,1,99.0000030212403
490,194,79307,1,0,0:0:0:0:
456,172,79374,1,0,0:0:0:0:
416,165,79441,1,0,0:0:0:0:
376,168,79508,1,0,0:0:0:0:
340,185,79575,6,0,P|301:139|291:97,1,99.0000030212403
401,50,79843,1,0,0:0:0:0:
416,249,79977,2,0,L|399:354,1,99.0000030212403
278,381,80245,1,0,0:0:0:0:
212,237,80379,2,0,P|277:245|317:275,1,99.0000030212403
129,339,80647,6,0,B|81:293|81:293|97:150,1,198.000006042481
194,65,81048,1,0,0:0:0:0:
190,215,81182,1,0,0:0:0:0:
50,70,81316,1,0,0:0:0:0:
287,142,81450,1,0,0:0:0:0:
310,174,81517,1,0,0:0:0:0:
328,208,81584,1,0,0:0:0:0:
341,245,81651,1,0,0:0:0:0:
351,283,81718,6,0,P|379:229|405:194,1,99.0000030212403
444,337,81986,1,0,0:0:0:0:
259,89,82120,2,0,P|287:129|309:173,1,99.0000030212403
229,263,82388,1,0,0:0:0:0:
62,162,82522,2,0,L|171:170,1,99.0000030212403
334,286,82790,6,0,P|270:266|162:338,1,198.000006042481
270,380,83191,1,0,0:0:0:0:
446,291,83325,2,0,B|460:244|460:244|446:193,1,99.0000030212403
283,88,83593,2,0,B|269:136|269:136|283:183,1,99.0000030212403
401,48,83861,6,0,B|304:12|304:84|208:48,1,198.000006042481
47,119,84263,2,0,P|100:142|128:177,1,99.0000030212403
185,291,84531,1,0,0:0:0:0:
29,322,84665,2,0,L|39:209,1,99.0000030212403
232,92,84932,6,0,L|240:190,1,99.0000030212403
348,260,85200,1,0,0:0:0:0:
456,125,85334,2,0,L|357:133,1,99.0000030212403
236,307,85602,1,0,0:0:0:0:
424,343,85736,1,0,0:0:0:0:
444,308,85803,1,0,0:0:0:0:
455,270,85870,1,0,0:0:0:0:
456,230,85937,1,0,0:0:0:0:
448,191,86004,6,0,P|436:143|437:94,1,99.0000030212403
300,24,86272,1,0,0:0:0:0:
294,53,86339,1,0,0:0:0:0:
285,81,86406,1,0,0:0:0:0:
178,147,86540,2,0,L|75:128,1,99.0000030212403
261,237,86807,1,0,0:0:0:0:
290,233,86874,1,0,0:0:0:0:
319,230,86941,1,0,0:0:0:0:
150,52,87075,5,0,0:0:0:0:
112,76,87142,1,0,0:0:0:0:
94,117,87209,1,0,0:0:0:0:
96,161,87276,1,0,0:0:0:0:
115,201,87343,1,0,0:0:0:0:
140,237,87410,1,0,0:0:0:0:
140,281,87477,1,0,0:0:0:0:
121,321,87544,1,0,0:0:0:0:
82,342,87611,2,0,L|18:337,3,49.5000015106202
206,328,87879,1,0,0:0:0:0:
245,297,87946,1,0,0:0:0:0:
292,282,88013,1,0,0:0:0:0:
341,276,88080,1,0,0:0:0:0:
389,286,88147,6,0,L|406:382,1,90
510,150,88415,2,0,L|493:246,1,90
293,165,88682,2,0,P|346:160|393:171,1,90
185,207,88950,2,0,P|180:154|191:107,1,90
278,51,89218,5,0,0:0:0:0:
317,248,89352,1,0,0:0:0:0:
398,16,89486,1,0,0:0:0:0:
249,152,89620,1,0,0:0:0:0:
425,263,89754,1,0,0:0:0:0:
177,258,89888,1,0,0:0:0:0:
374,150,90022,1,0,0:0:0:0:
156,113,90156,2,0,L|91:120,1,45
28,161,90290,5,0,0:0:0:0:
22,196,90356,1,0,0:0:0:0:
16,231,90423,1,0,0:0:0:0:
183,223,90557,1,0,0:0:0:0:
177,258,90623,1,0,0:0:0:0:
171,293,90690,1,0,0:0:0:0:
351,156,90825,2,0,L|342:100,1,45
259,140,90959,2,0,L|203:149,1,45
257,227,91093,2,0,L|266:283,1,45
349,243,91227,2,0,L|405:234,1,45
461,157,91361,5,0,0:0:0:0:
470,122,91428,1,0,0:0:0:0:
480,87,91495,1,0,0:0:0:0:
318,95,91629,1,0,0:0:0:0:
309,60,91696,1,0,0:0:0:0:
299,25,91763,1,0,0:0:0:0:
198,118,91897,1,0,0:0:0:0:
188,153,91964,1,0,0:0:0:0:
179,188,92031,1,0,0:0:0:0:
24,107,92165,2,0,P|21:52|77:86,1,135
66,112,92432,6,0,L|59:176,3,45
6,218,92700,2,0,L|13:282,3,45
86,310,92968,1,0,0:0:0:0:
122,284,93035,1,0,0:0:0:0:
166,277,93102,1,0,0:0:0:0:
209,289,93169,1,0,0:0:0:0:
244,317,93236,1,0,0:0:0:0:
288,322,93303,1,0,0:0:0:0:
331,312,93370,1,0,0:0:0:0:
367,286,93437,1,0,0:0:0:0:
389,246,93504,1,0,0:0:0:0:
284,209,93638,5,0,0:0:0:0:
486,264,93772,1,0,0:0:0:0:
321,108,93906,1,0,0:0:0:0:
248,306,94040,1,0,0:0:0:0:
402,194,94173,1,0,0:0:0:0:
175,226,94307,2,0,L|119:234,1,45
61,143,94441,2,0,L|117:151,1,45
191,107,94575,5,0,0:0:0:0:
35,229,94709,1,0,0:0:0:0:
29,264,94776,1,0,0:0:0:0:
24,299,94843,1,0,0:0:0:0:
144,348,94977,1,0,0:0:0:0:
197,135,95111,1,0,0:0:0:0:
203,170,95178,1,0,0:0:0:0:
208,205,95245,1,0,0:0:0:0:
359,231,95379,1,0,0:0:0:0:
353,266,95446,1,0,0:0:0:0:
348,301,95513,1,0,0:0:0:0:
470,161,95647,5,0,0:0:0:0:
292,146,95781,2,0,B|364:202|364:202|453:169,1,180
250,245,96182,1,0,0:0:0:0:
348,301,96316,2,0,P|260:288|191:340,1,180
75,264,96718,1,0,0:0:0:0:
64,256,96986,6,0,B|42:215|42:215|53:171,1,90
266,177,97254,2,0,B|223:166|223:166|182:188,1,90
248,306,97522,2,0,B|320:323|320:323|422:281,1,180
493,183,97923,5,0,0:0:0:0:
382,82,98057,2,0,L|370:180,1,90
229,302,98325,2,0,L|218:212,1,90
177,59,98593,2,0,P|120:39|13:104,1,180
19,206,98995,5,0,0:0:0:0:
134,220,99129,2,0,P|126:158|106:127,1,90
258,275,99397,2,0,P|238:315|236:360,1,90
334,144,99665,2,0,L|240:155,1,90
464,261,99932,5,0,0:0:0:0:
499,143,100066,1,0,0:0:0:0:
335,232,100200,1,0,0:0:0:0:
335,232,100267,1,0,0:0:0:0:
335,232,100334,1,0,0:0:0:0:
490,290,100468,1,0,0:0:0:0:
475,110,100602,1,0,0:0:0:0:
294,162,100736,1,0,0:0:0:0:
298,197,100803,1,0,0:0:0:0:
302,232,100870,1,0,0:0:0:0:
307,267,100937,1,0,0:0:0:0:
312,302,101004,6,0,L|221:295,1,90
395,225,101272,1,0,0:0:0:0:
154,172,101406,2,0,P|222:184|326:122,1,180
56,112,101807,2,0,P|36:171|43:216,1,90
220,355,102075,6,0,P|219:310|201:269,1,90
86,329,102343,1,0,0:0:0:0:
332,288,102477,2,0,B|354:231|354:231|338:172|338:172|361:113,1,180
512,171,102879,2,0,B|472:191|472:191|426:182,1,90
176,216,103147,6,0,B|220:207|220:207|260:227,1,90
75,296,103415,1,0,0:0:0:0:
75,296,103481,1,0,0:0:0:0:
75,296,103548,2,0,P|47:240|93:124,1,180
226,78,103950,1,0,0:0:0:0:
190,69,104017,1,0,0:0:0:0:
154,60,104084,1,0,0:0:0:0:
297,19,104218,5,0,0:0:0:0:
171,154,104352,1,0,0:0:0:0:
307,148,104486,1,0,0:0:0:0:
307,148,104553,1,0,0:0:0:0:
307,148,104620,1,0,0:0:0:0:
160,26,104754,1,0,0:0:0:0:
242,218,104888,1,0,0:0:0:0:
370,91,105022,1,0,0:0:0:0:
334,94,105089,1,0,0:0:0:0:
298,97,105156,1,0,0:0:0:0:
262,100,105223,1,0,0:0:0:0:
226,103,105290,1,0,0:0:0:0:
226,103,105557,6,0,P|181:96|140:78,1,90
334,190,105825,2,0,P|375:172|419:165,1,90
237,373,106093,2,0,B|204:284|271:284|237:196,1,180
138,242,106495,5,0,0:0:0:0:
333,327,106629,2,0,L|436:315,1,90
127,152,106897,2,0,L|139:255,1,90
436,137,107165,2,0,P|373:119|272:181,1,180
375,236,107566,5,0,0:0:0:0:
238,297,107700,1,0,0:0:0:0:
226,115,107834,1,0,0:0:0:0:
438,155,107968,1,0,0:0:0:0:
275,206,108102,1,0,0:0:0:0:
350,60,108236,1,0,0:0:0:0:
375,236,108370,1,0,0:0:0:0:
165,202,108504,6,0,L|120:196,3,45
31,126,108772,2,0,L|84:117,1,45
173,83,108906,2,0,P|181:50|179:22,3,45
250,150,109173,2,0,P|260:180|274:208,1,45
346,264,109307,1,0,0:0:0:0:
386,283,109374,1,0,0:0:0:0:
430,280,109441,1,0,0:0:0:0:
470,259,109508,1,0,0:0:0:0:
489,218,109575,6,0,L|496:115,1,90
405,38,109843,1,0,0:0:0:0:
312,175,109977,2,0,L|331:366,1,180
224,304,110379,1,0,0:0:0:0:
418,207,110513,1,0,0:0:0:0:
204,316,110647,6,0,L|99:303,1,90
239,223,110915,1,0,0:0:0:0:
36,181,111048,2,0,P|107:194|201:131,1,180
93,67,111450,1,0,0:0:0:0:
93,67,111517,1,0,0:0:0:0:
93,67,111584,1,0,0:0:0:0:
271,50,111718,6,0,L|376:64,1,90
465,208,111986,1,0,0:0:0:0:
465,208,112053,1,0,0:0:0:0:
465,208,112120,2,0,L|360:222,1,90
260,231,112388,1,0,0:0:0:0:
437,15,112522,1,0,0:0:0:0:
449,43,112589,1,0,0:0:0:0:
458,72,112656,1,0,0:0:0:0:
463,103,112723,1,0,0:0:0:0:
465,134,112790,6,0,L|401:125,3,45
341,75,113057,2,0,L|277:84,3,45
226,144,113325,1,0,0:0:0:0:
182,155,113392,1,0,0:0:0:0:
137,146,113459,1,0,0:0:0:0:
99,121,113526,1,0,0:0:0:0:
54,124,113593,1,0,0:0:0:0:
21,155,113660,1,0,0:0:0:0:
20,200,113727,1,0,0:0:0:0:
47,235,113794,1,0,0:0:0:0:
90,247,113861,6,0,L|103:313,1,67.5000025749208
212,210,113995,2,0,L|225:144,1,67.5000025749208
271,319,114129,2,0,P|316:334|350:334,1,67.5000025749208
456,209,114263,2,0,P|422:212|391:225,1,67.5000025749208
316,68,114397,6,0,L|328:141,1,67.5000025749208
104,98,114531,2,0,L|177:86,1,67.5000025749208
297,232,114665,2,0,L|224:220,1,67.5000025749208
70,221,114798,2,0,P|66:269|76:304,1,67.5000025749208
185,351,114932,5,0,0:0:0:0:
226,329,114999,1,0,0:0:0:0:
272,322,115066,1,0,0:0:0:0:
318,329,115133,1,0,0:0:0:0:
358,354,115200,1,0,0:0:0:0:
405,351,115267,1,0,0:0:0:0:
433,313,115334,1,0,0:0:0:0:
426,266,115401,1,0,0:0:0:0:
387,238,115468,5,0,0:0:0:0:
356,201,115535,1,0,0:0:0:0:
356,153,115602,1,0,0:0:0:0:
382,113,115669,1,0,0:0:0:0:
429,109,115736,2,0,L|499:122,3,67.5000025749208
299,91,116004,6,0,P|287:56|286:18,1,67.5000025749208
219,135,116138,2,0,P|191:110|171:78,1,67.5000025749208
135,201,116272,2,0,P|123:236|122:274,1,67.5000025749208
55,157,116406,2,0,P|27:181|7:213,1,67.5000025749208
233,249,116540,6,0,L|309:237,3,67.5000025749208
449,312,116807,2,0,L|373:300,3,67.5000025749208
284,353,117075,5,0,0:0:0:0:
239,336,117142,1,0,0:0:0:0:
191,331,117209,1,0,0:0:0:0:
145,342,117276,1,0,0:0:0:0:
97,338,117343,1,0,0:0:0:0:
57,312,117410,1,0,0:0:0:0:
46,265,117477,1,0,0:0:0:0:
59,219,117544,1,0,0:0:0:0:
98,193,117611,5,0,0:0:0:0:
145,189,117678,1,0,0:0:0:0:
188,207,117745,1,0,0:0:0:0:
228,230,117812,1,0,0:0:0:0:
275,234,117879,1,0,0:0:0:0:
320,222,117946,1,0,0:0:0:0:
354,190,118013,1,0,0:0:0:0:
376,148,118080,1,0,0:0:0:0:
379,100,118147,6,0,L|300:87,1,67.5000025749208
446,214,118281,2,0,L|525:201,1,67.5000025749208
300,253,118415,2,0,P|288:299|291:343,1,67.5000025749208
188,156,118548,2,0,P|185:122|175:90,1,67.5000025749208
79,284,118682,6,0,L|166:275,1,67.5000025749208
37,98,118816,2,0,L|46:185,1,67.5000025749208
271,227,118950,2,0,P|286:177|284:141,1,67.5000025749208
382,45,119084,2,0,P|385:78|397:109,1,67.5000025749208
497,231,119218,5,0,0:0:0:0:
463,197,119285,1,0,0:0:0:0:
415,195,119352,1,0,0:0:0:0:
375,221,119419,1,0,0:0:0:0:
360,265,119486,1,0,0:0:0:0:
337,306,119553,1,0,0:0:0:0:
291,318,119620,1,0,0:0:0:0:
247,298,119687,1,0,0:0:0:0:
233,252,119754,5,0,0:0:0:0:
218,206,119821,1,0,0:0:0:0:
171,196,119888,1,0,0:0:0:0:
138,229,119955,1,0,0:0:0:0:
151,274,120022,1,0,0:0:0:0:
197,284,120089,1,0,0:0:0:0:
232,253,120156,1,0,0:0:0:0:
275,234,120223,1,0,0:0:0:0:
322,235,120290,6,0,L|392:252,3,67.5000025749208
485,151,120557,2,0,L|415:168,3,67.5000025749208
325,120,120825,6,0,P|319:88|322:42,1,67.5000025749208
477,244,120959,2,0,P|478:277|472:310,1,67.5000025749208
268,284,121093,2,0,L|191:272,1,67.5000025749208
397,184,121227,2,0,L|385:261,1,67.5000025749208
236,178,121361,5,0,0:0:0:0:
218,168,121428,1,0,0:0:0:0:
201,156,121495,1,0,0:0:0:0:
187,140,121562,1,0,0:0:0:0:
175,123,121629,1,0,0:0:0:0:
166,104,121696,1,0,0:0:0:0:
159,84,121763,1,0,0:0:0:0:
156,63,121830,1,0,0:0:0:0:
157,42,121897,5,0,0:0:0:0:
188,55,121964,1,0,0:0:0:0:
212,78,122031,1,0,0:0:0:0:
228,107,122098,1,0,0:0:0:0:
239,138,122165,1,0,0:0:0:0:
243,170,122231,1,0,0:0:0:0:
242,203,122298,1,0,0:0:0:0:
233,235,122365,1,0,0:0:0:0:
220,256,122432,6,0,L|114:246,1,99.0000030212403
294,354,122700,1,0,0:0:0:0:
397,280,122834,2,0,P|415:220|412:174,1,99.0000030212403
285,147,123102,1,0,0:0:0:0:
505,215,123236,1,0,0:0:0:0:
377,66,123370,1,0,0:0:0:0:
204,217,123504,6,0,L|224:323,1,99.0000030212403
111,174,123772,1,0,0:0:0:0:
96,154,123839,1,0,0:0:0:0:
82,133,123906,2,0,L|62:239,1,99.0000030212403
131,318,124173,1,0,0:0:0:0:
146,55,124307,2,0,P|90:34|44:38,1,99.0000030212403
247,147,124575,6,0,L|362:140,1,99.0000030212403
170,223,124843,1,0,0:0:0:0:
384,248,124977,2,0,P|306:249|211:321,1,198.000006042481
478,291,125379,1,0,0:0:0:0:
483,261,125446,1,0,0:0:0:0:
488,231,125513,1,0,0:0:0:0:
376,342,125647,5,0,0:0:0:0:
291,162,125781,1,0,0:0:0:0:
202,258,125915,1,0,0:0:0:0:
207,288,125982,1,0,0:0:0:0:
212,318,126049,1,0,0:0:0:0:
114,315,126182,1,0,0:0:0:0:
306,253,126316,1,0,0:0:0:0:
193,128,126450,1,0,0:0:0:0:
150,142,126517,1,0,0:0:0:0:
110,163,126584,1,0,0:0:0:0:
85,199,126651,1,0,0:0:0:0:
70,238,126718,6,0,B|27:186|27:186|44:49,1,198.000006042481
190,245,127120,2,0,P|196:298|184:347,1,99.0000030212403
15,331,127388,1,0,0:0:0:0:
131,145,127522,2,0,L|231:155,1,99.0000030212403
381,115,127790,5,0,0:0:0:0:
291,211,127923,1,0,0:0:0:0:
490,184,128057,1,0,0:0:0:0:
267,94,128191,1,0,0:0:0:0:
403,247,128325,1,0,0:0:0:0:
482,73,128459,1,0,0:0:0:0:
269,216,128593,2,0,P|247:283|248:333,1,99.0000030212403
357,132,128861,6,0,P|291:97|178:138,1,198.000006042481
128,280,129263,1,0,0:0:0:0:
45,157,129397,1,0,0:0:0:0:
39,127,129464,1,0,0:0:0:0:
34,97,129531,1,0,0:0:0:0:
223,205,129665,2,0,L|95:200,1,99.0000030212403
308,358,129932,5,0,0:0:0:0:
348,340,129999,1,0,0:0:0:0:
378,307,130066,1,0,0:0:0:0:
389,263,130133,1,0,0:0:0:0:
380,219,130200,1,0,0:0:0:0:
350,185,130267,1,0,0:0:0:0:
345,140,130334,1,0,0:0:0:0:
366,100,130401,1,0,0:0:0:0:
403,76,130468,2,0,L|461:85,3,49.5000015106202
308,123,130736,2,0,L|250:132,3,49.5000015106202
441,180,131004,6,0,L|448:289,1,99.0000030212403
336,355,131272,1,0,0:0:0:0:
216,233,131406,2,0,L|325:226,1,99.0000030212403
133,335,131673,1,0,0:0:0:0:
48,181,131807,2,0,P|34:126|44:81,1,99.0000030212403
322,131,132075,6,0,B|224:167|224:93|127:131,1,198.000006042481
168,314,132477,2,0,L|178:211,1,99.0000030212403
41,291,132745,1,0,0:0:0:0:
271,354,132879,2,0,P|327:345|373:322,1,99.0000030212403
395,146,133147,5,0,0:0:0:0:
294,241,133281,1,0,0:0:0:0:
492,222,133415,1,0,0:0:0:0:
304,77,133548,1,0,0:0:0:0:
509,115,133682,1,0,0:0:0:0:
400,269,133816,1,0,0:0:0:0:
414,40,133950,1,0,0:0:0:0:
511,240,134084,1,0,0:0:0:0:
291,190,134218,6,0,P|228:167|201:147,1,99.0000030212403
42,281,134486,2,0,P|83:253|130:239,1,99.0000030212403
436,287,134754,1,0,0:0:0:0:
397,310,134821,1,0,0:0:0:0:
352,316,134888,1,0,0:0:0:0:
308,306,134955,1,0,0:0:0:0:
274,276,135022,1,0,0:0:0:0:
237,250,135089,1,0,0:0:0:0:
192,245,135156,1,0,0:0:0:0:
150,259,135223,1,0,0:0:0:0:
120,292,135290,6,0,P|88:219|64:191,1,99.0000030212403
204,349,135557,1,0,0:0:0:0:
280,162,135691,2,0,P|252:203|236:249,1,99.0000030212403
194,96,135959,1,0,0:0:0:0:
357,249,136093,2,0,L|456:230,1,99.0000030212403
258,24,136361,6,0,P|161:6|97:71,1,198.000006042481
356,101,136763,2,0,P|385:45|386:5,1,99.0000030212403
242,137,137031,1,0,0:0:0:0:
334,214,137165,1,0,0:0:0:0:
372,205,137231,1,0,0:0:0:0:
410,196,137298,1,0,0:0:0:0:
253,291,137432,6,0,L|187:281,3,49.5000015106202
115,222,137700,2,0,L|181:212,3,49.5000015106202
247,176,137968,1,0,0:0:0:0:
260,143,138035,1,0,0:0:0:0:
264,108,138102,1,0,0:0:0:0:
258,73,138169,1,0,0:0:0:0:
246,40,138236,1,0,0:0:0:0:
214,54,138303,1,0,0:0:0:0:
191,80,138370,1,0,0:0:0:0:
175,111,138437,1,0,0:0:0:0:
166,144,138504,6,0,P|145:111|137:86,3,49.5000015106202
115,212,138772,2,0,P|104:234|90:254,3,49.5000015106202
140,331,139040,1,0,0:0:0:0:
177,308,139106,1,0,0:0:0:0:
220,296,139173,1,0,0:0:0:0:
264,301,139240,1,0,0:0:0:0:
301,324,139307,1,0,0:0:0:0:
343,335,139374,1,0,0:0:0:0:
386,325,139441,1,0,0:0:0:0:
421,298,139508,1,0,0:0:0:0:
436,256,139575,6,0,L|443:204,5,49.5000015106202
353,196,139977,6,0,L|346:146,5,49.5000015106202
438,122,140379,6,0,L|445:70,3,49.5000015106202
345,36,140647,5,0,0:0:0:0:
316,43,140714,1,0,0:0:0:0:
287,50,140781,1,0,0:0:0:0:
258,57,140848,1,0,0:0:0:0:
229,65,140915,1,0,0:0:0:0:
200,73,140981,1,0,0:0:0:0:
171,82,141048,2,0,L|122:67,1,49.5000015106202
66,133,141182,5,0,0:0:0:0:
95,140,141249,1,0,0:0:0:0:
124,148,141316,1,0,0:0:0:0:
153,156,141382,1,0,0:0:0:0:
182,165,141450,2,0,L|231:150,1,49.5000015106202
321,239,141584,5,0,0:0:0:0:
291,234,141651,1,0,0:0:0:0:
264,230,141718,1,0,0:0:0:0:
98,142,143919,5,0,0:0:0:0:
98,142,144057,1,0,0:0:0:0:
184,210,144332,1,0,0:0:0:0:
184,210,144470,2,0,B|266:251|266:168|349:210,1,173.24999471283
374,225,146121,6,0,P|403:178|407:152,2,67.5
293,278,147222,2,0,P|264:271|225:267,2,67.5
131,298,148185,5,0,0:0:0:0:
242,181,148323,2,0,P|180:184|145:166,1,87.749995983124
135,160,148873,2,0,P|119:135|153:19,1,157.499995193482
206,98,150387,5,0,0:0:0:0:
206,98,150525,2,0,B|251:94|281:58|281:58|319:129|406:137,1,236.249992790222
470,121,152727,5,0,0:0:0:0:
470,121,152864,1,0,0:0:0:0:
362,262,153140,1,0,0:0:0:0:
362,262,153277,2,0,B|298:226|298:226|236:262|236:262|162:226,1,225
236,158,154791,5,0,0:0:0:0:
72,182,154929,2,0,P|62:221|67:259,1,58.4999973220826
149,137,155341,2,0,P|148:107|139:80,1,58.4999973220826
65,34,155754,1,0,0:0:0:0:
188,264,156029,5,0,0:0:0:0:
252,97,156442,1,0,0:0:0:0:
252,97,156580,1,0,0:0:0:0:
32,194,156855,2,0,L|24:237,1,29.2499986610413
85,294,157130,5,0,0:0:0:0:
85,294,157268,2,0,P|136:286|162:273,1,58.4999973220826
212,227,157681,1,0,0:0:0:0:
212,227,157956,1,0,0:0:0:0:
299,308,158094,6,0,L|380:297,1,58.4999973220826
470,225,158506,2,0,L|389:214,1,58.4999973220826
306,158,158919,1,0,0:0:0:0:
410,114,159057,1,0,0:0:0:0:
213,92,159195,1,0,0:0:0:0:
317,48,159333,5,0,0:0:0:0:
317,48,159609,2,0,P|329:84|332:101,1,45
212,176,159887,2,0,L|108:167,1,90
39,240,160304,1,0,0:0:0:0:
135,359,160443,6,0,L|144:255,1,90
256,276,160859,1,0,0:0:0:0:
49,364,160998,2,0,L|43:307,1,45
30,159,161276,1,0,0:0:0:0:
230,98,161554,5,0,0:0:0:0:
230,98,161693,1,0,0:0:0:0:
123,24,161970,1,0,0:0:0:0:
123,24,162109,2,0,L|114:132,1,90
188,191,162526,1,0,0:0:0:0:
281,132,162665,6,0,P|329:137|366:155,1,90
295,239,163082,1,0,0:0:0:0:
409,253,163220,2,0,L|467:246,1,45
461,107,163498,2,0,L|468:165,1,45
325,128,163776,6,0,P|307:85|302:29,1,90
396,34,164193,1,0,0:0:0:0:
228,103,164332,2,0,P|180:94|132:71,1,90
25,138,164748,1,0,0:0:0:0:
129,187,164887,6,0,L|117:283,1,90
190,347,165304,1,0,0:0:0:0:
301,255,165443,2,0,L|246:262,1,45
387,329,165720,1,0,0:0:0:0:
387,329,165859,1,0,0:0:0:0:
460,262,165998,6,0,P|476:198|470:159,1,90
396,93,166415,1,0,0:0:0:0:
307,159,166554,1,0,0:0:0:0:
307,159,166693,1,0,0:0:0:0:
501,89,166832,1,0,0:0:0:0:
289,56,166970,1,0,0:0:0:0:
379,212,167109,5,0,0:0:0:0:
272,38,167248,2,0,L|175:48,1,90
112,151,167665,1,0,0:0:0:0:
54,40,167804,1,0,0:0:0:0:
240,150,167943,1,0,0:0:0:0:
76,225,168082,1,0,0:0:0:0:
182,47,168220,6,0,P|227:33|290:42,1,90
353,115,168637,1,0,0:0:0:0:
240,150,168776,2,0,L|233:253,1,90
166,311,169193,1,0,0:0:0:0:
97,241,169332,5,0,0:0:0:0:
389,230,169609,2,0,L|396:285,1,45
481,216,169887,2,0,L|492:123,1,90
133,49,170443,5,0,0:0:0:0:
133,49,170582,1,0,0:0:0:0:
294,149,170859,1,0,0:0:0:0:
294,149,170998,2,0,L|304:250,1,90
241,308,171415,1,0,0:0:0:0:
152,245,171554,6,0,L|95:253,3,45
166,149,172109,2,0,L|223:157,3,45
65,165,172665,6,0,P|47:117|51:74,1,90
132,19,173082,1,0,0:0:0:0:
221,72,173220,2,0,L|319:59,1,90
400,114,173637,1,0,0:0:0:0:
302,162,173776,6,0,P|301:232|312:265,1,90
386,306,174193,1,0,0:0:0:0:
468,248,174332,2,0,P|481:212|483:195,1,45
386,306,174609,2,0,P|391:327|400:348,1,45
322,223,174887,6,0,P|278:215|227:222,1,90
177,323,175304,1,0,0:0:0:0:
91,207,175443,1,0,0:0:0:0:
91,207,175582,1,0,0:0:0:0:
268,307,175720,1,0,0:0:0:0:
53,314,175859,1,0,0:0:0:0:
119,130,175998,5,0,0:0:0:0:
174,299,176137,1,0,0:0:0:0:
8,154,176276,1,0,0:0:0:0:
8,154,176415,1,0,0:0:0:0:
206,192,176554,1,0,0:0:0:0:
131,44,176693,1,0,0:0:0:0:
99,230,176832,1,0,0:0:0:0:
296,162,176970,1,0,0:0:0:0:
79,237,177109,6,0,L|94:333,1,90
193,363,177526,1,0,0:0:0:0:
237,257,177665,2,0,L|181:253,1,45
302,333,177943,2,0,L|358:329,1,45
437,276,178220,6,0,P|443:244|444:222,1,45
394,83,178498,1,0,0:0:0:0:
342,215,178637,1,0,0:0:0:0:
281,78,178776,2,0,P|275:40|273:18,1,45
218,209,179054,1,0,0:0:0:0:
171,68,179193,1,0,0:0:0:0:
102,197,179332,5,0,0:0:0:0:
102,197,179470,2,0,P|91:264|90:294,1,90
176,341,179887,2,0,L|275:332,1,90
359,270,180304,1,0,0:0:0:0:
241,220,180443,6,0,P|233:184|233:162,1,45
353,108,180720,2,0,P|350:130|344:152,1,45
158,264,180998,2,0,L|49:252,1,90
5,167,181415,1,0,0:0:0:0:
144,62,181554,6,0,P|196:61|240:82,1,90
172,160,181970,1,0,0:0:0:0:
45,83,182109,2,0,P|45:43|51:23,1,45
172,160,182387,6,0,L|164:253,1,90
358,222,182804,2,0,L|265:214,1,90
251,320,183220,1,0,0:0:0:0:
251,320,183498,1,0,0:0:0:0:
164,249,183637,1,0,0:0:0:0:
375,227,183776,6,0,P|383:168|376:130,1,90
298,74,184193,1,0,0:0:0:0:
236,197,184332,1,0,0:0:0:0:
403,119,184470,1,0,0:0:0:0:
169,130,184609,1,0,0:0:0:0:
333,218,184748,1,0,0:0:0:0:
156,269,184887,5,0,0:0:0:0:
277,123,185026,1,0,0:0:0:0:
82,84,185165,1,0,0:0:0:0:
341,40,185304,1,0,0:0:0:0:
169,130,185443,1,0,0:0:0:0:
349,183,185581,1,0,0:0:0:0:
104,192,185720,1,0,0:0:0:0:
394,108,185859,1,0,0:0:0:0:
149,40,185998,6,0,L|106:45,3,22.5
233,76,186276,2,0,L|276:81,3,22.5
149,128,186554,2,0,L|106:133,3,22.5
233,164,186832,2,0,L|276:169,3,22.5
155,221,187109,6,0,L|149:247,3,22.5
258,264,187387,2,0,L|264:290,3,22.5
95,305,187665,2,0,L|89:331,3,22.5
198,348,187943,2,0,L|204:374,3,22.5
315,380,188220,5,0,0:0:0:0:
315,380,188359,1,0,0:0:0:0:
426,240,188637,1,0,0:0:0:0:
426,240,188776,2,0,P|364:224|320:221,1,90
212,200,189193,1,0,0:0:0:0:
293,127,189332,6,0,L|355:121,1,45
150,93,189609,2,0,L|88:87,1,45
236,216,189887,2,0,L|298:210,1,45
130,254,190165,2,0,L|68:248,1,45
286,318,190443,6,0,P|343:324|384:339,1,90
467,281,190859,1,0,0:0:0:0:
368,224,190998,2,0,L|362:166,1,45
261,77,191276,6,0,P|219:76|170:93,1,90
55,171,191693,2,0,P|97:185|142:184,1,90
244,228,192109,2,0,P|251:184|249:166,1,45
153,286,192387,2,0,L|161:336,1,45
345,218,192665,6,0,L|335:119,1,90
417,42,193082,1,0,0:0:0:0:
451,155,193220,1,0,0:0:0:0:
247,137,193359,2,0,L|195:125,1,45
103,161,193637,5,0,0:0:0:0:
386,240,193915,1,0,0:0:0:0:
116,283,194193,1,0,0:0:0:0:
197,208,194332,1,0,0:0:0:0:
18,233,194470,1,0,0:0:0:0:
231,318,194609,2,0,L|296:309,1,45
399,230,194887,6,0,L|449:240,2,45
308,167,195304,1,0,0:0:0:0:
406,123,195443,2,0,P|407:73|394:23,1,90
286,13,195859,1,0,0:0:0:0:
204,85,195998,5,0,0:0:0:0:
100,73,196137,2,0,P|54:55|22:28,1,90
144,161,196554,2,0,P|149:194|146:215,1,45
204,85,196832,2,0,P|230:64|249:56,1,45
326,158,197109,6,0,L|340:223,1,45
425,237,197387,1,0,0:0:0:0:
286,277,197526,1,0,0:0:0:0:
377,317,197665,2,0,L|369:366,1,45
262,252,197943,1,0,0:0:0:0:
454,259,198082,1,0,0:0:0:0:
356,176,198220,6,0,P|346:142|341:119,1,45
243,44,198498,2,0,P|237:65|230:87,1,45
127,151,198776,2,0,L|75:142,1,45
227,244,199054,2,0,L|236:192,1,45
109,251,199332,5,0,0:0:0:0:
111,268,199469,1,0,0:0:0:0:
113,285,199607,1,0,0:0:0:0:
115,302,199744,1,0,0:0:0:0:
234,199,199882,5,0,0:0:0:0:
232,216,200019,1,0,0:0:0:0:
230,233,200157,1,0,0:0:0:0:
228,250,200294,1,0,0:0:0:0:
336,342,200432,5,0,0:0:0:0:
372,344,200570,1,0,0:0:0:0:
407,337,200708,1,0,0:0:0:0:
437,317,200845,1,0,0:0:0:0:
376,169,200983,6,0,P|365:206|364:250,1,67.5000025749208
481,183,201258,2,0,P|478:149|467:117,1,67.5000025749208
298,95,201533,5,0,0:0:0:0:
441,254,201671,1,0,0:0:0:0:
202,174,201809,1,0,0:0:0:0:
366,30,201946,1,0,0:0:0:0:
312,213,202084,5,0,0:0:0:0:
195,66,202221,1,0,0:0:0:0:
395,137,202359,1,0,0:0:0:0:
226,270,202497,1,0,0:0:0:0:
96,122,202634,5,0,0:0:0:0:
294,113,202772,1,0,0:0:0:0:
141,337,202909,1,0,0:0:0:0:
130,323,202978,1,0,0:0:0:0:
122,307,203047,1,0,0:0:0:0:
117,290,203116,1,0,0:0:0:0:
114,273,203185,1,0,0:0:0:0:
137,277,203254,1,0,0:0:0:0:
160,274,203322,1,0,0:0:0:0:
182,266,203391,1,0,0:0:0:0:
202,253,203460,1,0,0:0:0:0:
183,224,203529,1,0,0:0:0:0:
175,191,203598,1,0,0:0:0:0:
177,157,203666,1,0,0:0:0:0:
191,121,203735,6,0,L|256:130,3,56.25
361,51,204002,2,0,L|296:60,3,56.25
441,98,204270,5,0,0:0:0:0:
460,138,204337,1,0,0:0:0:0:
471,181,204404,1,0,0:0:0:0:
475,225,204471,1,0,0:0:0:0:
470,269,204538,1,0,0:0:0:0:
430,247,204605,1,0,0:0:0:0:
385,238,204672,1,0,0:0:0:0:
340,241,204739,1,0,0:0:0:0:
297,255,204806,6,0,P|278:219|273:195,1,56.25
340,47,204940,2,0,P|331:73|317:97,1,56.25
205,127,205074,2,0,L|138:106,1,56.25
240,19,205208,1,0,0:0:0:0:
173,224,205342,6,0,L|154:285,1,56.25
10,235,205476,2,0,P|45:227|78:228,1,56.25
287,322,205610,2,0,P|258:320|231:313,1,56.25
114,142,205743,1,0,0:0:0:0:
271,187,205877,5,0,0:0:0:0:
198,14,206011,2,0,L|205:132,1,112.5
306,53,206279,1,0,0:0:0:0:
99,160,206413,1,0,0:0:0:0:
274,213,206547,1,0,0:0:0:0:
60,68,206681,1,0,0:0:0:0:
55,112,206748,1,0,0:0:0:0:
50,156,206815,1,0,0:0:0:0:
45,200,206882,1,0,0:0:0:0:
40,244,206949,6,0,P|85:274|146:279,1,112.5
240,332,207127,2,0,P|249:274|236:222,1,112.5
133,175,207306,2,0,L|146:58,1,112.5
263,33,207485,6,0,B|307:68|307:68|363:70,1,112.5
497,132,207663,2,0,B|441:134|441:134|397:169,1,112.5
294,160,207886,2,0,L|304:244,1,75
382,293,208020,6,0,L|441:283,1,56.25
289,329,208154,1,0,0:0:0:0:
261,323,208221,1,0,0:0:0:0:
233,317,208288,1,0,0:0:0:0:
205,311,208355,1,0,0:0:0:0:
177,306,208422,2,0,L|162:364,1,56.25
94,282,208556,5,0,0:0:0:0:
103,255,208623,1,0,0:0:0:0:
107,227,208690,1,0,0:0:0:0:
107,198,208757,1,0,0:0:0:0:
102,170,208824,2,0,L|36:156,1,56.25
198,113,208958,2,0,L|264:99,1,56.25
106,53,209092,5,0,0:0:0:0:
149,64,209159,1,0,0:0:0:0:
193,61,209226,1,0,0:0:0:0:
229,34,209293,1,0,0:0:0:0:
272,21,209360,1,0,0:0:0:0:
315,27,209426,1,0,0:0:0:0:
350,55,209493,1,0,0:0:0:0:
359,98,209560,1,0,0:0:0:0:
351,142,209627,5,0,0:0:0:0:
392,124,209694,1,0,0:0:0:0:
436,126,209761,1,0,0:0:0:0:
475,147,209828,1,0,0:0:0:0:
502,182,209895,2,0,L|492:243,3,56.25
414,314,210163,6,0,L|404:258,1,56.25
300,227,210297,1,0,0:0:0:0:
255,228,210364,1,0,0:0:0:0:
212,243,210431,1,0,0:0:0:0:
184,278,210498,1,0,0:0:0:0:
143,298,210565,1,0,0:0:0:0:
98,295,210632,1,0,0:0:0:0:
60,269,210699,5,0,0:0:0:0:
50,224,210766,1,0,0:0:0:0:
66,182,210833,1,0,0:0:0:0:
104,158,210900,1,0,0:0:0:0:
148,159,210967,1,0,0:0:0:0:
190,144,211034,1,0,0:0:0:0:
219,109,211101,1,0,0:0:0:0:
226,64,211168,1,0,0:0:0:0:
217,19,211235,6,0,L|150:13,1,56.25
311,92,211368,2,0,L|378:98,1,56.25
190,144,211502,2,0,L|123:138,1,56.25
284,217,211635,2,0,L|351:223,1,56.25
461,245,211770,6,0,B|309:320|309:169|158:245,1,315
128,268,212306,6,0,L|44:251,2,75
232,332,212574,2,0,L|316:315,2,75
231,212,212842,5,0,0:0:0:0:
279,193,212931,1,0,0:0:0:0:
330,199,213020,1,0,0:0:0:0:
368,235,213110,1,0,0:0:0:0:
418,246,213199,1,0,0:0:0:0:
468,230,213288,1,0,0:0:0:0:
495,185,213377,6,0,P|498:145|487:108,2,75
384,111,213645,2,0,P|381:71|392:34,2,75
282,67,213913,5,0,0:0:0:0:
243,102,214002,1,0,0:0:0:0:
191,113,214092,1,0,0:0:0:0:
140,97,214181,1,0,0:0:0:0:
88,87,214270,1,0,0:0:0:0:
38,105,214360,1,0,0:0:0:0:
7,147,214449,6,0,L|16:231,2,75
125,216,214717,2,0,L|116:300,2,75
223,138,214985,6,0,L|232:222,2,75
341,207,215253,2,0,L|332:291,2,75
472,180,215520,6,0,P|485:138|483:100,1,75
391,126,215699,2,0,P|349:113|311:115,1,75
341,207,215877,2,0,P|328:249|330:287,1,75
211,259,216056,6,0,P|224:301|222:339,1,75
130,313,216235,2,0,P|88:326|50:324,1,75
80,232,216413,2,0,P|67:190|69:152,1,75
153,55,216592,6,0,B|211:2|301:28|317:117|271:170|271:170|240:204|258:279|354:273|356:199,1,450
214,110,217395,1,0,0:0:0:0:
431,169,217529,1,0,0:0:0:0:
210,273,217663,6,0,B|300:256|369:301|369:301|283:341|232:301|180:293|128:288|80:316,1,450
430,369,218467,2,0,P|456:315|445:261,1,90
370,119,218735,5,0,0:0:0:0:
366,266,218868,1,0,0:0:0:0:
476,95,219002,1,0,0:0:0:0:
266,114,219136,1,0,0:0:0:0:
500,205,219270,5,0,0:0:0:0:
238,105,219404,1,0,0:0:0:0:
483,68,219538,1,0,0:0:0:0:
357,283,219672,1,0,0:0:0:0:
196,122,219806,6,0,P|243:88|241:148,1,135
146,196,220074,2,0,P|116:131|137:51,1,135
308,37,220342,2,0,P|338:102|317:182,1,135
255,249,220609,1,0,0:0:0:0:
248,213,220676,1,0,0:0:0:0:
241,177,220743,1,0,0:0:0:0:
234,141,220810,1,0,0:0:0:0:
227,105,220877,6,0,L|342:121,1,112.5
436,254,221145,1,0,0:0:0:0:
436,254,221212,1,0,0:0:0:0:
436,254,221279,1,0,0:0:0:0:
318,224,221413,1,0,0:0:0:0:
451,130,221547,1,0,0:0:0:0:
334,325,221681,2,0,P|274:317|231:278,1,112.5
298,113,221949,6,0,L|320:238,1,112.5
194,182,222217,1,0,0:0:0:0:
397,137,222351,2,0,L|416:26,1,112.5
512,100,222618,1,0,0:0:0:0:
491,220,222752,1,0,0:0:0:0:
491,220,222819,1,0,0:0:0:0:
491,220,222886,1,0,0:0:0:0:
290,112,223020,6,0,P|356:116|408:146,1,112.5
318,242,223288,1,0,0:0:0:0:
318,242,223355,1,0,0:0:0:0:
318,242,223422,1,0,0:0:0:0:
207,184,223556,1,0,0:0:0:0:
435,227,223690,1,0,0:0:0:0:
207,301,223824,1,0,0:0:0:0:
173,295,223891,1,0,0:0:0:0:
139,289,223958,1,0,0:0:0:0:
105,283,224025,1,0,0:0:0:0:
71,277,224092,1,0,0:0:0:0:
179,167,224226,5,0,0:0:0:0:
298,298,224360,1,0,0:0:0:0:
275,107,224493,1,0,0:0:0:0:
96,128,224627,1,0,0:0:0:0:
96,128,224694,1,0,0:0:0:0:
96,128,224761,1,0,0:0:0:0:
345,179,224895,1,0,0:0:0:0:
179,31,225029,1,0,0:0:0:0:
145,231,225163,5,0,0:0:0:0:
173,248,225230,1,0,0:0:0:0:
204,258,225297,1,0,0:0:0:0:
237,261,225364,1,0,0:0:0:0:
270,255,225431,1,0,0:0:0:0:
299,238,225498,1,0,0:0:0:0:
326,218,225565,1,0,0:0:0:0:
357,204,225632,1,0,0:0:0:0:
390,202,225699,5,0,0:0:0:0:
423,207,225766,1,0,0:0:0:0:
454,218,225833,1,0,0:0:0:0:
479,239,225900,1,0,0:0:0:0:
494,268,225967,2,0,L|487:326,3,56.25
387,373,226235,5,0,0:0:0:0:
365,334,226301,1,0,0:0:0:0:
362,289,226368,1,0,0:0:0:0:
378,247,226435,1,0,0:0:0:0:
408,213,226502,1,0,0:0:0:0:
414,168,226569,1,0,0:0:0:0:
403,124,226636,1,0,0:0:0:0:
369,93,226703,1,0,0:0:0:0:
324,88,226770,5,0,0:0:0:0:
282,106,226837,1,0,0:0:0:0:
259,145,226904,1,0,0:0:0:0:
262,189,226971,1,0,0:0:0:0:
280,230,227038,2,0,L|258:298,3,56.25
164,348,227306,5,0,0:0:0:0:
116,331,227373,1,0,0:0:0:0:
89,287,227440,1,0,0:0:0:0:
93,236,227507,1,0,0:0:0:0:
130,201,227574,1,0,0:0:0:0:
180,196,227641,1,0,0:0:0:0:
221,225,227708,1,0,0:0:0:0:
234,273,227775,1,0,0:0:0:0:
278,297,227842,5,0,0:0:0:0:
328,292,227909,1,0,0:0:0:0:
361,253,227976,1,0,0:0:0:0:
357,202,228043,1,0,0:0:0:0:
320,166,228110,2,0,P|309:130|309:102,1,56.25
417,28,228243,2,0,P|414:55|405:82,1,56.25
228,152,228377,5,0,0:0:0:0:
199,151,228444,1,0,0:0:0:0:
171,145,228511,1,0,0:0:0:0:
144,134,228578,1,0,0:0:0:0:
119,120,228645,1,0,0:0:0:0:
99,100,228712,1,0,0:0:0:0:
82,76,228779,1,0,0:0:0:0:
70,50,228846,1,0,0:0:0:0:
63,22,228913,5,0,0:0:0:0:
104,39,228980,1,0,0:0:0:0:
137,69,229047,1,0,0:0:0:0:
163,105,229114,1,0,0:0:0:0:
181,146,229181,1,0,0:0:0:0:
189,190,229248,1,0,0:0:0:0:
190,235,229315,1,0,0:0:0:0:
181,279,229382,1,0,0:0:0:0:
164,320,229449,6,0,L|45:303,1,112.5
270,263,229717,1,0,0:0:0:0:
12,185,229851,2,0,P|85:207|222:137,1,225
138,56,230252,1,0,0:0:0:0:
311,178,230386,1,0,0:0:0:0:
258,28,230520,5,0,0:0:0:0:
323,198,230654,1,0,0:0:0:0:
132,144,230788,1,0,0:0:0:0:
357,85,230922,1,0,0:0:0:0:
114,150,231056,1,0,0:0:0:0:
367,288,231190,2,0,B|425:222|425:222|395:75,1,225
292,193,231592,5,0,0:0:0:0:
473,315,231726,1,0,0:0:0:0:
273,330,231860,2,0,L|138:310,1,112.5
376,257,232127,1,0,0:0:0:0:
194,162,232261,1,0,0:0:0:0:
386,108,232395,2,0,L|504:120,1,112.5
174,159,232663,6,0,P|153:122|145:98,5,56.25
251,109,233065,6,0,P|252:66|257:41,5,56.25
326,155,233467,6,0,P|348:119|366:100,3,56.25
459,172,233735,5,0,0:0:0:0:
467,215,233801,1,0,0:0:0:0:
450,256,233868,1,0,0:0:0:0:
416,285,233935,1,0,0:0:0:0:
371,291,234002,1,0,0:0:0:0:
329,273,234069,1,0,0:0:0:0:
290,249,234136,1,0,0:0:0:0:
245,254,234203,1,0,0:0:0:0:
207,278,234270,6,0,L|200:340,1,56.25
196,172,234404,2,0,L|258:179,1,56.25
89,187,234538,2,0,L|96:125,1,56.25
100,293,234672,2,0,L|38:286,1,56.25
6,82,234806,5,0,0:0:0:0:
44,49,234873,1,0,0:0:0:0:
93,39,234940,1,0,0:0:0:0:
142,50,235007,1,0,0:0:0:0:
181,82,235074,1,0,0:0:0:0:
227,102,235141,1,0,0:0:0:0:
277,105,235208,1,0,0:0:0:0:
323,85,235275,1,0,0:0:0:0:
354,45,235342,6,0,P|392:41|411:44,1,56.25
385,156,235476,2,0,P|389:194|386:213,1,56.25
272,183,235610,2,0,P|234:187|215:184,1,56.25
241,72,235744,2,0,P|237:34|240:15,1,56.25
476,110,235877,5,0,0:0:0:0:
495,156,235944,1,0,0:0:0:0:
492,206,236011,1,0,0:0:0:0:
471,252,236078,1,0,0:0:0:0:
431,283,236145,1,0,0:0:0:0:
382,293,236212,1,0,0:0:0:0:
332,281,236279,1,0,0:0:0:0:
288,254,236346,1,0,0:0:0:0:
241,234,236413,5,0,0:0:0:0:
190,229,236480,1,0,0:0:0:0:
140,240,236547,1,0,0:0:0:0:
96,265,236614,1,0,0:0:0:0:
64,304,236681,2,0,L|52:362,3,56.25
183,337,236949,5,0,0:0:0:0:
198,307,237016,1,0,0:0:0:0:
209,275,237083,1,0,0:0:0:0:
217,242,237150,1,0,0:0:0:0:
220,208,237217,1,0,0:0:0:0:
220,174,237284,1,0,0:0:0:0:
215,140,237351,1,0,0:0:0:0:
206,107,237418,1,0,0:0:0:0:
193,75,237485,6,0,L|124:70,1,56.25
302,136,237618,2,0,L|371:131,1,56.25
451,58,237752,1,0,0:0:0:0:
422,39,237819,1,0,0:0:0:0:
388,32,237886,1,0,0:0:0:0:
354,30,237953,1,0,0:0:0:0:
321,39,238020,6,0,L|253:30,3,56.25
179,72,238288,1,0,0:0:0:0:
156,110,238355,1,0,0:0:0:0:
152,154,238422,1,0,0:0:0:0:
171,194,238489,1,0,0:0:0:0:
182,237,238556,5,0,0:0:0:0:
170,280,238623,1,0,0:0:0:0:
140,314,238690,1,0,0:0:0:0:
95,323,238757,1,0,0:0:0:0:
52,306,238824,2,0,P|27:276|20:253,3,56.25
114,237,239092,6,0,B|137:181|137:181|101:75,2,168.75
15,72,239627,2,0,B|121:113|121:29|232:71,1,225
177,174,240029,1,0,0:0:0:0:
304,168,240163,5,0,0:0:0:0:
342,144,240230,1,0,0:0:0:0:
373,111,240297,1,0,0:0:0:0:
389,69,240364,1,0,0:0:0:0:
395,24,240431,1,0,0:0:0:0:
400,68,240498,1,0,0:0:0:0:
418,108,240565,1,0,0:0:0:0:
449,140,240632,1,0,0:0:0:0:
488,161,240699,5,0,0:0:0:0:
443,154,240766,1,0,0:0:0:0:
398,160,240833,1,0,0:0:0:0:
357,179,240900,1,0,0:0:0:0:
327,212,240967,1,0,0:0:0:0:
300,248,241034,1,0,0:0:0:0:
260,268,241101,1,0,0:0:0:0:
215,269,241168,1,0,0:0:0:0:
172,252,241235,6,0,L|154:189,1,56.25
256,180,241368,2,0,L|238:117,1,56.25
127,40,241502,2,0,L|145:103,1,56.25
43,112,241635,2,0,L|61:175,1,56.25
260,268,241770,6,0,P|295:281|334:286,1,56.25
346,197,241904,2,0,P|382:190|419:175,1,56.25
326,54,242038,2,0,P|291:41|252:36,1,56.25
240,125,242172,2,0,P|203:131|166:146,1,56.25
112,227,242306,5,0,0:0:0:0:
332,307,242440,1,0,0:0:0:0:
228,363,242574,1,0,0:0:0:0:
224,329,242641,1,0,0:0:0:0:
221,295,242708,1,0,0:0:0:0:
218,261,242775,1,0,0:0:0:0:
215,227,242842,1,0,0:0:0:0:
116,339,242976,1,0,0:0:0:0:
313,210,243110,5,0,0:0:0:0:
274,214,243176,1,0,0:0:0:0:
234,208,243243,1,0,0:0:0:0:
198,191,243310,1,0,0:0:0:0:
171,162,243377,1,0,0:0:0:0:
277,85,243511,1,0,0:0:0:0:
109,53,243645,5,0,0:0:0:0:
130,92,243712,1,0,0:0:0:0:
136,136,243779,1,0,0:0:0:0:
129,180,243846,1,0,0:0:0:0:
104,217,243913,1,0,0:0:0:0:
14,131,244047,1,0,0:0:0:0:
216,171,244181,1,0,0:0:0:0:
88,29,244315,1,0,0:0:0:0:
104,217,244449,5,0,0:0:0:0:
133,258,244516,1,0,0:0:0:0:
177,281,244583,1,0,0:0:0:0:
227,287,244650,1,0,0:0:0:0:
275,270,244717,1,0,0:0:0:0:
313,236,244784,1,0,0:0:0:0:
335,190,244851,1,0,0:0:0:0:
336,139,244918,1,0,0:0:0:0:
316,92,244985,5,0,0:0:0:0:
272,115,245051,1,0,0:0:0:0:
247,159,245118,1,0,0:0:0:0:
243,209,245185,1,0,0:0:0:0:
262,255,245252,1,0,0:0:0:0:
296,291,245319,1,0,0:0:0:0:
343,308,245386,1,0,0:0:0:0:
393,307,245453,1,0,0:0:0:0:
439,286,245520,6,0,L|451:220,1,56.25
362,105,245654,2,0,L|372:160,1,56.25
285,346,245788,2,0,L|297:280,1,56.25
208,165,245922,2,0,L|218:220,1,56.25
102,323,246056,5,0,0:0:0:0:
81,295,246123,1,0,0:0:0:0:
64,265,246190,1,0,0:0:0:0:
52,233,246257,1,0,0:0:0:0:
46,199,246324,1,0,0:0:0:0:
44,165,246391,1,0,0:0:0:0:
47,131,246458,1,0,0:0:0:0:
53,97,246525,1,0,0:0:0:0:
66,65,246592,5,0,0:0:0:0:
98,103,246659,1,0,0:0:0:0:
144,123,246726,1,0,0:0:0:0:
194,122,246793,1,0,0:0:0:0:
240,100,246860,2,0,P|263:66|270:38,3,56.25
303,167,247127,6,0,P|313:193|330:215,1,56.25
444,243,247261,1,0,0:0:0:0:
468,198,247328,1,0,0:0:0:0:
474,147,247395,1,0,0:0:0:0:
462,97,247462,1,0,0:0:0:0:
435,53,247529,2,0,L|350:55,1,56.25
303,167,247663,5,0,0:0:0:0:
255,185,247730,1,0,0:0:0:0:
204,185,247797,1,0,0:0:0:0:
160,159,247864,1,0,0:0:0:0:
129,118,247931,2,0,P|117:74|121:47,1,56.25
208,215,248065,2,0,P|206:242|196:269,1,56.25
78,343,248199,5,0,0:0:0:0:
43,305,248266,1,0,0:0:0:0:
28,256,248333,1,0,0:0:0:0:
23,205,248400,1,0,0:0:0:0:
36,156,248467,2,0,L|103:143,3,56.25
148,67,248735,5,0,0:0:0:0:
174,95,248801,1,0,0:0:0:0:
207,115,248868,1,0,0:0:0:0:
246,118,248935,1,0,0:0:0:0:
284,110,249002,1,0,0:0:0:0:
318,91,249069,1,0,0:0:0:0:
342,60,249136,1,0,0:0:0:0:
374,37,249203,1,0,0:0:0:0:
413,33,249270,5,0,0:0:0:0:
451,43,249337,1,0,0:0:0:0:
480,68,249404,1,0,0:0:0:0:
496,103,249471,1,0,0:0:0:0:
493,142,249538,2,0,L|506:199,3,56.25
439,264,249806,6,0,P|391:249|367:226,2,75
384,145,250074,1,0,0:0:0:0:
335,126,250163,1,0,0:0:0:0:
282,130,250252,1,0,0:0:0:0:
235,154,250342,6,0,P|218:207|220:240,2,75
177,84,250610,1,0,0:0:0:0:
131,109,250699,1,0,0:0:0:0:
79,117,250788,1,0,0:0:0:0:
27,108,250877,6,0,L|29:226,1,112.5
154,306,251145,1,0,0:0:0:0:
154,306,251212,1,0,0:0:0:0:
154,306,251279,1,0,0:0:0:0:
147,182,251413,1,0,0:0:0:0:
34,335,251547,1,0,0:0:0:0:
251,243,251681,2,0,P|266:184|256:117,1,112.5
385,23,251949,6,0,P|380:78|395:132,1,112.5
492,227,252217,1,0,0:0:0:0:
492,227,252284,1,0,0:0:0:0:
492,227,252351,1,0,0:0:0:0:
509,100,252485,1,0,0:0:0:0:
371,244,252618,1,0,0:0:0:0:
253,105,252752,2,0,L|374:125,1,112.5
261,297,253020,5,0,0:0:0:0:
217,309,253087,1,0,0:0:0:0:
171,310,253154,1,0,0:0:0:0:
128,296,253221,1,0,0:0:0:0:
96,263,253288,1,0,0:0:0:0:
78,221,253355,1,0,0:0:0:0:
97,180,253422,1,0,0:0:0:0:
141,171,253489,1,0,0:0:0:0:
173,202,253556,5,0,0:0:0:0:
166,246,253623,1,0,0:0:0:0:
130,273,253690,1,0,0:0:0:0:
85,278,253757,1,0,0:0:0:0:
40,269,253824,2,0,P|7:246|-2:231,3,56.25
119,358,254092,5,0,0:0:0:0:
148,341,254159,1,0,0:0:0:0:
178,327,254226,1,0,0:0:0:0:
210,316,254293,1,0,0:0:0:0:
242,308,254360,1,0,0:0:0:0:
274,303,254426,1,0,0:0:0:0:
307,300,254493,1,0,0:0:0:0:
340,302,254560,1,0,0:0:0:0:
372,310,254627,5,0,0:0:0:0:
350,302,254694,1,0,0:0:0:0:
328,294,254761,1,0,0:0:0:0:
309,281,254828,1,0,0:0:0:0:
291,267,254895,1,0,0:0:0:0:
275,251,254962,1,0,0:0:0:0:
261,233,255029,1,0,0:0:0:0:
248,213,255096,1,0,0:0:0:0:
239,197,255163,1,0,0:0:0:0:
126,108,259449,6,0,L|112:66,3,45
210,156,259717,2,0,L|198:211,1,45
298,110,259851,2,0,P|339:100|364:101,3,45
417,167,260118,2,0,P|459:175|479:175,1,45
322,202,260252,1,0,0:0:0:0:
311,226,260319,1,0,0:0:0:0:
303,252,260386,1,0,0:0:0:0:
298,278,260453,1,0,0:0:0:0:
294,304,260520,5,0,0:0:0:0:
265,275,260587,1,0,0:0:0:0:
228,256,260654,1,0,0:0:0:0:
187,251,260721,1,0,0:0:0:0:
149,265,260788,1,0,0:0:0:0:
114,286,260855,1,0,0:0:0:0:
74,292,260922,1,0,0:0:0:0:
35,279,260989,1,0,0:0:0:0:
9,247,261056,6,0,P|0:214|0:195,3,45
93,188,261324,2,0,P|102:155|102:136,3,45
76,63,261592,5,0,0:0:0:0:
112,45,261659,1,0,0:0:0:0:
152,42,261726,1,0,0:0:0:0:
189,56,261793,1,0,0:0:0:0:
217,84,261860,1,0,0:0:0:0:
238,117,261926,1,0,0:0:0:0:
274,133,261993,1,0,0:0:0:0:
314,136,262060,1,0,0:0:0:0:
352,122,262127,6,0,P|375:103|388:84,3,45
489,64,262395,1,0,0:0:0:0:
456,101,262462,1,0,0:0:0:0:
440,148,262529,1,0,0:0:0:0:
435,197,262596,1,0,0:0:0:0:
439,245,262663,6,0,P|355:211|442:317,1,393.75
374,283,263199,6,0,P|224:247|385:213,1,440.999986541748
306,236,263735,5,0,0:0:0:0:
151,180,263868,1,0,0:0:0:0:
349,131,264002,1,0,0:0:0:0:
127,186,264136,2,0,L|105:320,1,112.5
225,63,264404,2,0,L|247:197,1,112.5
35,229,264672,1,0,0:0:0:0:
139,97,264806,5,0,0:0:0:0:
209,273,264940,1,0,0:0:0:0:
36,122,265074,1,0,0:0:0:0:
256,90,265208,1,0,0:0:0:0:
155,195,265342,1,0,0:0:0:0:
185,7,265476,1,0,0:0:0:0:
333,160,265610,1,0,0:0:0:0:
139,97,265743,1,0,0:0:0:0:
379,62,265877,5,0,0:0:0:0:
364,284,266011,2,0,P|335:213|332:170,1,112.5
244,23,266279,2,0,P|235:78|211:129,1,112.5
75,224,266547,2,0,P|140:236|191:263,1,112.5
266,348,266815,1,0,0:0:0:0:
112,313,266949,5,0,0:0:0:0:
316,239,267083,1,0,0:0:0:0:
211,129,267217,2,0,L|197:245,1,112.5
296,54,267485,1,0,0:0:0:0:
255,24,267551,1,0,0:0:0:0:
205,15,267618,1,0,0:0:0:0:
155,26,267685,1,0,0:0:0:0:
113,54,267752,1,0,0:0:0:0:
91,99,267819,1,0,0:0:0:0:
87,149,267886,1,0,0:0:0:0:
100,197,267953,1,0,0:0:0:0:
137,231,268020,6,0,L|267:223,1,112.5
54,163,268288,1,0,0:0:0:0:
336,113,268422,2,0,B|254:141|254:141|119:88,1,225
256,41,268824,1,0,0:0:0:0:
341,210,268958,1,0,0:0:0:0:
473,87,269092,6,0,P|409:83|359:101,1,112.5
265,225,269360,1,0,0:0:0:0:
420,298,269493,2,0,L|429:174,1,112.5
304,339,269761,1,0,0:0:0:0:
155,249,269895,1,0,0:0:0:0:
346,206,270029,1,0,0:0:0:0:
171,351,270163,6,0,L|106:343,1,56.25
155,249,270297,2,0,L|90:241,1,56.25
264,216,270431,2,0,L|329:208,1,56.25
280,114,270565,2,0,L|345:106,1,56.25
129,33,270699,6,0,P|96:57|79:76,1,56.25
182,108,270833,2,0,P|172:147|171:173,1,56.25
426,91,270967,2,0,P|418:50|408:27,1,56.25
335,107,271101,2,0,P|303:81|280:69,1,56.25
407,217,271235,6,0,L|475:211,1,56.25
321,304,271368,2,0,L|253:298,1,56.25
313,138,271502,2,0,L|306:206,1,56.25
133,224,271636,2,0,L|201:218,1,56.25
134,67,271770,6,0,P|99:45|66:37,1,56.25
75,143,271904,2,0,P|35:155|8:175,1,56.25
178,171,272038,2,0,P|212:192|246:201,1,56.25
237,94,272172,2,0,P|276:81|303:61,1,56.25
102,238,272306,5,0,0:0:0:0:
109,276,272373,1,0,0:0:0:0:
134,305,272440,1,0,0:0:0:0:
169,322,272507,1,0,0:0:0:0:
208,325,272574,1,0,0:0:0:0:
245,312,272641,1,0,0:0:0:0:
275,287,272708,1,0,0:0:0:0:
293,252,272775,1,0,0:0:0:0:
316,220,272842,5,0,0:0:0:0:
353,206,272909,1,0,0:0:0:0:
392,210,272976,1,0,0:0:0:0:
427,227,273043,1,0,0:0:0:0:
447,260,273110,2,0,L|433:317,3,56.25
321,354,273377,5,0,0:0:0:0:
287,316,273444,1,0,0:0:0:0:
269,268,273511,1,0,0:0:0:0:
271,217,273578,1,0,0:0:0:0:
285,168,273645,2,0,P|310:137|328:123,1,56.25
450,192,273779,2,0,L|381:186,1,56.25
284,44,273913,5,0,0:0:0:0:
235,29,273980,1,0,0:0:0:0:
184,31,274047,1,0,0:0:0:0:
138,52,274114,1,0,0:0:0:0:
104,89,274181,2,0,L|91:147,1,56.25
194,248,274315,2,0,L|181:193,1,56.25
92,299,274449,6,0,P|82:350|85:378,1,60.7500002317429
259,347,274583,2,0,L|174:342,1,60.7500002317429
10,213,274717,2,0,L|95:208,1,60.7500002317429
213,174,274851,2,0,P|223:225|220:253,1,60.7500002317429
118,101,274985,5,0,0:0:0:0:
138,57,275051,1,0,0:0:0:0:
180,32,275118,1,0,0:0:0:0:
228,26,275185,1,0,0:0:0:0:
274,38,275252,1,0,0:0:0:0:
307,73,275319,1,0,0:0:0:0:
350,94,275386,1,0,0:0:0:0:
398,96,275453,1,0,0:0:0:0:
443,78,275520,6,0,P|467:54|478:28,1,60.7500002317429
321,175,275654,2,0,P|333:202|355:223,1,60.7500002317429
506,163,275788,2,0,L|433:171,1,60.7500002317429
216,280,275922,2,0,L|289:288,1,60.7500002317429
241,114,276056,5,0,0:0:0:0:
197,91,276123,1,0,0:0:0:0:
148,94,276190,1,0,0:0:0:0:
111,125,276257,1,0,0:0:0:0:
99,172,276324,1,0,0:0:0:0:
122,214,276391,1,0,0:0:0:0:
124,262,276458,1,0,0:0:0:0:
92,298,276525,1,0,0:0:0:0:
43,305,276592,6,0,P|19:259|16:238,1,60.7500002317429
223,273,276726,2,0,L|146:266,1,60.7500002317429
109,88,276860,2,0,L|105:165,1,60.7500002317429
250,90,276993,2,0,P|262:56|265:25,1,60.7500002317429
290,194,277127,5,0,0:0:0:0:
331,219,277194,1,0,0:0:0:0:
379,221,277261,1,0,0:0:0:0:
422,198,277328,1,0,0:0:0:0:
452,160,277395,1,0,0:0:0:0:
407,141,277462,1,0,0:0:0:0:
370,108,277529,1,0,0:0:0:0:
348,64,277596,1,0,0:0:0:0:
348,15,277663,6,0,L|425:25,3,60.7500002317429
264,76,277931,2,0,L|187:86,1,60.7500002317429
88,72,278065,2,0,P|72:37|67:7,3,60.7500002317429
142,172,278333,2,0,P|135:201|121:228,1,60.7500002317429
11,321,278467,1,0,0:0:0:0:
40,313,278534,1,0,0:0:0:0:
70,314,278601,1,0,0:0:0:0:
99,320,278668,1,0,0:0:0:0:
125,333,278735,6,0,L|196:324,1,60.7500002317429
313,223,278868,2,0,L|242:214,1,60.7500002317429
387,309,279002,2,0,P|421:256|426:239,1,60.7500002317429
359,92,279136,2,0,P|372:118|392:142,1,60.7500002317429
493,73,279270,6,0,L|504:4,1,60.7500002317429
266,75,279404,2,0,L|275:134,1,60.7500002317429
477,167,279538,2,0,P|444:156|398:153,1,60.7500002317429
216,264,279672,2,0,P|246:259|274:249,1,60.7500002317429
176,107,279806,5,0,0:0:0:0:
137,80,279873,1,0,0:0:0:0:
90,75,279940,1,0,0:0:0:0:
48,96,280007,1,0,0:0:0:0:
24,136,280074,1,0,0:0:0:0:
19,182,280141,1,0,0:0:0:0:
40,223,280208,1,0,0:0:0:0:
79,249,280275,1,0,0:0:0:0:
125,253,280342,5,0,0:0:0:0:
166,230,280409,1,0,0:0:0:0:
209,211,280476,1,0,0:0:0:0:
255,214,280543,1,0,0:0:0:0:
294,238,280610,1,0,0:0:0:0:
326,272,280676,1,0,0:0:0:0:
369,287,280743,1,0,0:0:0:0:
415,279,280810,1,0,0:0:0:0:
445,254,280877,6,0,P|465:215|470:185,3,60.7500002317429
358,123,281145,2,0,L|370:198,1,60.7500002317429
257,112,281279,2,0,P|268:67|284:44,3,60.7500002317429
275,208,281547,2,0,P|229:217|202:215,1,60.7500002317429
126,168,281681,1,0,0:0:0:0:
108,150,281748,1,0,0:0:0:0:
95,129,281815,1,0,0:0:0:0:
84,107,281882,1,0,0:0:0:0:
77,83,281949,5,0,0:0:0:0:
113,79,282016,1,0,0:0:0:0:
147,89,282083,1,0,0:0:0:0:
177,109,282150,1,0,0:0:0:0:
203,134,282217,1,0,0:0:0:0:
221,165,282284,1,0,0:0:0:0:
232,199,282351,1,0,0:0:0:0:
238,234,282418,1,0,0:0:0:0:
239,270,282485,5,0,0:0:0:0:
207,233,282551,1,0,0:0:0:0:
195,185,282618,1,0,0:0:0:0:
198,136,282685,1,0,0:0:0:0:
217,91,282752,1,0,0:0:0:0:
251,56,282819,1,0,0:0:0:0:
293,32,282886,1,0,0:0:0:0:
341,25,282953,1,0,0:0:0:0:
384,28,283020,6,0,P|425:91|427:137,1,107.999996704102
316,116,283288,1,0,0:0:0:0:
512,167,283422,2,0,P|438:148|325:232,1,215.999993408203
449,268,283824,1,0,0:0:0:0:
449,268,283891,1,0,0:0:0:0:
449,268,283958,1,0,0:0:0:0:
271,319,284092,6,0,L|138:292,1,107.999996704102
344,250,284360,1,0,0:0:0:0:
108,174,284493,2,0,P|211:192|312:134,1,215.999993408203
151,83,284895,1,0,0:0:0:0:
82,268,285029,1,0,0:0:0:0:
307,241,285163,6,0,P|271:220|202:209,1,107.999996704102
386,175,285431,1,0,0:0:0:0:
386,175,285498,1,0,0:0:0:0:
386,175,285565,1,0,0:0:0:0:
218,289,285699,1,0,0:0:0:0:
394,308,285833,1,0,0:0:0:0:
203,163,285967,1,0,0:0:0:0:
203,163,286034,1,0,0:0:0:0:
203,163,286101,1,0,0:0:0:0:
460,236,286235,6,0,L|517:224,3,53.9999983520508
394,308,286502,2,0,L|337:296,3,53.9999983520508
361,198,286770,1,0,0:0:0:0:
321,181,286837,1,0,0:0:0:0:
277,179,286904,1,0,0:0:0:0:
237,195,286971,1,0,0:0:0:0:
200,218,287038,1,0,0:0:0:0:
159,233,287105,1,0,0:0:0:0:
115,229,287172,1,0,0:0:0:0:
77,206,287239,1,0,0:0:0:0:
51,171,287306,6,0,L|33:63,1,107.999996704102
150,6,287574,1,0,0:0:0:0:
217,119,287708,2,0,B|268:221|165:221|217:324,1,215.999993408203
394,286,288110,2,0,B|345:261|345:261|280:274,1,107.999996704102
40,187,288377,6,0,B|91:197|91:197|140:172,1,107.999996704102
75,83,288645,1,0,0:0:0:0:
75,83,288712,1,0,0:0:0:0:
75,83,288779,1,0,0:0:0:0:
249,116,288913,1,0,0:0:0:0:
131,262,289047,1,0,0:0:0:0:
173,50,289181,1,0,0:0:0:0:
173,50,289248,1,0,0:0:0:0:
173,50,289315,1,0,0:0:0:0:
230,220,289449,6,0,L|248:339,1,107.999996704102
453,243,289717,2,0,L|334:261,1,107.999996704102
149,283,289985,1,0,0:0:0:0:
341,352,290118,1,0,0:0:0:0:
193,178,290252,1,0,0:0:0:0:
232,358,290386,1,0,0:0:0:0:
397,244,290520,5,0,0:0:0:0:
401,222,290587,1,0,0:0:0:0:
406,201,290654,1,0,0:0:0:0:
411,180,290721,1,0,0:0:0:0:
416,159,290788,1,0,0:0:0:0:
421,138,290855,1,0,0:0:0:0:
426,117,290922,1,0,0:0:0:0:
431,96,290989,1,0,0:0:0:0:
436,75,291056,5,0,0:0:0:0:
396,93,291123,1,0,0:0:0:0:
353,101,291190,1,0,0:0:0:0:
309,97,291257,1,0,0:0:0:0:
273,72,291324,1,0,0:0:0:0:
242,41,291391,1,0,0:0:0:0:
199,32,291458,1,0,0:0:0:0:
156,41,291525,1,0,0:0:0:0:
122,67,291592,6,0,L|134:186,1,107.999996704102
23,133,291860,1,0,0:0:0:0:
242,174,291993,2,0,B|155:158|155:158|41:239,1,215.999993408203
172,366,292395,2,0,P|187:300|174:247,1,107.999996704102
333,121,292663,6,0,P|326:174|340:225,1,107.999996704102
447,166,292931,1,0,0:0:0:0:
254,88,293065,1,0,0:0:0:0:
328,252,293199,1,0,0:0:0:0:
384,53,293333,1,0,0:0:0:0:
254,189,293467,1,0,0:0:0:0:
398,36,293601,1,0,0:0:0:0:
425,214,293735,5,0,0:0:0:0:
254,88,293868,1,0,0:0:0:0:
473,133,294002,1,0,0:0:0:0:
326,275,294136,1,0,0:0:0:0:
349,147,294270,1,0,0:0:0:0:
422,334,294404,1,0,0:0:0:0:
238,227,294538,1,0,0:0:0:0:
454,236,294672,1,0,0:0:0:0:
203,317,294806,5,0,0:0:0:0:
170,312,294873,1,0,0:0:0:0:
137,308,294940,1,0,0:0:0:0:
27,228,295074,1,0,0:0:0:0:
60,223,295141,1,0,0:0:0:0:
93,219,295208,1,0,0:0:0:0:
150,77,295342,2,0,L|138:137,3,53.9999983520508
251,208,295610,2,0,L|240:155,3,53.9999983520508
332,74,295877,6,0,P|400:79|456:115,1,107.999996704102
363,190,296145,1,0,0:0:0:0:
489,206,296279,2,0,L|468:313,1,107.999996704102
435,114,296547,1,0,0:0:0:0:
316,270,296681,2,0,L|337:377,1,107.999996704102
370,164,296949,6,0,B|264:124|264:204|159:164,1,215.999993408203
213,62,297351,1,0,0:0:0:0:
110,237,297485,1,0,0:0:0:0:
102,19,297618,1,0,0:0:0:0:
230,187,297752,2,0,L|244:310,1,107.999996704102
116,120,298020,5,0,0:0:0:0:
145,88,298087,1,0,0:0:0:0:
182,64,298154,1,0,0:0:0:0:
224,56,298221,1,0,0:0:0:0:
267,60,298288,1,0,0:0:0:0:
307,74,298355,1,0,0:0:0:0:
341,99,298422,1,0,0:0:0:0:
363,136,298489,1,0,0:0:0:0:
375,177,298556,2,0,L|435:165,3,53.9999983520508
301,250,298824,2,0,L|241:238,3,53.9999983520508
405,293,299092,5,0,0:0:0:0:
367,270,299159,1,0,0:0:0:0:
323,266,299226,1,0,0:0:0:0:
281,279,299293,1,0,0:0:0:0:
247,305,299360,1,0,0:0:0:0:
216,334,299426,1,0,0:0:0:0:
172,337,299493,1,0,0:0:0:0:
131,322,299560,1,0,0:0:0:0:
103,288,299627,2,0,L|86:236,3,53.9999983520508
197,166,299895,2,0,L|180:218,3,53.9999983520508
111,112,300163,5,0,0:0:0:0:
232,62,300297,1,0,0:0:0:0:
276,53,300364,1,0,0:0:0:0:
320,62,300431,1,0,0:0:0:0:
357,86,300498,1,0,0:0:0:0:
379,124,300565,1,0,0:0:0:0:
355,299,300699,1,0,0:0:0:0:
317,274,300766,1,0,0:0:0:0:
279,249,300833,1,0,0:0:0:0:
277,204,300900,1,0,0:0:0:0:
275,158,300967,1,0,0:0:0:0:
422,219,301101,1,0,0:0:0:0:
236,341,301235,6,0,L|120:325,1,112.5
94,324,301435,1,0,0:0:0:0:
94,324,301502,1,0,0:0:0:0:
132,100,301636,2,0,P|171:141|189:208,1,112.5
189,229,301837,1,0,0:0:0:0:
189,229,301904,1,0,0:0:0:0:
64,204,302038,1,0,0:0:0:0:
267,148,302172,1,0,0:0:0:0:
53,93,302306,5,0,0:0:0:0:
178,40,302440,1,0,0:0:0:0:
172,84,302507,1,0,0:0:0:0:
167,128,302574,1,0,0:0:0:0:
162,172,302641,1,0,0:0:0:0:
157,216,302708,1,0,0:0:0:0:
439,236,302842,1,0,0:0:0:0:
397,217,302909,1,0,0:0:0:0:
352,219,302976,1,0,0:0:0:0:
311,239,303043,1,0,0:0:0:0:
282,273,303110,2,0,P|266:322|265:342,1,56.25
174,216,303243,2,0,P|190:265|191:285,1,56.25
133,331,303377,6,0,L|96:287,3,56.25
41,225,303645,2,0,P|34:181|36:158,1,56.25
69,88,303779,2,0,L|140:81,3,56.25
192,143,304047,2,0,P|222:152|259:153,1,56.25
321,98,304181,2,0,L|380:93,3,56.25
457,142,304449,5,0,0:0:0:0:
310,242,304583,1,0,0:0:0:0:
424,349,304717,1,0,0:0:0:0:
424,349,304784,1,0,0:0:0:0:
424,349,304851,2,0,P|433:278|420:230,1,112.5
200,263,305118,1,0,0:0:0:0:
200,263,305185,1,0,0:0:0:0:
200,263,305252,2,0,L|312:283,1,112.5
315,153,305520,5,0,0:0:0:0:
109,187,305654,1,0,0:0:0:0:
83,223,305721,1,0,0:0:0:0:
75,267,305788,1,0,0:0:0:0:
89,309,305855,1,0,0:0:0:0:
123,338,305922,1,0,0:0:0:0:
204,109,306056,1,0,0:0:0:0:
159,103,306123,1,0,0:0:0:0:
114,97,306190,1,0,0:0:0:0:
69,92,306257,1,0,0:0:0:0:
24,87,306324,1,0,0:0:0:0:
226,227,306458,1,0,0:0:0:0:
324,148,306592,6,0,P|329:90|305:35,1,112.5
281,22,306793,1,0,0:0:0:0:
281,22,306860,1,0,0:0:0:0:
138,126,306993,2,0,L|133:247,1,112.5
136,272,307194,1,0,0:0:0:0:
136,272,307261,1,0,0:0:0:0:
396,216,307395,1,0,0:0:0:0:
357,192,307462,1,0,0:0:0:0:
313,182,307529,1,0,0:0:0:0:
268,186,307596,1,0,0:0:0:0:
228,208,307663,1,0,0:0:0:0:
296,288,307797,5,0,0:0:0:0:
228,115,307931,1,0,0:0:0:0:
405,262,308065,1,0,0:0:0:0:
199,229,308199,1,0,0:0:0:0:
341,173,308333,1,0,0:0:0:0:
198,338,308467,1,0,0:0:0:0:
126,145,308601,1,0,0:0:0:0:
300,269,308735,5,0,0:0:0:0:
84,275,308868,1,0,0:0:0:0:
53,241,308935,1,0,0:0:0:0:
32,200,309002,1,0,0:0:0:0:
20,156,309069,1,0,0:0:0:0:
16,111,309136,1,0,0:0:0:0:
211,212,309270,1,0,0:0:0:0:
207,257,309337,1,0,0:0:0:0:
195,301,309404,1,0,0:0:0:0:
174,342,309471,1,0,0:0:0:0:
143,376,309538,1,0,0:0:0:0:
120,182,309672,1,0,0:0:0:0:
273,333,309806,5,0,0:0:0:0:
388,216,309940,1,0,0:0:0:0:
343,221,310007,1,0,0:0:0:0:
298,226,310074,1,0,0:0:0:0:
253,231,310141,1,0,0:0:0:0:
208,236,310208,1,0,0:0:0:0:
480,296,310342,1,0,0:0:0:0:
504,257,310409,1,0,0:0:0:0:
508,212,310476,1,0,0:0:0:0:
497,168,310543,1,0,0:0:0:0:
469,132,310610,1,0,0:0:0:0:
346,317,310743,1,0,0:0:0:0:
247,174,310877,6,0,L|359:204,1,112.5
388,216,311078,1,0,0:0:0:0:
388,216,311145,1,0,0:0:0:0:
136,248,311279,2,0,P|111:188|114:133,1,112.5
126,108,311480,1,0,0:0:0:0:
126,108,311547,1,0,0:0:0:0:
240,148,311681,1,0,0:0:0:0:
35,209,311815,1,0,0:0:0:0:
221,51,311949,6,0,L|300:70,1,56.25
371,87,312083,2,0,P|395:55|403:37,3,56.25
302,150,312351,2,0,P|311:192|326:218,1,56.25
398,243,312485,2,0,L|465:233,3,56.25
505,162,312752,1,0,0:0:0:0:
318,287,312886,1,0,0:0:0:0:
282,128,313020,5,0,0:0:0:0:
428,196,313154,1,0,0:0:0:0:
422,240,313221,1,0,0:0:0:0:
417,284,313288,1,0,0:0:0:0:
412,328,313355,1,0,0:0:0:0:
408,372,313422,1,0,0:0:0:0:
191,218,313556,1,0,0:0:0:0:
235,210,313623,1,0,0:0:0:0:
278,220,313690,1,0,0:0:0:0:
314,247,313757,1,0,0:0:0:0:
335,286,313824,1,0,0:0:0:0:
231,326,313958,1,0,0:0:0:0:
107,303,314092,6,0,P|75:249|72:192,1,112.5
78,164,314293,1,0,0:0:0:0:
78,164,314360,1,0,0:0:0:0:
211,88,314493,2,0,L|199:211,1,112.5
200,236,314694,1,0,0:0:0:0:
200,236,314761,1,0,0:0:0:0:
109,68,314895,1,0,0:0:0:0:
306,182,315029,1,0,0:0:0:0:
99,174,315163,5,0,0:0:0:0:
314,71,315297,1,0,0:0:0:0:
358,75,315364,1,0,0:0:0:0:
402,79,315431,1,0,0:0:0:0:
446,84,315498,1,0,0:0:0:0:
490,89,315565,1,0,0:0:0:0:
231,161,315699,1,0,0:0:0:0:
187,165,315766,1,0,0:0:0:0:
143,169,315833,1,0,0:0:0:0:
99,174,315900,1,0,0:0:0:0:
55,179,315967,1,0,0:0:0:0:
200,50,316101,1,0,0:0:0:0:
344,191,316235,5,0,0:0:0:0:
306,45,316368,1,0,0:0:0:0:
243,232,316502,1,0,0:0:0:0:
430,160,316636,1,0,0:0:0:0:
255,135,316770,1,0,0:0:0:0:
339,314,316904,1,0,0:0:0:0:
351,97,317038,1,0,0:0:0:0:
169,169,317172,1,0,0:0:0:0:
322,202,317306,5,0,0:0:0:0:
355,205,317373,1,0,0:0:0:0:
388,198,317440,1,0,0:0:0:0:
417,181,317507,1,0,0:0:0:0:
441,157,317574,2,0,P|458:120|456:93,3,56.25
351,97,317842,1,0,0:0:0:0:
317,99,317909,1,0,0:0:0:0:
283,95,317976,1,0,0:0:0:0:
251,81,318043,1,0,0:0:0:0:
226,58,318110,2,0,P|206:32|192:2,3,56.25
296,13,318377,5,0,0:0:0:0:
310,196,318511,1,0,0:0:0:0:
170,121,318645,1,0,0:0:0:0:
392,95,318779,1,0,0:0:0:0:
326,295,318913,1,0,0:0:0:0:
268,99,319047,1,0,0:0:0:0:
434,217,319181,1,0,0:0:0:0:
231,302,319315,1,0,0:0:0:0:
332,168,319449,5,0,0:0:0:0:
65,257,319583,5,0,0:0:0:0:
