osu file format v14

[General]
AudioFilename: audio.mp3
AudioLeadIn: 0
PreviewTime: 267826
Countdown: 0
SampleSet: Normal
StackLeniency: 0.2
Mode: 1
LetterboxInBreaks: 0
WidescreenStoryboard: 1

[Editor]
Bookmarks: 19514,19643,53928,66656,70942,96785,113928,122500,177176,255230,267423,308802,316302,320052
DistanceSpacing: 0.9
BeatDivisor: 4
GridSize: 32
TimelineZoom: 2.450001

[Metadata]
Title:Astral Empire
TitleUnicode:Astral Empire
Artist:DragonForce
ArtistUnicode:DragonForce
Creator:ItsWinter
Version:Event Horizon
Source:
Tags:dragon force silence player val axer axerite herman li marc hudson sam totman gee anzalone coen janssen frédéric frederic leclercq reaching into infinity power metal speed english 2017
BeatmapID:4097733
BeatmapSetID:1877097

[Difficulty]
HPDrainRate:5
CircleSize:2
OverallDifficulty:7
ApproachRate:10
SliderMultiplier:1.6
SliderTickRate:0.5

[Events]
//Background and Video events
0,0,"judgement.png",0,0
//Break Periods
2,141985,143536
2,144737,147665
2,149140,149867
2,150792,152344
2,153544,154270
//Storyboard Layer 0 (Background)
//Storyboard Layer 1 (Fail)
//Storyboard Layer 2 (Pass)
//Storyboard Layer 3 (Foreground)
//Storyboard Layer 4 (Overlay)
//Storyboard Sound Samples

[TimingPoints]
319,258.620689655172,4,1,0,86,1,0
319,-117.647058823529,4,1,0,86,0,0
448,270.27027027027,4,1,0,86,1,8
448,-112.576064908722,4,1,0,86,0,8
859,235.294117647059,4,1,0,86,1,8
859,-129.310344827586,4,1,0,86,0,8
976,304.568527918782,4,1,0,86,1,8
976,-99.8985801217036,4,1,0,86,0,8
1128,246.913580246914,4,1,0,86,1,8
1128,-123.225152129817,4,1,0,86,0,8
1399,236.220472440945,4,1,0,86,1,0
1399,-128.803245436105,4,1,0,86,0,0
1521,292.682926829268,4,1,0,86,1,8
1521,-103.95537525355,4,1,0,86,0,8
1667,241.935483870968,4,1,0,86,1,8
1667,-125.760649087221,4,1,0,86,0,8
1787,255.31914893617,4,1,0,86,1,8
1787,-119.168356997972,4,1,0,86,0,8
1914,294.117647058824,4,1,0,86,1,8
1914,-103.448275862069,4,1,0,86,0,8
2208,272.727272727273,4,1,0,86,1,8
2208,-111.56186612576,4,1,0,86,0,8
2480,271.493212669683,4,1,0,86,1,0
2480,-112.068965517241,4,1,0,86,0,0
4105,-112.069931637342,4,1,0,86,0,0
4241,-108.703187382554,4,1,0,86,0,0
4309,-107.094549129928,4,1,0,86,0,0
4373,262.008733624454,4,1,0,86,1,8
4373,-109.517422715492,4,1,0,86,0,8
4438,246.913580246914,4,1,0,86,1,8
4438,-114.612787829028,4,1,0,86,0,8
4499,230.769230769231,4,1,0,86,1,8
4499,-121.066690283047,4,1,0,86,0,8
4553,-119.640632947707,4,1,0,86,0,8
4638,267.857142857143,4,1,0,86,1,0
4638,-101.357466063348,4,1,0,86,0,0
13206,-100,4,1,0,86,0,0
13273,-98.7642936185909,4,1,0,86,0,0
13340,-97.5587538713791,4,1,0,86,0,0
13407,-96.3822894168466,4,1,0,86,0,0
13474,-95.2338609283301,4,1,0,86,0,0
13541,-94.1124780316345,4,1,0,86,0,0
13608,-93.0171964564878,4,1,0,86,0,0
13675,-91.9471153846154,4,1,0,86,0,0
13742,-90.9013749787812,4,1,0,86,0,0
13809,-89.8791540785498,4,1,0,86,0,0
13876,-88.8796680497925,4,1,0,86,0,0
13943,-87.9021667760998,4,1,0,86,0,0
14010,-86.9459327812957,4,1,0,86,0,0
14076,-86.0240963855422,4,1,0,86,0,0
14143,-85.1080737444374,4,1,0,86,0,0
14210,-84.2113539864759,4,1,0,86,0,0
14277,-83.3333333333333,4,1,0,86,0,0
14344,-83.7696335078534,4,1,0,86,0,0
14411,-84.2105263157895,4,1,0,86,0,0
14478,-84.6560846560847,4,1,0,86,0,0
14545,-85.1063829787234,4,1,0,86,0,0
14612,-85.5614973262032,4,1,0,86,0,0
14679,-86.0215053763441,4,1,0,86,0,0
14746,-86.4864864864865,4,1,0,86,0,0
14813,-86.9565217391304,4,1,0,86,0,0
14880,-87.431693989071,4,1,0,86,0,0
14947,-87.9120879120879,4,1,0,86,0,0
15014,-88.3977900552486,4,1,0,86,0,0
15081,-88.8888888888889,4,1,0,86,0,0
15148,-89.3854748603352,4,1,0,86,0,0
15215,-89.8876404494382,4,1,0,86,0,0
15282,-90.3954802259887,4,1,0,86,0,0
15349,-90.9090909090909,4,1,0,86,0,0
15486,-100,4,1,0,86,0,0
18630,-100.62893081761,4,1,0,86,0,0
18697,-101.26582278481,4,1,0,86,0,0
18764,-101.910828025478,4,1,0,86,0,0
18831,-102.564102564103,4,1,0,86,0,0
18898,-103.225806451613,4,1,0,86,0,0
18965,-103.896103896104,4,1,0,86,0,0
19032,-104.575163398693,4,1,0,86,0,0
19099,-105.263157894737,4,1,0,86,0,0
19166,-105.960264900662,4,1,0,86,0,0
19233,-106.666666666667,4,1,0,86,0,0
19300,-107.38255033557,4,1,0,86,0,0
19367,-108.108108108108,4,1,0,86,0,0
19434,-108.843537414966,4,1,0,86,0,0
19501,-109.58904109589,4,1,0,86,0,0
19635,-111.111111111111,4,1,0,86,0,0
21844,-110.552763819095,4,1,0,86,0,0
21911,-110,4,1,0,86,0,0
21978,-109.452736318408,4,1,0,86,0,0
22045,-108.910891089109,4,1,0,86,0,0
22112,-108.374384236453,4,1,0,86,0,0
22179,-107.843137254902,4,1,0,86,0,0
22246,-107.317073170732,4,1,0,86,0,0
22313,-106.796116504854,4,1,0,86,0,0
22380,-106.280193236715,4,1,0,86,0,0
22447,-105.769230769231,4,1,0,86,0,0
22514,-105.263157894737,4,1,0,86,0,0
22581,-104.761904761905,4,1,0,86,0,0
22648,-104.265402843602,4,1,0,86,0,0
22715,-103.77358490566,4,1,0,86,0,0
22782,-103.286384976526,4,1,0,86,0,0
22849,-102.803738317757,4,1,0,86,0,0
22983,-101.851851851852,4,1,0,86,0,0
23117,-100.917431192661,4,1,0,86,0,0
23184,-100.456621004566,4,1,0,86,0,0
23251,-100,4,1,0,86,0,0
23381,267.857142857143,4,1,0,86,1,8
23381,-97.0831519373095,4,1,0,86,0,0
23444,-95.7081545064378,4,1,0,86,0,0
23511,-94.3515972075312,4,1,0,86,0,0
23578,-93.0329578639967,4,1,0,86,0,0
23645,-91.7506685867105,4,1,0,86,0,0
23712,-90.5032467532468,4,1,0,86,0,0
23779,-89.2892892892893,4,1,0,86,0,0
23846,-88.1074674041881,4,1,0,86,0,0
23916,267.857142857143,4,1,0,86,1,0
23916,-86.9565217391304,4,1,0,86,0,0
24057,-100,4,1,0,86,0,0
27123,-90.9090909090909,4,1,0,86,0,0
27189,-91.939222250837,4,1,0,86,0,0
27256,-93.0091185410334,4,1,0,86,0,0
27323,-94.104208769001,4,1,0,86,0,0
27390,-95.2253934382502,4,1,0,86,0,0
27457,-96.3736164851975,4,1,0,86,0,0
27524,-97.5498679296839,4,1,0,86,0,0
27591,-98.7551867219917,4,1,0,86,0,0
27658,-99.9906638035664,4,1,0,86,0,0
27725,-101.257445400397,4,1,0,86,0,0
27792,-102.556736569951,4,1,0,86,0,0
27859,-103.889805024736,4,1,0,86,0,0
27926,-105.257985257985,4,1,0,86,0,0
28060,-108.105380034319,4,1,0,86,0,0
28127,-109.587639414714,4,1,0,86,0,0
28194,-111.111111111111,4,1,0,86,0,0
30404,-110.552386670669,4,1,0,86,0,0
30471,-109.999253229781,4,1,0,86,0,0
30538,-109.451627284886,4,1,0,86,0,0
30605,-108.909426987061,4,1,0,86,0,0
30672,-108.372572101236,4,1,0,86,0,0
30739,-107.840983966615,4,1,0,86,0,0
30806,-107.314585458254,4,1,0,86,0,0
30873,-106.793300949757,4,1,0,86,0,0
30939,-106.284724727614,4,1,0,86,0,0
31006,-105.773373545885,4,1,0,86,0,0
31073,-105.266919173873,4,1,0,86,0,0
31140,-104.765291607397,4,1,0,86,0,0
31207,-104.268422170312,4,1,0,86,0,0
31274,-103.776243483162,4,1,0,86,0,0
31341,-103.288689432719,4,1,0,86,0,0
31408,-102.805695142379,4,1,0,86,0,0
31542,-101.85313234684,4,1,0,86,0,0
31676,-100.918059742395,4,1,0,86,0,0
31743,-100.456932414922,4,1,0,86,0,0
31810,-100,4,1,0,86,0,0
31948,-86.9565217391304,4,1,0,86,0,0
32015,-88.3977900552486,4,1,0,86,0,0
32082,-89.8876404494382,4,1,0,86,0,0
32149,-91.4285714285714,4,1,0,86,0,0
32216,-93.0232558139535,4,1,0,86,0,0
32283,-94.6745562130178,4,1,0,86,0,0
32350,-96.3855421686747,4,1,0,86,0,0
32417,-98.159509202454,4,1,0,86,0,0
32484,-100,4,1,0,86,0,0
35292,-97.2222222222222,4,1,0,86,0,0
35359,-95.8904109589041,4,1,0,86,0,0
35426,-94.5945945945946,4,1,0,86,0,0
35493,-93.3333333333333,4,1,0,86,0,0
35560,-92.1052631578947,4,1,0,86,0,0
35627,-90.9090909090909,4,1,0,86,0,0
35694,-80,4,1,0,86,0,0
35873,-82.7666151468315,4,1,0,86,0,0
36051,-85.7142857142857,4,1,0,86,0,0
36230,-88.8981116414194,4,1,0,86,0,0
36408,-92.3076923076923,4,1,0,86,0,0
36587,-96.010757507844,4,1,0,86,0,0
36765,-100,4,1,0,86,0,0
36902,-111.111111111111,4,1,0,86,0,0
38975,-110.552386670669,4,1,0,86,0,0
39042,-109.999253229781,4,1,0,86,0,0
39109,-109.451627284886,4,1,0,86,0,0
39176,-108.909426987061,4,1,0,86,0,0
39243,-108.372572101236,4,1,0,86,0,0
39310,-107.840983966615,4,1,0,86,0,0
39377,-107.314585458254,4,1,0,86,0,0
39444,-106.793300949757,4,1,0,86,0,0
39511,-106.277056277056,4,1,0,86,0,0
39578,-105.765778703238,4,1,0,86,0,0
39645,-105.259396884379,4,1,0,86,0,0
39712,-104.757840836356,4,1,0,86,0,0
39779,-104.261041902605,4,1,0,86,0,0
39846,-103.76893272279,4,1,0,86,0,0
39913,-103.281447202356,4,1,0,86,0,0
39980,-102.798520482937,4,1,0,86,0,0
40114,-101.846090022817,4,1,0,86,0,0
40248,-100.911146125916,4,1,0,86,0,0
40314,-100.456932414922,4,1,0,86,0,0
40381,-100,4,1,0,86,0,0
40515,-97.0873786407767,4,1,0,86,0,0
40582,-95.6937799043062,4,1,0,86,0,0
40649,-94.3396226415094,4,1,0,86,0,0
40716,-93.0232558139535,4,1,0,86,0,0
40783,-91.7431192660551,4,1,0,86,0,0
40850,-90.4977375565611,4,1,0,86,0,0
40917,-89.2857142857143,4,1,0,86,0,0
40984,-88.1057268722467,4,1,0,86,0,0
41058,267.857142857143,4,1,0,86,1,8
41066,267.857142857143,4,1,0,86,1,0
41066,-86.9565217391304,4,1,0,86,0,0
41198,-100,4,1,0,86,0,0
44275,-86.9565217391304,4,1,0,86,0,0
44342,-87.6712328767123,4,1,0,86,0,0
44409,-88.3977900552486,4,1,0,86,0,0
44476,-89.1364902506964,4,1,0,86,0,0
44543,-89.8876404494382,4,1,0,86,0,0
44610,-90.6515580736544,4,1,0,86,0,0
44677,-91.4285714285714,4,1,0,86,0,0
44744,-92.2190201729107,4,1,0,86,0,0
44811,-93.0232558139535,4,1,0,86,0,0
44878,-93.841642228739,4,1,0,86,0,0
44945,-94.6745562130178,4,1,0,86,0,0
45012,-95.5223880597015,4,1,0,86,0,0
45079,-96.3855421686747,4,1,0,86,0,0
45213,-98.159509202454,4,1,0,86,0,0
45280,-99.0712074303406,4,1,0,86,0,0
45347,-100,4,1,0,86,0,0
45484,-111.111111111111,4,1,0,86,0,0
47490,-109.587639414714,4,1,0,86,0,0
47557,-108.841463414634,4,1,0,86,0,0
47624,-108.105380034319,4,1,0,86,0,0
47691,-107.379185883297,4,1,0,86,0,0
47758,-106.662682999701,4,1,0,86,0,0
47824,-105.966162065895,4,1,0,86,0,0
47891,-105.268331039906,4,1,0,86,0,0
47958,-104.57963089542,4,1,0,86,0,0
48025,-103.899883585565,4,1,0,86,0,0
48092,-103.228915662651,4,1,0,86,0,0
48159,-102.566558130626,4,1,0,86,0,0
48226,-101.912646303169,4,1,0,86,0,0
48293,-101.267019667171,4,1,0,86,0,0
48360,-100.629521751386,4,1,0,86,0,0
48427,-100,4,1,0,86,0,0
48561,-86.9565217391304,4,1,0,86,0,0
48628,-87.6712328767123,4,1,0,86,0,0
48695,-88.3977900552486,4,1,0,86,0,0
48762,-89.1364902506964,4,1,0,86,0,0
48829,-89.8876404494382,4,1,0,86,0,0
48896,-90.6515580736544,4,1,0,86,0,0
48963,-91.4285714285714,4,1,0,86,0,0
49030,-92.2190201729107,4,1,0,86,0,0
49097,-93.0232558139535,4,1,0,86,0,0
49164,-93.841642228739,4,1,0,86,0,0
49231,-94.6745562130178,4,1,0,86,0,0
49298,-95.5223880597015,4,1,0,86,0,0
49365,-96.3855421686747,4,1,0,86,0,0
49432,-97.2644376899696,4,1,0,86,0,0
49499,-98.159509202454,4,1,0,86,0,0
49566,-99.0712074303406,4,1,0,86,0,0
49633,-100,4,1,0,86,0,0
49769,-111.111111111111,4,1,0,86,0,0
51775,-110.091743119266,4,1,0,86,0,0
51842,-109.58904109589,4,1,0,86,0,0
51909,-109.090909090909,4,1,0,86,0,0
51976,-108.597285067873,4,1,0,86,0,0
52043,-108.108108108108,4,1,0,86,0,0
52110,-107.62331838565,4,1,0,86,0,0
52177,-107.142857142857,4,1,0,86,0,0
52244,-106.666666666667,4,1,0,86,0,0
52311,-106.194690265487,4,1,0,86,0,0
52378,-105.726872246696,4,1,0,86,0,0
52445,-105.263157894737,4,1,0,86,0,0
52512,-104.803493449782,4,1,0,86,0,0
52579,-104.347826086957,4,1,0,86,0,0
52646,-103.896103896104,4,1,0,86,0,0
52713,-103.448275862069,4,1,0,86,0,0
52780,-103.004291845494,4,1,0,86,0,0
52847,-102.564102564103,4,1,0,86,0,0
52981,-101.694915254237,4,1,0,86,0,0
53115,-100.840336134454,4,1,0,86,0,0
53182,-100.418410041841,4,1,0,86,0,0
53249,-100,4,1,0,86,0,0
53383,-98.0363423212192,4,1,0,86,0,0
53449,-97.0972423802613,4,1,0,86,0,0
53516,-96.1621388529539,4,1,0,86,0,0
53583,-95.2448747152619,4,1,0,86,0,0
53650,-94.3449442955859,4,1,0,86,0,0
53717,-93.4618608549874,4,1,0,86,0,0
53784,-92.5951557093425,4,1,0,86,0,0
53851,-91.7443773998903,4,1,0,86,0,0
53918,-90.9090909090909,4,1,0,86,0,0
54055,-111.111111111111,4,1,0,86,0,0
56061,-100,4,1,0,86,0,0
56128,-100.313626363338,4,1,0,86,0,0
56195,-100.629226145755,4,1,0,86,0,0
56262,-100.946818031937,4,1,0,86,0,0
56329,-101.2664209432,4,1,0,86,0,0
56396,-101.588054041242,4,1,0,86,0,0
56463,-101.911736731976,4,1,0,86,0,0
56530,-102.237488669434,4,1,0,86,0,0
56597,-102.56532975974,4,1,0,86,0,0
56664,-102.89528016517,4,1,0,86,0,0
56731,-103.227360308285,4,1,0,86,0,0
56798,-103.561590876142,4,1,0,86,0,0
56865,-103.89799282459,4,1,0,86,0,0
56932,-104.236587382655,4,1,0,86,0,0
56999,-104.577396056998,4,1,0,86,0,0
57066,-104.920440636475,4,1,0,86,0,0
57133,-105.265743196778,4,1,0,86,0,0
57266,-105.957972805933,4,1,0,86,0,0
57400,-106.664675725449,4,1,0,86,0,0
57467,-107.021574111067,4,1,0,86,0,0
57534,-107.380868868066,4,1,0,86,0,0
57668,-108.106744690511,4,1,0,86,0,0
57802,-108.842500888821,4,1,0,86,0,0
57936,-109.588340577857,4,1,0,86,0,0
58003,-109.965106732348,4,1,0,86,0,0
58070,-110.344472478245,4,1,0,86,0,0
58137,-110.726464813475,4,1,0,86,0,0
58204,-111.111111111111,4,1,0,86,0,0
61418,-105.263157894737,4,1,0,86,0,0
61485,-104.234527687296,4,1,0,86,0,0
61552,-103.225806451613,4,1,0,86,0,0
61619,-102.23642172524,4,1,0,86,0,0
61686,-101.26582278481,4,1,0,86,0,0
61753,-100.313479623824,4,1,0,86,0,0
61820,-99.3788819875776,4,1,0,86,0,0
61887,-98.4615384615385,4,1,0,86,0,0
61954,-97.5609756097561,4,1,0,86,0,0
62021,-96.6767371601208,4,1,0,86,0,0
62088,-95.8083832335329,4,1,0,86,0,0
62155,-94.9554896142433,4,1,0,86,0,0
62222,-94.1176470588235,4,1,0,86,0,0
62289,-93.2944606413994,4,1,0,86,0,0
62356,-92.485549132948,4,1,0,86,0,0
62423,-91.6905444126074,4,1,0,86,0,0
62490,-90.9090909090909,4,1,0,86,0,0
62627,-111.111111111111,4,1,0,86,0,0
64633,-95.2380952380952,4,1,0,86,0,0
64699,-95.6591639871383,4,1,0,86,0,0
64766,-96.09043805935,4,1,0,86,0,0
64833,-96.525618493984,4,1,0,86,0,0
64900,-96.9647586066409,4,1,0,86,0,0
64967,-97.4079126875853,4,1,0,86,0,0
65034,-97.8551360241211,4,1,0,86,0,0
65101,-98.3064849235853,4,1,0,86,0,0
65168,-98.7620167369804,4,1,0,86,0,0
65235,-99.2217898832685,4,1,0,86,0,0
65302,-99.6858638743456,4,1,0,86,0,0
65369,-100.154299340721,4,1,0,86,0,0
65436,-100.627158057924,4,1,0,86,0,0
65503,-101.104502973662,4,1,0,86,0,0
65570,-101.586398235754,4,1,0,86,0,0
65637,-102.072909220872,4,1,0,86,0,0
65704,-102.564102564103,4,1,0,86,0,0
65838,-103.560809340779,4,1,0,86,0,0
65972,-104.577077993409,4,1,0,86,0,0
66039,-105.092728878422,4,1,0,86,0,0
66106,-105.61349012647,4,1,0,86,0,0
66240,-106.670650631209,4,1,0,86,0,0
66307,-107.207207207207,4,1,0,86,0,0
66374,-107.749188862899,4,1,0,86,0,0
66441,-108.296678295162,4,1,0,86,0,0
66508,-108.849759890236,4,1,0,86,0,0
66574,-109.400137899333,4,1,0,86,0,0
66641,-109.964577237024,4,1,0,86,0,0
66708,-110.534871120056,4,1,0,86,0,0
66775,-111.111111111111,4,1,0,86,0,0
67043,-125,4,1,0,86,0,0
67110,-123.619581341685,4,1,0,86,0,0
67177,-122.269318552331,4,1,0,86,0,0
67244,-120.948234155781,4,1,0,86,0,0
67311,-119.655392469687,4,1,0,86,0,0
67378,-118.389897395422,4,1,0,86,0,0
67445,-117.150890346767,4,1,0,86,0,0
67512,-115.937548307312,4,1,0,86,0,0
67579,-114.749082007344,4,1,0,86,0,0
67646,-113.584734211722,4,1,0,86,0,0
67713,-112.443778110945,4,1,0,86,0,0
67780,-111.325515808223,4,1,0,86,0,0
67847,-110.229276895944,4,1,0,86,0,0
67914,-109.154417115413,4,1,0,86,0,0
67981,-108.100317094263,4,1,0,86,0,0
68048,-107.066381156317,4,1,0,86,0,0
68115,-106.052036199095,4,1,0,86,0,0
68182,-105.056730634543,4,1,0,86,0,0
68249,-104.079933388843,4,1,0,86,0,0
68316,-103.121132957514,4,1,0,86,0,0
68383,-102.179836512262,4,1,0,86,0,0
68449,-101.26924115582,4,1,0,86,0,0
68516,-100.361300682457,4,1,0,86,0,0
68583,-99.4694960212202,4,1,0,86,0,0
68650,-98.5934008150388,4,1,0,86,0,0
68717,-97.7326035965598,4,1,0,86,0,0
68784,-96.8867071437799,4,1,0,86,0,0
68851,-96.0553278688524,4,1,0,86,0,0
68918,-95.2380952380952,4,1,0,86,0,0
69186,-80,4,1,0,86,0,0
69253,-81.3567902797114,4,1,0,86,0,0
69320,-82.7603965495043,4,1,0,86,0,0
69387,-84.2132844229006,4,1,0,86,0,0
69454,-85.7180957460995,4,1,0,86,0,0
69521,-87.2776646300068,4,1,0,86,0,0
69588,-88.895035264832,4,1,0,86,0,0
69655,-90.5734817528533,4,1,0,86,0,0
69722,-92.3165302312222,4,1,0,86,0,0
69789,-94.1279835993557,4,1,0,86,0,0
69856,-96.0119492158327,4,1,0,86,0,0
69923,-97.9728699893309,4,1,0,86,0,0
69990,-100.015559358954,4,1,0,86,0,0
70057,-102.145240743683,4,1,0,86,0,0
70124,-104.367592141581,4,1,0,86,0,0
70191,-106.688796680498,4,1,0,86,0,0
70258,-109.1156000679,4,1,0,86,0,0
70525,-119.992533134217,4,1,0,86,0,0
70793,-133.333333333333,4,1,0,86,0,0
70999,-90.9090909090909,4,1,0,86,0,0
71066,-90.9090909090909,4,1,0,86,0,1
75347,-83.3333333333333,4,1,0,86,0,1
75481,-85.2292020373514,4,1,0,86,0,1
75615,-87.2133425990271,4,1,0,86,0,1
75682,-88.2404640534365,4,1,0,86,0,1
75749,-89.2920668801138,4,1,0,86,0,1
75816,-90.3690369036904,4,1,0,86,0,1
75883,-91.4723032069971,4,1,0,86,0,1
75949,-92.5857617115456,4,1,0,86,0,1
76016,-93.7441643323996,4,1,0,86,0,1
76083,-94.9319213313162,4,1,0,86,0,1
76150,-96.1501628040605,4,1,0,86,0,1
76217,-97.4000776096236,4,1,0,86,0,1
76284,-98.6829172400236,4,1,0,86,0,1
76351,-100,4,1,0,86,0,1
76418,-90.9090909090909,4,1,0,86,0,1
76552,-93.0232558139535,4,1,0,86,0,1
76686,-95.2380952380952,4,1,0,86,0,1
76753,-96.3855421686747,4,1,0,86,0,1
76820,-97.5609756097561,4,1,0,86,0,1
76887,-98.7654320987654,4,1,0,86,0,1
76954,-100,4,1,0,86,0,1
77021,-101.26582278481,4,1,0,86,0,1
77088,-102.564102564103,4,1,0,86,0,1
77155,-103.896103896104,4,1,0,86,0,1
77222,-105.263157894737,4,1,0,86,0,1
77289,-106.666666666667,4,1,0,86,0,1
77356,-108.108108108108,4,1,0,86,0,1
77423,-109.58904109589,4,1,0,86,0,1
77490,-111.111111111111,4,1,0,86,0,1
79097,-108.108108108108,4,1,0,86,0,1
79164,-106.666666666667,4,1,0,86,0,1
79231,-105.263157894737,4,1,0,86,0,1
79298,-103.896103896104,4,1,0,86,0,1
79365,-102.564102564103,4,1,0,86,0,1
79432,-101.26582278481,4,1,0,86,0,1
79499,-100,4,1,0,86,0,1
79569,-90.9090909090909,4,1,0,86,0,1
83918,-83.3333333333333,4,1,0,86,0,1
84052,-85.2272727272727,4,1,0,86,0,1
84186,-87.2093023255814,4,1,0,86,0,1
84253,-88.2352941176471,4,1,0,86,0,1
84320,-89.2857142857143,4,1,0,86,0,1
84387,-90.3614457831325,4,1,0,86,0,1
84454,-91.4634146341463,4,1,0,86,0,1
84521,-92.5925925925926,4,1,0,86,0,1
84588,-93.75,4,1,0,86,0,1
84655,-94.9367088607595,4,1,0,86,0,1
84722,-96.1538461538461,4,1,0,86,0,1
84789,-97.4025974025974,4,1,0,86,0,1
84856,-98.6842105263158,4,1,0,86,0,1
84923,-100,4,1,0,86,0,1
84990,-90.9090909090909,4,1,0,86,0,1
85124,-93.0252757752106,4,1,0,86,0,1
85258,-95.2423299244108,4,1,0,86,0,1
85324,-96.3736164851975,4,1,0,86,0,1
85391,-97.5498679296839,4,1,0,86,0,1
85458,-98.7551867219917,4,1,0,86,0,1
85525,-99.9906638035664,4,1,0,86,0,1
85592,-101.257445400397,4,1,0,86,0,1
85659,-102.556736569951,4,1,0,86,0,1
85726,-103.889805024736,4,1,0,86,0,1
85793,-105.257985257985,4,1,0,86,0,1
85860,-106.662682999701,4,1,0,86,0,1
85927,-108.105380034319,4,1,0,86,0,1
85994,-109.587639414714,4,1,0,86,0,1
86061,-111.111111111111,4,1,0,86,0,1
86195,-111.940714325514,4,1,0,86,0,1
86329,-112.782799079324,4,1,0,86,0,1
86396,-113.208610391074,4,1,0,86,0,1
86463,-113.637649188303,4,1,0,86,0,1
86597,-114.505557138786,4,1,0,86,0,1
86731,-115.386824421343,4,1,0,86,0,1
86865,-116.281761879956,4,1,0,86,0,1
86932,-116.734456711214,4,1,0,86,0,1
86999,-117.190690077583,4,1,0,86,0,1
87066,-117.650503630827,4,1,0,86,0,1
87133,-118.113939678993,4,1,0,86,0,1
87266,-119.044797345342,4,1,0,86,0,1
87333,-119.519305134154,4,1,0,86,0,1
87400,-119.997610799188,4,1,0,86,0,1
87467,-120.47976011994,4,1,0,86,0,1
87534,-120.965799614644,4,1,0,86,0,1
87668,-121.949738982639,4,1,0,86,0,1
87735,-122.447735722557,4,1,0,86,0,1
87802,-122.949816401469,4,1,0,86,0,1
87869,-123.45603146316,4,1,0,86,0,1
87936,-123.96643218561,4,1,0,86,0,1
88070,-125,4,1,0,86,0,1
88208,-111.111111111111,4,1,0,86,0,0
88338,-112.677538137822,4,1,0,86,0,0
88405,-113.47743165925,4,1,0,86,0,0
88472,-114.288763205634,4,1,0,86,0,0
88539,-115.111779879622,4,1,0,86,0,0
88606,-115.946735953232,4,1,0,86,0,0
88673,-116.793893129771,4,1,0,86,0,0
88740,-117.653520817313,4,1,0,86,0,0
88807,-118.525896414343,4,1,0,86,0,0
88874,-119.411305608206,4,1,0,86,0,0
88941,-120.310042687037,4,1,0,86,0,0
89008,-121.222410865874,4,1,0,86,0,0
89074,-122.134793020869,4,1,0,86,0,0
89141,-123.07515513675,4,1,0,86,0,0
89208,-124.030110017371,4,1,0,86,0,0
89275,-125,4,1,0,86,0,0
89342,-122.80701754386,4,1,0,86,0,0
89409,-120.689655172414,4,1,0,86,0,0
89476,-118.64406779661,4,1,0,86,0,0
89543,-116.666666666667,4,1,0,86,0,0
89610,-114.754098360656,4,1,0,86,0,0
89677,-112.903225806452,4,1,0,86,0,0
89744,-111.111111111111,4,1,0,86,0,0
89811,-109.375,4,1,0,86,0,0
89878,-107.692307692308,4,1,0,86,0,0
89945,-106.060606060606,4,1,0,86,0,0
90012,-104.477611940299,4,1,0,86,0,0
90079,-102.941176470588,4,1,0,86,0,0
90146,-101.449275362319,4,1,0,86,0,0
90213,-100,4,1,0,86,0,0
90283,-117.647058823529,4,1,0,86,0,0
90883,-95.2380952380952,4,1,0,86,0,0
90949,-97.529851426488,4,1,0,86,0,0
91016,-99.9719704755676,4,1,0,86,0,0
91083,-102.539530426449,4,1,0,86,0,0
91150,-105.242451067178,4,1,0,86,0,0
91217,-108.091726437014,4,1,0,86,0,0
91284,-111.099574291351,4,1,0,86,0,0
91351,-114.279611235715,4,1,0,86,0,0
91418,-117.647058823529,4,1,0,86,0,0
91686,-111.111111111111,4,1,0,86,0,0
91954,-105.263157894737,4,1,0,86,0,0
92222,-95.2380952380952,4,1,0,86,0,0
92266,-96.7509025270758,4,1,0,86,0,0
92311,-98.348623853211,4,1,0,86,0,0
92356,-100,4,1,0,86,0,0
92490,-86.9565217391304,4,1,0,86,0,0
92557,-88.1554037369331,4,1,0,86,0,0
92624,-89.3878062012269,4,1,0,86,0,0
92691,-90.655154900965,4,1,0,86,0,0
92758,-91.9589576267548,4,1,0,86,0,0
92824,-93.2804947088795,4,1,0,86,0,0
92891,-94.6614813505391,4,1,0,86,0,0
92958,-96.0839725474364,4,1,0,86,0,0
93025,-97.549867929684,4,1,0,86,0,0
93092,-99.0611848494658,4,1,0,86,0,0
93159,-100.620067643743,4,1,0,86,0,0
93226,-102.22879778552,4,1,0,86,0,0
93293,-103.889805024736,4,1,0,86,0,0
93360,-105.60567963319,4,1,0,86,0,0
93427,-107.379185883297,4,1,0,86,0,0
93494,-109.213276908173,4,1,0,86,0,0
93561,-111.111111111111,4,1,0,86,0,0
93695,-109.58904109589,4,1,0,86,0,0
93762,-108.843537414966,4,1,0,86,0,0
93829,-108.108108108108,4,1,0,86,0,0
93963,-106.666666666667,4,1,0,86,0,0
94097,-105.263157894737,4,1,0,86,0,0
94231,-103.896103896104,4,1,0,86,0,0
94365,-95.2380952380952,4,1,0,86,0,0
94432,-96.0006373486297,4,1,0,86,0,0
94499,-96.7754888969201,4,1,0,86,0,0
94566,-97.5629503683912,4,1,0,86,0,0
94633,-98.3633321088935,4,1,0,86,0,0
94766,-99.9917019334495,4,1,0,86,0,0
94833,-100.832601146396,4,1,0,86,0,0
94900,-101.68776371308,4,1,0,86,0,0
95034,-103.442355567001,4,1,0,86,0,0
95168,-105.25856044724,4,1,0,86,0,0
95235,-106.190790923111,4,1,0,86,0,0
95302,-107.139681692896,4,1,0,86,0,0
95436,-109.089263081659,4,1,0,86,0,0
95503,-110.090904938102,4,1,0,86,0,0
95570,-111.111111111111,4,1,0,86,0,0
95707,-83.3333333333333,4,1,0,86,0,0
96778,-90.9090909090909,4,1,0,86,0,0
96912,-100,4,1,0,86,0,0
100056,-100.62893081761,4,1,0,86,0,0
100123,-101.26582278481,4,1,0,86,0,0
100190,-101.910828025478,4,1,0,86,0,0
100257,-102.564102564103,4,1,0,86,0,0
100324,-103.225806451613,4,1,0,86,0,0
100391,-103.896103896104,4,1,0,86,0,0
100458,-104.575163398693,4,1,0,86,0,0
100525,-105.263157894737,4,1,0,86,0,0
100592,-105.960264900662,4,1,0,86,0,0
100659,-106.666666666667,4,1,0,86,0,0
100726,-107.38255033557,4,1,0,86,0,0
100793,-108.108108108108,4,1,0,86,0,0
100860,-108.843537414966,4,1,0,86,0,0
100927,-109.58904109589,4,1,0,86,0,0
101061,-111.111111111111,4,1,0,86,0,0
103271,-110.552763819095,4,1,0,86,0,0
103338,-110,4,1,0,86,0,0
103405,-109.452736318408,4,1,0,86,0,0
103472,-108.910891089109,4,1,0,86,0,0
103539,-108.374384236453,4,1,0,86,0,0
103606,-107.843137254902,4,1,0,86,0,0
103673,-107.317073170732,4,1,0,86,0,0
103740,-106.796116504854,4,1,0,86,0,0
103807,-106.280193236715,4,1,0,86,0,0
103874,-105.769230769231,4,1,0,86,0,0
103941,-105.263157894737,4,1,0,86,0,0
104008,-104.761904761905,4,1,0,86,0,0
104075,-104.265402843602,4,1,0,86,0,0
104142,-103.77358490566,4,1,0,86,0,0
104209,-103.286384976526,4,1,0,86,0,0
104276,-102.803738317757,4,1,0,86,0,0
104410,-101.851851851852,4,1,0,86,0,0
104544,-100.917431192661,4,1,0,86,0,0
104611,-100.456621004566,4,1,0,86,0,0
104678,-100,4,1,0,86,0,0
104812,-97.0831519373095,4,1,0,86,0,0
104878,-95.7081545064378,4,1,0,86,0,0
104945,-94.3515972075312,4,1,0,86,0,0
105012,-93.0329578639967,4,1,0,86,0,0
105079,-91.7506685867105,4,1,0,86,0,0
105146,-90.5032467532468,4,1,0,86,0,0
105213,-89.2892892892893,4,1,0,86,0,0
105280,-88.1074674041881,4,1,0,86,0,0
105347,-86.9565217391304,4,1,0,86,0,0
105484,-100,4,1,0,86,0,0
108561,-86.9565217391304,4,1,0,86,0,0
108628,-87.6712328767123,4,1,0,86,0,0
108695,-88.3977900552486,4,1,0,86,0,0
108762,-89.1364902506964,4,1,0,86,0,0
108829,-89.8876404494382,4,1,0,86,0,0
108896,-90.6515580736544,4,1,0,86,0,0
108963,-91.4285714285714,4,1,0,86,0,0
109030,-92.2190201729107,4,1,0,86,0,0
109097,-93.0232558139535,4,1,0,86,0,0
109164,-93.841642228739,4,1,0,86,0,0
109231,-94.6745562130178,4,1,0,86,0,0
109298,-95.5223880597015,4,1,0,86,0,0
109365,-96.3855421686747,4,1,0,86,0,0
109499,-98.159509202454,4,1,0,86,0,0
109566,-99.0712074303406,4,1,0,86,0,0
109633,-100,4,1,0,86,0,0
109770,-111.111111111111,4,1,0,86,0,0
111842,-110.344117041006,4,1,0,86,0,0
111909,-109.587639414714,4,1,0,86,0,0
111976,-108.841463414634,4,1,0,86,0,0
112043,-108.105380034319,4,1,0,86,0,0
112110,-107.379185883297,4,1,0,86,0,0
112177,-106.662682999701,4,1,0,86,0,0
112244,-105.95567867036,4,1,0,86,0,0
112311,-105.257985257985,4,1,0,86,0,0
112377,-104.57963089542,4,1,0,86,0,0
112378,-104.569420035149,4,1,0,86,0,0
112444,-103.899883585565,4,1,0,86,0,0
112445,-103.889805024736,4,1,0,86,0,0
112511,-103.228915662651,4,1,0,86,0,0
112578,-102.566558130626,4,1,0,86,0,0
112645,-101.912646303169,4,1,0,86,0,0
112712,-101.267019667171,4,1,0,86,0,0
112779,-100.629521751386,4,1,0,86,0,0
112846,-100,4,1,0,86,0,0
112980,-101.26582278481,4,1,0,86,0,0
113114,-102.564102564103,4,1,0,86,0,0
113182,-103.235747303544,4,1,0,86,0,0
113248,-103.896103896104,4,1,0,86,0,0
113383,-105.273495040754,4,1,0,86,0,0
113449,-105.960264900662,4,1,0,86,0,0
113516,-106.666666666667,4,1,0,86,0,0
113583,-107.38255033557,4,1,0,86,0,0
113650,-108.108108108108,4,1,0,86,0,0
113717,-108.843537414966,4,1,0,86,0,0
113784,-109.58904109589,4,1,0,86,0,0
113851,-110.344827586207,4,1,0,86,0,0
113921,-90.9090909090909,4,1,0,86,0,0
114186,-111.111111111111,4,1,0,86,0,0
114253,-110.397453841287,4,1,0,86,0,0
114320,-109.692905585613,4,1,0,86,0,0
114387,-108.997293050902,4,1,0,86,0,0
114454,-108.31044731199,4,1,0,86,0,0
114520,-107.642264263815,4,1,0,86,0,0
114587,-106.972337302841,4,1,0,86,0,0
114654,-106.310697537019,4,1,0,86,0,0
114721,-105.657192139017,4,1,0,86,0,0
114788,-105.011672016341,4,1,0,86,0,0
114855,-104.373991697935,4,1,0,86,0,0
114922,-103.744009224893,4,1,0,86,0,0
114989,-103.121586045096,4,1,0,86,0,0
115056,-102.506586911629,4,1,0,86,0,0
115123,-101.898879784805,4,1,0,86,0,0
115190,-101.298335737659,4,1,0,86,0,0
115257,-100.704828864753,4,1,0,86,0,0
115324,-100.118236194186,4,1,0,86,0,0
115391,-99.5384376026415,4,1,0,86,0,0
115458,-98.9653157333883,4,1,0,86,0,0
115525,-98.3987559170839,4,1,0,86,0,0
115592,-97.8386460952899,4,1,0,86,0,0
115659,-97.2848767465829,4,1,0,86,0,0
115726,-96.7373408151608,4,1,0,86,0,0
115793,-96.1959336418464,4,1,0,86,0,0
115860,-95.660552897395,4,1,0,86,0,0
115927,-95.1310985180167,4,1,0,86,0,0
115994,-94.6074726430285,4,1,0,86,0,0
116061,-94.0895795545533,4,1,0,86,0,0
116128,-93.57732561919,4,1,0,86,0,0
116195,-93.0706192315774,4,1,0,86,0,0
116262,-92.5693707597826,4,1,0,86,0,0
116329,-92.0734924924445,4,1,0,86,0,0
116395,-91.5901824486615,4,1,0,86,0,0
116462,-91.1047118762065,4,1,0,86,0,0
116529,-90.6243606087791,4,1,0,86,0,0
116596,-90.1490480961924,4,1,0,86,0,0
116663,-89.6786954693414,4,1,0,86,0,0
116730,-89.2132254965759,4,1,0,86,0,0
116797,-88.7525625414246,4,1,0,86,0,0
116864,-88.2966325216218,4,1,0,86,0,0
116931,-87.8453628693914,4,1,0,86,0,0
116998,-87.3986824929419,4,1,0,86,0,0
117065,-86.9565217391304,4,1,0,86,0,0
117133,-80,4,1,0,86,0,0
117200,-81.0810810810811,4,1,0,86,0,0
117267,-82.1917808219178,4,1,0,86,0,0
117334,-83.3333333333333,4,1,0,86,0,0
117401,-84.5070422535211,4,1,0,86,0,0
117468,-85.7142857142857,4,1,0,86,0,0
117535,-86.9565217391304,4,1,0,86,0,0
117602,-88.2352941176471,4,1,0,86,0,0
117669,-89.5522388059701,4,1,0,86,0,0
117736,-90.9090909090909,4,1,0,86,0,0
117803,-92.3076923076923,4,1,0,86,0,0
117870,-93.75,4,1,0,86,0,0
117937,-95.2380952380952,4,1,0,86,0,0
118004,-96.7741935483871,4,1,0,86,0,0
118071,-98.3606557377049,4,1,0,86,0,0
118138,-100,4,1,0,86,0,0
118204,-90.9090909090909,4,1,0,86,0,0
118471,-117.647058823529,4,1,0,86,0,0
118538,-116.181801282647,4,1,0,86,0,0
118605,-114.752593408611,4,1,0,86,0,0
118672,-113.358120975787,4,1,0,86,0,0
118739,-111.997132873398,4,1,0,86,0,0
118806,-110.668437361664,4,1,0,86,0,0
118873,-109.370898591303,4,1,0,86,0,0
118940,-108.103433365044,4,1,0,86,0,0
119007,-106.865008121741,4,1,0,86,0,0
119074,-105.654636125433,4,1,0,86,0,0
119141,-104.471374843293,4,1,0,86,0,0
119208,-103.31432349781,4,1,0,86,0,0
119275,-102.182620779858,4,1,0,86,0,0
119342,-101.075442710439,4,1,0,86,0,0
119409,-99.9920006399488,4,1,0,86,0,0
119476,-98.9315393747527,4,1,0,86,0,0
119543,-97.8933354217245,4,1,0,86,0,0
119610,-96.8766953421685,4,1,0,86,0,0
119677,-95.8809542072563,4,1,0,86,0,0
119744,-94.9054741477488,4,1,0,86,0,0
119811,-93.9496429913566,4,1,0,86,0,0
119878,-93.0128729816207,4,1,0,86,0,0
119945,-92.0945995726811,4,1,0,86,0,0
120012,-91.1942802947399,4,1,0,86,0,0
120079,-90.3113936854274,4,1,0,86,0,0
120145,-89.4582408931511,4,1,0,86,0,0
120212,-88.6084922378961,4,1,0,86,0,0
120279,-87.7747349203005,4,1,0,86,0,0
120346,-86.9565217391304,4,1,0,86,0,0
120413,-87.7862595419847,4,1,0,86,0,0
120480,-88.6319845857418,4,1,0,86,0,0
120547,-89.4941634241245,4,1,0,86,0,0
120614,-90.3732809430255,4,1,0,86,0,0
120681,-91.2698412698413,4,1,0,86,0,0
120748,-92.184368737475,4,1,0,86,0,0
120815,-93.1174089068826,4,1,0,86,0,0
120882,-94.0695296523517,4,1,0,86,0,0
120949,-95.0413223140496,4,1,0,86,0,0
121016,-96.0334029227558,4,1,0,86,0,0
121083,-97.0464135021097,4,1,0,86,0,0
121150,-98.0810234541578,4,1,0,86,0,0
121217,-99.1379310344828,4,1,0,86,0,0
121284,-100.217864923747,4,1,0,86,0,0
121351,-101.321585903084,4,1,0,86,0,0
121418,-102.449888641425,4,1,0,86,0,0
121485,-103.603603603604,4,1,0,86,0,0
121552,-104.783599088838,4,1,0,86,0,0
121619,-105.990783410138,4,1,0,86,0,0
121686,-107.226107226107,4,1,0,86,0,0
121753,-108.490566037736,4,1,0,86,0,0
121820,-109.785202863962,4,1,0,86,0,0
121887,-111.111111111111,4,1,0,86,0,0
121954,-100,4,1,0,86,0,0
122020,-97.8419600843745,4,1,0,86,0,0
122087,-96.7897271268058,4,1,0,86,0,0
122154,-95.759885659838,4,1,0,86,0,0
122221,-94.7517284726587,4,1,0,86,0,0
122288,-93.7645778261546,4,1,0,86,0,0
122355,-92.797783933518,4,1,0,86,0,0
122422,-91.8507235338918,4,1,0,86,0,0
122494,-90.9090909090909,4,1,0,86,0,1
126775,-83.3333333333333,4,1,0,86,0,1
126909,-85.2292020373514,4,1,0,86,0,1
127043,-87.2133425990271,4,1,0,86,0,1
127110,-88.2404640534365,4,1,0,86,0,1
127177,-89.2920668801138,4,1,0,86,0,1
127244,-90.3690369036904,4,1,0,86,0,1
127311,-91.4723032069971,4,1,0,86,0,1
127377,-92.5857617115456,4,1,0,86,0,1
127444,-93.7441643323996,4,1,0,86,0,1
127511,-94.9319213313162,4,1,0,86,0,1
127578,-96.1501628040605,4,1,0,86,0,1
127645,-97.4000776096236,4,1,0,86,0,1
127712,-98.6829172400236,4,1,0,86,0,1
127779,-100,4,1,0,86,0,1
127846,-90.9090909090909,4,1,0,86,0,1
127980,-93.0232558139535,4,1,0,86,0,1
128114,-95.2380952380952,4,1,0,86,0,1
128181,-96.3855421686747,4,1,0,86,0,1
128248,-97.5609756097561,4,1,0,86,0,1
128315,-98.7654320987654,4,1,0,86,0,1
128382,-100,4,1,0,86,0,1
128449,-101.26582278481,4,1,0,86,0,1
128516,-102.564102564103,4,1,0,86,0,1
128583,-103.896103896104,4,1,0,86,0,1
128650,-105.263157894737,4,1,0,86,0,1
128717,-106.666666666667,4,1,0,86,0,1
128784,-108.108108108108,4,1,0,86,0,1
128851,-109.58904109589,4,1,0,86,0,1
128918,-111.111111111111,4,1,0,86,0,1
130525,-108.108108108108,4,1,0,86,0,1
130592,-106.666666666667,4,1,0,86,0,1
130659,-105.263157894737,4,1,0,86,0,1
130726,-103.896103896104,4,1,0,86,0,1
130793,-102.564102564103,4,1,0,86,0,1
130860,-101.26582278481,4,1,0,86,0,1
130927,-100,4,1,0,86,0,1
130997,-90.9090909090909,4,1,0,86,0,1
135346,-83.3333333333333,4,1,0,86,0,1
135480,-85.2272727272727,4,1,0,86,0,1
135614,-87.2093023255814,4,1,0,86,0,1
135681,-88.2352941176471,4,1,0,86,0,1
135748,-89.2857142857143,4,1,0,86,0,1
135815,-90.3614457831325,4,1,0,86,0,1
135882,-91.4634146341463,4,1,0,86,0,1
135949,-92.5925925925926,4,1,0,86,0,1
136016,-93.75,4,1,0,86,0,1
136083,-94.9367088607595,4,1,0,86,0,1
136150,-96.1538461538461,4,1,0,86,0,1
136217,-97.4025974025974,4,1,0,86,0,1
136284,-98.6842105263158,4,1,0,86,0,1
136351,-100,4,1,0,86,0,1
136418,-90.9090909090909,4,1,0,86,0,1
136552,-93.0252757752106,4,1,0,86,0,1
136686,-95.2423299244108,4,1,0,86,0,1
136752,-96.3736164851975,4,1,0,86,0,1
136819,-97.5498679296839,4,1,0,86,0,1
136886,-98.7551867219917,4,1,0,86,0,1
136953,-99.9906638035664,4,1,0,86,0,1
137020,-101.257445400397,4,1,0,86,0,1
137087,-102.556736569951,4,1,0,86,0,1
137154,-103.889805024736,4,1,0,86,0,1
137221,-105.257985257985,4,1,0,86,0,1
137288,-106.662682999701,4,1,0,86,0,1
137355,-108.105380034319,4,1,0,86,0,1
137422,-109.587639414714,4,1,0,86,0,1
137491,-111.111111111111,4,1,0,86,0,1
137625,-112.083376867621,4,1,0,86,0,1
137759,-113.072808242641,4,1,0,86,0,1
137826,-113.574103728015,4,1,0,86,0,1
137893,-114.07986388047,4,1,0,86,0,1
138027,-115.105018911451,4,1,0,86,0,1
138161,-116.148765699437,4,1,0,86,0,1
138295,-117.211614630282,4,1,0,86,0,1
138362,-117.750367026604,4,1,0,86,0,1
138429,-118.294094944037,4,1,0,86,0,1
138565,267.857142857143,4,1,0,86,1,9
138571,256.410256410256,4,1,0,86,1,0
138571,-124.770364494176,4,1,0,86,0,0
138632,-125.328519704193,4,1,0,86,0,0
138696,-125.891691123812,4,1,0,86,0,0
138760,-126.459946680208,4,1,0,86,0,0
138827,260.869565217391,4,1,0,86,1,8
138827,-124.861845181585,4,1,0,86,0,8
138889,-125.439514292222,4,1,0,86,0,8
138954,-126.022553380147,4,1,0,86,0,8
139019,-126.611037673497,4,1,0,86,0,8
139084,-127.205043812164,4,1,0,86,0,8
139159,-127.897399053674,4,1,0,86,0,8
139237,260.869565217391,4,1,0,86,1,8
139237,-128.597332282591,4,1,0,86,0,8
139299,-129.210167453591,4,1,0,86,0,8
139364,-129.82887156896,4,1,0,86,0,8
139429,-130.453529342098,4,1,0,86,0,8
139494,-131.084227124645,4,1,0,86,0,8
139560,-131.730898599256,4,1,0,86,0,8
139628,266.666666666667,4,1,0,86,1,0
139628,-129.496342086288,4,1,0,86,0,0
139758,-130.803036280594,4,1,0,86,0,0
139825,-131.471335102489,4,1,0,86,0,0
139891,-132.136369907109,4,1,0,86,0,0
140028,283.018867924528,4,1,0,86,1,8
140170,266.666666666667,4,1,0,86,1,8
140170,-134.991896081932,4,1,0,86,0,0
140233,-135.693119569324,4,1,0,86,0,0
140300,-136.412458658396,4,1,0,86,0,0
140367,-137.139465143657,4,1,0,86,0,0
140433,-137.863237269703,4,1,0,86,0,0
140509,-138.706193280556,4,1,0,86,0,0
140587,262.008733624454,4,1,0,86,1,8
140587,-142.029082285141,4,1,0,86,0,0
140649,-142.780277633121,4,1,0,86,0,0
140718,262.008733624454,4,1,0,86,1,0
140718,-143.551204227887,4,1,0,86,0,0
140780,-144.318630434425,4,1,0,86,0,0
140846,-145.106304682202,4,1,0,86,0,0
140911,-145.890493531544,4,1,0,86,0,0
140977,-146.695467161584,4,1,0,86,0,0
141042,-147.496973925323,4,1,0,86,0,0
141102,263.157894736842,4,1,0,86,1,8
141102,-147.559883779858,4,1,0,86,0,0
141230,-149.210836479169,4,1,0,86,0,0
141296,-150.056688368578,4,1,0,86,0,0
141362,-150.912184924762,4,1,0,86,0,0
141427,-151.764307307412,4,1,0,86,0,0
141493,-152.639442231076,4,1,0,86,0,0
141625,-154.420343657191,4,1,0,86,0,0
141700,-155.450856868293,4,1,0,86,0,0
141785,275.229357798165,4,1,0,86,1,0
141785,-149.725274725275,4,1,0,86,0,0
143983,-142.857142857143,4,1,0,86,0,0
144121,-133.317203000242,4,1,0,86,0,0
144396,-117.659619901772,4,1,0,86,0,0
144534,-99.9999999999999,4,1,0,86,0,0
144812,-149.725274725275,4,1,0,86,0,0
148112,-142.857142857143,4,1,0,86,0,0
148249,-133.365664403492,4,1,0,86,0,0
148387,-125,4,1,0,86,0,0
148937,-100,4,1,0,86,0,0
149078,-149.725274725275,4,1,0,86,0,0
150314,-149.253731343284,4,1,0,86,0,0
150451,-136.986301369863,4,1,0,86,0,0
150592,-117.647058823529,4,1,0,86,0,0
150729,-149.253731343284,4,1,0,86,0,0
152776,-142.857142857143,4,1,0,86,0,0
152914,-133.317203000242,4,1,0,86,0,0
153189,-117.659619901772,4,1,0,86,0,0
153327,-90.9090909090909,4,1,0,86,0,0
153482,-149.253731343284,4,1,0,86,0,0
154703,-149.253731343284,4,1,0,86,0,0
154840,-136.986301369863,4,1,0,86,0,0
154981,-117.647058823529,4,1,0,86,0,0
155268,-125,4,1,0,86,0,0
155302,-125.973431058177,4,1,0,86,0,0
155405,-129.017124091016,4,1,0,86,0,0
155681,-137.948332079258,4,1,0,86,0,0
155818,-142.857142857143,4,1,0,86,0,0
156093,-117.647058823529,4,1,0,86,0,0
156506,-129.41277032225,4,1,0,86,0,0
156644,-130.957529625465,4,1,0,86,0,0
156919,-134.148502569555,4,1,0,86,0,0
157057,-135.809113742375,4,1,0,86,0,0
157194,-137.498864771592,4,1,0,86,0,0
157332,-139.243998896349,4,1,0,86,0,0
157607,-142.857142857143,4,1,0,86,0,0
157745,-133.333333333333,4,1,0,86,0,0
158020,-137.928153717627,4,1,0,86,0,0
158054,-138.518332074838,4,1,0,86,0,0
158158,-140.355351525971,4,1,0,86,0,0
158298,-142.857142857143,4,1,0,86,0,0
158433,-145.456147306286,4,1,0,86,0,0
158467,-146.112659852206,4,1,0,86,0,0
158570,-148.138178555406,4,1,0,86,0,0
158846,-153.853322150778,4,1,0,86,0,0
158880,-154.588014981273,4,1,0,86,0,0
158983,-156.857156429623,4,1,0,86,0,0
159121,-160.003876532442,4,1,0,86,0,0
159259,-163.279434307472,4,1,0,86,0,0
159399,277.777777777778,4,1,0,86,1,0
159399,-165.137614678899,4,1,0,86,0,0
161340,-163.934426229508,4,1,0,86,0,0
161479,-157.887753748176,4,1,0,86,0,0
161548,-155.048859934853,4,1,0,86,0,0
161618,-152.271273192578,4,1,0,86,0,0
161757,-147.040652415668,4,1,0,86,0,0
162034,-137.619983809414,4,1,0,86,0,0
162173,-133.333333333333,4,1,0,86,0,0
162315,-165.137614678899,4,1,0,86,0,0
167034,-163.934426229508,4,1,0,86,0,0
167312,-150.74407274306,4,1,0,86,0,0
167451,-144.914094924529,4,1,0,86,0,0
167590,-139.518271312811,4,1,0,86,0,0
167729,-134.509846120736,4,1,0,86,0,0
167868,-129.848544657511,4,1,0,86,0,0
168007,-125.499487962089,4,1,0,86,0,0
168146,-121.43231848297,4,1,0,86,0,0
168284,-117.647058823529,4,1,0,86,0,0
168426,-165.137614678899,4,1,0,86,0,0
170229,-163.934426229508,4,1,0,86,0,0
170507,-152.271273192578,4,1,0,86,0,0
170646,-147.040652415668,4,1,0,86,0,0
170923,-137.619983809414,4,1,0,86,0,0
171062,-133.333333333333,4,1,0,86,0,0
171204,-165.137614678899,4,1,0,86,0,0
175923,-163.934426229508,4,1,0,86,0,0
176201,-150.74407274306,4,1,0,86,0,0
176340,-144.914094924529,4,1,0,86,0,0
176479,-139.518271312811,4,1,0,86,0,0
176618,-134.509846120736,4,1,0,86,0,0
176757,-129.848544657511,4,1,0,86,0,0
176896,-125.499487962089,4,1,0,86,0,0
177034,-121.460637036749,4,1,0,86,0,0
177173,-117.647058823529,4,1,0,86,0,0
177315,-142.857142857143,4,1,0,86,0,0
179396,-136.978190072042,4,1,0,86,0,0
179534,-131.601403242628,4,1,0,86,0,0
179812,-121.957648712767,4,1,0,86,0,0
179951,-117.647058823529,4,1,0,86,0,0
180093,-142.857142857143,4,1,0,86,0,0
183840,-142.857142857143,4,1,0,86,0,0
184118,-138.458130261409,4,1,0,86,0,0
184257,-136.358677866259,4,1,0,86,0,0
184396,-134.321942832581,4,1,0,86,0,0
184534,-132.359169843287,4,1,0,86,0,0
184673,-130.439319628509,4,1,0,86,0,0
184812,-128.574367414112,4,1,0,86,0,0
184951,-126.761991684413,4,1,0,86,0,0
185090,-125,4,1,0,86,0,0
185368,-122.454979786843,4,1,0,86,0,0
185507,-125.009379455241,4,1,0,86,0,0
185646,-127.672618591463,4,1,0,86,0,0
185784,-130.431378689423,4,1,0,86,0,0
185923,-133.333333333333,4,1,0,86,0,0
186062,-117.647058823529,4,1,0,86,0,0
186155,-118.648203501495,4,1,0,86,0,0
186247,-119.655490618271,4,1,0,86,0,0
186340,-120.691259967112,4,1,0,86,0,0
186433,-121.745117676515,4,1,0,86,0,0
186525,-122.805909837101,4,1,0,86,0,0
186618,-123.897187629391,4,1,0,86,0,0
186710,-124.995983419556,4,1,0,86,0,0
186803,-126.126710330069,4,1,0,86,0,0
186896,-127.278081340183,4,1,0,86,0,0
186988,-128.437943672203,4,1,0,86,0,0
187081,-129.632098107171,4,1,0,86,0,0
187173,-130.835463473698,4,1,0,86,0,0
187312,-132.696571720962,4,1,0,86,0,0
187451,-134.61139179182,4,1,0,86,0,0
187590,-136.582282925459,4,1,0,86,0,0
187729,-138.611744583808,4,1,0,86,0,0
187868,-140.70242702644,4,1,0,86,0,0
188007,-142.857142857143,4,1,0,86,0,0
188284,-133.354678620027,4,1,0,86,0,0
188423,-129.047250193648,4,1,0,86,0,0
188701,-121.216530849825,4,1,0,86,0,0
188840,-117.647058823529,4,1,0,86,0,0
188982,-142.857142857143,4,1,0,86,0,0
193979,-134.321942832581,4,1,0,86,0,0
194118,-130.42570951586,4,1,0,86,0,0
194257,-126.749138105861,4,1,0,86,0,0
194396,-123.2741617357,4,1,0,86,0,0
194534,-120.007680491551,4,1,0,86,0,0
194673,-116.887974565177,4,1,0,86,0,0
194812,-113.926358002187,4,1,0,86,0,0
194951,-111.111111111111,4,1,0,86,0,0
195093,-142.857142857143,4,1,0,86,0,0
195229,-125,4,1,0,86,0,0
195368,-126.051182769678,4,1,0,86,0,0
195646,-128.207494923389,4,1,0,86,0,0
195784,-129.305529696518,4,1,0,86,0,0
195923,-130.430699887317,4,1,0,86,0,0
196062,-131.575623618566,4,1,0,86,0,0
196201,-132.740825688073,4,1,0,86,0,0
196479,-135.134258658711,4,1,0,86,0,0
196618,-136.363636363636,4,1,0,86,0,0
196757,-137.615587846764,4,1,0,86,0,0
196896,-138.890740617292,4,1,0,86,0,0
197034,-140.180313530243,4,1,0,86,0,0
197173,-141.503667481663,4,1,0,86,0,0
197451,-144.226775578015,4,1,0,86,0,0
197590,-145.628014258754,4,1,0,86,0,0
197729,-147.056747600226,4,1,0,86,0,0
197914,-149.002360008582,4,1,0,86,0,0
198007,-150,4,1,0,86,0,0
198146,-151.516253363392,4,1,0,86,0,0
198284,-153.05222948652,4,1,0,86,0,0
198423,-154.631141457622,4,1,0,86,0,0
198562,-156.242969628796,4,1,0,86,0,0
198701,-157.88875416793,4,1,0,86,0,0
198840,-159.569579535881,4,1,0,86,0,0
199025,-161.862958359229,4,1,0,86,0,0
199118,-163.040926520072,4,1,0,86,0,0
199257,-164.833860759494,4,1,0,86,0,0
199399,275.229357798165,4,1,0,86,1,0
199399,-168.20987654321,4,1,0,86,0,0
199671,-200,4,1,0,86,0,0
199808,-194.055754420219,4,1,0,86,0,0
199946,-188.4149552396,4,1,0,86,0,0
200084,-183.09282570873,4,1,0,86,0,0
200221,-178.098556495769,4,1,0,86,0,0
200359,-173.3359170623,4,1,0,86,0,0
200496,-168.853232656914,4,1,0,86,0,0
200634,-164.566277251403,4,1,0,86,0,0
200772,-160.49161209294,4,1,0,86,0,0
200909,-156.641274844585,4,1,0,86,0,0
201047,-152.945199623835,4,1,0,86,0,0
201184,-149.444490852894,4,1,0,86,0,0
201322,-146.076590185352,4,1,0,86,0,0
201460,-142.857142857143,4,1,0,86,0,0
201597,-125,4,1,0,86,0,0
201735,-122.039134912461,4,1,0,86,0,0
201873,-119.215291750503,4,1,0,86,0,0
202010,-116.538272414358,4,1,0,86,0,0
202148,-113.960570604263,4,1,0,86,0,0
202285,-111.511919698871,4,1,0,86,0,0
202423,-109.149524101934,4,1,0,86,0,0
202561,-106.885147324113,4,1,0,86,0,0
202698,-104.728236853734,4,1,0,86,0,0
202836,-102.641836292767,4,1,0,86,0,0
202973,-100.651189127973,4,1,0,86,0,0
203042,-99.6775550259358,4,1,0,86,0,0
203111,-98.7225770619272,4,1,0,86,0,0
203180,-97.785724109476,4,1,0,86,0,0
203249,-96.866485013624,4,1,0,86,0,0
203318,-95.9643676609529,4,1,0,86,0,0
203386,-95.0916142838037,4,1,0,86,0,0
203455,-94.2221044261861,4,1,0,86,0,0
203524,-93.3683519369665,4,1,0,86,0,0
203593,-92.5299323269131,4,1,0,86,0,0
203662,-91.7064362182381,4,1,0,86,0,0
203730,-90.9090909090909,4,1,0,86,0,0
203802,267.857142857143,4,1,0,86,1,0
203802,-83.3333333333333,4,1,0,86,0,1
203932,-85.0945494994438,4,1,0,86,0,1
203999,-86.010279473177,4,1,0,86,0,1
204066,-86.9459327812957,4,1,0,86,0,1
204133,-87.9021667760998,4,1,0,86,0,1
204200,-88.8796680497925,4,1,0,86,0,1
204267,-89.8791540785498,4,1,0,86,0,1
204334,-90.9013749787812,4,1,0,86,0,1
204401,-91.9471153846154,4,1,0,86,0,1
204468,-93.0171964564878,4,1,0,86,0,1
204535,-94.1124780316345,4,1,0,86,0,1
204602,-95.2338609283301,4,1,0,86,0,1
204669,-96.3822894168467,4,1,0,86,0,1
204736,-97.5587538713791,4,1,0,86,0,1
204803,-98.7642936185909,4,1,0,86,0,1
204870,-100,4,1,0,86,0,1
205004,-105.263157894737,4,1,0,86,0,1
205071,-102.564102564103,4,1,0,86,0,1
205138,-100,4,1,0,86,0,1
205205,-97.5609756097561,4,1,0,86,0,1
205272,-95.2380952380952,4,1,0,86,0,1
205406,-100,4,1,0,86,0,1
205473,-98.3566347804758,4,1,0,86,0,1
205540,-96.7664092664093,4,1,0,86,0,1
205607,-95.226786986464,4,1,0,86,0,1
205674,-93.7353903693315,4,1,0,86,0,1
205740,-92.3112338858195,4,1,0,86,0,1
205807,-90.9090909090909,4,1,0,86,0,1
205877,-100,4,1,0,86,0,1
205941,-86.9565217391304,4,1,0,86,0,1
206075,-88.495575221239,4,1,0,86,0,1
206142,-89.2857142857143,4,1,0,86,0,1
206209,-90.0900900900901,4,1,0,86,0,1
206343,-91.7431192660551,4,1,0,86,0,1
206477,-93.4579439252336,4,1,0,86,0,1
206544,-94.3396226415094,4,1,0,86,0,1
206611,-95.2380952380952,4,1,0,86,0,1
206745,-97.0873786407767,4,1,0,86,0,1
206812,-98.0392156862745,4,1,0,86,0,1
206879,-99.009900990099,4,1,0,86,0,1
206946,-100,4,1,0,86,0,1
207016,-80,4,1,0,86,0,0
207191,-82.7506277767047,4,1,0,86,0,0
207370,-85.7142857142857,4,1,0,86,0,0
207549,-88.8981116414194,4,1,0,86,0,0
207727,-92.3076923076923,4,1,0,86,0,0
207906,-96.010757507844,4,1,0,86,0,0
208087,-100,4,1,0,86,0,1
208218,-101.449275362319,4,1,0,86,0,1
208285,-102.189781021898,4,1,0,86,0,1
208352,-102.941176470588,4,1,0,86,0,1
208419,-103.703703703704,4,1,0,86,0,1
208486,-104.477611940299,4,1,0,86,0,1
208620,-106.060606060606,4,1,0,86,0,1
208687,-106.870229007634,4,1,0,86,0,1
208754,-107.692307692308,4,1,0,86,0,1
208821,-108.527131782946,4,1,0,86,0,1
208888,-109.375,4,1,0,86,0,1
209022,-111.111111111111,4,1,0,86,0,1
209156,-100,4,1,0,86,0,1
209223,-99.3370931037895,4,1,0,86,0,1
209290,-98.6829172400236,4,1,0,86,0,1
209357,-98.0373010448199,4,1,0,86,0,1
209424,-97.4000776096236,4,1,0,86,0,1
209490,-96.7804125698863,4,1,0,86,0,1
209557,-96.1593717076908,4,1,0,86,0,1
209624,-95.5462504758279,4,1,0,86,0,1
209691,-94.9408983451537,4,1,0,86,0,1
209758,-94.3431685773351,4,1,0,86,0,1
209825,-93.7529181062658,4,1,0,86,0,1
209892,-93.170007423905,4,1,0,86,0,1
209959,-92.5943004703495,4,1,0,86,0,1
210026,-92.025664527956,4,1,0,86,0,1
210093,-91.4639701193404,4,1,0,86,0,1
210160,-90.9090909090909,4,1,0,86,0,1
210227,-80,4,1,0,86,0,1
210361,-86.9565217391304,4,1,0,86,0,1
210428,-87.8378378378378,4,1,0,86,0,1
210495,-88.7372013651877,4,1,0,86,0,1
210562,-89.6551724137931,4,1,0,86,0,1
210629,-90.5923344947735,4,1,0,86,0,1
210696,-91.5492957746479,4,1,0,86,0,1
210763,-92.5266903914591,4,1,0,86,0,1
210830,-93.5251798561151,4,1,0,86,0,1
210897,-94.5454545454545,4,1,0,86,0,1
210964,-95.5882352941176,4,1,0,86,0,1
211031,-96.6542750929368,4,1,0,86,0,1
211098,-97.7443609022557,4,1,0,86,0,1
211165,-98.8593155893536,4,1,0,86,0,1
211232,-100,4,1,0,86,0,1
211302,-80,4,1,0,86,0,0
211477,-82.7506277767047,4,1,0,86,0,0
211656,-85.7142857142857,4,1,0,86,0,0
211834,-88.8796680497925,4,1,0,86,0,0
212013,-92.3076923076923,4,1,0,86,0,0
212191,-95.9892449025319,4,1,0,86,0,0
212373,-100,4,1,0,86,0,1
212504,-111.111111111111,4,1,0,86,0,1
212638,-109.089921807124,4,1,0,86,0,1
212705,-108.106653751984,4,1,0,86,0,1
212772,-107.140952482534,4,1,0,86,0,1
212906,-105.260400293409,4,1,0,86,0,1
212973,-104.344664606435,4,1,0,86,0,1
213040,-103.444724782452,4,1,0,86,0,1
213174,-101.690625632719,4,1,0,86,0,1
213240,-100.848350986396,4,1,0,86,0,1
213307,-100.007466958708,4,1,0,86,0,1
213441,-98.3670771415281,4,1,0,86,0,1
213508,-97.56689815939,4,1,0,86,0,1
213575,-96.7796324397235,4,1,0,86,0,1
213709,-95.2426102827885,4,1,0,86,0,1
213776,-94.4922628286534,4,1,0,86,0,1
213843,-93.7536458454862,4,1,0,86,0,1
213910,-93.0264863863679,4,1,0,86,0,1
213977,-92.310519907184,4,1,0,86,0,1
214044,-91.6054899457389,4,1,0,86,0,1
214111,-90.9111478154626,4,1,0,86,0,1
214178,-90.2272523129435,4,1,0,86,0,1
214245,-89.5535694385629,4,1,0,86,0,1
214312,-88.8898721295518,4,1,0,86,0,1
214379,-88.2359400048312,4,1,0,86,0,1
214446,-87.5915591210324,4,1,0,86,0,1
214513,-80,4,1,0,86,0,1
214602,-81.1509860976398,4,1,0,86,0,1
214691,-82.3355748728883,4,1,0,86,0,1
214781,-83.5691693024804,4,1,0,86,0,1
214870,-84.8259547144305,4,1,0,86,0,1
214959,-86.121118545205,4,1,0,86,0,1
215049,-87.471684962537,4,1,0,86,0,1
215115,-88.4893354486163,4,1,0,86,0,1
215182,-89.5469140206921,4,1,0,86,0,1
215249,-90.6300776313414,4,1,0,86,0,1
215316,-91.7397660818713,4,1,0,86,0,1
215383,-92.8769657724329,4,1,0,86,0,1
215450,-94.0427126264519,4,1,0,86,0,1
215517,-95.2380952380952,4,1,0,86,0,1
215587,-80,4,1,0,86,0,0
215763,-82.7639451843274,4,1,0,86,0,0
215941,-85.708574855087,4,1,0,86,0,0
216120,-88.8888888888889,4,1,0,86,0,0
216299,-92.3143164693219,4,1,0,86,0,0
216477,-95.9928363554959,4,1,0,86,0,0
216659,-90.9090909090909,4,1,0,86,0,1
216790,-92.025664527956,4,1,0,86,0,1
216857,-92.5943004703495,4,1,0,86,0,1
216924,-93.170007423905,4,1,0,86,0,1
216990,-93.7441643323996,4,1,0,86,0,1
217057,-94.334304237527,4,1,0,86,0,1
217124,-94.9319213313162,4,1,0,86,0,1
217191,-95.5371586259397,4,1,0,86,0,1
217258,-96.1501628040605,4,1,0,86,0,1
217325,-96.7710843373494,4,1,0,86,0,1
217392,-97.4000776096236,4,1,0,86,0,1
217459,-98.0373010448198,4,1,0,86,0,1
217526,-98.6829172400236,4,1,0,86,0,1
217593,-99.3370931037895,4,1,0,86,0,1
217660,-100,4,1,0,86,0,1
217727,-86.9565217391304,4,1,0,86,0,1
217794,-87.9120879120879,4,1,0,86,0,1
217861,-88.8888888888889,4,1,0,86,0,1
217928,-89.8876404494382,4,1,0,86,0,1
217995,-90.9090909090909,4,1,0,86,0,1
218062,-91.9540229885058,4,1,0,86,0,1
218129,-93.0232558139535,4,1,0,86,0,1
218196,-94.1176470588235,4,1,0,86,0,1
218263,-95.2380952380952,4,1,0,86,0,1
218330,-96.3855421686747,4,1,0,86,0,1
218397,-97.5609756097561,4,1,0,86,0,1
218464,-98.7654320987654,4,1,0,86,0,1
218531,-100,4,1,0,86,0,1
218799,-95.2380952380952,4,1,0,86,0,1
218865,-97.5342465753425,4,1,0,86,0,1
218932,-99.9812769144355,4,1,0,86,0,1
219066,-105.263157894737,4,1,0,86,0,1
219334,-90.9090909090909,4,1,0,86,0,1
219401,-93.0232558139535,4,1,0,86,0,1
219468,-95.2380952380952,4,1,0,86,0,1
219602,-100,4,1,0,86,0,1
219870,-86.9565217391304,4,1,0,86,0,1
219937,-88.8888888888889,4,1,0,86,0,1
220004,-90.9090909090909,4,1,0,86,0,1
220138,-95.2380952380952,4,1,0,86,0,1
220272,-97.5639390073507,4,1,0,86,0,1
220339,-98.769987699877,4,1,0,86,0,1
220406,-100.006227037798,4,1,0,86,0,1
220540,-102.573928594239,4,1,0,86,0,1
220607,-103.907867494824,4,1,0,86,0,1
220674,-105.276958374304,4,1,0,86,0,1
220740,-106.661353523278,4,1,0,86,0,1
220807,-108.104469574583,4,1,0,86,0,1
220874,-109.587171613784,4,1,0,86,0,1
220944,-111.111111111111,4,1,0,86,0,0
221075,-109.58904109589,4,1,0,86,0,0
221209,-108.108108108108,4,1,0,86,0,0
221276,-107.38255033557,4,1,0,86,0,0
221343,-106.666666666667,4,1,0,86,0,0
221477,-105.263157894737,4,1,0,86,0,0
221611,-103.896103896104,4,1,0,86,0,0
221678,-103.225806451613,4,1,0,86,0,0
221745,-102.564102564103,4,1,0,86,0,0
221812,-101.910828025478,4,1,0,86,0,0
221879,-101.26582278481,4,1,0,86,0,0
221946,-100.62893081761,4,1,0,86,0,0
222013,-95.2380952380952,4,1,0,86,0,0
222147,-96.3866264680736,4,1,0,86,0,0
222281,-97.5631974493282,4,1,0,86,0,0
222348,-98.1623207002429,4,1,0,86,0,0
222415,-98.7688476967769,4,1,0,86,0,0
222482,-99.3829165313414,4,1,0,86,0,0
222549,-100.004668752043,4,1,0,86,0,0
222682,-101.262232307474,4,1,0,86,0,0
222816,-102.561647115154,4,1,0,86,0,0
222883,-103.223941014891,4,1,0,86,0,0
222950,-103.894844060727,4,1,0,86,0,0
223017,-104.574525216033,4,1,0,86,0,0
223084,-95.2380952380952,4,1,0,86,0,0
223218,-94.6745562130177,4,1,0,86,0,0
223352,-94.1176470588235,4,1,0,86,0,0
223419,-93.841642228739,4,1,0,86,0,0
223486,-93.5672514619883,4,1,0,86,0,0
223620,-93.0232558139535,4,1,0,86,0,0
223754,-92.485549132948,4,1,0,86,0,0
223888,-91.9540229885057,4,1,0,86,0,0
223955,-91.6905444126074,4,1,0,86,0,0
224022,-91.4285714285714,4,1,0,86,0,0
224089,-91.1680911680912,4,1,0,86,0,0
224156,-86.9565217391304,4,1,0,86,0,0
224290,-89.7466596427374,4,1,0,86,0,0
224424,-92.7217851664935,4,1,0,86,0,0
224557,-95.8763941471401,4,1,0,86,0,0
224691,-99.2795083704175,4,1,0,86,0,0
224758,-101.073297017421,4,1,0,86,0,0
224825,-102.933098978359,4,1,0,86,0,0
224959,-106.865875912409,4,1,0,86,0,0
225093,-111.111111111111,4,1,0,86,0,0
225230,-86.9565217391304,4,1,0,86,0,1
225294,-88.3977900552486,4,1,0,86,0,1
225361,-89.8876404494382,4,1,0,86,0,1
225428,-91.4285714285714,4,1,0,86,0,1
225495,-93.0232558139535,4,1,0,86,0,1
225562,-94.6745562130178,4,1,0,86,0,1
225629,-96.3855421686747,4,1,0,86,0,1
225696,-98.159509202454,4,1,0,86,0,1
225763,-100,4,1,0,86,0,1
225830,-98.5915492957747,4,1,0,86,0,1
225897,-97.2222222222222,4,1,0,86,0,1
225964,-95.8904109589041,4,1,0,86,0,1
226031,-94.5945945945946,4,1,0,86,0,1
226098,-93.3333333333333,4,1,0,86,0,1
226165,-92.1052631578947,4,1,0,86,0,1
226232,-90.9090909090909,4,1,0,86,0,1
226299,-83.3333333333333,4,1,0,86,0,1
226365,-84.3232541396688,4,1,0,86,0,1
226432,-85.3525232282747,4,1,0,86,0,1
226499,-86.4072298045002,4,1,0,86,0,1
226566,-87.4883286647993,4,1,0,86,0,1
226633,-88.5968229954614,4,1,0,86,0,1
226700,-89.7337674774947,4,1,0,86,0,1
226767,-90.9002716336826,4,1,0,86,0,1
226834,-92.0975034401415,4,1,0,86,0,1
226901,-93.3266932270916,4,1,0,86,0,1
226968,-94.5891378962245,4,1,0,86,0,1
227035,-95.8862054850593,4,1,0,86,0,1
227102,-97.2193401120564,4,1,0,86,0,1
227169,-98.5900673400673,4,1,0,86,0,1
227236,-100,4,1,0,86,0,1
227370,-80,4,1,0,86,0,1
227437,-81.0136157337368,4,1,0,86,0,1
227504,-82.053246504501,4,1,0,86,0,1
227571,-83.1199068684517,4,1,0,86,0,1
227638,-84.2146648319245,4,1,0,86,0,1
227705,-85.3386454183267,4,1,0,86,0,1
227772,-86.4930345245306,4,1,0,86,0,1
227839,-87.6790830945559,4,1,0,86,0,1
227906,-88.8981116414194,4,1,0,86,0,1
227973,-90.1515151515151,4,1,0,86,0,1
228040,-91.4407684098186,4,1,0,86,0,1
228107,-92.7674317886531,4,1,0,86,0,1
228174,-94.1331575477917,4,1,0,86,0,1
228240,-95.5183946488294,4,1,0,86,0,1
228307,-96.9669533725668,4,1,0,86,0,1
228374,-98.4601241094001,4,1,0,86,0,1
228441,-100,4,1,0,86,0,1
228508,-98.5915492957747,4,1,0,86,0,1
228575,-97.2222222222222,4,1,0,86,0,1
228620,-96.3236804271924,4,1,0,86,0,1
228665,-95.4415954415954,4,1,0,86,0,1
228709,-94.5945945945946,4,1,0,86,0,1
228776,-93.3333333333333,4,1,0,86,0,1
228843,-92.1052631578947,4,1,0,86,0,1
228910,-90.9090909090909,4,1,0,86,0,1
228977,-86.9565217391304,4,1,0,86,0,1
229044,-85.1063829787234,4,1,0,86,0,1
229111,-83.3333333333333,4,1,0,86,0,1
229178,-81.6326530612245,4,1,0,86,0,1
229245,-80,4,1,0,86,0,1
229312,-78.4313725490196,4,1,0,86,0,1
229379,-76.9230769230769,4,1,0,86,0,1
229516,-86.9565217391304,4,1,0,86,0,0
229647,-88.1548365865197,4,1,0,86,0,0
229781,-89.3866399716365,4,1,0,86,0,0
229848,-90.0155416474146,4,1,0,86,0,0
229915,-90.6533556124284,4,1,0,86,0,0
230049,-91.9564890900899,4,1,0,86,0,0
230182,-93.287480410935,4,1,0,86,0,0
230272,-94.210225524245,4,1,0,86,0,0
230361,-95.1408466336656,4,1,0,86,0,0
230450,-96.0900367680029,4,1,0,86,0,0
230584,-97.5554240451587,4,1,0,86,0,0
230718,-99.0661982248521,4,1,0,86,0,0
230852,-100.624501103442,4,1,0,86,0,0
230919,-101.422182257034,4,1,0,86,0,0
230986,-102.232611392043,4,1,0,86,0,0
231120,-103.892955834586,4,1,0,86,0,0
231254,-105.608121427163,4,1,0,86,0,0
231321,-106.487117692365,4,1,0,86,0,0
231388,-107.380868868066,4,1,0,86,0,0
231455,-108.289749614695,4,1,0,86,0,0
231522,-109.214147385588,4,1,0,86,0,0
231589,-110.154462977717,4,1,0,86,0,0
231656,-111.111111111111,4,1,0,86,0,0
231790,-109.373176141006,4,1,0,86,0,0
231857,-108.524438267315,4,1,0,86,0,0
231924,-107.688771405586,4,1,0,86,0,0
232057,-106.067466606294,4,1,0,86,0,0
232191,-104.482604817128,4,1,0,86,0,0
232258,-103.707802988379,4,1,0,86,0,0
232325,-102.944407822457,4,1,0,86,0,0
232392,-102.192169266005,4,1,0,86,0,0
232459,-101.450844521438,4,1,0,86,0,0
232593,-100,4,1,0,86,0,0
232727,-86.9565217391304,4,1,0,86,0,0
232861,-89.5522388059701,4,1,0,86,0,0
232928,-90.9090909090909,4,1,0,86,0,0
232995,-92.3076923076923,4,1,0,86,0,0
233062,-93.75,4,1,0,86,0,0
233129,-95.2380952380952,4,1,0,86,0,0
233397,-102.564102564103,4,1,0,86,0,0
233464,-104.575163398693,4,1,0,86,0,0
233531,-106.666666666667,4,1,0,86,0,0
233665,-111.111111111111,4,1,0,86,0,0
233802,-80,4,1,0,86,0,1
233843,-80.4229413649471,4,1,0,86,0,1
233888,-80.8601457737688,4,1,0,86,0,1
233932,-81.2922553742763,4,1,0,86,0,1
233999,-81.9591836734694,4,1,0,86,0,1
234066,-82.6371455615458,4,1,0,86,0,1
234133,-83.3264171300523,4,1,0,86,0,1
234200,-84.0272837594677,4,1,0,86,0,1
234267,-84.7400405131668,4,1,0,86,0,1
234334,-85.4649925516067,4,1,0,86,0,1
234401,-86.2024555679574,4,1,0,86,0,1
234468,-86.9527562464816,4,1,0,86,0,1
234535,-87.7162327450638,4,1,0,86,0,1
234602,-88.4932352033846,4,1,0,86,0,1
234669,-89.2841262783459,4,1,0,86,0,1
234736,-90.089281708466,4,1,0,86,0,1
234803,-90.9090909090909,4,1,0,86,0,1
234870,-83.3333333333333,4,1,0,86,0,1
234915,-83.802846291891,4,1,0,86,0,1
234959,-84.2670695371186,4,1,0,86,0,1
235004,-84.7471933822909,4,1,0,86,0,1
235071,-85.4722683352488,4,1,0,86,0,1
235138,-86.2098574617895,4,1,0,86,0,1
235205,-86.960287557923,4,1,0,86,0,1
235272,-87.7238968982088,4,1,0,86,0,1
235339,-88.5010357441932,4,1,0,86,0,1
235406,-89.2920668801138,4,1,0,86,0,1
235473,-90.0973661775923,4,1,0,86,0,1
235540,-90.9173231911618,4,1,0,86,0,1
235607,-91.7523417866118,4,1,0,86,0,1
235674,-92.6028408042797,4,1,0,86,0,1
235740,-93.4562040398399,4,1,0,86,0,1
235807,-94.3387361992013,4,1,0,86,0,1
235874,-95.2380952380952,4,1,0,86,0,1
235941,-86.9565217391304,4,1,0,86,0,1
235986,-87.5040813470778,4,1,0,86,0,1
236031,-88.0585805482539,4,1,0,86,0,1
236075,-88.6075949367089,4,1,0,86,0,1
236142,-89.4568690095847,4,1,0,86,0,1
236209,-90.3225806451613,4,1,0,86,0,1
236276,-91.2052117263844,4,1,0,86,0,1
236343,-92.1052631578947,4,1,0,86,0,1
236410,-93.0232558139535,4,1,0,86,0,1
236477,-93.9597315436242,4,1,0,86,0,1
236544,-94.9152542372881,4,1,0,86,0,1
236611,-95.8904109589041,4,1,0,86,0,1
236678,-96.8858131487889,4,1,0,86,0,1
236745,-97.9020979020979,4,1,0,86,0,1
236812,-98.9399293286219,4,1,0,86,0,1
236879,-100,4,1,0,86,0,1
237016,-111.111111111111,4,1,0,86,0,0
237080,-109.587639414714,4,1,0,86,0,0
237147,-108.105380034319,4,1,0,86,0,0
237214,-106.662682999701,4,1,0,86,0,0
237281,-105.257985257985,4,1,0,86,0,0
237348,-103.889805024736,4,1,0,86,0,0
237415,-102.556736569951,4,1,0,86,0,0
237482,-101.257445400397,4,1,0,86,0,0
237549,-99.9906638035664,4,1,0,86,0,0
237615,-98.7734021949645,4,1,0,86,0,0
237682,-97.5676414320853,4,1,0,86,0,0
237749,-96.3909639096391,4,1,0,86,0,0
237816,-95.2423299244108,4,1,0,86,0,0
237883,-94.1207487476931,4,1,0,86,0,0
237950,-93.0252757752106,4,1,0,86,0,0
238017,-91.9550098737872,4,1,0,86,0,0
238087,-90.9090909090909,4,1,0,86,0,0
238218,-95.2380952380952,4,1,0,86,0,0
238285,-96.2199312714777,4,1,0,86,0,0
238352,-97.2222222222222,4,1,0,86,0,0
238419,-98.2456140350877,4,1,0,86,0,0
238486,-99.290780141844,4,1,0,86,0,0
238553,-100.358422939068,4,1,0,86,0,0
238620,-101.449275362319,4,1,0,86,0,0
238687,-102.564102564103,4,1,0,86,0,0
238754,-103.703703703704,4,1,0,86,0,0
238821,-104.868913857678,4,1,0,86,0,0
238888,-106.060606060606,4,1,0,86,0,0
238955,-107.27969348659,4,1,0,86,0,0
239022,-108.527131782946,4,1,0,86,0,0
239089,-109.803921568627,4,1,0,86,0,0
239156,-111.111111111111,4,1,0,86,0,0
239290,-100,4,1,0,86,0,0
239357,-101.270623933245,4,1,0,86,0,0
239424,-102.573953131003,4,1,0,86,0,0
239490,-103.891050583658,4,1,0,86,0,0
239557,-105.263157894737,4,1,0,86,0,0
239691,-86.9565217391304,4,1,0,86,0,0
239758,-88.2352941176471,4,1,0,86,0,0
239825,-89.5522388059701,4,1,0,86,0,0
239892,-90.9090909090909,4,1,0,86,0,0
239959,-92.3076923076923,4,1,0,86,0,0
240026,-93.75,4,1,0,86,0,0
240093,-95.2380952380952,4,1,0,86,0,0
240227,-105.263157894737,4,1,0,86,0,0
240294,-104.089219330855,4,1,0,86,0,0
240361,-102.941176470588,4,1,0,86,0,0
240428,-101.818181818182,4,1,0,86,0,0
240495,-100.719424460432,4,1,0,86,0,0
240562,-99.644128113879,4,1,0,86,0,0
240629,-98.5915492957747,4,1,0,86,0,0
240696,-97.5609756097561,4,1,0,86,0,0
240763,-96.551724137931,4,1,0,86,0,0
240830,-95.5631399317406,4,1,0,86,0,0
240897,-94.5945945945946,4,1,0,86,0,0
240964,-93.6454849498328,4,1,0,86,0,0
241031,-92.7152317880795,4,1,0,86,0,0
241098,-91.8032786885246,4,1,0,86,0,0
241165,-90.9090909090909,4,1,0,86,0,0
241299,-83.3333333333333,4,1,0,86,0,0
241365,-84.1981132075472,4,1,0,86,0,0
241432,-85.0945494994438,4,1,0,86,0,0
241499,-86.010279473177,4,1,0,86,0,0
241566,-86.9459327812957,4,1,0,86,0,0
241633,-87.9021667760998,4,1,0,86,0,0
241700,-88.8796680497925,4,1,0,86,0,0
241767,-89.8791540785498,4,1,0,86,0,0
241834,-90.9013749787812,4,1,0,86,0,0
241901,-91.9471153846154,4,1,0,86,0,0
241968,-93.0171964564878,4,1,0,86,0,0
242035,-94.1124780316345,4,1,0,86,0,0
242102,-95.2338609283301,4,1,0,86,0,0
242169,-96.3822894168467,4,1,0,86,0,0
242236,-97.5587538713791,4,1,0,86,0,0
242303,-98.7642936185909,4,1,0,86,0,0
242370,-100,4,1,0,86,0,0
242638,-105.263157894737,4,1,0,86,0,0
242705,-103.896103896104,4,1,0,86,0,0
242772,-102.564102564103,4,1,0,86,0,0
242839,-101.26582278481,4,1,0,86,0,0
242906,-100,4,1,0,86,0,0
243174,-105.263157894737,4,1,0,86,0,0
243240,-102.593659942363,4,1,0,86,0,0
243307,-100.01873009927,4,1,0,86,0,0
243374,-97.5698885437603,4,1,0,86,0,0
243441,-95.2380952380952,4,1,0,86,0,0
243709,-105.263157894737,4,1,0,86,0,0
243776,-101.26582278481,4,1,0,86,0,0
243843,-97.5609756097561,4,1,0,86,0,0
243910,-94.1176470588235,4,1,0,86,0,0
243977,-90.9090909090909,4,1,0,86,0,0
244111,-92.3076923076923,4,1,0,86,0,0
244245,-93.75,4,1,0,86,0,0
244312,-94.488188976378,4,1,0,86,0,0
244379,-95.2380952380952,4,1,0,86,0,0
244513,-83.3333333333333,4,1,0,86,0,0
244580,-84.7471933822909,4,1,0,86,0,0
244647,-86.2098574617895,4,1,0,86,0,0
244714,-87.7238968982088,4,1,0,86,0,0
244781,-89.2920668801138,4,1,0,86,0,0
244848,-90.9173231911618,4,1,0,86,0,0
244915,-92.6028408042797,4,1,0,86,0,0
244982,-94.3520345832159,4,1,0,86,0,0
245049,-96.1685823754789,4,1,0,86,0,0
245115,-98.0277289591877,4,1,0,86,0,0
245182,-99.9900408325864,4,1,0,86,0,0
245249,-102.032520325203,4,1,0,86,0,0
245316,-104.160182591555,4,1,0,86,0,0
245383,-106.378470014834,4,1,0,86,0,0
245450,-108.693298690051,4,1,0,86,0,0
245517,-111.111111111111,4,1,0,86,0,0
245584,-86.9565217391304,4,1,0,86,0,0
245629,-88.2449785973,4,1,0,86,0,0
245674,-89.572192513369,4,1,0,86,0,0
245718,-90.9090909090909,4,1,0,86,0,0
245763,-92.3182914226662,4,1,0,86,0,0
245807,-93.7390696047569,4,1,0,86,0,0
245852,-95.2380952380952,4,1,0,86,0,0
245897,-96.7858432647165,4,1,0,86,0,0
245941,-98.348623853211,4,1,0,86,0,0
245986,-100,4,1,0,86,0,0
246120,-111.111111111111,4,1,0,86,0,0
246187,-107.38255033557,4,1,0,86,0,0
246254,-103.896103896104,4,1,0,86,0,0
246321,-100.62893081761,4,1,0,86,0,0
246388,-97.5609756097561,4,1,0,86,0,0
246455,-94.6745562130178,4,1,0,86,0,0
246522,-91.9540229885058,4,1,0,86,0,0
246589,-89.3854748603352,4,1,0,86,0,0
246659,-86.9565217391304,4,1,0,86,0,1
246790,-80,4,1,0,86,0,1
246857,-80.5371817999599,4,1,0,86,0,1
246924,-81.0816264756331,4,1,0,86,0,1
246968,-81.4431944866727,4,1,0,86,0,1
247013,-81.8163306862146,4,1,0,86,0,1
247057,-82.1844958069135,4,1,0,86,0,1
247124,-82.7515188960972,4,1,0,86,0,1
247191,-83.3264205723766,4,1,0,86,0,1
247258,-83.9093661898298,4,1,0,86,0,1
247325,-84.5005257623554,4,1,0,86,0,1
247370,-84.9022715266772,4,1,0,86,0,1
247415,-85.307855626327,4,1,0,86,0,1
247459,-85.7081911262799,4,1,0,86,0,1
247526,-86.3250617681813,4,1,0,86,0,1
247593,-86.9508764336724,4,1,0,86,0,1
247660,-87.5858310626703,4,1,0,86,0,1
247727,-88.2301273605621,4,1,0,86,0,1
247772,-88.6682114090257,4,1,0,86,0,1
247816,-89.1007872269653,4,1,0,86,0,1
247861,-89.5475819032761,4,1,0,86,0,1
247928,-90.2211743572471,4,1,0,86,0,1
247995,-90.9049773755656,4,1,0,86,0,1
248062,-91.5992248945629,4,1,0,86,0,1
248129,-92.3041580519182,4,1,0,86,0,1
248174,-92.7837432167186,4,1,0,86,0,1
248218,-93.2575142160845,4,1,0,86,0,1
248263,-93.7470835277648,4,1,0,86,0,1
248330,-94.4855967078189,4,1,0,86,0,1
248397,-95.235837876274,4,1,0,86,0,1
248464,-95.9980886393501,4,1,0,86,0,1
248531,-96.7726396917148,4,1,0,86,0,1
248598,-97.5597911861115,4,1,0,86,0,1
248665,-98.359853121175,4,1,0,86,0,1
248732,-99.1731457484882,4,1,0,86,0,1
248799,-100,4,1,0,86,0,1
248932,-101.43986142687,4,1,0,86,0,1
248999,-102.181025081788,4,1,0,86,0,1
249066,-102.933098978359,4,1,0,86,0,1
249133,-103.69632580788,4,1,0,86,0,1
249200,-104.470955513435,4,1,0,86,0,1
249267,-105.257245562795,4,1,0,86,0,1
249334,-106.055461233729,4,1,0,86,0,1
249401,-106.865875912409,4,1,0,86,0,1
249468,-107.688771405586,4,1,0,86,0,1
249535,-108.524438267315,4,1,0,86,0,1
249602,-109.373176141006,4,1,0,86,0,1
249669,-110.235294117647,4,1,0,86,0,1
249736,-111.111111111111,4,1,0,86,0,1
249870,-105.263157894737,4,1,0,86,0,1
249959,-103.453272156484,4,1,0,86,0,1
250049,-101.685259909803,4,1,0,86,0,1
250138,-99.9953316838616,4,1,0,86,0,1
250227,-98.3606557377049,4,1,0,86,0,1
250316,-96.7785659422582,4,1,0,86,0,1
250406,-95.2296269950651,4,1,0,86,0,1
250495,-93.7458969757976,4,1,0,86,0,1
250584,-92.3076923076923,4,1,0,86,0,1
250674,-90.897517504774,4,1,0,86,0,1
250763,-89.5447514736006,4,1,0,86,0,1
250852,-88.2316595955019,4,1,0,86,0,1
250941,-83.3333333333333,4,1,0,86,0,1
251075,-84.8484848484848,4,1,0,86,0,1
251142,-85.6269113149847,4,1,0,86,0,1
251209,-86.4197530864198,4,1,0,86,0,1
251276,-87.2274143302181,4,1,0,86,0,1
251343,-88.0503144654088,4,1,0,86,0,1
251410,-88.8888888888889,4,1,0,86,0,1
251477,-89.7435897435897,4,1,0,86,0,1
251544,-90.6148867313916,4,1,0,86,0,1
251611,-91.5032679738562,4,1,0,86,0,1
251745,-100,4,1,0,86,0,1
252013,-86.9565217391304,4,1,0,86,0,1
252080,-87.7751756440281,4,1,0,86,0,1
252147,-88.609390514918,4,1,0,86,0,1
252214,-89.4596142829865,4,1,0,86,0,1
252281,-90.3263122379139,4,1,0,86,0,1
252348,-91.209967876959,4,1,0,86,0,1
252415,-92.1110838043745,4,1,0,86,0,1
252482,-93.0301826846704,4,1,0,86,0,1
252549,-93.9678082535225,4,1,0,86,0,1
252615,-94.9101038237528,4,1,0,86,0,1
252682,-95.8862054850594,4,1,0,86,0,1
252816,-105.263157894737,4,1,0,86,0,1
253084,-100,4,1,0,86,0,1
253174,-97.5432211101001,4,1,0,86,0,1
253263,-95.2296348938438,4,1,0,86,0,1
253352,-93.0232558139535,4,1,0,86,0,1
253441,-90.916800949877,4,1,0,86,0,1
253531,-88.8815189453611,4,1,0,86,0,1
253620,-83.3333333333333,4,1,0,86,0,1
253687,-84.2110779227585,4,1,0,86,0,1
253754,-85.1075097976909,4,1,0,86,0,1
253821,-86.0232321610192,4,1,0,86,0,1
253888,-86.9588744588745,4,1,0,86,0,1
253955,-87.9150938235133,4,1,0,86,0,1
254022,-88.8925766124571,4,1,0,86,0,1
254089,-89.8920400514628,4,1,0,86,0,1
254156,-90.9142339895904,4,1,0,86,0,1
254223,-91.9599427753934,4,1,0,86,0,1
254290,-93.0299872640963,4,1,0,86,0,1
254357,-94.1252269665554,4,1,0,86,0,1
254424,-95.2465623518255,4,1,0,86,0,1
254490,-96.3775938587022,4,1,0,86,0,1
254557,-97.5535725125964,4,1,0,86,0,1
254624,-98.7586037364798,4,1,0,86,0,1
254691,-99.9937776118474,4,1,0,86,0,1
254758,-101.260239445495,4,1,0,86,0,1
254825,-102.559193311634,4,1,0,86,0,1
254892,-103.891905870184,4,1,0,86,0,1
254959,-105.259710486671,4,1,0,86,0,1
255026,-106.664011681933,4,1,0,86,0,1
255093,-108.106289942819,4,1,0,86,0,1
255160,-109.588106928532,4,1,0,86,0,1
255230,-111.111111111111,4,1,0,86,0,0
258441,-100,4,1,0,86,0,0
258508,-100.719424460432,4,1,0,86,0,0
258575,-101.449275362319,4,1,0,86,0,0
258709,-102.941176470588,4,1,0,86,0,0
258776,-103.703703703704,4,1,0,86,0,0
258843,-104.477611940299,4,1,0,86,0,0
258977,-106.060606060606,4,1,0,86,0,0
259044,-106.870229007634,4,1,0,86,0,0
259111,-107.692307692308,4,1,0,86,0,0
259178,-108.527131782946,4,1,0,86,0,0
259245,-109.375,4,1,0,86,0,0
259312,-110.236220472441,4,1,0,86,0,0
259379,-111.111111111111,4,1,0,86,0,0
259516,-100,4,1,0,86,0,0
259647,-117.647058823529,4,1,0,86,0,0
259714,-116.69971756505,4,1,0,86,0,0
259781,-115.767511177347,4,1,0,86,0,0
259848,-114.850079839139,4,1,0,86,0,0
259915,-113.947075045473,4,1,0,86,0,0
259982,-113.058159166327,4,1,0,86,0,0
260049,-112.183005025706,4,1,0,86,0,0
260115,-111.334059508112,4,1,0,86,0,0
260182,-110.485293280992,4,1,0,86,0,0
260249,-109.649370447744,4,1,0,86,0,0
260316,-108.826001681143,4,1,0,86,0,0
260383,-108.014906279548,4,1,0,86,0,0
260450,-107.215811847844,4,1,0,86,0,0
260517,-106.428453992437,4,1,0,86,0,0
260584,-105.652576029596,4,1,0,86,0,0
260651,-104.887928706454,4,1,0,86,0,0
260718,-104.134269934045,4,1,0,86,0,0
260785,-103.391364531757,4,1,0,86,0,0
260852,-102.658983982661,4,1,0,86,0,0
260919,-101.93690619915,4,1,0,86,0,0
260986,-101.22491529841,4,1,0,86,0,0
261053,-100.522801387235,4,1,0,86,0,0
261120,-99.8303603557292,4,1,0,86,0,0
261187,-99.1473936794813,4,1,0,86,0,0
261254,-98.4737082298058,4,1,0,86,0,0
261321,-97.8091160916646,4,1,0,86,0,0
261388,-97.1534343889139,4,1,0,86,0,0
261455,-96.5064851165333,4,1,0,86,0,0
261522,-95.8680949795133,4,1,0,86,0,0
261589,-95.2380952380952,4,1,0,86,0,0
261656,-86.9565217391304,4,1,0,86,0,0
261723,-87.7200646542309,4,1,0,86,0,0
261790,-88.4971353018951,4,1,0,86,0,0
261857,-89.2880964026858,4,1,0,86,0,0
261924,-90.0933237616655,4,1,0,86,0,0
261990,-90.9008601177003,4,1,0,86,0,0
262057,-91.7355749463201,4,1,0,86,0,0
262124,-92.5857617115456,4,1,0,86,0,0
262191,-93.451854609764,4,1,0,86,0,0
262258,-94.334304237527,4,1,0,86,0,0
262325,-95.2335783732511,4,1,0,86,0,0
262392,-96.1501628040605,4,1,0,86,0,0
262459,-97.0845622008413,4,1,0,86,0,0
262526,-98.0373010448199,4,1,0,86,0,0
262593,-99.0089246092402,4,1,0,86,0,0
262660,-100,4,1,0,86,0,0
262727,-90.9090909090909,4,1,0,86,0,0
262772,-92.3182914226662,4,1,0,86,0,0
262816,-93.7390696047569,4,1,0,86,0,0
262861,-95.2380952380952,4,1,0,86,0,0
262928,-97.5609756097561,4,1,0,86,0,0
262995,-100,4,1,0,86,0,0
263263,-86.9565217391304,4,1,0,86,0,0
263307,-88.8594164456233,4,1,0,86,0,0
263352,-90.8936747498728,4,1,0,86,0,0
263397,-93.0232558139535,4,1,0,86,0,0
263464,-96.3855421686747,4,1,0,86,0,0
263531,-100,4,1,0,86,0,0
263802,-86.9565217391304,4,1,0,86,0,1
263932,-95.2380952380952,4,1,0,86,0,1
263999,-96.7741935483871,4,1,0,86,0,1
264066,-98.3606557377049,4,1,0,86,0,1
264133,-100,4,1,0,86,0,1
264200,-90.9090909090909,4,1,0,86,0,1
264267,-95.2380952380952,4,1,0,86,0,1
264334,-100,4,1,0,86,0,1
264401,-105.263157894737,4,1,0,86,0,1
264468,-86.9565217391304,4,1,0,86,0,1
264535,-91.9540229885058,4,1,0,86,0,1
264602,-97.5609756097561,4,1,0,86,0,1
264669,-103.896103896104,4,1,0,86,0,1
264736,-111.111111111111,4,1,0,86,0,1
264870,-117.647058823529,4,1,0,86,0,1
264937,-114.751086889964,4,1,0,86,0,1
265004,-111.994262833921,4,1,0,86,0,1
265071,-109.36679311351,4,1,0,86,0,1
265138,-106.85978217483,4,1,0,86,0,1
265205,-104.465131835665,4,1,0,86,0,1
265272,-102.175453901096,4,1,0,86,0,1
265339,-99.9839940244358,4,1,0,86,0,1
265406,-97.8845651606164,4,1,0,86,0,1
265473,-95.8714892310841,4,1,0,86,0,1
265540,-93.9395458418968,4,1,0,86,0,1
265607,-92.0839270797504,4,1,0,86,0,1
265674,-90.3001975617983,4,1,0,86,0,1
265740,-88.609390514918,4,1,0,86,0,1
265807,-86.9565217391304,4,1,0,86,0,1
265877,-80,4,1,0,86,0,1
266075,-83.3333333333333,4,1,0,86,0,1
266142,-84.5070422535211,4,1,0,86,0,1
266209,-85.7142857142857,4,1,0,86,0,1
266276,-86.9565217391304,4,1,0,86,0,1
266343,-80,4,1,0,86,0,1
266410,-84.5070422535211,4,1,0,86,0,1
266477,-89.5522388059701,4,1,0,86,0,1
266544,-95.2380952380952,4,1,0,86,0,1
266611,-74.0740740740741,4,1,0,86,0,1
266678,-80,4,1,0,86,0,1
266745,-86.9565217391304,4,1,0,86,0,1
266812,-95.2380952380952,4,1,0,86,0,1
266879,-105.263157894737,4,1,0,86,0,1
267013,-117.647058823529,4,1,0,86,0,1
267080,-115.105594067387,4,1,0,86,0,1
267147,-112.671611172479,4,1,0,86,0,1
267214,-110.338433008809,4,1,0,86,0,1
267281,-108.099924299773,4,1,0,86,0,1
267348,-105.950437750408,4,1,0,86,0,1
267415,-103.884766477521,4,1,0,86,0,1
267482,-101.898101898102,4,1,0,86,0,1
267549,-99.9859963590534,4,1,0,86,0,1
267615,-98.1713185755534,4,1,0,86,0,1
267682,-96.3953017415958,4,1,0,86,0,1
267749,-94.6824028643416,4,1,0,86,0,1
267816,-93.0293159609121,4,1,0,86,0,1
267883,-91.4329619669612,4,1,0,86,0,1
267950,-89.8904695958706,4,1,0,86,0,1
268017,-88.3991581032562,4,1,0,86,0,1
268087,-86.9565217391304,4,1,0,86,0,0
268218,-87.9125387155662,4,1,0,86,0,0
268352,-88.8898106476969,4,1,0,86,0,0
268419,-89.3866399716365,4,1,0,86,0,0
268486,-89.8890543403033,4,1,0,86,0,0
268620,-90.9110191960972,4,1,0,86,0,0
268709,-91.6027271367202,4,1,0,86,0,0
268799,-92.3129940339012,4,1,0,86,0,0
268888,-93.0262843747965,4,1,0,86,0,0
268955,-93.5705708983735,4,1,0,86,0,0
269022,-94.1212640270549,4,1,0,86,0,0
269156,-95.2423279482678,4,1,0,86,0,0
269290,-96.3904194310132,4,1,0,86,0,0
269357,-96.9749077991719,4,1,0,86,0,0
269424,-97.5665278062328,4,1,0,86,0,0
269557,-98.7625872756181,4,1,0,86,0,0
269691,-99.9976668766478,4,1,0,86,0,0
269825,-101.264028352038,4,1,0,86,0,0
269959,-102.562875397832,4,1,0,86,0,0
270026,-103.224874160064,4,1,0,86,0,0
270093,-103.895474268538,4,1,0,86,0,0
270160,-104.574844455289,4,1,0,86,0,0
270230,-105.263157894737,4,1,0,86,0,1
270361,-111.111111111111,4,1,0,86,0,1
270428,-109.68851519205,4,1,0,86,0,1
270495,-108.301886792453,4,1,0,86,0,1
270540,-107.390084190833,4,1,0,86,0,1
270584,-106.513267767675,4,1,0,86,0,1
270629,-105.631210894369,4,1,0,86,0,1
270696,-104.344664606435,4,1,0,86,0,1
270763,-103.08908045977,4,1,0,86,0,1
270830,-101.863354037267,4,1,0,86,0,1
270897,-100.666432830586,4,1,0,86,0,1
270964,-99.4973132258624,4,1,0,86,0,1
271031,-98.3550376970528,4,1,0,86,0,1
271075,-97.6190476190476,4,1,0,86,0,1
271120,-96.8776371308017,4,1,0,86,0,1
271165,-96.1474036850921,4,1,0,86,0,1
271232,-95.0803379161835,4,1,0,86,0,1
271299,-94.0366972477064,4,1,0,86,0,1
271365,-93.0307941653161,4,1,0,86,0,1
271432,-92.0314253647587,4,1,0,86,0,1
271499,-91.0532994923858,4,1,0,86,0,1
271566,-90.0957463506514,4,1,0,86,0,1
271611,-89.4638403990025,4,1,0,86,0,1
271656,-88.8407367280607,4,1,0,86,0,1
271700,-88.2398155265181,4,1,0,86,0,1
271767,-87.3402312842361,4,1,0,86,0,1
271834,-86.4588040367525,4,1,0,86,0,1
271901,-85.5949895615866,4,1,0,86,0,1
271968,-84.74826517053,4,1,0,86,0,1
272035,-83.9181286549708,4,1,0,86,0,1
272102,-83.1040972926017,4,1,0,86,0,1
272169,-82.3057069113851,4,1,0,86,0,1
272236,-81.5225110069592,4,1,0,86,0,1
272303,-80.7540799099606,4,1,0,86,0,1
272370,-80,4,1,0,86,0,1
272504,-95.2380952380952,4,1,0,86,0,1
272571,-93.6438137117729,4,1,0,86,0,1
272638,-92.1020297832604,4,1,0,86,0,1
272705,-90.6101924378687,4,1,0,86,0,1
272772,-89.1659133082743,4,1,0,86,0,1
272839,-87.7669539153241,4,1,0,86,0,1
272906,-86.4112140913911,4,1,0,86,0,1
272973,-85.0967214603578,4,1,0,86,0,1
273040,-83.8216218633985,4,1,0,86,0,1
273107,-82.5841706328221,4,1,0,86,0,1
273174,-81.3827246276111,4,1,0,86,0,1
273240,-80.2329066232821,4,1,0,86,0,1
273307,-79.0984298497383,4,1,0,86,0,1
273374,-77.9955882964998,4,1,0,86,0,1
273441,-76.9230769230769,4,1,0,86,0,1
273508,-77.6699029126214,4,1,0,86,0,1
273575,-78.4313725490196,4,1,0,86,0,1
273642,-79.2079207920792,4,1,0,86,0,1
273709,-80,4,1,0,86,0,1
273776,-80.8080808080808,4,1,0,86,0,1
273843,-81.6326530612245,4,1,0,86,0,1
273910,-82.4742268041237,4,1,0,86,0,1
273977,-83.3333333333333,4,1,0,86,0,1
274044,-84.2105263157895,4,1,0,86,0,1
274111,-85.1063829787234,4,1,0,86,0,1
274178,-86.0215053763441,4,1,0,86,0,1
274245,-86.9565217391304,4,1,0,86,0,1
274312,-87.9120879120879,4,1,0,86,0,1
274379,-88.8888888888889,4,1,0,86,0,1
274446,-89.8876404494382,4,1,0,86,0,1
274516,-90.9090909090909,4,1,0,86,0,0
274781,-111.111111111111,4,1,0,86,0,0
274848,-110.397453841287,4,1,0,86,0,0
274915,-109.692905585613,4,1,0,86,0,0
274982,-108.997293050902,4,1,0,86,0,0
275049,-108.31044731199,4,1,0,86,0,0
275115,-107.642264263815,4,1,0,86,0,0
275182,-106.972337302841,4,1,0,86,0,0
275249,-106.310697537019,4,1,0,86,0,0
275316,-105.657192139017,4,1,0,86,0,0
275383,-105.011672016341,4,1,0,86,0,0
275450,-104.373991697935,4,1,0,86,0,0
275517,-103.744009224893,4,1,0,86,0,0
275584,-103.121586045096,4,1,0,86,0,0
275651,-102.506586911629,4,1,0,86,0,0
275718,-101.898879784805,4,1,0,86,0,0
275785,-101.298335737659,4,1,0,86,0,0
275852,-100.704828864753,4,1,0,86,0,0
275919,-100.118236194186,4,1,0,86,0,0
275986,-99.5384376026415,4,1,0,86,0,0
276053,-98.9653157333883,4,1,0,86,0,0
276120,-98.3987559170839,4,1,0,86,0,0
276187,-97.8386460952899,4,1,0,86,0,0
276254,-97.2848767465829,4,1,0,86,0,0
276321,-96.7373408151608,4,1,0,86,0,0
276388,-96.1959336418464,4,1,0,86,0,0
276455,-95.660552897395,4,1,0,86,0,0
276522,-95.1310985180167,4,1,0,86,0,0
276589,-94.6074726430285,4,1,0,86,0,0
276656,-94.0895795545533,4,1,0,86,0,0
276723,-93.57732561919,4,1,0,86,0,0
276790,-93.0706192315774,4,1,0,86,0,0
276857,-92.5693707597826,4,1,0,86,0,0
276924,-92.0734924924445,4,1,0,86,0,0
276990,-91.5901824486615,4,1,0,86,0,0
277057,-91.1047118762065,4,1,0,86,0,0
277124,-90.6243606087791,4,1,0,86,0,0
277191,-90.1490480961924,4,1,0,86,0,0
277258,-89.6786954693414,4,1,0,86,0,0
277325,-89.2132254965759,4,1,0,86,0,0
277392,-88.7525625414246,4,1,0,86,0,0
277459,-88.2966325216218,4,1,0,86,0,0
277526,-87.8453628693914,4,1,0,86,0,0
277593,-87.3986824929419,4,1,0,86,0,0
277660,-86.9565217391304,4,1,0,86,0,0
277727,-80,4,1,0,86,0,0
277794,-81.0810810810811,4,1,0,86,0,0
277861,-82.1917808219178,4,1,0,86,0,0
277928,-83.3333333333333,4,1,0,86,0,0
277995,-84.5070422535211,4,1,0,86,0,0
278062,-85.7142857142857,4,1,0,86,0,0
278129,-86.9565217391304,4,1,0,86,0,0
278196,-88.2352941176471,4,1,0,86,0,0
278263,-89.5522388059701,4,1,0,86,0,0
278330,-90.9090909090909,4,1,0,86,0,0
278397,-92.3076923076923,4,1,0,86,0,0
278464,-93.75,4,1,0,86,0,0
278531,-95.2380952380952,4,1,0,86,0,0
278598,-96.7741935483871,4,1,0,86,0,0
278665,-98.3606557377049,4,1,0,86,0,0
278732,-100,4,1,0,86,0,0
278799,-90.9090909090909,4,1,0,86,0,0
279066,-117.647058823529,4,1,0,86,0,0
279133,-116.181801282647,4,1,0,86,0,0
279200,-114.752593408611,4,1,0,86,0,0
279267,-113.358120975787,4,1,0,86,0,0
279334,-111.997132873398,4,1,0,86,0,0
279401,-110.668437361664,4,1,0,86,0,0
279468,-109.370898591303,4,1,0,86,0,0
279535,-108.103433365044,4,1,0,86,0,0
279602,-106.865008121741,4,1,0,86,0,0
279669,-105.654636125433,4,1,0,86,0,0
279736,-104.471374843293,4,1,0,86,0,0
279803,-103.31432349781,4,1,0,86,0,0
279870,-102.182620779858,4,1,0,86,0,0
279937,-101.075442710439,4,1,0,86,0,0
280004,-99.9920006399488,4,1,0,86,0,0
280071,-98.9315393747527,4,1,0,86,0,0
280138,-97.8933354217245,4,1,0,86,0,0
280205,-96.8766953421685,4,1,0,86,0,0
280272,-95.8809542072563,4,1,0,86,0,0
280339,-94.9054741477488,4,1,0,86,0,0
280406,-93.9496429913566,4,1,0,86,0,0
280473,-93.0128729816207,4,1,0,86,0,0
280540,-92.0945995726811,4,1,0,86,0,0
280607,-91.1942802947399,4,1,0,86,0,0
280674,-90.3113936854274,4,1,0,86,0,0
280740,-89.4582408931511,4,1,0,86,0,0
280807,-88.6084922378961,4,1,0,86,0,0
280874,-87.7747349203005,4,1,0,86,0,0
280941,-86.9565217391304,4,1,0,86,0,0
281008,-87.7862595419847,4,1,0,86,0,0
281075,-88.6319845857418,4,1,0,86,0,0
281142,-89.4941634241245,4,1,0,86,0,0
281209,-90.3732809430255,4,1,0,86,0,0
281276,-91.2698412698413,4,1,0,86,0,0
281343,-92.184368737475,4,1,0,86,0,0
281410,-93.1174089068826,4,1,0,86,0,0
281477,-94.0695296523517,4,1,0,86,0,0
281544,-95.0413223140496,4,1,0,86,0,0
281611,-96.0334029227558,4,1,0,86,0,0
281678,-97.0464135021097,4,1,0,86,0,0
281745,-98.0810234541578,4,1,0,86,0,0
281812,-99.1379310344828,4,1,0,86,0,0
281879,-100.217864923747,4,1,0,86,0,0
281946,-101.321585903084,4,1,0,86,0,0
282013,-102.449888641425,4,1,0,86,0,0
282080,-103.603603603604,4,1,0,86,0,0
282147,-104.783599088838,4,1,0,86,0,0
282214,-105.990783410138,4,1,0,86,0,0
282281,-107.226107226107,4,1,0,86,0,0
282348,-108.490566037736,4,1,0,86,0,0
282415,-109.785202863962,4,1,0,86,0,0
282482,-111.111111111111,4,1,0,86,0,0
282549,-100,4,1,0,86,0,0
282612,-97.8419600843745,4,1,0,86,0,0
282679,-96.7897271268058,4,1,0,86,0,0
282746,-95.759885659838,4,1,0,86,0,0
282813,-94.7517284726587,4,1,0,86,0,0
282880,-93.7645778261546,4,1,0,86,0,0
282947,-92.797783933518,4,1,0,86,0,0
283014,-91.8507235338918,4,1,0,86,0,0
283087,-90.9090909090909,4,1,0,86,0,1
287367,-83.3333333333333,4,1,0,86,0,1
287501,-85.2292020373514,4,1,0,86,0,1
287635,-87.2133425990271,4,1,0,86,0,1
287702,-88.2404640534365,4,1,0,86,0,1
287769,-89.2920668801138,4,1,0,86,0,1
287836,-90.3690369036904,4,1,0,86,0,1
287903,-91.4723032069971,4,1,0,86,0,1
287969,-92.5857617115456,4,1,0,86,0,1
288036,-93.7441643323996,4,1,0,86,0,1
288103,-94.9319213313162,4,1,0,86,0,1
288170,-96.1501628040605,4,1,0,86,0,1
288237,-97.4000776096236,4,1,0,86,0,1
288304,-98.6829172400236,4,1,0,86,0,1
288371,-100,4,1,0,86,0,1
288438,-90.9090909090909,4,1,0,86,0,1
288572,-93.0232558139535,4,1,0,86,0,1
288706,-95.2380952380952,4,1,0,86,0,1
288773,-96.3855421686747,4,1,0,86,0,1
288840,-97.5609756097561,4,1,0,86,0,1
288907,-98.7654320987654,4,1,0,86,0,1
288974,-100,4,1,0,86,0,1
289041,-101.26582278481,4,1,0,86,0,1
289108,-102.564102564103,4,1,0,86,0,1
289175,-103.896103896104,4,1,0,86,0,1
289242,-105.263157894737,4,1,0,86,0,1
289309,-106.666666666667,4,1,0,86,0,1
289376,-108.108108108108,4,1,0,86,0,1
289443,-109.58904109589,4,1,0,86,0,1
289510,-111.111111111111,4,1,0,86,0,1
291117,-108.108108108108,4,1,0,86,0,1
291184,-106.666666666667,4,1,0,86,0,1
291251,-105.263157894737,4,1,0,86,0,1
291318,-103.896103896104,4,1,0,86,0,1
291385,-102.564102564103,4,1,0,86,0,1
291452,-101.26582278481,4,1,0,86,0,1
291519,-100,4,1,0,86,0,1
291589,-90.9090909090909,4,1,0,86,0,1
295938,-83.3333333333333,4,1,0,86,0,1
296072,-85.2272727272727,4,1,0,86,0,1
296206,-87.2093023255814,4,1,0,86,0,1
296273,-88.2352941176471,4,1,0,86,0,1
296340,-89.2857142857143,4,1,0,86,0,1
296407,-90.3614457831325,4,1,0,86,0,1
296474,-91.4634146341463,4,1,0,86,0,1
296541,-92.5925925925926,4,1,0,86,0,1
296608,-93.75,4,1,0,86,0,1
296675,-94.9367088607595,4,1,0,86,0,1
296742,-96.1538461538461,4,1,0,86,0,1
296809,-97.4025974025974,4,1,0,86,0,1
296876,-98.6842105263158,4,1,0,86,0,1
296943,-100,4,1,0,86,0,1
297010,-90.9090909090909,4,1,0,86,0,1
297144,-93.0252757752106,4,1,0,86,0,1
297278,-95.2423299244108,4,1,0,86,0,1
297344,-96.3736164851975,4,1,0,86,0,1
297411,-97.5498679296839,4,1,0,86,0,1
297478,-98.7551867219917,4,1,0,86,0,1
297545,-99.9906638035664,4,1,0,86,0,1
297612,-101.257445400397,4,1,0,86,0,1
297679,-102.556736569951,4,1,0,86,0,1
297746,-103.889805024736,4,1,0,86,0,1
297813,-105.257985257985,4,1,0,86,0,1
297880,-106.662682999701,4,1,0,86,0,1
297947,-108.105380034319,4,1,0,86,0,1
298014,-109.587639414714,4,1,0,86,0,1
298084,-86.9565217391304,4,1,0,86,0,1
298218,-88.1548365865197,4,1,0,86,0,1
298285,-88.7664650816005,4,1,0,86,0,1
298352,-89.3866399716365,4,1,0,86,0,1
298419,-90.0155416474146,4,1,0,86,0,1
298486,-90.6533556124284,4,1,0,86,0,1
298553,-91.3002726653033,4,1,0,86,0,1
298620,-91.9564890900899,4,1,0,86,0,1
298687,-92.6222068548213,4,1,0,86,0,1
298754,-93.2976338187597,4,1,0,86,0,1
298821,-93.9829839487764,4,1,0,86,0,1
298888,-94.6784775453401,4,1,0,86,0,1
298955,-95.3843414786131,4,1,0,86,0,1
299022,-96.1008094351891,4,1,0,86,0,1
299089,-96.8281221760347,4,1,0,86,0,1
299156,-97.5665278062328,4,1,0,86,0,1
299223,-98.3162820571638,4,1,0,86,0,1
299290,-99.077648581798,4,1,0,86,0,1
299357,-99.8508992638151,4,1,0,86,0,1
299424,-100.636314541313,4,1,0,86,0,1
299490,-101.422182257034,4,1,0,86,0,1
299557,-102.232611392043,4,1,0,86,0,1
299624,-103.056096563995,4,1,0,86,0,1
299691,-103.892955834586,4,1,0,86,0,1
299758,-104.743517681273,4,1,0,86,0,1
299825,-105.608121427163,4,1,0,86,0,1
299892,-106.487117692365,4,1,0,86,0,1
299959,-107.380868868066,4,1,0,86,0,1
300026,-108.289749614695,4,1,0,86,0,1
300093,-109.214147385588,4,1,0,86,0,1
300230,-111.111111111111,4,1,0,86,0,0
307861,-117.647058823529,4,1,0,86,0,0
307928,-114.285714285714,4,1,0,86,0,0
307995,-111.111111111111,4,1,0,86,0,0
308062,-108.108108108108,4,1,0,86,0,0
308129,-105.263157894737,4,1,0,86,0,0
308263,-117.647058823529,4,1,0,86,0,0
308330,-115.107913669065,4,1,0,86,0,0
308397,-112.676056338028,4,1,0,86,0,0
308464,-110.344827586207,4,1,0,86,0,0
308531,-108.108108108108,4,1,0,86,0,0
308665,-103.896103896104,4,1,0,86,0,0
308799,-100,4,1,0,86,0,0
315763,-102.040816326531,4,1,0,86,0,0
315830,-103.092783505155,4,1,0,86,0,0
315897,-104.166666666667,4,1,0,86,0,0
315964,-105.263157894737,4,1,0,86,0,0
316031,-106.382978723404,4,1,0,86,0,0
316098,-107.52688172043,4,1,0,86,0,0
316165,-108.695652173913,4,1,0,86,0,0
316232,-109.89010989011,4,1,0,86,0,0
316299,-111.111111111111,4,1,0,86,0,0
316566,-133.333333333333,4,1,0,86,0,0
316633,-131.146649260226,4,1,0,86,0,0
316700,-129.0305316957,4,1,0,86,0,0
316767,-126.981619002475,4,1,0,86,0,0
316834,-124.996759727299,4,1,0,86,0,0
316901,-123.072996426748,4,1,0,86,0,0
316968,-121.20755096398,4,1,0,86,0,0
317035,-119.397811122666,4,1,0,86,0,0
317102,-117.641318402498,4,1,0,86,0,0
317169,-115.935756876322,4,1,0,86,0,0
317236,-114.278943002725,4,1,0,86,0,0
317303,-112.668816299827,4,1,0,86,0,0
317370,-111.103430796525,4,1,0,86,0,0
317437,-109.580947186619,4,1,0,86,0,0
317504,-108.099625619297,4,1,0,86,0,0
317571,-106.657819066578,4,1,0,86,0,0
317638,-105.253967214546,4,1,0,86,0,0
317772,-102.554286565006,4,1,0,86,0,0
317906,-99.9896319336444,4,1,0,86,0,0
318040,-97.5501203698084,4,1,0,86,0,0
318107,-96.3744653635528,4,1,0,86,0,0
318174,-95.2268104350574,4,1,0,86,0,0
318240,-94.1226991470008,4,1,0,86,0,0
318307,-93.0277424084578,4,1,0,86,0,0
318374,-91.957968609951,4,1,0,86,0,0
318441,-90.9125188536953,4,1,0,86,0,0
318508,-89.8905728613239,4,1,0,86,0,0
318575,-88.8913468274159,4,1,0,86,0,0
318642,-87.914091414611,4,1,0,86,0,0
318709,-86.9580898795355,4,1,0,86,0,0
318843,-85.1071340322638,4,1,0,86,0,0
318910,-84.2108939767032,4,1,0,86,0,0
318977,-83.3333333333333,4,1,0,86,0,0
319111,-87.5,4,1,0,86,0,0
319178,-89.7435897435897,4,1,0,86,0,0
319245,-92.1052631578947,4,1,0,86,0,0
319312,-94.5945945945946,4,1,0,86,0,0
319379,-97.2222222222222,4,1,0,86,0,0
319446,-100,4,1,0,86,0,0
319516,-83.3333333333333,4,1,0,86,0,0

[Colours]
Combo1 : 135,119,242
Combo2 : 191,90,117
Combo3 : 122,54,217
Combo4 : 86,57,191

[HitObjects]
256,192,319,5,4,0:0:0:0:
256,192,448,1,8,0:0:0:0:
256,192,583,1,0,0:0:0:0:
256,192,650,1,0,0:0:0:0:
256,192,718,1,8,0:0:0:0:
256,192,859,1,0,0:0:0:0:
256,192,976,1,8,0:0:0:0:
256,192,1128,1,0,0:0:0:0:
256,192,1189,1,0,0:0:0:0:
256,192,1251,1,8,0:0:0:0:
256,192,1399,1,0,0:0:0:0:
256,192,1521,1,8,0:0:0:0:
256,192,1667,1,0,0:0:0:0:
256,192,1727,1,0,0:0:0:0:
256,192,1787,1,8,0:0:0:0:
256,192,1914,1,0,0:0:0:0:
256,192,1987,1,0,0:0:0:0:
256,192,2061,1,8,0:0:0:0:
256,192,2134,1,8,0:0:0:0:
256,192,2208,1,0,0:0:0:0:
256,192,2276,1,0,0:0:0:0:
256,192,2344,1,8,0:0:0:0:
256,192,2412,1,8,0:0:0:0:
256,192,2480,1,0,0:0:0:0:
256,192,2615,1,8,0:0:0:0:
256,192,2751,1,0,0:0:0:0:
256,192,2819,1,0,0:0:0:0:
256,192,2887,1,8,0:0:0:0:
256,192,3022,1,0,0:0:0:0:
256,192,3158,1,8,0:0:0:0:
256,192,3294,1,0,0:0:0:0:
256,192,3362,1,0,0:0:0:0:
256,192,3430,1,8,0:0:0:0:
256,192,3565,1,0,0:0:0:0:
256,192,3701,1,8,0:0:0:0:
256,192,3837,1,0,0:0:0:0:
256,192,3905,1,0,0:0:0:0:
256,192,3973,1,8,0:0:0:0:
256,192,4108,1,0,0:0:0:0:
256,192,4244,1,8,0:0:0:0:
256,192,4312,1,8,0:0:0:0:
256,192,4373,1,8,0:0:0:0:
256,192,4438,1,8,0:0:0:0:
256,192,4499,1,8,0:0:0:0:
256,192,4556,1,8,0:0:0:0:
256,192,4638,1,4,0:0:0:0:
256,192,4905,1,0,0:0:0:0:
256,192,4972,1,0,0:0:0:0:
256,192,5039,1,8,0:0:0:0:
256,192,5173,1,0,0:0:0:0:
256,192,5307,1,8,0:0:0:0:
256,192,5441,1,8,0:0:0:0:
256,192,5508,1,8,0:0:0:0:
256,192,5575,1,0,0:0:0:0:
256,192,5709,1,0,0:0:0:0:
256,192,5843,1,8,0:0:0:0:
256,192,5977,1,0,0:0:0:0:
256,192,6044,1,0,0:0:0:0:
256,192,6111,1,8,0:0:0:0:
256,192,6178,1,0,0:0:0:0:
256,192,6245,1,8,0:0:0:0:
256,192,6379,1,0,0:0:0:0:
256,192,6513,1,8,0:0:0:0:
256,192,6579,1,8,0:0:0:0:
256,192,6646,1,0,0:0:0:0:
256,192,6780,1,0,0:0:0:0:
256,192,6914,1,8,0:0:0:0:
256,192,7048,1,0,0:0:0:0:
256,192,7115,1,0,0:0:0:0:
256,192,7182,1,8,0:0:0:0:
256,192,7316,1,0,0:0:0:0:
256,192,7450,1,8,0:0:0:0:
256,192,7517,1,8,0:0:0:0:
256,192,7584,1,0,0:0:0:0:
256,192,7651,1,0,0:0:0:0:
256,192,7718,1,8,0:0:0:0:
256,192,7852,1,0,0:0:0:0:
256,192,7919,1,0,0:0:0:0:
256,192,7986,1,8,0:0:0:0:
256,192,8030,1,8,0:0:0:0:
256,192,8075,1,0,0:0:0:0:
256,192,8120,1,0,0:0:0:0:
256,192,8254,1,8,0:0:0:0:
256,192,8388,1,0,0:0:0:0:
256,192,8521,1,8,0:0:0:0:
256,192,8588,1,0,0:0:0:0:
256,192,8655,1,8,0:0:0:0:
256,192,8722,1,0,0:0:0:0:
256,192,8789,1,8,0:0:0:0:
256,192,8856,1,8,0:0:0:0:
256,192,8923,1,4,0:0:0:0:
256,192,9057,1,8,0:0:0:0:
256,192,9191,1,0,0:0:0:0:
256,192,9258,1,0,0:0:0:0:
256,192,9325,1,8,0:0:0:0:
256,192,9459,1,0,0:0:0:0:
256,192,9593,1,8,0:0:0:0:
256,192,9727,1,8,0:0:0:0:
256,192,9794,1,8,0:0:0:0:
256,192,9861,1,0,0:0:0:0:
256,192,9995,1,0,0:0:0:0:
256,192,10129,1,8,0:0:0:0:
256,192,10263,1,0,0:0:0:0:
256,192,10329,1,0,0:0:0:0:
256,192,10396,1,8,0:0:0:0:
256,192,10463,1,0,0:0:0:0:
256,192,10530,1,8,0:0:0:0:
256,192,10664,1,0,0:0:0:0:
256,192,10798,1,8,0:0:0:0:
256,192,10865,1,8,0:0:0:0:
256,192,10932,1,0,0:0:0:0:
256,192,11066,1,0,0:0:0:0:
256,192,11200,1,8,0:0:0:0:
256,192,11334,1,0,0:0:0:0:
256,192,11401,1,0,0:0:0:0:
256,192,11468,1,8,0:0:0:0:
256,192,11602,1,0,0:0:0:0:
256,192,11736,1,8,0:0:0:0:
256,192,11803,1,0,0:0:0:0:
256,192,11870,1,8,0:0:0:0:
256,192,11937,1,8,0:0:0:0:
256,192,12004,1,0,0:0:0:0:
256,192,12138,1,8,0:0:0:0:
256,192,12204,1,0,0:0:0:0:
256,192,12271,1,8,0:0:0:0:
256,192,12316,1,8,0:0:0:0:
256,192,12361,1,0,0:0:0:0:
256,192,12405,1,0,0:0:0:0:
256,192,12539,1,8,0:0:0:0:
256,192,12673,1,0,0:0:0:0:
256,192,12740,1,0,0:0:0:0:
256,192,12807,1,8,0:0:0:0:
256,192,12874,1,0,0:0:0:0:
256,192,12941,1,8,0:0:0:0:
256,192,13008,1,8,0:0:0:0:
256,192,13075,1,8,0:0:0:0:
256,192,13142,1,8,0:0:0:0:
256,192,13209,1,0,0:0:0:0:
256,192,13276,1,8,0:0:0:0:
256,192,13343,1,8,0:0:0:0:
256,192,13410,1,8,0:0:0:0:
256,192,13477,1,0,0:0:0:0:
256,192,13544,1,8,0:0:0:0:
256,192,13611,1,0,0:0:0:0:
256,192,13678,1,0,0:0:0:0:
256,192,13745,1,8,0:0:0:0:
256,192,13812,1,8,0:0:0:0:
256,192,13879,1,8,0:0:0:0:
256,192,13946,1,0,0:0:0:0:
256,192,14013,1,8,0:0:0:0:
256,192,14079,1,8,0:0:0:0:
256,192,14146,1,0,0:0:0:0:
256,192,14213,1,0,0:0:0:0:
256,192,14280,1,8,0:0:0:0:
256,192,14347,1,8,0:0:0:0:
256,192,14414,1,8,0:0:0:0:
256,192,14481,1,8,0:0:0:0:
256,192,14548,1,8,0:0:0:0:
256,192,14615,1,0,0:0:0:0:
256,192,14682,1,8,0:0:0:0:
256,192,14749,1,8,0:0:0:0:
256,192,14816,1,0,0:0:0:0:
256,192,14883,1,0,0:0:0:0:
256,192,14950,1,8,0:0:0:0:
256,192,15017,1,0,0:0:0:0:
256,192,15084,1,8,0:0:0:0:
256,192,15151,1,8,0:0:0:0:
256,192,15218,1,8,0:0:0:0:
256,192,15285,1,8,0:0:0:0:
256,192,15352,1,4,0:0:0:0:
256,192,15620,1,0,0:0:0:0:
256,192,15687,1,0,0:0:0:0:
256,192,15754,1,8,0:0:0:0:
256,192,15888,1,0,0:0:0:0:
256,192,16021,1,8,0:0:0:0:
256,192,16155,1,8,0:0:0:0:
256,192,16222,1,0,0:0:0:0:
256,192,16289,1,8,0:0:0:0:
256,192,16423,1,0,0:0:0:0:
256,192,16557,1,8,0:0:0:0:
256,192,16691,1,8,0:0:0:0:
256,192,16758,1,0,0:0:0:0:
256,192,16825,1,8,0:0:0:0:
256,192,16892,1,8,0:0:0:0:
256,192,16959,1,0,0:0:0:0:
256,192,17093,1,8,0:0:0:0:
256,192,17227,1,8,0:0:0:0:
256,192,17294,1,0,0:0:0:0:
256,192,17361,1,8,0:0:0:0:
256,192,17495,1,0,0:0:0:0:
256,192,17629,1,8,0:0:0:0:
256,192,17763,1,0,0:0:0:0:
256,192,17829,1,0,0:0:0:0:
256,192,17896,1,8,0:0:0:0:
256,192,18030,1,0,0:0:0:0:
256,192,18164,1,8,0:0:0:0:
256,192,18231,1,8,0:0:0:0:
256,192,18298,1,0,0:0:0:0:
256,192,18365,1,0,0:0:0:0:
256,192,18432,1,8,0:0:0:0:
256,192,18566,1,8,0:0:0:0:
256,192,18633,1,8,0:0:0:0:
256,192,18700,1,8,0:0:0:0:
256,192,18767,1,0,0:0:0:0:
256,192,18834,1,8,0:0:0:0:
256,192,18901,1,8,0:0:0:0:
256,192,18968,1,0,0:0:0:0:
256,192,19035,1,0,0:0:0:0:
256,192,19102,1,8,0:0:0:0:
256,192,19169,1,0,0:0:0:0:
256,192,19236,1,8,0:0:0:0:
256,192,19303,1,0,0:0:0:0:
256,192,19370,1,8,0:0:0:0:
256,192,19437,1,8,0:0:0:0:
256,192,19504,1,0,0:0:0:0:
256,192,19638,1,12,0:0:0:0:
256,192,19905,1,0,0:0:0:0:
256,192,19972,1,0,0:0:0:0:
256,192,20039,1,8,0:0:0:0:
256,192,20173,1,0,0:0:0:0:
256,192,20307,1,8,0:0:0:0:
256,192,20374,1,0,0:0:0:0:
256,192,20508,1,8,0:0:0:0:
256,192,20575,1,8,0:0:0:0:
256,192,20709,1,0,0:0:0:0:
256,192,20843,1,8,0:0:0:0:
256,192,20977,1,0,0:0:0:0:
256,192,21044,1,0,0:0:0:0:
256,192,21111,1,8,0:0:0:0:
256,192,21245,1,0,0:0:0:0:
256,192,21379,1,8,0:0:0:0:
256,192,21446,1,8,0:0:0:0:
256,192,21513,1,0,0:0:0:0:
256,192,21579,1,0,0:0:0:0:
256,192,21646,1,8,0:0:0:0:
256,192,21780,1,0,0:0:0:0:
256,192,21847,1,0,0:0:0:0:
256,192,21914,1,8,0:0:0:0:
256,192,21981,1,0,0:0:0:0:
256,192,22048,1,0,0:0:0:0:
256,192,22115,1,0,0:0:0:0:
256,192,22182,1,8,0:0:0:0:
256,192,22249,1,8,0:0:0:0:
256,192,22316,1,0,0:0:0:0:
256,192,22383,1,0,0:0:0:0:
256,192,22450,1,8,0:0:0:0:
256,192,22517,1,0,0:0:0:0:
256,192,22584,1,8,0:0:0:0:
256,192,22651,1,0,0:0:0:0:
256,192,22718,1,8,0:0:0:0:
256,192,22785,1,8,0:0:0:0:
256,192,22852,1,0,0:0:0:0:
256,192,22986,1,8,0:0:0:0:
256,192,23120,1,0,0:0:0:0:
256,192,23187,1,0,0:0:0:0:
256,192,23254,1,8,0:0:0:0:
256,192,23381,1,8,0:0:0:0:
256,192,23447,1,0,0:0:0:0:
256,192,23514,1,0,0:0:0:0:
256,192,23581,1,0,0:0:0:0:
256,192,23648,1,8,0:0:0:0:
256,192,23715,1,8,0:0:0:0:
256,192,23782,1,8,0:0:0:0:
256,192,23849,1,8,0:0:0:0:
256,192,23916,1,4,0:0:0:0:
256,192,24183,1,0,0:0:0:0:
256,192,24250,1,0,0:0:0:0:
256,192,24317,1,8,0:0:0:0:
256,192,24451,1,0,0:0:0:0:
256,192,24585,1,8,0:0:0:0:
256,192,24719,1,8,0:0:0:0:
256,192,24786,1,0,0:0:0:0:
256,192,24853,1,8,0:0:0:0:
256,192,24987,1,0,0:0:0:0:
256,192,25121,1,8,0:0:0:0:
256,192,25255,1,8,0:0:0:0:
256,192,25321,1,0,0:0:0:0:
256,192,25388,1,8,0:0:0:0:
256,192,25455,1,8,0:0:0:0:
256,192,25522,1,0,0:0:0:0:
256,192,25656,1,8,0:0:0:0:
256,192,25790,1,8,0:0:0:0:
256,192,25857,1,0,0:0:0:0:
256,192,25924,1,8,0:0:0:0:
256,192,26058,1,0,0:0:0:0:
256,192,26192,1,8,0:0:0:0:
256,192,26326,1,0,0:0:0:0:
256,192,26393,1,0,0:0:0:0:
256,192,26460,1,8,0:0:0:0:
256,192,26594,1,0,0:0:0:0:
256,192,26728,1,8,0:0:0:0:
256,192,26795,1,0,0:0:0:0:
256,192,26862,1,8,0:0:0:0:
256,192,26929,1,8,0:0:0:0:
256,192,26996,1,0,0:0:0:0:
256,192,27130,1,8,0:0:0:0:
256,192,27196,1,8,0:0:0:0:
256,192,27263,1,8,0:0:0:0:
256,192,27330,1,0,0:0:0:0:
256,192,27397,1,8,0:0:0:0:
256,192,27464,1,8,0:0:0:0:
256,192,27531,1,8,0:0:0:0:
256,192,27598,1,0,0:0:0:0:
256,192,27665,1,8,0:0:0:0:
256,192,27732,1,8,0:0:0:0:
256,192,27799,1,0,0:0:0:0:
256,192,27866,1,0,0:0:0:0:
256,192,27933,1,8,0:0:0:0:
256,192,28067,1,8,0:0:0:0:
256,192,28134,1,8,0:0:0:0:
256,192,28201,1,4,0:0:0:0:
256,192,28469,1,0,0:0:0:0:
256,192,28536,1,0,0:0:0:0:
256,192,28603,1,8,0:0:0:0:
256,192,28737,1,0,0:0:0:0:
256,192,28871,1,8,0:0:0:0:
256,192,28938,1,8,0:0:0:0:
256,192,29071,1,0,0:0:0:0:
256,192,29138,1,8,0:0:0:0:
256,192,29272,1,0,0:0:0:0:
256,192,29406,1,8,0:0:0:0:
256,192,29540,1,0,0:0:0:0:
256,192,29607,1,0,0:0:0:0:
256,192,29674,1,8,0:0:0:0:
256,192,29808,1,0,0:0:0:0:
256,192,29942,1,8,0:0:0:0:
256,192,30009,1,0,0:0:0:0:
256,192,30076,1,8,0:0:0:0:
256,192,30143,1,0,0:0:0:0:
256,192,30210,1,8,0:0:0:0:
256,192,30344,1,0,0:0:0:0:
256,192,30411,1,0,0:0:0:0:
256,192,30478,1,8,0:0:0:0:
256,192,30545,1,0,0:0:0:0:
256,192,30612,1,0,0:0:0:0:
256,192,30679,1,0,0:0:0:0:
256,192,30746,1,8,0:0:0:0:
256,192,30813,1,8,0:0:0:0:
256,192,30880,1,0,0:0:0:0:
256,192,30946,1,0,0:0:0:0:
256,192,31013,1,8,0:0:0:0:
256,192,31080,1,0,0:0:0:0:
256,192,31147,1,8,0:0:0:0:
256,192,31214,1,0,0:0:0:0:
256,192,31281,1,8,0:0:0:0:
256,192,31348,1,8,0:0:0:0:
256,192,31415,1,0,0:0:0:0:
256,192,31549,1,8,0:0:0:0:
256,192,31683,1,0,0:0:0:0:
256,192,31750,1,0,0:0:0:0:
256,192,31817,1,8,0:0:0:0:
256,192,31951,1,8,0:0:0:0:
256,192,32018,1,8,0:0:0:0:
256,192,32085,1,0,0:0:0:0:
256,192,32152,1,0,0:0:0:0:
256,192,32219,1,8,0:0:0:0:
256,192,32286,1,0,0:0:0:0:
256,192,32353,1,0,0:0:0:0:
256,192,32420,1,0,0:0:0:0:
256,192,32487,1,12,0:0:0:0:
256,192,32755,1,0,0:0:0:0:
256,192,32821,1,0,0:0:0:0:
256,192,32888,1,8,0:0:0:0:
256,192,33022,1,0,0:0:0:0:
256,192,33156,1,8,0:0:0:0:
256,192,33290,1,8,0:0:0:0:
256,192,33357,1,0,0:0:0:0:
256,192,33424,1,8,0:0:0:0:
256,192,33558,1,4,0:0:0:0:
256,192,33692,1,8,0:0:0:0:
256,192,33826,1,8,0:0:0:0:
256,192,33893,1,0,0:0:0:0:
256,192,33960,1,8,0:0:0:0:
256,192,34027,1,8,0:0:0:0:
256,192,34094,1,0,0:0:0:0:
256,192,34228,1,8,0:0:0:0:
256,192,34362,1,8,0:0:0:0:
256,192,34429,1,0,0:0:0:0:
256,192,34496,1,8,0:0:0:0:
256,192,34630,1,0,0:0:0:0:
256,192,34763,1,8,0:0:0:0:
256,192,34897,1,0,0:0:0:0:
256,192,34964,1,0,0:0:0:0:
256,192,35031,1,8,0:0:0:0:
256,192,35165,1,0,0:0:0:0:
256,192,35299,1,8,0:0:0:0:
256,192,35366,1,0,0:0:0:0:
256,192,35433,1,8,0:0:0:0:
256,192,35500,1,8,0:0:0:0:
256,192,35567,1,0,0:0:0:0:
256,192,35634,1,0,0:0:0:0:
256,192,35701,1,12,0:0:0:0:
256,192,35880,1,4,0:0:0:0:
256,192,36058,1,4,0:0:0:0:
256,192,36237,1,12,0:0:0:0:
256,192,36415,1,12,0:0:0:0:
256,192,36594,1,12,0:0:0:0:
256,192,36772,1,4,0:0:0:0:
256,192,37040,1,0,0:0:0:0:
256,192,37107,1,0,0:0:0:0:
256,192,37174,1,8,0:0:0:0:
256,192,37308,1,0,0:0:0:0:
256,192,37442,1,8,0:0:0:0:
256,192,37509,1,0,0:0:0:0:
256,192,37643,1,8,0:0:0:0:
256,192,37710,1,8,0:0:0:0:
256,192,37844,1,0,0:0:0:0:
256,192,37978,1,8,0:0:0:0:
256,192,38112,1,0,0:0:0:0:
256,192,38179,1,0,0:0:0:0:
256,192,38246,1,8,0:0:0:0:
256,192,38380,1,0,0:0:0:0:
256,192,38513,1,8,0:0:0:0:
256,192,38580,1,8,0:0:0:0:
256,192,38647,1,0,0:0:0:0:
256,192,38714,1,0,0:0:0:0:
256,192,38781,1,8,0:0:0:0:
256,192,38915,1,8,0:0:0:0:
256,192,38982,1,8,0:0:0:0:
256,192,39049,1,0,0:0:0:0:
256,192,39116,1,8,0:0:0:0:
256,192,39183,1,0,0:0:0:0:
256,192,39250,1,0,0:0:0:0:
256,192,39317,1,8,0:0:0:0:
256,192,39384,1,8,0:0:0:0:
256,192,39451,1,0,0:0:0:0:
256,192,39518,1,8,0:0:0:0:
256,192,39585,1,0,0:0:0:0:
256,192,39652,1,0,0:0:0:0:
256,192,39719,1,8,0:0:0:0:
256,192,39786,1,8,0:0:0:0:
256,192,39853,1,8,0:0:0:0:
256,192,39920,1,8,0:0:0:0:
256,192,39987,1,0,0:0:0:0:
256,192,40121,1,8,0:0:0:0:
256,192,40255,1,0,0:0:0:0:
256,192,40321,1,0,0:0:0:0:
256,192,40388,1,8,0:0:0:0:
256,192,40522,1,8,0:0:0:0:
256,192,40589,1,8,0:0:0:0:
256,192,40656,1,8,0:0:0:0:
256,192,40723,1,8,0:0:0:0:
256,192,40790,1,0,0:0:0:0:
256,192,40857,1,0,0:0:0:0:
256,192,40924,1,0,0:0:0:0:
256,192,40991,1,0,0:0:0:0:
256,192,41066,1,12,0:0:0:0:
256,192,41334,1,0,0:0:0:0:
256,192,41401,1,0,0:0:0:0:
256,192,41468,1,8,0:0:0:0:
256,192,41602,1,0,0:0:0:0:
256,192,41736,1,8,0:0:0:0:
256,192,41870,1,8,0:0:0:0:
256,192,41937,1,0,0:0:0:0:
256,192,42004,1,8,0:0:0:0:
256,192,42138,1,0,0:0:0:0:
256,192,42271,1,8,0:0:0:0:
256,192,42405,1,8,0:0:0:0:
256,192,42472,1,0,0:0:0:0:
256,192,42539,1,8,0:0:0:0:
256,192,42606,1,8,0:0:0:0:
256,192,42673,1,0,0:0:0:0:
256,192,42807,1,8,0:0:0:0:
256,192,42941,1,8,0:0:0:0:
256,192,43008,1,0,0:0:0:0:
256,192,43075,1,8,0:0:0:0:
256,192,43209,1,0,0:0:0:0:
256,192,43343,1,8,0:0:0:0:
256,192,43477,1,0,0:0:0:0:
256,192,43544,1,0,0:0:0:0:
256,192,43611,1,8,0:0:0:0:
256,192,43745,1,0,0:0:0:0:
256,192,43879,1,8,0:0:0:0:
256,192,43946,1,8,0:0:0:0:
256,192,44013,1,0,0:0:0:0:
256,192,44079,1,0,0:0:0:0:
256,192,44146,1,8,0:0:0:0:
256,192,44280,1,8,0:0:0:0:
256,192,44347,1,8,0:0:0:0:
256,192,44414,1,0,0:0:0:0:
256,192,44481,1,0,0:0:0:0:
256,192,44548,1,8,0:0:0:0:
256,192,44615,1,0,0:0:0:0:
256,192,44682,1,8,0:0:0:0:
256,192,44749,1,0,0:0:0:0:
256,192,44816,1,8,0:0:0:0:
256,192,44883,1,8,0:0:0:0:
256,192,44950,1,0,0:0:0:0:
256,192,45017,1,0,0:0:0:0:
256,192,45084,1,8,0:0:0:0:
256,192,45218,1,8,0:0:0:0:
256,192,45285,1,8,0:0:0:0:
256,192,45352,1,4,0:0:0:0:
256,192,45620,1,0,0:0:0:0:
256,192,45687,1,0,0:0:0:0:
256,192,45754,1,8,0:0:0:0:
256,192,45888,1,0,0:0:0:0:
256,192,46021,1,8,0:0:0:0:
256,192,46088,1,8,0:0:0:0:
256,192,46222,1,0,0:0:0:0:
256,192,46289,1,8,0:0:0:0:
256,192,46423,1,0,0:0:0:0:
256,192,46557,1,8,0:0:0:0:
256,192,46691,1,0,0:0:0:0:
256,192,46758,1,0,0:0:0:0:
256,192,46825,1,8,0:0:0:0:
256,192,46959,1,0,0:0:0:0:
256,192,47093,1,8,0:0:0:0:
256,192,47160,1,8,0:0:0:0:
256,192,47227,1,0,0:0:0:0:
256,192,47294,1,0,0:0:0:0:
256,192,47361,1,8,0:0:0:0:
256,192,47495,1,8,0:0:0:0:
256,192,47562,1,8,0:0:0:0:
256,192,47629,1,0,0:0:0:0:
256,192,47696,1,8,0:0:0:0:
256,192,47763,1,0,0:0:0:0:
256,192,47829,1,0,0:0:0:0:
256,192,47896,1,8,0:0:0:0:
256,192,47963,1,8,0:0:0:0:
256,192,48030,1,0,0:0:0:0:
256,192,48097,1,8,0:0:0:0:
256,192,48164,1,0,0:0:0:0:
256,192,48231,1,0,0:0:0:0:
256,192,48298,1,8,0:0:0:0:
256,192,48365,1,8,0:0:0:0:
256,192,48432,1,0,0:0:0:0:
256,192,48566,1,8,0:0:0:0:
256,192,48633,1,8,0:0:0:0:
256,192,48700,1,0,0:0:0:0:
256,192,48767,1,8,0:0:0:0:
256,192,48834,1,0,0:0:0:0:
256,192,48901,1,0,0:0:0:0:
256,192,48968,1,8,0:0:0:0:
256,192,49035,1,0,0:0:0:0:
256,192,49102,1,8,0:0:0:0:
256,192,49169,1,8,0:0:0:0:
256,192,49236,1,8,0:0:0:0:
256,192,49303,1,8,0:0:0:0:
256,192,49370,1,0,0:0:0:0:
256,192,49437,1,0,0:0:0:0:
256,192,49504,1,0,0:0:0:0:
256,192,49571,1,0,0:0:0:0:
256,192,49638,1,12,0:0:0:0:
256,192,49905,1,0,0:0:0:0:
256,192,49972,1,0,0:0:0:0:
256,192,50039,1,8,0:0:0:0:
256,192,50173,1,0,0:0:0:0:
256,192,50307,1,8,0:0:0:0:
256,192,50374,1,8,0:0:0:0:
256,192,50441,1,0,0:0:0:0:
256,192,50508,1,8,0:0:0:0:
256,192,50575,1,8,0:0:0:0:
256,192,50709,1,0,0:0:0:0:
256,192,50843,1,8,0:0:0:0:
256,192,50977,1,0,0:0:0:0:
256,192,51044,1,0,0:0:0:0:
256,192,51111,1,8,0:0:0:0:
256,192,51245,1,0,0:0:0:0:
256,192,51379,1,8,0:0:0:0:
256,192,51446,1,0,0:0:0:0:
256,192,51513,1,8,0:0:0:0:
256,192,51579,1,0,0:0:0:0:
256,192,51646,1,8,0:0:0:0:
256,192,51780,1,0,0:0:0:0:
256,192,51847,1,0,0:0:0:0:
256,192,51914,1,8,0:0:0:0:
256,192,51981,1,8,0:0:0:0:
256,192,52048,1,0,0:0:0:0:
256,192,52115,1,0,0:0:0:0:
256,192,52182,1,8,0:0:0:0:
256,192,52249,1,0,0:0:0:0:
256,192,52316,1,0,0:0:0:0:
256,192,52383,1,0,0:0:0:0:
256,192,52450,1,8,0:0:0:0:
256,192,52517,1,0,0:0:0:0:
256,192,52584,1,8,0:0:0:0:
256,192,52651,1,0,0:0:0:0:
256,192,52718,1,8,0:0:0:0:
256,192,52785,1,8,0:0:0:0:
256,192,52852,1,0,0:0:0:0:
256,192,52986,1,8,0:0:0:0:
256,192,53120,1,0,0:0:0:0:
256,192,53187,1,0,0:0:0:0:
256,192,53254,1,8,0:0:0:0:
256,192,53388,1,8,0:0:0:0:
256,192,53454,1,8,0:0:0:0:
256,192,53521,1,8,0:0:0:0:
256,192,53588,1,0,0:0:0:0:
256,192,53655,1,8,0:0:0:0:
256,192,53722,1,8,0:0:0:0:
256,192,53789,1,8,0:0:0:0:
256,192,53856,1,8,0:0:0:0:
256,192,53923,1,4,0:0:0:0:
256,192,54191,1,0,0:0:0:0:
256,192,54258,1,0,0:0:0:0:
256,192,54325,1,8,0:0:0:0:
256,192,54459,1,0,0:0:0:0:
256,192,54593,1,8,0:0:0:0:
256,192,54727,1,8,0:0:0:0:
256,192,54794,1,0,0:0:0:0:
256,192,54861,1,8,0:0:0:0:
256,192,54928,1,8,0:0:0:0:
256,192,54995,1,0,0:0:0:0:
256,192,55129,1,8,0:0:0:0:
256,192,55263,1,0,0:0:0:0:
256,192,55329,1,0,0:0:0:0:
256,192,55396,1,8,0:0:0:0:
256,192,55530,1,0,0:0:0:0:
256,192,55664,1,8,0:0:0:0:
256,192,55798,1,8,0:0:0:0:
256,192,55865,1,0,0:0:0:0:
256,192,55932,1,8,0:0:0:0:
256,192,56066,1,8,0:0:0:0:
256,192,56133,1,8,0:0:0:0:
256,192,56200,1,0,0:0:0:0:
256,192,56267,1,8,0:0:0:0:
256,192,56334,1,0,0:0:0:0:
256,192,56401,1,0,0:0:0:0:
256,192,56468,1,8,0:0:0:0:
256,192,56535,1,0,0:0:0:0:
256,192,56602,1,8,0:0:0:0:
256,192,56669,1,8,0:0:0:0:
256,192,56736,1,0,0:0:0:0:
256,192,56803,1,8,0:0:0:0:
256,192,56870,1,0,0:0:0:0:
256,192,56937,1,8,0:0:0:0:
256,192,57004,1,8,0:0:0:0:
256,192,57071,1,8,0:0:0:0:
256,192,57138,1,0,0:0:0:0:
256,192,57271,1,8,0:0:0:0:
256,192,57405,1,0,0:0:0:0:
256,192,57472,1,0,0:0:0:0:
256,192,57539,1,8,0:0:0:0:
256,192,57673,1,0,0:0:0:0:
256,192,57807,1,8,0:0:0:0:
256,192,57941,1,8,0:0:0:0:
256,192,58008,1,8,0:0:0:0:
256,192,58075,1,8,0:0:0:0:
256,192,58142,1,8,0:0:0:0:
256,192,58209,1,4,0:0:0:0:
256,192,58477,1,0,0:0:0:0:
256,192,58544,1,0,0:0:0:0:
256,192,58611,1,8,0:0:0:0:
256,192,58745,1,0,0:0:0:0:
256,192,58879,1,0,0:0:0:0:
256,192,59013,1,8,0:0:0:0:
256,192,59079,1,8,0:0:0:0:
256,192,59146,1,0,0:0:0:0:
256,192,59213,1,0,0:0:0:0:
256,192,59280,1,8,0:0:0:0:
256,192,59414,1,8,0:0:0:0:
256,192,59548,1,0,0:0:0:0:
256,192,59615,1,0,0:0:0:0:
256,192,59682,1,8,0:0:0:0:
256,192,59816,1,0,0:0:0:0:
256,192,59950,1,8,0:0:0:0:
256,192,60084,1,8,0:0:0:0:
256,192,60151,1,0,0:0:0:0:
256,192,60218,1,8,0:0:0:0:
256,192,60285,1,8,0:0:0:0:
256,192,60352,1,0,0:0:0:0:
256,192,60486,1,8,0:0:0:0:
256,192,60620,1,0,0:0:0:0:
256,192,60687,1,0,0:0:0:0:
256,192,60754,1,8,0:0:0:0:
256,192,60888,1,0,0:0:0:0:
256,192,61021,1,8,0:0:0:0:
256,192,61088,1,0,0:0:0:0:
256,192,61155,1,8,0:0:0:0:
256,192,61222,1,8,0:0:0:0:
256,192,61289,1,0,0:0:0:0:
256,192,61423,1,8,0:0:0:0:
256,192,61490,1,8,0:0:0:0:
256,192,61557,1,0,0:0:0:0:
256,192,61624,1,8,0:0:0:0:
256,192,61691,1,0,0:0:0:0:
256,192,61758,1,0,0:0:0:0:
256,192,61825,1,8,0:0:0:0:
256,192,61892,1,0,0:0:0:0:
256,192,61959,1,8,0:0:0:0:
256,192,62026,1,8,0:0:0:0:
256,192,62093,1,8,0:0:0:0:
256,192,62160,1,0,0:0:0:0:
256,192,62227,1,8,0:0:0:0:
256,192,62294,1,8,0:0:0:0:
256,192,62361,1,8,0:0:0:0:
256,192,62428,1,8,0:0:0:0:
256,192,62495,1,4,0:0:0:0:
256,192,62763,1,0,0:0:0:0:
256,192,62829,1,0,0:0:0:0:
256,192,62896,1,8,0:0:0:0:
256,192,63030,1,0,0:0:0:0:
256,192,63164,1,8,0:0:0:0:
256,192,63298,1,8,0:0:0:0:
256,192,63365,1,0,0:0:0:0:
256,192,63432,1,8,0:0:0:0:
256,192,63499,1,8,0:0:0:0:
256,192,63566,1,0,0:0:0:0:
256,192,63700,1,8,0:0:0:0:
256,192,63834,1,0,0:0:0:0:
256,192,63901,1,0,0:0:0:0:
256,192,63968,1,8,0:0:0:0:
256,192,64102,1,0,0:0:0:0:
256,192,64236,1,8,0:0:0:0:
256,192,64370,1,8,0:0:0:0:
256,192,64437,1,0,0:0:0:0:
256,192,64504,1,8,0:0:0:0:
256,192,64638,1,8,0:0:0:0:
256,192,64704,1,8,0:0:0:0:
256,192,64771,1,8,0:0:0:0:
256,192,64838,1,8,0:0:0:0:
256,192,64905,1,0,0:0:0:0:
256,192,64972,1,0,0:0:0:0:
256,192,65039,1,8,0:0:0:0:
256,192,65106,1,8,0:0:0:0:
256,192,65173,1,8,0:0:0:0:
256,192,65240,1,8,0:0:0:0:
256,192,65307,1,0,0:0:0:0:
256,192,65374,1,0,0:0:0:0:
256,192,65441,1,8,0:0:0:0:
256,192,65508,1,8,0:0:0:0:
256,192,65575,1,0,0:0:0:0:
256,192,65642,1,0,0:0:0:0:
256,192,65709,1,8,0:0:0:0:
256,192,65843,1,8,0:0:0:0:
256,192,65977,1,0,0:0:0:0:
256,192,66044,1,0,0:0:0:0:
256,192,66111,1,8,0:0:0:0:
256,192,66245,1,8,0:0:0:0:
256,192,66312,1,8,0:0:0:0:
256,192,66379,1,8,0:0:0:0:
256,192,66446,1,0,0:0:0:0:
256,192,66513,1,8,0:0:0:0:
256,192,66579,1,8,0:0:0:0:
256,192,66646,1,8,0:0:0:0:
256,192,66713,1,8,0:0:0:0:
256,192,66780,1,4,0:0:0:0:
256,192,67048,1,0,0:0:0:0:
256,192,67115,1,0,0:0:0:0:
256,192,67182,1,8,0:0:0:0:
256,192,67249,1,8,0:0:0:0:
256,192,67316,1,0,0:0:0:0:
256,192,67383,1,0,0:0:0:0:
256,192,67450,1,8,0:0:0:0:
256,192,67517,1,0,0:0:0:0:
256,192,67584,1,8,0:0:0:0:
256,192,67651,1,8,0:0:0:0:
256,192,67718,1,0,0:0:0:0:
256,192,67785,1,0,0:0:0:0:
256,192,67852,1,8,0:0:0:0:
256,192,67919,1,8,0:0:0:0:
256,192,67986,1,8,0:0:0:0:
256,192,68053,1,8,0:0:0:0:
256,192,68120,1,0,0:0:0:0:
256,192,68187,1,0,0:0:0:0:
256,192,68254,1,8,0:0:0:0:
256,192,68321,1,8,0:0:0:0:
256,192,68388,1,0,0:0:0:0:
256,192,68454,1,8,0:0:0:0:
256,192,68521,1,0,0:0:0:0:
256,192,68588,1,0,0:0:0:0:
256,192,68655,1,8,0:0:0:0:
256,192,68722,1,8,0:0:0:0:
256,192,68789,1,8,0:0:0:0:
256,192,68856,1,8,0:0:0:0:
256,192,68923,1,4,0:0:0:0:
256,192,69191,1,8,0:0:0:0:
256,192,69258,1,0,0:0:0:0:
256,192,69325,1,8,0:0:0:0:
256,192,69392,1,0,0:0:0:0:
256,192,69459,1,8,0:0:0:0:
256,192,69526,1,0,0:0:0:0:
256,192,69593,1,8,0:0:0:0:
256,192,69660,1,0,0:0:0:0:
256,192,69727,1,8,0:0:0:0:
256,192,69794,1,0,0:0:0:0:
256,192,69861,1,8,0:0:0:0:
256,192,69928,1,0,0:0:0:0:
256,192,69995,1,8,0:0:0:0:
256,192,70062,1,8,0:0:0:0:
256,192,70129,1,8,0:0:0:0:
256,192,70196,1,8,0:0:0:0:
256,192,70263,1,0,0:0:0:0:
256,192,70530,1,0,0:0:0:0:
256,192,70798,1,0,0:0:0:0:
256,192,71066,1,12,0:0:0:0:
256,192,71199,1,0,0:0:0:0:
256,192,71266,1,0,0:0:0:0:
256,192,71333,1,0,0:0:0:0:
256,192,71400,1,0,0:0:0:0:
256,192,71467,1,8,0:0:0:0:
256,192,71534,1,8,0:0:0:0:
256,192,71601,1,0,0:0:0:0:
256,192,71668,1,8,0:0:0:0:
256,192,71735,1,0,0:0:0:0:
256,192,71802,1,0,0:0:0:0:
256,192,71869,1,8,0:0:0:0:
256,192,71936,1,8,0:0:0:0:
256,192,72003,1,8,0:0:0:0:
256,192,72070,1,0,0:0:0:0:
256,192,72137,1,8,0:0:0:0:
256,192,72203,1,8,0:0:0:0:
256,192,72270,1,0,0:0:0:0:
256,192,72337,1,8,0:0:0:0:
256,192,72404,1,0,0:0:0:0:
256,192,72471,1,0,0:0:0:0:
256,192,72538,1,8,0:0:0:0:
256,192,72605,1,8,0:0:0:0:
256,192,72672,1,0,0:0:0:0:
256,192,72739,1,0,0:0:0:0:
256,192,72806,1,8,0:0:0:0:
256,192,72873,1,0,0:0:0:0:
256,192,72940,1,8,0:0:0:0:
256,192,73007,1,8,0:0:0:0:
256,192,73074,1,0,0:0:0:0:
256,192,73141,1,0,0:0:0:0:
256,192,73208,1,8,0:0:0:0:
256,192,73275,1,0,0:0:0:0:
256,192,73342,1,0,0:0:0:0:
256,192,73409,1,8,0:0:0:0:
256,192,73476,1,8,0:0:0:0:
256,192,73543,1,0,0:0:0:0:
256,192,73610,1,8,0:0:0:0:
256,192,73677,1,0,0:0:0:0:
256,192,73744,1,0,0:0:0:0:
256,192,73811,1,0,0:0:0:0:
256,192,73878,1,8,0:0:0:0:
256,192,73945,1,8,0:0:0:0:
256,192,74012,1,0,0:0:0:0:
256,192,74078,1,8,0:0:0:0:
256,192,74145,1,8,0:0:0:0:
256,192,74212,1,8,0:0:0:0:
256,192,74279,1,0,0:0:0:0:
256,192,74346,1,0,0:0:0:0:
256,192,74413,1,8,0:0:0:0:
256,192,74480,1,0,0:0:0:0:
256,192,74547,1,8,0:0:0:0:
256,192,74614,1,8,0:0:0:0:
256,192,74681,1,0,0:0:0:0:
256,192,74748,1,0,0:0:0:0:
256,192,74815,1,8,0:0:0:0:
256,192,74882,1,8,0:0:0:0:
256,192,74949,1,8,0:0:0:0:
256,192,75016,1,0,0:0:0:0:
256,192,75083,1,8,0:0:0:0:
256,192,75150,1,8,0:0:0:0:
256,192,75217,1,8,0:0:0:0:
256,192,75284,1,8,0:0:0:0:
256,192,75351,1,4,0:0:0:0:
256,192,75485,1,8,0:0:0:0:
256,192,75619,1,0,0:0:0:0:
256,192,75686,1,0,0:0:0:0:
256,192,75753,1,8,0:0:0:0:
256,192,75820,1,8,0:0:0:0:
256,192,75887,1,0,0:0:0:0:
256,192,75953,1,8,0:0:0:0:
256,192,76020,1,0,0:0:0:0:
256,192,76087,1,0,0:0:0:0:
256,192,76154,1,8,0:0:0:0:
256,192,76221,1,8,0:0:0:0:
256,192,76288,1,8,0:0:0:0:
256,192,76355,1,8,0:0:0:0:
256,192,76422,1,4,0:0:0:0:
256,192,76556,1,8,0:0:0:0:
256,192,76690,1,0,0:0:0:0:
256,192,76757,1,0,0:0:0:0:
256,192,76824,1,8,0:0:0:0:
256,192,76891,1,8,0:0:0:0:
256,192,76958,1,8,0:0:0:0:
256,192,77025,1,0,0:0:0:0:
256,192,77092,1,8,0:0:0:0:
256,192,77159,1,8,0:0:0:0:
256,192,77226,1,0,0:0:0:0:
256,192,77293,1,8,0:0:0:0:
256,192,77360,1,8,0:0:0:0:
256,192,77427,1,8,0:0:0:0:
256,192,77494,1,4,0:0:0:0:
256,192,77628,1,8,0:0:0:0:
256,192,77762,1,0,0:0:0:0:
256,192,77828,1,0,0:0:0:0:
256,192,77895,1,8,0:0:0:0:
256,192,78029,1,0,0:0:0:0:
256,192,78163,1,8,0:0:0:0:
256,192,78230,1,0,0:0:0:0:
256,192,78364,1,8,0:0:0:0:
256,192,78431,1,8,0:0:0:0:
256,192,78565,1,0,0:0:0:0:
256,192,78632,1,0,0:0:0:0:
256,192,78699,1,8,0:0:0:0:
256,192,78833,1,8,0:0:0:0:
256,192,78900,1,0,0:0:0:0:
256,192,78967,1,8,0:0:0:0:
256,192,79101,1,0,0:0:0:0:
256,192,79168,1,0,0:0:0:0:
256,192,79235,1,8,0:0:0:0:
256,192,79302,1,8,0:0:0:0:
256,192,79369,1,0,0:0:0:0:
256,192,79436,1,0,0:0:0:0:
256,192,79503,1,8,0:0:0:0:
256,192,79637,1,12,0:0:0:0:
256,192,79770,1,0,0:0:0:0:
256,192,79837,1,0,0:0:0:0:
256,192,79904,1,0,0:0:0:0:
256,192,79971,1,0,0:0:0:0:
256,192,80038,1,8,0:0:0:0:
256,192,80105,1,8,0:0:0:0:
256,192,80172,1,0,0:0:0:0:
256,192,80239,1,8,0:0:0:0:
256,192,80306,1,0,0:0:0:0:
256,192,80373,1,0,0:0:0:0:
256,192,80440,1,8,0:0:0:0:
256,192,80507,1,8,0:0:0:0:
256,192,80574,1,0,0:0:0:0:
256,192,80641,1,8,0:0:0:0:
256,192,80708,1,8,0:0:0:0:
256,192,80775,1,8,0:0:0:0:
256,192,80842,1,0,0:0:0:0:
256,192,80909,1,8,0:0:0:0:
256,192,80976,1,0,0:0:0:0:
256,192,81043,1,0,0:0:0:0:
256,192,81110,1,8,0:0:0:0:
256,192,81177,1,8,0:0:0:0:
256,192,81244,1,0,0:0:0:0:
256,192,81311,1,0,0:0:0:0:
256,192,81378,1,8,0:0:0:0:
256,192,81445,1,0,0:0:0:0:
256,192,81512,1,8,0:0:0:0:
256,192,81578,1,8,0:0:0:0:
256,192,81645,1,0,0:0:0:0:
256,192,81712,1,0,0:0:0:0:
256,192,81779,1,8,0:0:0:0:
256,192,81846,1,8,0:0:0:0:
256,192,81913,1,0,0:0:0:0:
256,192,81980,1,8,0:0:0:0:
256,192,82047,1,0,0:0:0:0:
256,192,82114,1,0,0:0:0:0:
256,192,82181,1,8,0:0:0:0:
256,192,82248,1,8,0:0:0:0:
256,192,82315,1,8,0:0:0:0:
256,192,82382,1,8,0:0:0:0:
256,192,82449,1,0,0:0:0:0:
256,192,82516,1,0,0:0:0:0:
256,192,82583,1,8,0:0:0:0:
256,192,82650,1,8,0:0:0:0:
256,192,82717,1,8,0:0:0:0:
256,192,82784,1,0,0:0:0:0:
256,192,82851,1,8,0:0:0:0:
256,192,82918,1,8,0:0:0:0:
256,192,82985,1,0,0:0:0:0:
256,192,83052,1,0,0:0:0:0:
256,192,83119,1,8,0:0:0:0:
256,192,83186,1,0,0:0:0:0:
256,192,83253,1,0,0:0:0:0:
256,192,83320,1,0,0:0:0:0:
256,192,83387,1,8,0:0:0:0:
256,192,83453,1,8,0:0:0:0:
256,192,83520,1,8,0:0:0:0:
256,192,83587,1,0,0:0:0:0:
256,192,83654,1,8,0:0:0:0:
256,192,83721,1,8,0:0:0:0:
256,192,83788,1,8,0:0:0:0:
256,192,83855,1,8,0:0:0:0:
256,192,83922,1,4,0:0:0:0:
256,192,84056,1,8,0:0:0:0:
256,192,84190,1,0,0:0:0:0:
256,192,84257,1,0,0:0:0:0:
256,192,84324,1,8,0:0:0:0:
256,192,84391,1,0,0:0:0:0:
256,192,84458,1,8,0:0:0:0:
256,192,84525,1,8,0:0:0:0:
256,192,84592,1,0,0:0:0:0:
256,192,84659,1,0,0:0:0:0:
256,192,84726,1,8,0:0:0:0:
256,192,84793,1,8,0:0:0:0:
256,192,84860,1,8,0:0:0:0:
256,192,84927,1,8,0:0:0:0:
256,192,84994,1,4,0:0:0:0:
256,192,85128,1,8,0:0:0:0:
256,192,85262,1,0,0:0:0:0:
256,192,85328,1,0,0:0:0:0:
256,192,85395,1,8,0:0:0:0:
256,192,85462,1,8,0:0:0:0:
256,192,85529,1,0,0:0:0:0:
256,192,85596,1,8,0:0:0:0:
256,192,85663,1,8,0:0:0:0:
256,192,85730,1,8,0:0:0:0:
256,192,85797,1,0,0:0:0:0:
256,192,85864,1,0,0:0:0:0:
256,192,85931,1,8,0:0:0:0:
256,192,85998,1,8,0:0:0:0:
256,192,86065,1,4,0:0:0:0:
256,192,86199,1,8,0:0:0:0:
256,192,86333,1,0,0:0:0:0:
256,192,86400,1,0,0:0:0:0:
256,192,86467,1,8,0:0:0:0:
256,192,86601,1,0,0:0:0:0:
256,192,86735,1,8,0:0:0:0:
256,192,86869,1,8,0:0:0:0:
256,192,86936,1,0,0:0:0:0:
256,192,87003,1,8,0:0:0:0:
256,192,87070,1,8,0:0:0:0:
256,192,87137,1,0,0:0:0:0:
256,192,87270,1,8,0:0:0:0:
256,192,87337,1,8,0:0:0:0:
256,192,87404,1,0,0:0:0:0:
256,192,87471,1,0,0:0:0:0:
256,192,87538,1,8,0:0:0:0:
256,192,87672,1,8,0:0:0:0:
256,192,87739,1,8,0:0:0:0:
256,192,87806,1,0,0:0:0:0:
256,192,87873,1,0,0:0:0:0:
256,192,87940,1,8,0:0:0:0:
256,192,88074,1,8,0:0:0:0:
256,192,88208,1,4,0:0:0:0:
256,192,88342,1,0,0:0:0:0:
256,192,88409,1,0,0:0:0:0:
256,192,88476,1,8,0:0:0:0:
256,192,88543,1,8,0:0:0:0:
256,192,88610,1,8,0:0:0:0:
256,192,88677,1,0,0:0:0:0:
256,192,88744,1,8,0:0:0:0:
256,192,88811,1,8,0:0:0:0:
256,192,88878,1,0,0:0:0:0:
256,192,88945,1,0,0:0:0:0:
256,192,89012,1,8,0:0:0:0:
256,192,89078,1,0,0:0:0:0:
256,192,89145,1,0,0:0:0:0:
256,192,89212,1,0,0:0:0:0:
256,192,89279,1,8,0:0:0:0:
256,192,89346,1,8,0:0:0:0:
256,192,89413,1,8,0:0:0:0:
256,192,89480,1,0,0:0:0:0:
256,192,89547,1,8,0:0:0:0:
256,192,89614,1,0,0:0:0:0:
256,192,89681,1,8,0:0:0:0:
256,192,89748,1,0,0:0:0:0:
256,192,89815,1,8,0:0:0:0:
256,192,89882,1,8,0:0:0:0:
256,192,89949,1,0,0:0:0:0:
256,192,90016,1,0,0:0:0:0:
256,192,90083,1,8,0:0:0:0:
256,192,90150,1,0,0:0:0:0:
256,192,90217,1,8,0:0:0:0:
256,192,90351,1,8,0:0:0:0:
256,192,90418,1,0,0:0:0:0:
256,192,90485,1,0,0:0:0:0:
256,192,90619,1,8,0:0:0:0:
256,192,90686,1,0,0:0:0:0:
256,192,90753,1,0,0:0:0:0:
256,192,90887,1,0,0:0:0:0:
256,192,90953,1,0,0:0:0:0:
256,192,91020,1,8,0:0:0:0:
256,192,91087,1,8,0:0:0:0:
256,192,91154,1,0,0:0:0:0:
256,192,91221,1,0,0:0:0:0:
256,192,91288,1,8,0:0:0:0:
256,192,91355,1,8,0:0:0:0:
256,192,91422,1,0,0:0:0:0:
256,192,91489,1,0,0:0:0:0:
256,192,91556,1,0,0:0:0:0:
256,192,91690,1,8,0:0:0:0:
256,192,91757,1,8,0:0:0:0:
256,192,91824,1,8,0:0:0:0:
256,192,91958,1,0,0:0:0:0:
256,192,92025,1,0,0:0:0:0:
256,192,92092,1,0,0:0:0:0:
256,192,92226,1,8,0:0:0:0:
256,192,92270,1,8,0:0:0:0:
256,192,92315,1,8,0:0:0:0:
256,192,92360,1,0,0:0:0:0:
256,192,92494,1,8,0:0:0:0:
256,192,92561,1,8,0:0:0:0:
256,192,92628,1,8,0:0:0:0:
256,192,92695,1,8,0:0:0:0:
256,192,92762,1,0,0:0:0:0:
256,192,92828,1,0,0:0:0:0:
256,192,92895,1,8,0:0:0:0:
256,192,92962,1,8,0:0:0:0:
256,192,93029,1,0,0:0:0:0:
256,192,93096,1,0,0:0:0:0:
256,192,93163,1,8,0:0:0:0:
256,192,93230,1,0,0:0:0:0:
256,192,93297,1,0,0:0:0:0:
256,192,93364,1,0,0:0:0:0:
256,192,93431,1,8,0:0:0:0:
256,192,93498,1,8,0:0:0:0:
256,192,93565,1,0,0:0:0:0:
256,192,93699,1,8,0:0:0:0:
256,192,93766,1,0,0:0:0:0:
256,192,93833,1,0,0:0:0:0:
256,192,93967,1,0,0:0:0:0:
256,192,94101,1,8,0:0:0:0:
256,192,94235,1,0,0:0:0:0:
256,192,94369,1,8,0:0:0:0:
256,192,94436,1,0,0:0:0:0:
256,192,94503,1,8,0:0:0:0:
256,192,94570,1,8,0:0:0:0:
256,192,94637,1,0,0:0:0:0:
256,192,94770,1,0,0:0:0:0:
256,192,94837,1,0,0:0:0:0:
256,192,94904,1,0,0:0:0:0:
256,192,95038,1,0,0:0:0:0:
256,192,95172,1,8,0:0:0:0:
256,192,95239,1,0,0:0:0:0:
256,192,95306,1,0,0:0:0:0:
256,192,95440,1,8,0:0:0:0:
256,192,95507,1,0,0:0:0:0:
256,192,95574,1,0,0:0:0:0:
256,192,95708,1,12,0:0:0:0:
256,192,95842,1,4,0:0:0:0:
256,192,96244,1,4,0:0:0:0:
256,192,96378,1,4,0:0:0:0:
256,192,96780,1,4,0:0:0:0:
256,192,97047,1,0,0:0:0:0:
256,192,97114,1,0,0:0:0:0:
256,192,97181,1,8,0:0:0:0:
256,192,97315,1,0,0:0:0:0:
256,192,97448,1,8,0:0:0:0:
256,192,97582,1,8,0:0:0:0:
256,192,97649,1,0,0:0:0:0:
256,192,97716,1,8,0:0:0:0:
256,192,97850,1,0,0:0:0:0:
256,192,97984,1,8,0:0:0:0:
256,192,98118,1,0,0:0:0:0:
256,192,98185,1,0,0:0:0:0:
256,192,98252,1,8,0:0:0:0:
256,192,98319,1,8,0:0:0:0:
256,192,98386,1,0,0:0:0:0:
256,192,98520,1,8,0:0:0:0:
256,192,98654,1,8,0:0:0:0:
256,192,98721,1,0,0:0:0:0:
256,192,98788,1,8,0:0:0:0:
256,192,98922,1,0,0:0:0:0:
256,192,99056,1,8,0:0:0:0:
256,192,99190,1,0,0:0:0:0:
256,192,99256,1,0,0:0:0:0:
256,192,99323,1,8,0:0:0:0:
256,192,99457,1,0,0:0:0:0:
256,192,99591,1,8,0:0:0:0:
256,192,99658,1,0,0:0:0:0:
256,192,99725,1,8,0:0:0:0:
256,192,99792,1,0,0:0:0:0:
256,192,99859,1,8,0:0:0:0:
256,192,99993,1,0,0:0:0:0:
256,192,100060,1,0,0:0:0:0:
256,192,100127,1,0,0:0:0:0:
256,192,100194,1,0,0:0:0:0:
256,192,100261,1,8,0:0:0:0:
256,192,100328,1,8,0:0:0:0:
256,192,100395,1,8,0:0:0:0:
256,192,100462,1,8,0:0:0:0:
256,192,100529,1,0,0:0:0:0:
256,192,100596,1,8,0:0:0:0:
256,192,100663,1,0,0:0:0:0:
256,192,100730,1,0,0:0:0:0:
256,192,100797,1,8,0:0:0:0:
256,192,100864,1,8,0:0:0:0:
256,192,100931,1,0,0:0:0:0:
256,192,101065,1,12,0:0:0:0:
256,192,101332,1,0,0:0:0:0:
256,192,101399,1,0,0:0:0:0:
256,192,101466,1,8,0:0:0:0:
256,192,101600,1,0,0:0:0:0:
256,192,101734,1,8,0:0:0:0:
256,192,101801,1,0,0:0:0:0:
256,192,101935,1,8,0:0:0:0:
256,192,102002,1,8,0:0:0:0:
256,192,102136,1,0,0:0:0:0:
256,192,102270,1,8,0:0:0:0:
256,192,102404,1,0,0:0:0:0:
256,192,102471,1,0,0:0:0:0:
256,192,102538,1,8,0:0:0:0:
256,192,102672,1,0,0:0:0:0:
256,192,102806,1,8,0:0:0:0:
256,192,102873,1,8,0:0:0:0:
256,192,102940,1,0,0:0:0:0:
256,192,103006,1,0,0:0:0:0:
256,192,103073,1,8,0:0:0:0:
256,192,103207,1,0,0:0:0:0:
256,192,103274,1,0,0:0:0:0:
256,192,103341,1,8,0:0:0:0:
256,192,103408,1,0,0:0:0:0:
256,192,103475,1,0,0:0:0:0:
256,192,103542,1,0,0:0:0:0:
256,192,103609,1,8,0:0:0:0:
256,192,103676,1,8,0:0:0:0:
256,192,103743,1,0,0:0:0:0:
256,192,103810,1,0,0:0:0:0:
256,192,103877,1,8,0:0:0:0:
256,192,103944,1,0,0:0:0:0:
256,192,104011,1,8,0:0:0:0:
256,192,104078,1,0,0:0:0:0:
256,192,104145,1,8,0:0:0:0:
256,192,104212,1,8,0:0:0:0:
256,192,104279,1,0,0:0:0:0:
256,192,104413,1,8,0:0:0:0:
256,192,104547,1,0,0:0:0:0:
256,192,104614,1,0,0:0:0:0:
256,192,104681,1,8,0:0:0:0:
256,192,104815,1,8,0:0:0:0:
256,192,104881,1,0,0:0:0:0:
256,192,104948,1,0,0:0:0:0:
256,192,105015,1,0,0:0:0:0:
256,192,105082,1,8,0:0:0:0:
256,192,105149,1,8,0:0:0:0:
256,192,105216,1,8,0:0:0:0:
256,192,105283,1,8,0:0:0:0:
256,192,105350,1,4,0:0:0:0:
256,192,105618,1,0,0:0:0:0:
256,192,105685,1,0,0:0:0:0:
256,192,105752,1,8,0:0:0:0:
256,192,105886,1,8,0:0:0:0:
256,192,106020,1,0,0:0:0:0:
256,192,106154,1,8,0:0:0:0:
256,192,106221,1,0,0:0:0:0:
256,192,106288,1,8,0:0:0:0:
256,192,106422,1,0,0:0:0:0:
256,192,106556,1,8,0:0:0:0:
256,192,106690,1,8,0:0:0:0:
256,192,106756,1,8,0:0:0:0:
256,192,106823,1,0,0:0:0:0:
256,192,106890,1,0,0:0:0:0:
256,192,106958,1,8,0:0:0:0:
256,192,107091,1,0,0:0:0:0:
256,192,107225,1,8,0:0:0:0:
256,192,107292,1,0,0:0:0:0:
256,192,107359,1,8,0:0:0:0:
256,192,107493,1,0,0:0:0:0:
256,192,107627,1,8,0:0:0:0:
256,192,107761,1,8,0:0:0:0:
256,192,107828,1,8,0:0:0:0:
256,192,107895,1,0,0:0:0:0:
256,192,108029,1,8,0:0:0:0:
256,192,108163,1,0,0:0:0:0:
256,192,108230,1,0,0:0:0:0:
256,192,108297,1,8,0:0:0:0:
256,192,108364,1,8,0:0:0:0:
256,192,108431,1,0,0:0:0:0:
256,192,108565,1,4,0:0:0:0:
256,192,108698,1,8,0:0:0:0:
256,192,108765,1,8,0:0:0:0:
256,192,108832,1,8,0:0:0:0:
256,192,108899,1,8,0:0:0:0:
256,192,108966,1,4,0:0:0:0:
256,192,109100,1,0,0:0:0:0:
256,192,109167,1,0,0:0:0:0:
256,192,109234,1,8,0:0:0:0:
256,192,109301,1,8,0:0:0:0:
256,192,109369,1,4,0:0:0:0:
256,192,109502,1,8,0:0:0:0:
256,192,109569,1,8,0:0:0:0:
256,192,109636,1,4,0:0:0:0:
256,192,109904,1,0,0:0:0:0:
256,192,109971,1,0,0:0:0:0:
256,192,110038,1,8,0:0:0:0:
256,192,110172,1,0,0:0:0:0:
256,192,110306,1,8,0:0:0:0:
256,192,110373,1,8,0:0:0:0:
256,192,110506,1,0,0:0:0:0:
256,192,110573,1,8,0:0:0:0:
256,192,110707,1,0,0:0:0:0:
256,192,110841,1,8,0:0:0:0:
256,192,110975,1,0,0:0:0:0:
256,192,111042,1,0,0:0:0:0:
256,192,111109,1,8,0:0:0:0:
256,192,111243,1,0,0:0:0:0:
256,192,111377,1,8,0:0:0:0:
256,192,111444,1,0,0:0:0:0:
256,192,111511,1,8,0:0:0:0:
256,192,111578,1,0,0:0:0:0:
256,192,111645,1,8,0:0:0:0:
256,192,111779,1,8,0:0:0:0:
256,192,111846,1,8,0:0:0:0:
256,192,111913,1,0,0:0:0:0:
256,192,111980,1,8,0:0:0:0:
256,192,112047,1,0,0:0:0:0:
256,192,112114,1,0,0:0:0:0:
256,192,112181,1,8,0:0:0:0:
256,192,112248,1,8,0:0:0:0:
256,192,112315,1,0,0:0:0:0:
256,192,112382,1,8,0:0:0:0:
256,192,112449,1,0,0:0:0:0:
256,192,112515,1,0,0:0:0:0:
256,192,112582,1,8,0:0:0:0:
256,192,112649,1,8,0:0:0:0:
256,192,112716,1,8,0:0:0:0:
256,192,112783,1,8,0:0:0:0:
256,192,112850,1,0,0:0:0:0:
256,192,112984,1,8,0:0:0:0:
256,192,113118,1,0,0:0:0:0:
256,192,113186,1,0,0:0:0:0:
256,192,113252,1,8,0:0:0:0:
256,192,113387,1,8,0:0:0:0:
256,192,113520,1,0,0:0:0:0:
256,192,113587,1,0,0:0:0:0:
256,192,113654,1,8,0:0:0:0:
256,192,113721,1,8,0:0:0:0:
256,192,113788,1,0,0:0:0:0:
256,192,113855,1,0,0:0:0:0:
256,192,113922,1,12,0:0:0:0:
256,192,114190,1,0,0:0:0:0:
256,192,114257,1,0,0:0:0:0:
256,192,114324,1,8,0:0:0:0:
256,192,114391,1,0,0:0:0:0:
256,192,114458,1,8,0:0:0:0:
256,192,114524,1,8,0:0:0:0:
256,192,114591,1,0,0:0:0:0:
256,192,114658,1,0,0:0:0:0:
256,192,114725,1,8,0:0:0:0:
256,192,114792,1,0,0:0:0:0:
256,192,114859,1,0,0:0:0:0:
256,192,114926,1,0,0:0:0:0:
256,192,114993,1,8,0:0:0:0:
256,192,115060,1,8,0:0:0:0:
256,192,115127,1,0,0:0:0:0:
256,192,115194,1,8,0:0:0:0:
256,192,115261,1,0,0:0:0:0:
256,192,115328,1,0,0:0:0:0:
256,192,115395,1,8,0:0:0:0:
256,192,115462,1,0,0:0:0:0:
256,192,115529,1,8,0:0:0:0:
256,192,115596,1,8,0:0:0:0:
256,192,115663,1,0,0:0:0:0:
256,192,115730,1,0,0:0:0:0:
256,192,115797,1,8,0:0:0:0:
256,192,115864,1,0,0:0:0:0:
256,192,115931,1,0,0:0:0:0:
256,192,115998,1,0,0:0:0:0:
256,192,116065,1,8,0:0:0:0:
256,192,116132,1,8,0:0:0:0:
256,192,116199,1,0,0:0:0:0:
256,192,116266,1,8,0:0:0:0:
256,192,116333,1,0,0:0:0:0:
256,192,116399,1,0,0:0:0:0:
256,192,116466,1,8,0:0:0:0:
256,192,116533,1,0,0:0:0:0:
256,192,116600,1,8,0:0:0:0:
256,192,116667,1,8,0:0:0:0:
256,192,116734,1,0,0:0:0:0:
256,192,116801,1,0,0:0:0:0:
256,192,116868,1,8,0:0:0:0:
256,192,116935,1,8,0:0:0:0:
256,192,117002,1,8,0:0:0:0:
256,192,117069,1,0,0:0:0:0:
256,192,117136,1,8,0:0:0:0:
256,192,117203,1,8,0:0:0:0:
256,192,117270,1,0,0:0:0:0:
256,192,117337,1,0,0:0:0:0:
256,192,117404,1,8,0:0:0:0:
256,192,117471,1,0,0:0:0:0:
256,192,117538,1,8,0:0:0:0:
256,192,117605,1,8,0:0:0:0:
256,192,117672,1,0,0:0:0:0:
256,192,117739,1,0,0:0:0:0:
256,192,117806,1,8,0:0:0:0:
256,192,117873,1,0,0:0:0:0:
256,192,117940,1,8,0:0:0:0:
256,192,118007,1,8,0:0:0:0:
256,192,118074,1,0,0:0:0:0:
256,192,118141,1,0,0:0:0:0:
256,192,118208,1,12,0:0:0:0:
256,192,118475,1,0,0:0:0:0:
256,192,118542,1,0,0:0:0:0:
256,192,118609,1,8,0:0:0:0:
256,192,118676,1,0,0:0:0:0:
256,192,118743,1,8,0:0:0:0:
256,192,118810,1,8,0:0:0:0:
256,192,118877,1,0,0:0:0:0:
256,192,118944,1,0,0:0:0:0:
256,192,119011,1,8,0:0:0:0:
256,192,119078,1,0,0:0:0:0:
256,192,119145,1,0,0:0:0:0:
256,192,119212,1,0,0:0:0:0:
256,192,119279,1,8,0:0:0:0:
256,192,119346,1,8,0:0:0:0:
256,192,119413,1,0,0:0:0:0:
256,192,119480,1,0,0:0:0:0:
256,192,119547,1,8,0:0:0:0:
256,192,119614,1,8,0:0:0:0:
256,192,119681,1,8,0:0:0:0:
256,192,119748,1,0,0:0:0:0:
256,192,119815,1,8,0:0:0:0:
256,192,119882,1,8,0:0:0:0:
256,192,119949,1,0,0:0:0:0:
256,192,120016,1,0,0:0:0:0:
256,192,120083,1,8,0:0:0:0:
256,192,120149,1,8,0:0:0:0:
256,192,120216,1,8,0:0:0:0:
256,192,120283,1,8,0:0:0:0:
256,192,120350,1,0,0:0:0:0:
256,192,120417,1,0,0:0:0:0:
256,192,120484,1,8,0:0:0:0:
256,192,120551,1,0,0:0:0:0:
256,192,120618,1,0,0:0:0:0:
256,192,120685,1,0,0:0:0:0:
256,192,120752,1,8,0:0:0:0:
256,192,120819,1,8,0:0:0:0:
256,192,120886,1,0,0:0:0:0:
256,192,120953,1,0,0:0:0:0:
256,192,121020,1,8,0:0:0:0:
256,192,121087,1,0,0:0:0:0:
256,192,121154,1,0,0:0:0:0:
256,192,121221,1,0,0:0:0:0:
256,192,121288,1,8,0:0:0:0:
256,192,121355,1,0,0:0:0:0:
256,192,121422,1,8,0:0:0:0:
256,192,121489,1,8,0:0:0:0:
256,192,121556,1,0,0:0:0:0:
256,192,121623,1,0,0:0:0:0:
256,192,121690,1,8,0:0:0:0:
256,192,121757,1,0,0:0:0:0:
256,192,121824,1,8,0:0:0:0:
256,192,121891,1,0,0:0:0:0:
256,192,121958,1,8,0:0:0:0:
256,192,122024,1,8,0:0:0:0:
256,192,122091,1,8,0:0:0:0:
256,192,122158,1,8,0:0:0:0:
256,192,122225,1,0,0:0:0:0:
256,192,122292,1,0,0:0:0:0:
256,192,122359,1,0,0:0:0:0:
256,192,122426,1,0,0:0:0:0:
256,192,122494,1,12,0:0:0:0:
256,192,122628,1,0,0:0:0:0:
256,192,122695,1,0,0:0:0:0:
256,192,122762,1,0,0:0:0:0:
256,192,122829,1,0,0:0:0:0:
256,192,122896,1,8,0:0:0:0:
256,192,122963,1,8,0:0:0:0:
256,192,123030,1,0,0:0:0:0:
256,192,123097,1,8,0:0:0:0:
256,192,123164,1,0,0:0:0:0:
256,192,123231,1,0,0:0:0:0:
256,192,123298,1,8,0:0:0:0:
256,192,123365,1,8,0:0:0:0:
256,192,123432,1,8,0:0:0:0:
256,192,123499,1,0,0:0:0:0:
256,192,123566,1,8,0:0:0:0:
256,192,123632,1,8,0:0:0:0:
256,192,123699,1,0,0:0:0:0:
256,192,123766,1,8,0:0:0:0:
256,192,123833,1,0,0:0:0:0:
256,192,123900,1,0,0:0:0:0:
256,192,123967,1,8,0:0:0:0:
256,192,124034,1,8,0:0:0:0:
256,192,124101,1,0,0:0:0:0:
256,192,124168,1,0,0:0:0:0:
256,192,124235,1,8,0:0:0:0:
256,192,124302,1,0,0:0:0:0:
256,192,124369,1,8,0:0:0:0:
256,192,124436,1,8,0:0:0:0:
256,192,124503,1,0,0:0:0:0:
256,192,124570,1,0,0:0:0:0:
256,192,124637,1,8,0:0:0:0:
256,192,124704,1,0,0:0:0:0:
256,192,124771,1,0,0:0:0:0:
256,192,124838,1,8,0:0:0:0:
256,192,124905,1,8,0:0:0:0:
256,192,124972,1,0,0:0:0:0:
256,192,125039,1,8,0:0:0:0:
256,192,125106,1,0,0:0:0:0:
256,192,125173,1,0,0:0:0:0:
256,192,125240,1,0,0:0:0:0:
256,192,125307,1,8,0:0:0:0:
256,192,125374,1,8,0:0:0:0:
256,192,125441,1,0,0:0:0:0:
256,192,125507,1,8,0:0:0:0:
256,192,125574,1,8,0:0:0:0:
256,192,125641,1,8,0:0:0:0:
256,192,125708,1,0,0:0:0:0:
256,192,125775,1,0,0:0:0:0:
256,192,125842,1,8,0:0:0:0:
256,192,125909,1,0,0:0:0:0:
256,192,125976,1,8,0:0:0:0:
256,192,126043,1,8,0:0:0:0:
256,192,126110,1,0,0:0:0:0:
256,192,126177,1,0,0:0:0:0:
256,192,126244,1,8,0:0:0:0:
256,192,126311,1,8,0:0:0:0:
256,192,126378,1,8,0:0:0:0:
256,192,126445,1,0,0:0:0:0:
256,192,126512,1,8,0:0:0:0:
256,192,126579,1,8,0:0:0:0:
256,192,126646,1,8,0:0:0:0:
256,192,126713,1,8,0:0:0:0:
256,192,126780,1,4,0:0:0:0:
256,192,126914,1,8,0:0:0:0:
256,192,127048,1,0,0:0:0:0:
256,192,127115,1,0,0:0:0:0:
256,192,127182,1,8,0:0:0:0:
256,192,127249,1,8,0:0:0:0:
256,192,127316,1,0,0:0:0:0:
256,192,127382,1,8,0:0:0:0:
256,192,127449,1,0,0:0:0:0:
256,192,127516,1,0,0:0:0:0:
256,192,127583,1,8,0:0:0:0:
256,192,127650,1,8,0:0:0:0:
256,192,127717,1,8,0:0:0:0:
256,192,127784,1,8,0:0:0:0:
256,192,127851,1,4,0:0:0:0:
256,192,127985,1,8,0:0:0:0:
256,192,128119,1,0,0:0:0:0:
256,192,128186,1,0,0:0:0:0:
256,192,128253,1,8,0:0:0:0:
256,192,128320,1,8,0:0:0:0:
256,192,128387,1,8,0:0:0:0:
256,192,128454,1,0,0:0:0:0:
256,192,128521,1,8,0:0:0:0:
256,192,128588,1,8,0:0:0:0:
256,192,128655,1,0,0:0:0:0:
256,192,128722,1,8,0:0:0:0:
256,192,128789,1,8,0:0:0:0:
256,192,128856,1,8,0:0:0:0:
256,192,128923,1,4,0:0:0:0:
256,192,129057,1,8,0:0:0:0:
256,192,129191,1,0,0:0:0:0:
256,192,129257,1,0,0:0:0:0:
256,192,129324,1,8,0:0:0:0:
256,192,129458,1,0,0:0:0:0:
256,192,129592,1,8,0:0:0:0:
256,192,129659,1,0,0:0:0:0:
256,192,129793,1,8,0:0:0:0:
256,192,129860,1,8,0:0:0:0:
256,192,129994,1,0,0:0:0:0:
256,192,130061,1,0,0:0:0:0:
256,192,130128,1,8,0:0:0:0:
256,192,130262,1,8,0:0:0:0:
256,192,130329,1,0,0:0:0:0:
256,192,130396,1,8,0:0:0:0:
256,192,130530,1,0,0:0:0:0:
256,192,130597,1,0,0:0:0:0:
256,192,130664,1,8,0:0:0:0:
256,192,130731,1,8,0:0:0:0:
256,192,130798,1,0,0:0:0:0:
256,192,130865,1,0,0:0:0:0:
256,192,130932,1,8,0:0:0:0:
256,192,131066,1,12,0:0:0:0:
256,192,131199,1,0,0:0:0:0:
256,192,131266,1,0,0:0:0:0:
256,192,131333,1,0,0:0:0:0:
256,192,131400,1,0,0:0:0:0:
256,192,131467,1,8,0:0:0:0:
256,192,131534,1,8,0:0:0:0:
256,192,131601,1,0,0:0:0:0:
256,192,131668,1,8,0:0:0:0:
256,192,131735,1,0,0:0:0:0:
256,192,131802,1,0,0:0:0:0:
256,192,131869,1,8,0:0:0:0:
256,192,131936,1,8,0:0:0:0:
256,192,132003,1,0,0:0:0:0:
256,192,132070,1,8,0:0:0:0:
256,192,132137,1,8,0:0:0:0:
256,192,132204,1,8,0:0:0:0:
256,192,132271,1,0,0:0:0:0:
256,192,132338,1,8,0:0:0:0:
256,192,132405,1,0,0:0:0:0:
256,192,132472,1,0,0:0:0:0:
256,192,132539,1,8,0:0:0:0:
256,192,132606,1,8,0:0:0:0:
256,192,132673,1,0,0:0:0:0:
256,192,132740,1,0,0:0:0:0:
256,192,132807,1,8,0:0:0:0:
256,192,132874,1,0,0:0:0:0:
256,192,132941,1,8,0:0:0:0:
256,192,133007,1,8,0:0:0:0:
256,192,133074,1,0,0:0:0:0:
256,192,133141,1,0,0:0:0:0:
256,192,133208,1,8,0:0:0:0:
256,192,133275,1,8,0:0:0:0:
256,192,133342,1,0,0:0:0:0:
256,192,133409,1,8,0:0:0:0:
256,192,133476,1,0,0:0:0:0:
256,192,133543,1,0,0:0:0:0:
256,192,133610,1,8,0:0:0:0:
256,192,133677,1,8,0:0:0:0:
256,192,133744,1,8,0:0:0:0:
256,192,133811,1,8,0:0:0:0:
256,192,133878,1,0,0:0:0:0:
256,192,133945,1,0,0:0:0:0:
256,192,134012,1,8,0:0:0:0:
256,192,134079,1,8,0:0:0:0:
256,192,134146,1,8,0:0:0:0:
256,192,134213,1,0,0:0:0:0:
256,192,134280,1,8,0:0:0:0:
256,192,134347,1,8,0:0:0:0:
256,192,134414,1,0,0:0:0:0:
256,192,134481,1,0,0:0:0:0:
256,192,134548,1,8,0:0:0:0:
256,192,134615,1,0,0:0:0:0:
256,192,134682,1,0,0:0:0:0:
256,192,134749,1,0,0:0:0:0:
256,192,134816,1,8,0:0:0:0:
256,192,134882,1,8,0:0:0:0:
256,192,134949,1,8,0:0:0:0:
256,192,135016,1,0,0:0:0:0:
256,192,135083,1,8,0:0:0:0:
256,192,135150,1,8,0:0:0:0:
256,192,135217,1,8,0:0:0:0:
256,192,135284,1,8,0:0:0:0:
256,192,135351,1,4,0:0:0:0:
256,192,135485,1,8,0:0:0:0:
256,192,135619,1,0,0:0:0:0:
256,192,135686,1,0,0:0:0:0:
256,192,135753,1,8,0:0:0:0:
256,192,135820,1,0,0:0:0:0:
256,192,135887,1,8,0:0:0:0:
256,192,135954,1,8,0:0:0:0:
256,192,136021,1,0,0:0:0:0:
256,192,136088,1,0,0:0:0:0:
256,192,136155,1,8,0:0:0:0:
256,192,136222,1,8,0:0:0:0:
256,192,136289,1,8,0:0:0:0:
256,192,136355,1,8,0:0:0:0:
256,192,136423,1,4,0:0:0:0:
256,192,136557,1,8,0:0:0:0:
256,192,136691,1,0,0:0:0:0:
256,192,136757,1,0,0:0:0:0:
256,192,136824,1,8,0:0:0:0:
256,192,136891,1,8,0:0:0:0:
256,192,136958,1,0,0:0:0:0:
256,192,137025,1,8,0:0:0:0:
256,192,137092,1,8,0:0:0:0:
256,192,137159,1,8,0:0:0:0:
256,192,137226,1,0,0:0:0:0:
256,192,137293,1,0,0:0:0:0:
256,192,137360,1,8,0:0:0:0:
256,192,137427,1,8,0:0:0:0:
256,192,137494,1,4,0:0:0:0:
256,192,137628,1,8,0:0:0:0:
256,192,137762,1,0,0:0:0:0:
256,192,137829,1,0,0:0:0:0:
256,192,137896,1,8,0:0:0:0:
256,192,138030,1,0,0:0:0:0:
256,192,138164,1,8,0:0:0:0:
256,192,138298,1,8,0:0:0:0:
256,192,138365,1,0,0:0:0:0:
256,192,138432,1,8,0:0:0:0:
256,192,138571,1,0,0:0:0:0:
256,192,138635,1,0,0:0:0:0:
256,192,138699,1,8,0:0:0:0:
256,192,138763,1,0,0:0:0:0:
256,192,138827,1,0,0:0:0:0:
256,192,138892,1,0,0:0:0:0:
256,192,138957,1,8,0:0:0:0:
256,192,139022,1,8,0:0:0:0:
256,192,139087,1,0,0:0:0:0:
256,192,139162,1,0,0:0:0:0:
256,192,139237,1,8,0:0:0:0:
256,192,139302,1,0,0:0:0:0:
256,192,139367,1,8,0:0:0:0:
256,192,139432,1,0,0:0:0:0:
256,192,139497,1,8,0:0:0:0:
256,192,139563,1,8,0:0:0:0:
256,192,139628,1,4,0:0:0:0:
256,192,139761,1,0,0:0:0:0:
256,192,139828,1,0,0:0:0:0:
256,192,139894,1,8,0:0:0:0:
256,192,140170,1,8,0:0:0:0:
256,192,140236,1,8,0:0:0:0:
256,192,140303,1,8,0:0:0:0:
256,192,140370,1,0,0:0:0:0:
256,192,140436,1,8,0:0:0:0:
256,192,140512,1,8,0:0:0:0:
256,192,140587,1,8,0:0:0:0:
256,192,140652,1,8,0:0:0:0:
256,192,140718,1,0,0:0:0:0:
256,192,140783,1,0,0:0:0:0:
256,192,140849,1,8,0:0:0:0:
256,192,140914,1,8,0:0:0:0:
256,192,140980,1,0,0:0:0:0:
256,192,141045,1,0,0:0:0:0:
256,192,141102,1,8,0:0:0:0:
256,192,141233,1,0,0:0:0:0:
256,192,141299,1,0,0:0:0:0:
256,192,141365,1,8,0:0:0:0:
256,192,141430,1,0,0:0:0:0:
256,192,141496,1,8,0:0:0:0:
256,192,141628,1,0,0:0:0:0:
256,192,141703,1,0,0:0:0:0:
256,192,141785,1,12,0:0:0:0:
256,192,143986,5,0,0:0:0:0:
256,192,144124,1,0,0:0:0:0:
256,192,144399,1,0,0:0:0:0:
256,192,144537,1,12,0:0:0:0:
256,192,148115,5,0,0:0:0:0:
256,192,148252,1,0,0:0:0:0:
256,192,148390,1,0,0:0:0:0:
256,192,148940,1,12,0:0:0:0:
256,192,150317,5,0,0:0:0:0:
256,192,150454,1,0,0:0:0:0:
256,192,150592,1,12,0:0:0:0:
256,192,152794,5,0,0:0:0:0:
256,192,152931,1,0,0:0:0:0:
256,192,153207,1,0,0:0:0:0:
256,192,153344,1,12,0:0:0:0:
256,192,154720,5,0,0:0:0:0:
256,192,154858,1,0,0:0:0:0:
256,192,154996,1,12,0:0:0:0:
256,192,155271,1,8,0:0:0:0:
256,192,155305,1,8,0:0:0:0:
256,192,155408,1,0,0:0:0:0:
256,192,155684,1,0,0:0:0:0:
256,192,155821,1,0,0:0:0:0:
256,192,156096,1,12,0:0:0:0:
256,192,156509,1,8,0:0:0:0:
256,192,156647,1,8,0:0:0:0:
256,192,156922,1,0,0:0:0:0:
256,192,157060,1,8,0:0:0:0:
256,192,157197,1,0,0:0:0:0:
256,192,157335,1,0,0:0:0:0:
256,192,157610,1,0,0:0:0:0:
256,192,157748,1,12,0:0:0:0:
256,192,158023,1,8,0:0:0:0:
256,192,158057,1,8,0:0:0:0:
256,192,158161,1,0,0:0:0:0:
256,192,158436,1,8,0:0:0:0:
256,192,158470,1,8,0:0:0:0:
256,192,158573,1,0,0:0:0:0:
256,192,158849,1,8,0:0:0:0:
256,192,158883,1,8,0:0:0:0:
256,192,158986,1,0,0:0:0:0:
256,192,159124,1,0,0:0:0:0:
256,192,159262,1,8,0:0:0:0:
256,192,159399,1,4,0:0:0:0:
256,192,159676,1,0,0:0:0:0:
256,192,159815,1,0,0:0:0:0:
256,192,159954,1,8,0:0:0:0:
256,192,160232,1,0,0:0:0:0:
256,192,160371,1,0,0:0:0:0:
256,192,160787,1,0,0:0:0:0:
256,192,160926,1,0,0:0:0:0:
256,192,161065,1,8,0:0:0:0:
256,192,161343,1,0,0:0:0:0:
256,192,161482,1,8,0:0:0:0:
256,192,161551,1,8,0:0:0:0:
256,192,161621,1,0,0:0:0:0:
256,192,161760,1,0,0:0:0:0:
256,192,162037,1,0,0:0:0:0:
256,192,162176,1,12,0:0:0:0:
256,192,162454,1,0,0:0:0:0:
256,192,162593,1,0,0:0:0:0:
256,192,163010,1,0,0:0:0:0:
256,192,163149,1,0,0:0:0:0:
256,192,163287,1,8,0:0:0:0:
256,192,163565,1,8,0:0:0:0:
256,192,163704,1,8,0:0:0:0:
256,192,163843,1,0,0:0:0:0:
256,192,164121,1,0,0:0:0:0:
256,192,164260,1,0,0:0:0:0:
256,192,164399,1,8,0:0:0:0:
256,192,164676,1,0,0:0:0:0:
256,192,164815,1,0,0:0:0:0:
256,192,165232,1,0,0:0:0:0:
256,192,165371,1,0,0:0:0:0:
256,192,165510,1,8,0:0:0:0:
256,192,165787,1,0,0:0:0:0:
256,192,165926,1,8,0:0:0:0:
256,192,166065,1,0,0:0:0:0:
256,192,166343,1,0,0:0:0:0:
256,192,166482,1,0,0:0:0:0:
256,192,166621,1,8,0:0:0:0:
256,192,166760,1,8,0:0:0:0:
256,192,166899,1,0,0:0:0:0:
256,192,167037,1,0,0:0:0:0:
256,192,167315,1,8,0:0:0:0:
256,192,167454,1,0,0:0:0:0:
256,192,167593,1,0,0:0:0:0:
256,192,167732,1,8,0:0:0:0:
256,192,167871,1,8,0:0:0:0:
256,192,168010,1,4,0:0:0:0:
256,192,168149,1,4,0:0:0:0:
256,192,168287,1,4,0:0:0:0:
256,192,168565,1,0,0:0:0:0:
256,192,168704,1,0,0:0:0:0:
256,192,168843,1,8,0:0:0:0:
256,192,169121,1,0,0:0:0:0:
256,192,169260,1,0,0:0:0:0:
256,192,169676,1,0,0:0:0:0:
256,192,169815,1,0,0:0:0:0:
256,192,169954,1,8,0:0:0:0:
256,192,170232,1,0,0:0:0:0:
256,192,170510,1,0,0:0:0:0:
256,192,170649,1,0,0:0:0:0:
256,192,170926,1,0,0:0:0:0:
256,192,171065,1,12,0:0:0:0:
256,192,171343,1,0,0:0:0:0:
256,192,171482,1,0,0:0:0:0:
256,192,171899,1,0,0:0:0:0:
256,192,172037,1,0,0:0:0:0:
256,192,172176,1,8,0:0:0:0:
256,192,172454,1,8,0:0:0:0:
256,192,172593,1,8,0:0:0:0:
256,192,172732,1,0,0:0:0:0:
256,192,173010,1,0,0:0:0:0:
256,192,173149,1,0,0:0:0:0:
256,192,173287,1,8,0:0:0:0:
256,192,173565,1,0,0:0:0:0:
256,192,173704,1,0,0:0:0:0:
256,192,174121,1,0,0:0:0:0:
256,192,174260,1,0,0:0:0:0:
256,192,174399,1,8,0:0:0:0:
256,192,174676,1,0,0:0:0:0:
256,192,174815,1,8,0:0:0:0:
256,192,174954,1,0,0:0:0:0:
256,192,175232,1,0,0:0:0:0:
256,192,175371,1,0,0:0:0:0:
256,192,175510,1,8,0:0:0:0:
256,192,175649,1,8,0:0:0:0:
256,192,175787,1,0,0:0:0:0:
256,192,175926,1,0,0:0:0:0:
256,192,176204,1,8,0:0:0:0:
256,192,176343,1,0,0:0:0:0:
256,192,176482,1,0,0:0:0:0:
256,192,176621,1,8,0:0:0:0:
256,192,176760,1,8,0:0:0:0:
256,192,176899,1,4,0:0:0:0:
256,192,177037,1,4,0:0:0:0:
256,192,177176,1,4,0:0:0:0:
256,192,177454,1,0,0:0:0:0:
256,192,177593,1,0,0:0:0:0:
256,192,177732,1,8,0:0:0:0:
256,192,177917,1,8,0:0:0:0:
256,192,178010,1,0,0:0:0:0:
256,192,178149,1,0,0:0:0:0:
256,192,178287,1,8,0:0:0:0:
256,192,178426,1,0,0:0:0:0:
256,192,178565,1,8,0:0:0:0:
256,192,178704,1,8,0:0:0:0:
256,192,178843,1,0,0:0:0:0:
256,192,178982,1,8,0:0:0:0:
256,192,179121,1,0,0:0:0:0:
256,192,179260,1,8,0:0:0:0:
256,192,179399,1,0,0:0:0:0:
256,192,179537,1,0,0:0:0:0:
256,192,179815,1,0,0:0:0:0:
256,192,179954,1,12,0:0:0:0:
256,192,180232,1,0,0:0:0:0:
256,192,180371,1,8,0:0:0:0:
256,192,180510,1,0,0:0:0:0:
256,192,180695,1,0,0:0:0:0:
256,192,180787,1,8,0:0:0:0:
256,192,180926,1,0,0:0:0:0:
256,192,181065,1,8,0:0:0:0:
256,192,181250,1,8,0:0:0:0:
256,192,181343,1,0,0:0:0:0:
256,192,181482,1,8,0:0:0:0:
256,192,181621,1,0,0:0:0:0:
256,192,181899,1,0,0:0:0:0:
256,192,182037,1,0,0:0:0:0:
256,192,182176,1,8,0:0:0:0:
256,192,182454,1,0,0:0:0:0:
256,192,182593,1,0,0:0:0:0:
256,192,182871,1,8,0:0:0:0:
256,192,183010,1,0,0:0:0:0:
256,192,183149,1,0,0:0:0:0:
256,192,183287,1,8,0:0:0:0:
256,192,183565,1,8,0:0:0:0:
256,192,183704,1,8,0:0:0:0:
256,192,183843,1,0,0:0:0:0:
256,192,184121,1,0,0:0:0:0:
256,192,184260,1,0,0:0:0:0:
256,192,184399,1,8,0:0:0:0:
256,192,184537,1,8,0:0:0:0:
256,192,184676,1,0,0:0:0:0:
256,192,184815,1,0,0:0:0:0:
256,192,184954,1,0,0:0:0:0:
256,192,185093,1,8,0:0:0:0:
256,192,185371,1,0,0:0:0:0:
256,192,185510,1,8,0:0:0:0:
256,192,185649,1,8,0:0:0:0:
256,192,185787,1,0,0:0:0:0:
256,192,185926,1,8,0:0:0:0:
256,192,186065,1,0,0:0:0:0:
256,192,186158,1,8,0:0:0:0:
256,192,186250,1,8,0:0:0:0:
256,192,186343,1,0,0:0:0:0:
256,192,186436,1,8,0:0:0:0:
256,192,186528,1,8,0:0:0:0:
256,192,186621,1,0,0:0:0:0:
256,192,186713,1,0,0:0:0:0:
256,192,186806,1,0,0:0:0:0:
256,192,186899,1,8,0:0:0:0:
256,192,186991,1,8,0:0:0:0:
256,192,187084,1,8,0:0:0:0:
256,192,187176,1,0,0:0:0:0:
256,192,187315,1,8,0:0:0:0:
256,192,187454,1,0,0:0:0:0:
256,192,187593,1,0,0:0:0:0:
256,192,187732,1,8,0:0:0:0:
256,192,187871,1,8,0:0:0:0:
256,192,188010,1,0,0:0:0:0:
256,192,188287,1,0,0:0:0:0:
256,192,188426,1,0,0:0:0:0:
256,192,188704,1,0,0:0:0:0:
256,192,188843,1,12,0:0:0:0:
256,192,189121,1,0,0:0:0:0:
256,192,189260,1,0,0:0:0:0:
256,192,189537,1,8,0:0:0:0:
256,192,189676,1,0,0:0:0:0:
256,192,189815,1,0,0:0:0:0:
256,192,189954,1,8,0:0:0:0:
256,192,190232,1,8,0:0:0:0:
256,192,190510,1,0,0:0:0:0:
256,192,190787,1,0,0:0:0:0:
256,192,190926,1,0,0:0:0:0:
256,192,191065,1,8,0:0:0:0:
256,192,191343,1,0,0:0:0:0:
256,192,191482,1,0,0:0:0:0:
256,192,191760,1,8,0:0:0:0:
256,192,191899,1,0,0:0:0:0:
256,192,192037,1,0,0:0:0:0:
256,192,192176,1,8,0:0:0:0:
256,192,192454,1,8,0:0:0:0:
256,192,192593,1,8,0:0:0:0:
256,192,192732,1,0,0:0:0:0:
256,192,193010,1,0,0:0:0:0:
256,192,193149,1,0,0:0:0:0:
256,192,193287,1,8,0:0:0:0:
256,192,193426,1,8,0:0:0:0:
256,192,193565,1,0,0:0:0:0:
256,192,193704,1,0,0:0:0:0:
256,192,193982,1,8,0:0:0:0:
256,192,194121,1,0,0:0:0:0:
256,192,194260,1,0,0:0:0:0:
256,192,194399,1,8,0:0:0:0:
256,192,194537,1,8,0:0:0:0:
256,192,194676,1,4,0:0:0:0:
256,192,194815,1,4,0:0:0:0:
256,192,194954,1,4,0:0:0:0:
256,192,195232,1,0,0:0:0:0:
256,192,195371,1,8,0:0:0:0:
256,192,195649,1,0,0:0:0:0:
256,192,195787,1,8,0:0:0:0:
256,192,195926,1,8,0:0:0:0:
256,192,196065,1,0,0:0:0:0:
256,192,196204,1,8,0:0:0:0:
256,192,196482,1,0,0:0:0:0:
256,192,196621,1,8,0:0:0:0:
256,192,196760,1,0,0:0:0:0:
256,192,196899,1,0,0:0:0:0:
256,192,197037,1,8,0:0:0:0:
256,192,197176,1,8,0:0:0:0:
256,192,197454,1,0,0:0:0:0:
256,192,197593,1,0,0:0:0:0:
256,192,197732,1,8,0:0:0:0:
256,192,197917,1,8,0:0:0:0:
256,192,198010,1,0,0:0:0:0:
256,192,198149,1,0,0:0:0:0:
256,192,198287,1,8,0:0:0:0:
256,192,198426,1,8,0:0:0:0:
256,192,198565,1,8,0:0:0:0:
256,192,198704,1,0,0:0:0:0:
256,192,198843,1,8,0:0:0:0:
256,192,199028,1,0,0:0:0:0:
256,192,199121,1,8,0:0:0:0:
256,192,199260,1,8,0:0:0:0:
256,192,199399,1,4,0:0:0:0:
256,192,199674,1,0,0:0:0:0:
256,192,199811,1,0,0:0:0:0:
256,192,199949,1,0,0:0:0:0:
256,192,200087,1,0,0:0:0:0:
256,192,200224,1,0,0:0:0:0:
256,192,200362,1,0,0:0:0:0:
256,192,200499,1,0,0:0:0:0:
256,192,200637,1,0,0:0:0:0:
256,192,200775,1,0,0:0:0:0:
256,192,200912,1,0,0:0:0:0:
256,192,201050,1,0,0:0:0:0:
256,192,201187,1,0,0:0:0:0:
256,192,201325,1,0,0:0:0:0:
256,192,201463,1,0,0:0:0:0:
256,192,201600,1,8,0:0:0:0:
256,192,201738,1,8,0:0:0:0:
256,192,201876,1,8,0:0:0:0:
256,192,202013,1,8,0:0:0:0:
256,192,202151,1,8,0:0:0:0:
256,192,202288,1,8,0:0:0:0:
256,192,202426,1,8,0:0:0:0:
256,192,202564,1,8,0:0:0:0:
256,192,202701,1,8,0:0:0:0:
256,192,202839,1,8,0:0:0:0:
256,192,202976,1,0,0:0:0:0:
256,192,203045,1,0,0:0:0:0:
256,192,203114,1,8,0:0:0:0:
256,192,203183,1,8,0:0:0:0:
256,192,203252,1,0,0:0:0:0:
256,192,203321,1,8,0:0:0:0:
256,192,203389,1,8,0:0:0:0:
256,192,203458,1,8,0:0:0:0:
256,192,203527,1,0,0:0:0:0:
256,192,203596,1,0,0:0:0:0:
256,192,203665,1,8,0:0:0:0:
256,192,203733,1,8,0:0:0:0:
256,192,203802,1,4,0:0:0:0:
256,192,203935,1,8,0:0:0:0:
256,192,204002,1,8,0:0:0:0:
256,192,204069,1,0,0:0:0:0:
256,192,204136,1,8,0:0:0:0:
256,192,204203,1,8,0:0:0:0:
256,192,204270,1,8,0:0:0:0:
256,192,204337,1,0,0:0:0:0:
256,192,204404,1,8,0:0:0:0:
256,192,204471,1,0,0:0:0:0:
256,192,204538,1,0,0:0:0:0:
256,192,204605,1,8,0:0:0:0:
256,192,204672,1,0,0:0:0:0:
256,192,204739,1,8,0:0:0:0:
256,192,204806,1,8,0:0:0:0:
256,192,204873,1,0,0:0:0:0:
256,192,205007,1,8,0:0:0:0:
256,192,205074,1,0,0:0:0:0:
256,192,205141,1,8,0:0:0:0:
256,192,205208,1,0,0:0:0:0:
256,192,205275,1,8,0:0:0:0:
256,192,205409,1,0,0:0:0:0:
256,192,205476,1,0,0:0:0:0:
256,192,205543,1,8,0:0:0:0:
256,192,205610,1,0,0:0:0:0:
256,192,205677,1,8,0:0:0:0:
256,192,205743,1,0,0:0:0:0:
256,192,205810,1,8,0:0:0:0:
256,192,205944,1,0,0:0:0:0:
256,192,206078,1,8,0:0:0:0:
256,192,206145,1,8,0:0:0:0:
256,192,206212,1,0,0:0:0:0:
256,192,206346,1,8,0:0:0:0:
256,192,206480,1,0,0:0:0:0:
256,192,206547,1,0,0:0:0:0:
256,192,206614,1,8,0:0:0:0:
256,192,206748,1,8,0:0:0:0:
256,192,206815,1,8,0:0:0:0:
256,192,206882,1,0,0:0:0:0:
256,192,206949,1,0,0:0:0:0:
256,192,207016,1,12,0:0:0:0:
256,192,207194,1,4,0:0:0:0:
256,192,207373,1,4,0:0:0:0:
256,192,207552,1,12,0:0:0:0:
256,192,207730,1,12,0:0:0:0:
256,192,207909,1,12,0:0:0:0:
256,192,208087,1,4,0:0:0:0:
256,192,208221,1,8,0:0:0:0:
256,192,208288,1,8,0:0:0:0:
256,192,208355,1,0,0:0:0:0:
256,192,208422,1,0,0:0:0:0:
256,192,208489,1,8,0:0:0:0:
256,192,208623,1,8,0:0:0:0:
256,192,208690,1,8,0:0:0:0:
256,192,208757,1,0,0:0:0:0:
256,192,208824,1,0,0:0:0:0:
256,192,208891,1,8,0:0:0:0:
256,192,209025,1,0,0:0:0:0:
256,192,209159,1,8,0:0:0:0:
256,192,209226,1,8,0:0:0:0:
256,192,209293,1,0,0:0:0:0:
256,192,209360,1,8,0:0:0:0:
256,192,209427,1,0,0:0:0:0:
256,192,209493,1,8,0:0:0:0:
256,192,209560,1,8,0:0:0:0:
256,192,209627,1,0,0:0:0:0:
256,192,209694,1,0,0:0:0:0:
256,192,209761,1,8,0:0:0:0:
256,192,209828,1,0,0:0:0:0:
256,192,209895,1,0,0:0:0:0:
256,192,209962,1,8,0:0:0:0:
256,192,210029,1,8,0:0:0:0:
256,192,210096,1,8,0:0:0:0:
256,192,210163,1,8,0:0:0:0:
256,192,210230,1,4,0:0:0:0:
256,192,210364,1,8,0:0:0:0:
256,192,210431,1,8,0:0:0:0:
256,192,210498,1,0,0:0:0:0:
256,192,210565,1,8,0:0:0:0:
256,192,210632,1,0,0:0:0:0:
256,192,210699,1,0,0:0:0:0:
256,192,210766,1,8,0:0:0:0:
256,192,210833,1,8,0:0:0:0:
256,192,210900,1,0,0:0:0:0:
256,192,210967,1,0,0:0:0:0:
256,192,211034,1,8,0:0:0:0:
256,192,211101,1,8,0:0:0:0:
256,192,211168,1,8,0:0:0:0:
256,192,211235,1,8,0:0:0:0:
256,192,211302,1,4,0:0:0:0:
256,192,211480,1,4,0:0:0:0:
256,192,211659,1,4,0:0:0:0:
256,192,211837,1,12,0:0:0:0:
256,192,212016,1,4,0:0:0:0:
256,192,212194,1,4,0:0:0:0:
256,192,212373,1,4,0:0:0:0:
256,192,212507,1,8,0:0:0:0:
256,192,212641,1,8,0:0:0:0:
256,192,212708,1,0,0:0:0:0:
256,192,212775,1,8,0:0:0:0:
256,192,212909,1,0,0:0:0:0:
256,192,212976,1,0,0:0:0:0:
256,192,213043,1,8,0:0:0:0:
256,192,213177,1,8,0:0:0:0:
256,192,213243,1,0,0:0:0:0:
256,192,213310,1,8,0:0:0:0:
256,192,213444,1,0,0:0:0:0:
256,192,213511,1,0,0:0:0:0:
256,192,213578,1,8,0:0:0:0:
256,192,213712,1,0,0:0:0:0:
256,192,213779,1,0,0:0:0:0:
256,192,213846,1,8,0:0:0:0:
256,192,213913,1,8,0:0:0:0:
256,192,213980,1,0,0:0:0:0:
256,192,214047,1,8,0:0:0:0:
256,192,214114,1,8,0:0:0:0:
256,192,214181,1,8,0:0:0:0:
256,192,214248,1,0,0:0:0:0:
256,192,214315,1,0,0:0:0:0:
256,192,214382,1,8,0:0:0:0:
256,192,214449,1,8,0:0:0:0:
256,192,214516,1,0,0:0:0:0:
256,192,214605,1,0,0:0:0:0:
256,192,214694,1,0,0:0:0:0:
256,192,214784,1,8,0:0:0:0:
256,192,214873,1,8,0:0:0:0:
256,192,214962,1,8,0:0:0:0:
256,192,215052,1,0,0:0:0:0:
256,192,215118,1,0,0:0:0:0:
256,192,215185,1,8,0:0:0:0:
256,192,215252,1,0,0:0:0:0:
256,192,215319,1,8,0:0:0:0:
256,192,215386,1,8,0:0:0:0:
256,192,215453,1,0,0:0:0:0:
256,192,215520,1,0,0:0:0:0:
256,192,215587,1,12,0:0:0:0:
256,192,215766,1,4,0:0:0:0:
256,192,215944,1,4,0:0:0:0:
256,192,216123,1,12,0:0:0:0:
256,192,216302,1,12,0:0:0:0:
256,192,216480,1,12,0:0:0:0:
256,192,216659,1,4,0:0:0:0:
256,192,216793,1,0,0:0:0:0:
256,192,216860,1,0,0:0:0:0:
256,192,216927,1,8,0:0:0:0:
256,192,216993,1,8,0:0:0:0:
256,192,217060,1,8,0:0:0:0:
256,192,217127,1,0,0:0:0:0:
256,192,217194,1,8,0:0:0:0:
256,192,217261,1,8,0:0:0:0:
256,192,217328,1,0,0:0:0:0:
256,192,217395,1,0,0:0:0:0:
256,192,217462,1,8,0:0:0:0:
256,192,217529,1,0,0:0:0:0:
256,192,217596,1,8,0:0:0:0:
256,192,217663,1,0,0:0:0:0:
256,192,217730,1,8,0:0:0:0:
256,192,217797,1,8,0:0:0:0:
256,192,217864,1,0,0:0:0:0:
256,192,217931,1,0,0:0:0:0:
256,192,217998,1,8,0:0:0:0:
256,192,218065,1,8,0:0:0:0:
256,192,218132,1,8,0:0:0:0:
256,192,218199,1,0,0:0:0:0:
256,192,218266,1,8,0:0:0:0:
256,192,218333,1,8,0:0:0:0:
256,192,218400,1,0,0:0:0:0:
256,192,218467,1,0,0:0:0:0:
256,192,218534,1,8,0:0:0:0:
256,192,218668,1,8,0:0:0:0:
256,192,218802,1,0,0:0:0:0:
256,192,218868,1,0,0:0:0:0:
256,192,218935,1,8,0:0:0:0:
256,192,219069,1,0,0:0:0:0:
256,192,219203,1,8,0:0:0:0:
256,192,219337,1,8,0:0:0:0:
256,192,219404,1,0,0:0:0:0:
256,192,219471,1,0,0:0:0:0:
256,192,219605,1,0,0:0:0:0:
256,192,219739,1,8,0:0:0:0:
256,192,219873,1,8,0:0:0:0:
256,192,219940,1,8,0:0:0:0:
256,192,220007,1,0,0:0:0:0:
256,192,220141,1,8,0:0:0:0:
256,192,220275,1,0,0:0:0:0:
256,192,220342,1,0,0:0:0:0:
256,192,220409,1,12,0:0:0:0:
256,192,220543,1,0,0:0:0:0:
256,192,220610,1,8,0:0:0:0:
256,192,220677,1,0,0:0:0:0:
256,192,220743,1,0,0:0:0:0:
256,192,220810,1,8,0:0:0:0:
256,192,220877,1,8,0:0:0:0:
256,192,220944,1,4,0:0:0:0:
256,192,221078,1,8,0:0:0:0:
256,192,221212,1,0,0:0:0:0:
256,192,221279,1,0,0:0:0:0:
256,192,221346,1,8,0:0:0:0:
256,192,221480,1,0,0:0:0:0:
256,192,221614,1,8,0:0:0:0:
256,192,221681,1,0,0:0:0:0:
256,192,221748,1,8,0:0:0:0:
256,192,221815,1,0,0:0:0:0:
256,192,221882,1,8,0:0:0:0:
256,192,221949,1,8,0:0:0:0:
256,192,222016,1,4,0:0:0:0:
256,192,222150,1,8,0:0:0:0:
256,192,222284,1,0,0:0:0:0:
256,192,222351,1,0,0:0:0:0:
256,192,222418,1,8,0:0:0:0:
256,192,222485,1,8,0:0:0:0:
256,192,222552,1,0,0:0:0:0:
256,192,222685,1,8,0:0:0:0:
256,192,222819,1,8,0:0:0:0:
256,192,222886,1,8,0:0:0:0:
256,192,222953,1,8,0:0:0:0:
256,192,223020,1,8,0:0:0:0:
256,192,223087,1,4,0:0:0:0:
256,192,223221,1,8,0:0:0:0:
256,192,223355,1,0,0:0:0:0:
256,192,223422,1,0,0:0:0:0:
256,192,223489,1,8,0:0:0:0:
256,192,223623,1,0,0:0:0:0:
256,192,223757,1,8,0:0:0:0:
256,192,223891,1,0,0:0:0:0:
256,192,223958,1,0,0:0:0:0:
256,192,224025,1,8,0:0:0:0:
256,192,224092,1,8,0:0:0:0:
256,192,224159,1,4,0:0:0:0:
256,192,224293,1,8,0:0:0:0:
256,192,224427,1,8,0:0:0:0:
256,192,224560,1,4,0:0:0:0:
256,192,224694,1,8,0:0:0:0:
256,192,224761,1,8,0:0:0:0:
256,192,224828,1,0,0:0:0:0:
256,192,224962,1,8,0:0:0:0:
256,192,225096,1,0,0:0:0:0:
256,192,225230,1,8,0:0:0:0:
256,192,225297,1,8,0:0:0:0:
256,192,225364,1,8,0:0:0:0:
256,192,225431,1,0,0:0:0:0:
256,192,225498,1,8,0:0:0:0:
256,192,225565,1,8,0:0:0:0:
256,192,225632,1,8,0:0:0:0:
256,192,225699,1,8,0:0:0:0:
256,192,225766,1,0,0:0:0:0:
256,192,225833,1,0,0:0:0:0:
256,192,225900,1,8,0:0:0:0:
256,192,225967,1,8,0:0:0:0:
256,192,226034,1,0,0:0:0:0:
256,192,226101,1,8,0:0:0:0:
256,192,226168,1,8,0:0:0:0:
256,192,226235,1,8,0:0:0:0:
256,192,226302,1,0,0:0:0:0:
256,192,226368,1,0,0:0:0:0:
256,192,226435,1,8,0:0:0:0:
256,192,226502,1,8,0:0:0:0:
256,192,226569,1,0,0:0:0:0:
256,192,226636,1,0,0:0:0:0:
256,192,226703,1,8,0:0:0:0:
256,192,226770,1,0,0:0:0:0:
256,192,226837,1,8,0:0:0:0:
256,192,226904,1,8,0:0:0:0:
256,192,226971,1,0,0:0:0:0:
256,192,227038,1,0,0:0:0:0:
256,192,227105,1,8,0:0:0:0:
256,192,227172,1,0,0:0:0:0:
256,192,227239,1,8,0:0:0:0:
256,192,227373,1,8,0:0:0:0:
256,192,227440,1,8,0:0:0:0:
256,192,227507,1,0,0:0:0:0:
256,192,227574,1,8,0:0:0:0:
256,192,227641,1,0,0:0:0:0:
256,192,227708,1,0,0:0:0:0:
256,192,227775,1,8,0:0:0:0:
256,192,227842,1,8,0:0:0:0:
256,192,227909,1,0,0:0:0:0:
256,192,227976,1,0,0:0:0:0:
256,192,228043,1,8,0:0:0:0:
256,192,228110,1,0,0:0:0:0:
256,192,228177,1,8,0:0:0:0:
256,192,228243,1,8,0:0:0:0:
256,192,228310,1,0,0:0:0:0:
256,192,228377,1,0,0:0:0:0:
256,192,228444,1,8,0:0:0:0:
256,192,228511,1,8,0:0:0:0:
256,192,228578,1,0,0:0:0:0:
256,192,228623,1,0,0:0:0:0:
256,192,228668,1,0,0:0:0:0:
256,192,228712,1,8,0:0:0:0:
256,192,228779,1,8,0:0:0:0:
256,192,228846,1,0,0:0:0:0:
256,192,228913,1,0,0:0:0:0:
256,192,228980,1,8,0:0:0:0:
256,192,229047,1,0,0:0:0:0:
256,192,229114,1,8,0:0:0:0:
256,192,229181,1,0,0:0:0:0:
256,192,229248,1,8,0:0:0:0:
256,192,229315,1,0,0:0:0:0:
256,192,229382,1,8,0:0:0:0:
256,192,229516,1,4,0:0:0:0:
256,192,229650,1,8,0:0:0:0:
256,192,229784,1,0,0:0:0:0:
256,192,229851,1,0,0:0:0:0:
256,192,229918,1,8,0:0:0:0:
256,192,230052,1,0,0:0:0:0:
256,192,230185,1,0,0:0:0:0:
256,192,230275,1,8,0:0:0:0:
256,192,230364,1,8,0:0:0:0:
256,192,230453,1,0,0:0:0:0:
256,192,230587,1,12,0:0:0:0:
256,192,230721,1,0,0:0:0:0:
256,192,230855,1,0,0:0:0:0:
256,192,230922,1,0,0:0:0:0:
256,192,230989,1,8,0:0:0:0:
256,192,231123,1,0,0:0:0:0:
256,192,231257,1,8,0:0:0:0:
256,192,231324,1,0,0:0:0:0:
256,192,231391,1,8,0:0:0:0:
256,192,231458,1,0,0:0:0:0:
256,192,231525,1,8,0:0:0:0:
256,192,231592,1,8,0:0:0:0:
256,192,231659,1,4,0:0:0:0:
256,192,231793,1,0,0:0:0:0:
256,192,231860,1,0,0:0:0:0:
256,192,231927,1,8,0:0:0:0:
256,192,232060,1,8,0:0:0:0:
256,192,232194,1,0,0:0:0:0:
256,192,232261,1,0,0:0:0:0:
256,192,232328,1,8,0:0:0:0:
256,192,232395,1,8,0:0:0:0:
256,192,232462,1,0,0:0:0:0:
256,192,232596,1,0,0:0:0:0:
256,192,232730,1,12,0:0:0:0:
256,192,232864,1,8,0:0:0:0:
256,192,232931,1,8,0:0:0:0:
256,192,232998,1,8,0:0:0:0:
256,192,233065,1,8,0:0:0:0:
256,192,233132,1,4,0:0:0:0:
256,192,233400,1,0,0:0:0:0:
256,192,233467,1,0,0:0:0:0:
256,192,233534,1,0,0:0:0:0:
256,192,233668,1,0,0:0:0:0:
256,192,233802,1,8,0:0:0:0:
256,192,233846,1,0,0:0:0:0:
256,192,233891,1,0,0:0:0:0:
256,192,233935,1,8,0:0:0:0:
256,192,234002,1,8,0:0:0:0:
256,192,234069,1,0,0:0:0:0:
256,192,234136,1,0,0:0:0:0:
256,192,234203,1,8,0:0:0:0:
256,192,234270,1,0,0:0:0:0:
256,192,234337,1,0,0:0:0:0:
256,192,234404,1,0,0:0:0:0:
256,192,234471,1,8,0:0:0:0:
256,192,234538,1,8,0:0:0:0:
256,192,234605,1,8,0:0:0:0:
256,192,234672,1,0,0:0:0:0:
256,192,234739,1,8,0:0:0:0:
256,192,234806,1,8,0:0:0:0:
256,192,234873,1,0,0:0:0:0:
256,192,234918,1,0,0:0:0:0:
256,192,234962,1,0,0:0:0:0:
256,192,235007,1,8,0:0:0:0:
256,192,235074,1,8,0:0:0:0:
256,192,235141,1,0,0:0:0:0:
256,192,235208,1,0,0:0:0:0:
256,192,235275,1,8,0:0:0:0:
256,192,235342,1,0,0:0:0:0:
256,192,235409,1,8,0:0:0:0:
256,192,235476,1,8,0:0:0:0:
256,192,235543,1,0,0:0:0:0:
256,192,235610,1,0,0:0:0:0:
256,192,235677,1,8,0:0:0:0:
256,192,235743,1,8,0:0:0:0:
256,192,235810,1,0,0:0:0:0:
256,192,235877,1,0,0:0:0:0:
256,192,235944,1,8,0:0:0:0:
256,192,235989,1,0,0:0:0:0:
256,192,236034,1,0,0:0:0:0:
256,192,236078,1,8,0:0:0:0:
256,192,236145,1,8,0:0:0:0:
256,192,236212,1,0,0:0:0:0:
256,192,236279,1,0,0:0:0:0:
256,192,236346,1,8,0:0:0:0:
256,192,236413,1,8,0:0:0:0:
256,192,236480,1,0,0:0:0:0:
256,192,236547,1,8,0:0:0:0:
256,192,236614,1,0,0:0:0:0:
256,192,236681,1,0,0:0:0:0:
256,192,236748,1,8,0:0:0:0:
256,192,236815,1,8,0:0:0:0:
256,192,236882,1,0,0:0:0:0:
256,192,237016,1,8,0:0:0:0:
256,192,237083,1,0,0:0:0:0:
256,192,237150,1,0,0:0:0:0:
256,192,237217,1,8,0:0:0:0:
256,192,237284,1,0,0:0:0:0:
256,192,237351,1,8,0:0:0:0:
256,192,237418,1,0,0:0:0:0:
256,192,237485,1,0,0:0:0:0:
256,192,237552,1,8,0:0:0:0:
256,192,237618,1,0,0:0:0:0:
256,192,237685,1,8,0:0:0:0:
256,192,237752,1,8,0:0:0:0:
256,192,237819,1,0,0:0:0:0:
256,192,237886,1,0,0:0:0:0:
256,192,237953,1,0,0:0:0:0:
256,192,238020,1,0,0:0:0:0:
256,192,238087,1,12,0:0:0:0:
256,192,238221,1,8,0:0:0:0:
256,192,238288,1,8,0:0:0:0:
256,192,238355,1,0,0:0:0:0:
256,192,238422,1,0,0:0:0:0:
256,192,238489,1,8,0:0:0:0:
256,192,238556,1,8,0:0:0:0:
256,192,238623,1,8,0:0:0:0:
256,192,238690,1,8,0:0:0:0:
256,192,238757,1,0,0:0:0:0:
256,192,238824,1,0,0:0:0:0:
256,192,238891,1,8,0:0:0:0:
256,192,238958,1,8,0:0:0:0:
256,192,239025,1,0,0:0:0:0:
256,192,239092,1,0,0:0:0:0:
256,192,239159,1,8,0:0:0:0:
256,192,239293,1,8,0:0:0:0:
256,192,239360,1,8,0:0:0:0:
256,192,239427,1,0,0:0:0:0:
256,192,239493,1,8,0:0:0:0:
256,192,239560,1,0,0:0:0:0:
256,192,239694,1,8,0:0:0:0:
256,192,239761,1,8,0:0:0:0:
256,192,239828,1,8,0:0:0:0:
256,192,239895,1,8,0:0:0:0:
256,192,239962,1,8,0:0:0:0:
256,192,240029,1,8,0:0:0:0:
256,192,240096,1,0,0:0:0:0:
256,192,240230,1,0,0:0:0:0:
256,192,240297,1,8,0:0:0:0:
256,192,240364,1,0,0:0:0:0:
256,192,240431,1,0,0:0:0:0:
256,192,240498,1,8,0:0:0:0:
256,192,240565,1,0,0:0:0:0:
256,192,240632,1,8,0:0:0:0:
256,192,240699,1,0,0:0:0:0:
256,192,240766,1,0,0:0:0:0:
256,192,240833,1,8,0:0:0:0:
256,192,240900,1,0,0:0:0:0:
256,192,240967,1,0,0:0:0:0:
256,192,241034,1,8,0:0:0:0:
256,192,241101,1,0,0:0:0:0:
256,192,241168,1,8,0:0:0:0:
256,192,241302,1,0,0:0:0:0:
256,192,241368,1,8,0:0:0:0:
256,192,241435,1,0,0:0:0:0:
256,192,241502,1,8,0:0:0:0:
256,192,241569,1,8,0:0:0:0:
256,192,241636,1,0,0:0:0:0:
256,192,241703,1,8,0:0:0:0:
256,192,241770,1,8,0:0:0:0:
256,192,241837,1,0,0:0:0:0:
256,192,241904,1,8,0:0:0:0:
256,192,241971,1,0,0:0:0:0:
256,192,242038,1,0,0:0:0:0:
256,192,242105,1,8,0:0:0:0:
256,192,242172,1,0,0:0:0:0:
256,192,242239,1,8,0:0:0:0:
256,192,242306,1,8,0:0:0:0:
256,192,242373,1,4,0:0:0:0:
256,192,242507,1,8,0:0:0:0:
256,192,242641,1,0,0:0:0:0:
256,192,242708,1,0,0:0:0:0:
256,192,242775,1,8,0:0:0:0:
256,192,242842,1,0,0:0:0:0:
256,192,242909,1,0,0:0:0:0:
256,192,243043,1,8,0:0:0:0:
256,192,243177,1,0,0:0:0:0:
256,192,243243,1,0,0:0:0:0:
256,192,243310,1,8,0:0:0:0:
256,192,243377,1,8,0:0:0:0:
256,192,243444,1,0,0:0:0:0:
256,192,243578,1,8,0:0:0:0:
256,192,243712,1,0,0:0:0:0:
256,192,243779,1,0,0:0:0:0:
256,192,243846,1,8,0:0:0:0:
256,192,243913,1,8,0:0:0:0:
256,192,243980,1,8,0:0:0:0:
256,192,244114,1,8,0:0:0:0:
256,192,244248,1,0,0:0:0:0:
256,192,244315,1,0,0:0:0:0:
256,192,244382,1,8,0:0:0:0:
256,192,244516,1,0,0:0:0:0:
256,192,244583,1,8,0:0:0:0:
256,192,244650,1,8,0:0:0:0:
256,192,244717,1,8,0:0:0:0:
256,192,244784,1,0,0:0:0:0:
256,192,244851,1,0,0:0:0:0:
256,192,244918,1,8,0:0:0:0:
256,192,244985,1,8,0:0:0:0:
256,192,245052,1,0,0:0:0:0:
256,192,245118,1,8,0:0:0:0:
256,192,245185,1,0,0:0:0:0:
256,192,245252,1,0,0:0:0:0:
256,192,245319,1,8,0:0:0:0:
256,192,245386,1,8,0:0:0:0:
256,192,245453,1,0,0:0:0:0:
256,192,245520,1,0,0:0:0:0:
256,192,245587,1,8,0:0:0:0:
256,192,245632,1,8,0:0:0:0:
256,192,245677,1,0,0:0:0:0:
256,192,245721,1,8,0:0:0:0:
256,192,245766,1,0,0:0:0:0:
256,192,245810,1,0,0:0:0:0:
256,192,245855,1,8,0:0:0:0:
256,192,245900,1,8,0:0:0:0:
256,192,245944,1,8,0:0:0:0:
256,192,245989,1,0,0:0:0:0:
256,192,246123,1,8,0:0:0:0:
256,192,246190,1,8,0:0:0:0:
256,192,246257,1,0,0:0:0:0:
256,192,246324,1,0,0:0:0:0:
256,192,246391,1,8,0:0:0:0:
256,192,246458,1,8,0:0:0:0:
256,192,246525,1,0,0:0:0:0:
256,192,246592,1,0,0:0:0:0:
256,192,246659,1,12,0:0:0:0:
256,192,246793,1,0,0:0:0:0:
256,192,246860,1,0,0:0:0:0:
256,192,246927,1,8,0:0:0:0:
256,192,246971,1,8,0:0:0:0:
256,192,247016,1,0,0:0:0:0:
256,192,247060,1,0,0:0:0:0:
256,192,247127,1,8,0:0:0:0:
256,192,247194,1,0,0:0:0:0:
256,192,247261,1,0,0:0:0:0:
256,192,247328,1,8,0:0:0:0:
256,192,247373,1,0,0:0:0:0:
256,192,247418,1,0,0:0:0:0:
256,192,247462,1,8,0:0:0:0:
256,192,247529,1,8,0:0:0:0:
256,192,247596,1,0,0:0:0:0:
256,192,247663,1,0,0:0:0:0:
256,192,247730,1,8,0:0:0:0:
256,192,247775,1,8,0:0:0:0:
256,192,247819,1,0,0:0:0:0:
256,192,247864,1,0,0:0:0:0:
256,192,247931,1,8,0:0:0:0:
256,192,247998,1,0,0:0:0:0:
256,192,248065,1,0,0:0:0:0:
256,192,248132,1,8,0:0:0:0:
256,192,248177,1,0,0:0:0:0:
256,192,248221,1,0,0:0:0:0:
256,192,248266,1,8,0:0:0:0:
256,192,248333,1,8,0:0:0:0:
256,192,248400,1,0,0:0:0:0:
256,192,248467,1,0,0:0:0:0:
256,192,248534,1,8,0:0:0:0:
256,192,248601,1,8,0:0:0:0:
256,192,248668,1,8,0:0:0:0:
256,192,248735,1,8,0:0:0:0:
256,192,248802,1,0,0:0:0:0:
256,192,248935,1,8,0:0:0:0:
256,192,249002,1,0,0:0:0:0:
256,192,249069,1,0,0:0:0:0:
256,192,249136,1,8,0:0:0:0:
256,192,249203,1,8,0:0:0:0:
256,192,249270,1,8,0:0:0:0:
256,192,249337,1,0,0:0:0:0:
256,192,249404,1,8,0:0:0:0:
256,192,249471,1,0,0:0:0:0:
256,192,249538,1,0,0:0:0:0:
256,192,249605,1,8,0:0:0:0:
256,192,249672,1,8,0:0:0:0:
256,192,249739,1,0,0:0:0:0:
256,192,249873,1,8,0:0:0:0:
256,192,249962,1,0,0:0:0:0:
256,192,250052,1,0,0:0:0:0:
256,192,250141,1,8,0:0:0:0:
256,192,250230,1,8,0:0:0:0:
256,192,250319,1,0,0:0:0:0:
256,192,250409,1,8,0:0:0:0:
256,192,250498,1,0,0:0:0:0:
256,192,250587,1,0,0:0:0:0:
256,192,250677,1,8,0:0:0:0:
256,192,250766,1,8,0:0:0:0:
256,192,250855,1,8,0:0:0:0:
256,192,250944,1,4,0:0:0:0:
256,192,251078,1,8,0:0:0:0:
256,192,251145,1,8,0:0:0:0:
256,192,251212,1,8,0:0:0:0:
256,192,251279,1,0,0:0:0:0:
256,192,251346,1,8,0:0:0:0:
256,192,251413,1,8,0:0:0:0:
256,192,251480,1,8,0:0:0:0:
256,192,251547,1,8,0:0:0:0:
256,192,251614,1,0,0:0:0:0:
256,192,251748,1,8,0:0:0:0:
256,192,251815,1,8,0:0:0:0:
256,192,251882,1,0,0:0:0:0:
256,192,252016,1,8,0:0:0:0:
256,192,252083,1,8,0:0:0:0:
256,192,252150,1,8,0:0:0:0:
256,192,252217,1,0,0:0:0:0:
256,192,252284,1,8,0:0:0:0:
256,192,252351,1,8,0:0:0:0:
256,192,252418,1,0,0:0:0:0:
256,192,252485,1,0,0:0:0:0:
256,192,252552,1,8,0:0:0:0:
256,192,252618,1,0,0:0:0:0:
256,192,252685,1,8,0:0:0:0:
256,192,252819,1,8,0:0:0:0:
256,192,252886,1,0,0:0:0:0:
256,192,252953,1,0,0:0:0:0:
256,192,253087,1,8,0:0:0:0:
256,192,253177,1,8,0:0:0:0:
256,192,253266,1,8,0:0:0:0:
256,192,253355,1,0,0:0:0:0:
256,192,253444,1,0,0:0:0:0:
256,192,253534,1,0,0:0:0:0:
256,192,253623,1,8,0:0:0:0:
256,192,253690,1,0,0:0:0:0:
256,192,253757,1,8,0:0:0:0:
256,192,253824,1,8,0:0:0:0:
256,192,253891,1,0,0:0:0:0:
256,192,253958,1,8,0:0:0:0:
256,192,254025,1,0,0:0:0:0:
256,192,254092,1,0,0:0:0:0:
256,192,254159,1,8,0:0:0:0:
256,192,254226,1,8,0:0:0:0:
256,192,254293,1,8,0:0:0:0:
256,192,254360,1,0,0:0:0:0:
256,192,254427,1,8,0:0:0:0:
256,192,254493,1,8,0:0:0:0:
256,192,254560,1,8,0:0:0:0:
256,192,254627,1,8,0:0:0:0:
256,192,254694,1,0,0:0:0:0:
256,192,254761,1,0,0:0:0:0:
256,192,254828,1,0,0:0:0:0:
256,192,254895,1,0,0:0:0:0:
256,192,254962,1,8,0:0:0:0:
256,192,255029,1,8,0:0:0:0:
256,192,255096,1,8,0:0:0:0:
256,192,255163,1,8,0:0:0:0:
256,192,255230,1,4,0:0:0:0:
256,192,255364,1,8,0:0:0:0:
256,192,255498,1,0,0:0:0:0:
256,192,255565,1,0,0:0:0:0:
256,192,255632,1,8,0:0:0:0:
256,192,255766,1,0,0:0:0:0:
256,192,255900,1,8,0:0:0:0:
256,192,256034,1,0,0:0:0:0:
256,192,256101,1,0,0:0:0:0:
256,192,256168,1,8,0:0:0:0:
256,192,256235,1,8,0:0:0:0:
256,192,256302,1,0,0:0:0:0:
256,192,256435,1,8,0:0:0:0:
256,192,256569,1,0,0:0:0:0:
256,192,256636,1,0,0:0:0:0:
256,192,256703,1,8,0:0:0:0:
256,192,256837,1,0,0:0:0:0:
256,192,256971,1,8,0:0:0:0:
256,192,257105,1,8,0:0:0:0:
256,192,257172,1,0,0:0:0:0:
256,192,257239,1,8,0:0:0:0:
256,192,257306,1,8,0:0:0:0:
256,192,257373,1,0,0:0:0:0:
256,192,257507,1,8,0:0:0:0:
256,192,257641,1,8,0:0:0:0:
256,192,257708,1,0,0:0:0:0:
256,192,257775,1,8,0:0:0:0:
256,192,257909,1,0,0:0:0:0:
256,192,258043,1,8,0:0:0:0:
256,192,258177,1,0,0:0:0:0:
256,192,258243,1,0,0:0:0:0:
256,192,258310,1,0,0:0:0:0:
256,192,258377,1,0,0:0:0:0:
256,192,258444,1,8,0:0:0:0:
256,192,258511,1,8,0:0:0:0:
256,192,258578,1,8,0:0:0:0:
256,192,258712,1,0,0:0:0:0:
256,192,258779,1,0,0:0:0:0:
256,192,258846,1,8,0:0:0:0:
256,192,258980,1,0,0:0:0:0:
256,192,259047,1,0,0:0:0:0:
256,192,259114,1,8,0:0:0:0:
256,192,259181,1,8,0:0:0:0:
256,192,259248,1,0,0:0:0:0:
256,192,259315,1,0,0:0:0:0:
256,192,259382,1,8,0:0:0:0:
256,192,259516,1,4,0:0:0:0:
256,192,259650,1,8,0:0:0:0:
256,192,259717,1,8,0:0:0:0:
256,192,259784,1,0,0:0:0:0:
256,192,259851,1,0,0:0:0:0:
256,192,259918,1,8,0:0:0:0:
256,192,259985,1,0,0:0:0:0:
256,192,260052,1,8,0:0:0:0:
256,192,260118,1,8,0:0:0:0:
256,192,260185,1,0,0:0:0:0:
256,192,260252,1,0,0:0:0:0:
256,192,260319,1,8,0:0:0:0:
256,192,260386,1,0,0:0:0:0:
256,192,260453,1,8,0:0:0:0:
256,192,260520,1,0,0:0:0:0:
256,192,260587,1,8,0:0:0:0:
256,192,260654,1,8,0:0:0:0:
256,192,260721,1,8,0:0:0:0:
256,192,260788,1,8,0:0:0:0:
256,192,260855,1,0,0:0:0:0:
256,192,260922,1,0,0:0:0:0:
256,192,260989,1,8,0:0:0:0:
256,192,261056,1,0,0:0:0:0:
256,192,261123,1,8,0:0:0:0:
256,192,261190,1,8,0:0:0:0:
256,192,261257,1,0,0:0:0:0:
256,192,261324,1,8,0:0:0:0:
256,192,261391,1,8,0:0:0:0:
256,192,261458,1,8,0:0:0:0:
256,192,261525,1,0,0:0:0:0:
256,192,261592,1,0,0:0:0:0:
256,192,261659,1,8,0:0:0:0:
256,192,261726,1,8,0:0:0:0:
256,192,261793,1,0,0:0:0:0:
256,192,261860,1,8,0:0:0:0:
256,192,261927,1,0,0:0:0:0:
256,192,261993,1,0,0:0:0:0:
256,192,262060,1,8,0:0:0:0:
256,192,262127,1,0,0:0:0:0:
256,192,262194,1,0,0:0:0:0:
256,192,262261,1,0,0:0:0:0:
256,192,262328,1,8,0:0:0:0:
256,192,262395,1,0,0:0:0:0:
256,192,262462,1,8,0:0:0:0:
256,192,262529,1,0,0:0:0:0:
256,192,262596,1,8,0:0:0:0:
256,192,262663,1,8,0:0:0:0:
256,192,262730,1,0,0:0:0:0:
256,192,262775,1,0,0:0:0:0:
256,192,262819,1,0,0:0:0:0:
256,192,262864,1,8,0:0:0:0:
256,192,262931,1,8,0:0:0:0:
256,192,262998,1,4,0:0:0:0:
256,192,263266,1,8,0:0:0:0:
256,192,263310,1,0,0:0:0:0:
256,192,263355,1,0,0:0:0:0:
256,192,263400,1,8,0:0:0:0:
256,192,263467,1,8,0:0:0:0:
256,192,263534,1,4,0:0:0:0:
256,192,263802,1,4,0:0:0:0:
256,192,263935,1,8,0:0:0:0:
256,192,264002,1,0,0:0:0:0:
256,192,264069,1,0,0:0:0:0:
256,192,264136,1,0,0:0:0:0:
256,192,264203,1,8,0:0:0:0:
256,192,264270,1,0,0:0:0:0:
256,192,264337,1,0,0:0:0:0:
256,192,264404,1,0,0:0:0:0:
256,192,264471,1,8,0:0:0:0:
256,192,264538,1,0,0:0:0:0:
256,192,264605,1,0,0:0:0:0:
256,192,264672,1,0,0:0:0:0:
256,192,264739,1,8,0:0:0:0:
256,192,264873,1,0,0:0:0:0:
256,192,264940,1,8,0:0:0:0:
256,192,265007,1,0,0:0:0:0:
256,192,265074,1,0,0:0:0:0:
256,192,265141,1,8,0:0:0:0:
256,192,265208,1,8,0:0:0:0:
256,192,265275,1,0,0:0:0:0:
256,192,265342,1,0,0:0:0:0:
256,192,265409,1,8,0:0:0:0:
256,192,265476,1,0,0:0:0:0:
256,192,265543,1,8,0:0:0:0:
256,192,265610,1,8,0:0:0:0:
256,192,265677,1,0,0:0:0:0:
256,192,265743,1,0,0:0:0:0:
256,192,265810,1,8,0:0:0:0:
256,192,265944,1,4,0:0:0:0:
256,192,266078,1,8,0:0:0:0:
256,192,266145,1,8,0:0:0:0:
256,192,266212,1,0,0:0:0:0:
256,192,266279,1,0,0:0:0:0:
256,192,266346,1,8,0:0:0:0:
256,192,266413,1,8,0:0:0:0:
256,192,266480,1,0,0:0:0:0:
256,192,266547,1,0,0:0:0:0:
256,192,266614,1,8,0:0:0:0:
256,192,266681,1,8,0:0:0:0:
256,192,266748,1,0,0:0:0:0:
256,192,266815,1,0,0:0:0:0:
256,192,266882,1,8,0:0:0:0:
256,192,267016,1,0,0:0:0:0:
256,192,267083,1,8,0:0:0:0:
256,192,267150,1,0,0:0:0:0:
256,192,267217,1,0,0:0:0:0:
256,192,267284,1,8,0:0:0:0:
256,192,267351,1,0,0:0:0:0:
256,192,267418,1,8,0:0:0:0:
256,192,267485,1,0,0:0:0:0:
256,192,267552,1,8,0:0:0:0:
256,192,267618,1,8,0:0:0:0:
256,192,267685,1,0,0:0:0:0:
256,192,267752,1,8,0:0:0:0:
256,192,267819,1,0,0:0:0:0:
256,192,267886,1,8,0:0:0:0:
256,192,267953,1,8,0:0:0:0:
256,192,268020,1,8,0:0:0:0:
256,192,268087,1,4,0:0:0:0:
256,192,268221,1,8,0:0:0:0:
256,192,268355,1,0,0:0:0:0:
256,192,268422,1,0,0:0:0:0:
256,192,268489,1,8,0:0:0:0:
256,192,268623,1,0,0:0:0:0:
256,192,268712,1,8,0:0:0:0:
256,192,268802,1,8,0:0:0:0:
256,192,268891,1,0,0:0:0:0:
256,192,268958,1,0,0:0:0:0:
256,192,269025,1,8,0:0:0:0:
256,192,269159,1,0,0:0:0:0:
256,192,269293,1,8,0:0:0:0:
256,192,269360,1,8,0:0:0:0:
256,192,269427,1,0,0:0:0:0:
256,192,269560,1,8,0:0:0:0:
256,192,269694,1,0,0:0:0:0:
256,192,269828,1,8,0:0:0:0:
256,192,269962,1,8,0:0:0:0:
256,192,270029,1,8,0:0:0:0:
256,192,270096,1,0,0:0:0:0:
256,192,270163,1,0,0:0:0:0:
256,192,270230,1,12,0:0:0:0:
256,192,270364,1,0,0:0:0:0:
256,192,270431,1,0,0:0:0:0:
256,192,270498,1,8,0:0:0:0:
256,192,270543,1,0,0:0:0:0:
256,192,270587,1,0,0:0:0:0:
256,192,270632,1,8,0:0:0:0:
256,192,270699,1,8,0:0:0:0:
256,192,270766,1,0,0:0:0:0:
256,192,270833,1,0,0:0:0:0:
256,192,270900,1,8,0:0:0:0:
256,192,270967,1,0,0:0:0:0:
256,192,271034,1,8,0:0:0:0:
256,192,271078,1,0,0:0:0:0:
256,192,271123,1,0,0:0:0:0:
256,192,271168,1,8,0:0:0:0:
256,192,271235,1,8,0:0:0:0:
256,192,271302,1,0,0:0:0:0:
256,192,271368,1,0,0:0:0:0:
256,192,271435,1,8,0:0:0:0:
256,192,271502,1,8,0:0:0:0:
256,192,271569,1,0,0:0:0:0:
256,192,271614,1,0,0:0:0:0:
256,192,271659,1,0,0:0:0:0:
256,192,271703,1,8,0:0:0:0:
256,192,271770,1,8,0:0:0:0:
256,192,271837,1,0,0:0:0:0:
256,192,271904,1,0,0:0:0:0:
256,192,271971,1,8,0:0:0:0:
256,192,272038,1,0,0:0:0:0:
256,192,272105,1,8,0:0:0:0:
256,192,272172,1,0,0:0:0:0:
256,192,272239,1,8,0:0:0:0:
256,192,272306,1,8,0:0:0:0:
256,192,272373,1,4,0:0:0:0:
256,192,272507,1,8,0:0:0:0:
256,192,272574,1,8,0:0:0:0:
256,192,272641,1,8,0:0:0:0:
256,192,272708,1,8,0:0:0:0:
256,192,272775,1,0,0:0:0:0:
256,192,272842,1,0,0:0:0:0:
256,192,272909,1,8,0:0:0:0:
256,192,272976,1,8,0:0:0:0:
256,192,273043,1,8,0:0:0:0:
256,192,273110,1,0,0:0:0:0:
256,192,273177,1,8,0:0:0:0:
256,192,273243,1,8,0:0:0:0:
256,192,273310,1,0,0:0:0:0:
256,192,273377,1,0,0:0:0:0:
256,192,273444,1,8,0:0:0:0:
256,192,273511,1,0,0:0:0:0:
256,192,273578,1,8,0:0:0:0:
256,192,273645,1,8,0:0:0:0:
256,192,273712,1,0,0:0:0:0:
256,192,273779,1,0,0:0:0:0:
256,192,273846,1,0,0:0:0:0:
256,192,273913,1,0,0:0:0:0:
256,192,273980,1,8,0:0:0:0:
256,192,274047,1,8,0:0:0:0:
256,192,274114,1,8,0:0:0:0:
256,192,274181,1,0,0:0:0:0:
256,192,274248,1,8,0:0:0:0:
256,192,274315,1,8,0:0:0:0:
256,192,274382,1,0,0:0:0:0:
256,192,274449,1,0,0:0:0:0:
256,192,274516,1,12,0:0:0:0:
256,192,274784,1,0,0:0:0:0:
256,192,274851,1,0,0:0:0:0:
256,192,274918,1,8,0:0:0:0:
256,192,274985,1,0,0:0:0:0:
256,192,275052,1,8,0:0:0:0:
256,192,275118,1,8,0:0:0:0:
256,192,275185,1,0,0:0:0:0:
256,192,275252,1,0,0:0:0:0:
256,192,275319,1,8,0:0:0:0:
256,192,275386,1,0,0:0:0:0:
256,192,275453,1,0,0:0:0:0:
256,192,275520,1,0,0:0:0:0:
256,192,275587,1,8,0:0:0:0:
256,192,275654,1,8,0:0:0:0:
256,192,275721,1,0,0:0:0:0:
256,192,275788,1,8,0:0:0:0:
256,192,275855,1,0,0:0:0:0:
256,192,275922,1,0,0:0:0:0:
256,192,275989,1,8,0:0:0:0:
256,192,276056,1,0,0:0:0:0:
256,192,276123,1,8,0:0:0:0:
256,192,276190,1,8,0:0:0:0:
256,192,276257,1,0,0:0:0:0:
256,192,276324,1,0,0:0:0:0:
256,192,276391,1,8,0:0:0:0:
256,192,276458,1,0,0:0:0:0:
256,192,276525,1,0,0:0:0:0:
256,192,276592,1,0,0:0:0:0:
256,192,276659,1,8,0:0:0:0:
256,192,276726,1,8,0:0:0:0:
256,192,276793,1,0,0:0:0:0:
256,192,276860,1,8,0:0:0:0:
256,192,276927,1,0,0:0:0:0:
256,192,276993,1,0,0:0:0:0:
256,192,277060,1,8,0:0:0:0:
256,192,277127,1,0,0:0:0:0:
256,192,277194,1,8,0:0:0:0:
256,192,277261,1,8,0:0:0:0:
256,192,277328,1,0,0:0:0:0:
256,192,277395,1,0,0:0:0:0:
256,192,277462,1,8,0:0:0:0:
256,192,277529,1,8,0:0:0:0:
256,192,277596,1,8,0:0:0:0:
256,192,277663,1,0,0:0:0:0:
256,192,277730,1,8,0:0:0:0:
256,192,277797,1,8,0:0:0:0:
256,192,277864,1,0,0:0:0:0:
256,192,277931,1,0,0:0:0:0:
256,192,277998,1,8,0:0:0:0:
256,192,278065,1,0,0:0:0:0:
256,192,278132,1,8,0:0:0:0:
256,192,278199,1,8,0:0:0:0:
256,192,278266,1,0,0:0:0:0:
256,192,278333,1,0,0:0:0:0:
256,192,278400,1,8,0:0:0:0:
256,192,278467,1,0,0:0:0:0:
256,192,278534,1,8,0:0:0:0:
256,192,278601,1,8,0:0:0:0:
256,192,278668,1,0,0:0:0:0:
256,192,278735,1,0,0:0:0:0:
256,192,278802,1,12,0:0:0:0:
256,192,279069,1,0,0:0:0:0:
256,192,279136,1,0,0:0:0:0:
256,192,279203,1,8,0:0:0:0:
256,192,279270,1,0,0:0:0:0:
256,192,279337,1,8,0:0:0:0:
256,192,279404,1,8,0:0:0:0:
256,192,279471,1,0,0:0:0:0:
256,192,279538,1,0,0:0:0:0:
256,192,279605,1,8,0:0:0:0:
256,192,279672,1,0,0:0:0:0:
256,192,279739,1,0,0:0:0:0:
256,192,279806,1,0,0:0:0:0:
256,192,279873,1,8,0:0:0:0:
256,192,279940,1,8,0:0:0:0:
256,192,280007,1,0,0:0:0:0:
256,192,280074,1,0,0:0:0:0:
256,192,280141,1,8,0:0:0:0:
256,192,280208,1,8,0:0:0:0:
256,192,280275,1,8,0:0:0:0:
256,192,280342,1,0,0:0:0:0:
256,192,280409,1,8,0:0:0:0:
256,192,280476,1,8,0:0:0:0:
256,192,280543,1,0,0:0:0:0:
256,192,280610,1,0,0:0:0:0:
256,192,280677,1,8,0:0:0:0:
256,192,280743,1,8,0:0:0:0:
256,192,280810,1,8,0:0:0:0:
256,192,280877,1,8,0:0:0:0:
256,192,280944,1,0,0:0:0:0:
256,192,281011,1,0,0:0:0:0:
256,192,281078,1,8,0:0:0:0:
256,192,281145,1,0,0:0:0:0:
256,192,281212,1,0,0:0:0:0:
256,192,281279,1,0,0:0:0:0:
256,192,281346,1,8,0:0:0:0:
256,192,281413,1,8,0:0:0:0:
256,192,281480,1,0,0:0:0:0:
256,192,281547,1,0,0:0:0:0:
256,192,281614,1,8,0:0:0:0:
256,192,281681,1,0,0:0:0:0:
256,192,281748,1,0,0:0:0:0:
256,192,281815,1,0,0:0:0:0:
256,192,281882,1,8,0:0:0:0:
256,192,281949,1,0,0:0:0:0:
256,192,282016,1,8,0:0:0:0:
256,192,282083,1,8,0:0:0:0:
256,192,282150,1,0,0:0:0:0:
256,192,282217,1,0,0:0:0:0:
256,192,282284,1,8,0:0:0:0:
256,192,282351,1,0,0:0:0:0:
256,192,282418,1,8,0:0:0:0:
256,192,282485,1,0,0:0:0:0:
256,192,282552,1,8,0:0:0:0:
256,192,282618,1,8,0:0:0:0:
256,192,282685,1,8,0:0:0:0:
256,192,282752,1,8,0:0:0:0:
256,192,282819,1,0,0:0:0:0:
256,192,282886,1,0,0:0:0:0:
256,192,282953,1,0,0:0:0:0:
256,192,283020,1,0,0:0:0:0:
256,192,283087,1,12,0:0:0:0:
256,192,283221,1,0,0:0:0:0:
256,192,283288,1,0,0:0:0:0:
256,192,283355,1,0,0:0:0:0:
256,192,283422,1,0,0:0:0:0:
256,192,283489,1,8,0:0:0:0:
256,192,283556,1,8,0:0:0:0:
256,192,283623,1,0,0:0:0:0:
256,192,283690,1,8,0:0:0:0:
256,192,283757,1,0,0:0:0:0:
256,192,283824,1,0,0:0:0:0:
256,192,283891,1,8,0:0:0:0:
256,192,283958,1,8,0:0:0:0:
256,192,284025,1,8,0:0:0:0:
256,192,284092,1,0,0:0:0:0:
256,192,284159,1,8,0:0:0:0:
256,192,284225,1,8,0:0:0:0:
256,192,284292,1,0,0:0:0:0:
256,192,284359,1,8,0:0:0:0:
256,192,284426,1,0,0:0:0:0:
256,192,284493,1,0,0:0:0:0:
256,192,284560,1,8,0:0:0:0:
256,192,284627,1,8,0:0:0:0:
256,192,284694,1,0,0:0:0:0:
256,192,284761,1,0,0:0:0:0:
256,192,284828,1,8,0:0:0:0:
256,192,284895,1,0,0:0:0:0:
256,192,284962,1,8,0:0:0:0:
256,192,285029,1,8,0:0:0:0:
256,192,285096,1,0,0:0:0:0:
256,192,285163,1,0,0:0:0:0:
256,192,285230,1,8,0:0:0:0:
256,192,285297,1,0,0:0:0:0:
256,192,285364,1,0,0:0:0:0:
256,192,285431,1,8,0:0:0:0:
256,192,285498,1,8,0:0:0:0:
256,192,285565,1,0,0:0:0:0:
256,192,285632,1,8,0:0:0:0:
256,192,285699,1,0,0:0:0:0:
256,192,285766,1,0,0:0:0:0:
256,192,285833,1,0,0:0:0:0:
256,192,285900,1,8,0:0:0:0:
256,192,285967,1,8,0:0:0:0:
256,192,286034,1,0,0:0:0:0:
256,192,286100,1,8,0:0:0:0:
256,192,286167,1,8,0:0:0:0:
256,192,286234,1,8,0:0:0:0:
256,192,286301,1,0,0:0:0:0:
256,192,286368,1,0,0:0:0:0:
256,192,286435,1,8,0:0:0:0:
256,192,286502,1,0,0:0:0:0:
256,192,286569,1,8,0:0:0:0:
256,192,286636,1,8,0:0:0:0:
256,192,286703,1,0,0:0:0:0:
256,192,286770,1,0,0:0:0:0:
256,192,286837,1,8,0:0:0:0:
256,192,286904,1,8,0:0:0:0:
256,192,286971,1,8,0:0:0:0:
256,192,287038,1,0,0:0:0:0:
256,192,287105,1,8,0:0:0:0:
256,192,287172,1,8,0:0:0:0:
256,192,287239,1,8,0:0:0:0:
256,192,287306,1,8,0:0:0:0:
256,192,287373,1,4,0:0:0:0:
256,192,287507,1,8,0:0:0:0:
256,192,287641,1,0,0:0:0:0:
256,192,287708,1,0,0:0:0:0:
256,192,287775,1,8,0:0:0:0:
256,192,287842,1,8,0:0:0:0:
256,192,287909,1,0,0:0:0:0:
256,192,287975,1,8,0:0:0:0:
256,192,288042,1,0,0:0:0:0:
256,192,288109,1,0,0:0:0:0:
256,192,288176,1,8,0:0:0:0:
256,192,288243,1,8,0:0:0:0:
256,192,288310,1,8,0:0:0:0:
256,192,288377,1,8,0:0:0:0:
256,192,288444,1,4,0:0:0:0:
256,192,288578,1,8,0:0:0:0:
256,192,288712,1,0,0:0:0:0:
256,192,288779,1,0,0:0:0:0:
256,192,288846,1,8,0:0:0:0:
256,192,288913,1,8,0:0:0:0:
256,192,288980,1,8,0:0:0:0:
256,192,289047,1,0,0:0:0:0:
256,192,289114,1,8,0:0:0:0:
256,192,289181,1,8,0:0:0:0:
256,192,289248,1,0,0:0:0:0:
256,192,289315,1,8,0:0:0:0:
256,192,289382,1,8,0:0:0:0:
256,192,289449,1,8,0:0:0:0:
256,192,289516,1,4,0:0:0:0:
256,192,289650,1,8,0:0:0:0:
256,192,289784,1,0,0:0:0:0:
256,192,289850,1,0,0:0:0:0:
256,192,289917,1,8,0:0:0:0:
256,192,290051,1,0,0:0:0:0:
256,192,290185,1,8,0:0:0:0:
256,192,290252,1,0,0:0:0:0:
256,192,290386,1,8,0:0:0:0:
256,192,290453,1,8,0:0:0:0:
256,192,290587,1,8,0:0:0:0:
256,192,290654,1,8,0:0:0:0:
256,192,290721,1,8,0:0:0:0:
256,192,290788,1,8,0:0:0:0:
256,192,290855,1,0,0:0:0:0:
256,192,290922,1,0,0:0:0:0:
256,192,290989,1,0,0:0:0:0:
256,192,291056,1,0,0:0:0:0:
256,192,291123,1,8,0:0:0:0:
256,192,291190,1,8,0:0:0:0:
256,192,291257,1,8,0:0:0:0:
256,192,291324,1,0,0:0:0:0:
256,192,291391,1,8,0:0:0:0:
256,192,291458,1,8,0:0:0:0:
256,192,291525,1,0,0:0:0:0:
256,192,291659,1,12,0:0:0:0:
256,192,291792,1,0,0:0:0:0:
256,192,291859,1,0,0:0:0:0:
256,192,291926,1,0,0:0:0:0:
256,192,291993,1,0,0:0:0:0:
256,192,292060,1,8,0:0:0:0:
256,192,292127,1,8,0:0:0:0:
256,192,292194,1,0,0:0:0:0:
256,192,292261,1,8,0:0:0:0:
256,192,292328,1,0,0:0:0:0:
256,192,292395,1,0,0:0:0:0:
256,192,292462,1,8,0:0:0:0:
256,192,292529,1,8,0:0:0:0:
256,192,292596,1,0,0:0:0:0:
256,192,292663,1,8,0:0:0:0:
256,192,292730,1,8,0:0:0:0:
256,192,292797,1,8,0:0:0:0:
256,192,292864,1,0,0:0:0:0:
256,192,292931,1,8,0:0:0:0:
256,192,292998,1,0,0:0:0:0:
256,192,293065,1,0,0:0:0:0:
256,192,293132,1,8,0:0:0:0:
256,192,293199,1,8,0:0:0:0:
256,192,293266,1,0,0:0:0:0:
256,192,293333,1,0,0:0:0:0:
256,192,293400,1,8,0:0:0:0:
256,192,293467,1,0,0:0:0:0:
256,192,293534,1,8,0:0:0:0:
256,192,293600,1,8,0:0:0:0:
256,192,293667,1,0,0:0:0:0:
256,192,293734,1,0,0:0:0:0:
256,192,293801,1,8,0:0:0:0:
256,192,293868,1,8,0:0:0:0:
256,192,293935,1,0,0:0:0:0:
256,192,294002,1,8,0:0:0:0:
256,192,294069,1,0,0:0:0:0:
256,192,294136,1,0,0:0:0:0:
256,192,294203,1,8,0:0:0:0:
256,192,294270,1,8,0:0:0:0:
256,192,294337,1,8,0:0:0:0:
256,192,294404,1,8,0:0:0:0:
256,192,294471,1,0,0:0:0:0:
256,192,294538,1,0,0:0:0:0:
256,192,294605,1,8,0:0:0:0:
256,192,294672,1,8,0:0:0:0:
256,192,294739,1,8,0:0:0:0:
256,192,294806,1,0,0:0:0:0:
256,192,294873,1,8,0:0:0:0:
256,192,294940,1,8,0:0:0:0:
256,192,295007,1,0,0:0:0:0:
256,192,295074,1,0,0:0:0:0:
256,192,295141,1,8,0:0:0:0:
256,192,295208,1,0,0:0:0:0:
256,192,295275,1,0,0:0:0:0:
256,192,295342,1,0,0:0:0:0:
256,192,295409,1,8,0:0:0:0:
256,192,295475,1,8,0:0:0:0:
256,192,295542,1,8,0:0:0:0:
256,192,295609,1,0,0:0:0:0:
256,192,295676,1,8,0:0:0:0:
256,192,295743,1,8,0:0:0:0:
256,192,295810,1,8,0:0:0:0:
256,192,295877,1,8,0:0:0:0:
256,192,295944,1,4,0:0:0:0:
256,192,296078,1,8,0:0:0:0:
256,192,296212,1,0,0:0:0:0:
256,192,296279,1,0,0:0:0:0:
256,192,296346,1,8,0:0:0:0:
256,192,296413,1,0,0:0:0:0:
256,192,296480,1,8,0:0:0:0:
256,192,296547,1,8,0:0:0:0:
256,192,296614,1,0,0:0:0:0:
256,192,296681,1,0,0:0:0:0:
256,192,296748,1,8,0:0:0:0:
256,192,296815,1,8,0:0:0:0:
256,192,296882,1,8,0:0:0:0:
256,192,296949,1,8,0:0:0:0:
256,192,297016,1,4,0:0:0:0:
256,192,297150,1,8,0:0:0:0:
256,192,297284,1,0,0:0:0:0:
256,192,297350,1,0,0:0:0:0:
256,192,297417,1,8,0:0:0:0:
256,192,297484,1,8,0:0:0:0:
256,192,297551,1,0,0:0:0:0:
256,192,297618,1,8,0:0:0:0:
256,192,297685,1,8,0:0:0:0:
256,192,297752,1,8,0:0:0:0:
256,192,297819,1,0,0:0:0:0:
256,192,297886,1,0,0:0:0:0:
256,192,297953,1,8,0:0:0:0:
256,192,298020,1,8,0:0:0:0:
256,192,298087,1,4,0:0:0:0:
256,192,298221,1,8,0:0:0:0:
256,192,298288,1,8,0:0:0:0:
256,192,298355,1,8,0:0:0:0:
256,192,298422,1,8,0:0:0:0:
256,192,298489,1,0,0:0:0:0:
256,192,298556,1,8,0:0:0:0:
256,192,298623,1,8,0:0:0:0:
256,192,298690,1,8,0:0:0:0:
256,192,298757,1,0,0:0:0:0:
256,192,298824,1,0,0:0:0:0:
256,192,298891,1,8,0:0:0:0:
256,192,298958,1,0,0:0:0:0:
256,192,299025,1,0,0:0:0:0:
256,192,299092,1,0,0:0:0:0:
256,192,299159,1,8,0:0:0:0:
256,192,299226,1,0,0:0:0:0:
256,192,299293,1,8,0:0:0:0:
256,192,299360,1,8,0:0:0:0:
256,192,299427,1,0,0:0:0:0:
256,192,299493,1,0,0:0:0:0:
256,192,299560,1,8,0:0:0:0:
256,192,299627,1,0,0:0:0:0:
256,192,299694,1,8,0:0:0:0:
256,192,299761,1,8,0:0:0:0:
256,192,299828,1,8,0:0:0:0:
256,192,299895,1,0,0:0:0:0:
256,192,299962,1,8,0:0:0:0:
256,192,300029,1,8,0:0:0:0:
256,192,300096,1,0,0:0:0:0:
256,192,300230,1,12,0:0:0:0:
256,192,300364,1,0,0:0:0:0:
256,192,300431,1,0,0:0:0:0:
256,192,300498,1,0,0:0:0:0:
256,192,300565,1,0,0:0:0:0:
256,192,300632,1,8,0:0:0:0:
256,192,300766,1,0,0:0:0:0:
256,192,300833,1,0,0:0:0:0:
256,192,300900,1,0,0:0:0:0:
256,192,300967,1,0,0:0:0:0:
256,192,301034,1,8,0:0:0:0:
256,192,301101,1,8,0:0:0:0:
256,192,301168,1,0,0:0:0:0:
256,192,301302,1,8,0:0:0:0:
256,192,301435,1,0,0:0:0:0:
256,192,301502,1,0,0:0:0:0:
256,192,301569,1,8,0:0:0:0:
256,192,301636,1,0,0:0:0:0:
256,192,301703,1,8,0:0:0:0:
256,192,301837,1,0,0:0:0:0:
256,192,301904,1,0,0:0:0:0:
256,192,301971,1,8,0:0:0:0:
256,192,302038,1,0,0:0:0:0:
256,192,302105,1,8,0:0:0:0:
256,192,302172,1,8,0:0:0:0:
256,192,302239,1,0,0:0:0:0:
256,192,302373,1,8,0:0:0:0:
256,192,302507,1,8,0:0:0:0:
256,192,302574,1,8,0:0:0:0:
256,192,302641,1,0,0:0:0:0:
256,192,302708,1,0,0:0:0:0:
256,192,302775,1,8,0:0:0:0:
256,192,302909,1,0,0:0:0:0:
256,192,302976,1,8,0:0:0:0:
256,192,303043,1,0,0:0:0:0:
256,192,303110,1,0,0:0:0:0:
256,192,303177,1,8,0:0:0:0:
256,192,303243,1,8,0:0:0:0:
256,192,303310,1,0,0:0:0:0:
256,192,303444,1,8,0:0:0:0:
256,192,303511,1,8,0:0:0:0:
256,192,303578,1,0,0:0:0:0:
256,192,303645,1,8,0:0:0:0:
256,192,303712,1,0,0:0:0:0:
256,192,303779,1,0,0:0:0:0:
256,192,303846,1,8,0:0:0:0:
256,192,303913,1,8,0:0:0:0:
256,192,303980,1,0,0:0:0:0:
256,192,304047,1,0,0:0:0:0:
256,192,304114,1,8,0:0:0:0:
256,192,304181,1,0,0:0:0:0:
256,192,304248,1,8,0:0:0:0:
256,192,304315,1,8,0:0:0:0:
256,192,304382,1,0,0:0:0:0:
256,192,304516,1,12,0:0:0:0:
256,192,304650,1,0,0:0:0:0:
256,192,304717,1,0,0:0:0:0:
256,192,304784,1,0,0:0:0:0:
256,192,304851,1,0,0:0:0:0:
256,192,304918,1,8,0:0:0:0:
256,192,305052,1,0,0:0:0:0:
256,192,305118,1,0,0:0:0:0:
256,192,305185,1,0,0:0:0:0:
256,192,305252,1,0,0:0:0:0:
256,192,305319,1,8,0:0:0:0:
256,192,305386,1,8,0:0:0:0:
256,192,305453,1,0,0:0:0:0:
256,192,305587,1,8,0:0:0:0:
256,192,305721,1,0,0:0:0:0:
256,192,305788,1,0,0:0:0:0:
256,192,305855,1,8,0:0:0:0:
256,192,305922,1,0,0:0:0:0:
256,192,305989,1,8,0:0:0:0:
256,192,306123,1,0,0:0:0:0:
256,192,306190,1,0,0:0:0:0:
256,192,306257,1,8,0:0:0:0:
256,192,306324,1,0,0:0:0:0:
256,192,306391,1,8,0:0:0:0:
256,192,306458,1,8,0:0:0:0:
256,192,306525,1,0,0:0:0:0:
256,192,306659,1,8,0:0:0:0:
256,192,306793,1,8,0:0:0:0:
256,192,306860,1,8,0:0:0:0:
256,192,306927,1,0,0:0:0:0:
256,192,306993,1,0,0:0:0:0:
256,192,307060,1,8,0:0:0:0:
256,192,307194,1,0,0:0:0:0:
256,192,307261,1,8,0:0:0:0:
256,192,307328,1,0,0:0:0:0:
256,192,307395,1,0,0:0:0:0:
256,192,307462,1,8,0:0:0:0:
256,192,307529,1,8,0:0:0:0:
256,192,307596,1,0,0:0:0:0:
256,192,307730,1,12,0:0:0:0:
256,192,307864,1,0,0:0:0:0:
256,192,307931,1,0,0:0:0:0:
256,192,307998,1,0,0:0:0:0:
256,192,308065,1,0,0:0:0:0:
256,192,308132,1,12,0:0:0:0:
256,192,308266,1,0,0:0:0:0:
256,192,308333,1,0,0:0:0:0:
256,192,308400,1,0,0:0:0:0:
256,192,308467,1,0,0:0:0:0:
256,192,308534,1,12,0:0:0:0:
256,192,308668,1,0,0:0:0:0:
256,192,308802,1,12,0:0:0:0:
256,192,308935,1,0,0:0:0:0:
256,192,309002,1,8,0:0:0:0:
256,192,309069,1,0,0:0:0:0:
256,192,309136,1,0,0:0:0:0:
256,192,309203,1,8,0:0:0:0:
256,192,309270,1,8,0:0:0:0:
256,192,309337,1,0,0:0:0:0:
256,192,309404,1,8,0:0:0:0:
256,192,309471,1,0,0:0:0:0:
256,192,309538,1,0,0:0:0:0:
256,192,309605,1,8,0:0:0:0:
256,192,309672,1,8,0:0:0:0:
256,192,309739,1,8,0:0:0:0:
256,192,309806,1,0,0:0:0:0:
256,192,309873,1,8,0:0:0:0:
256,192,309940,1,8,0:0:0:0:
256,192,310007,1,0,0:0:0:0:
256,192,310074,1,8,0:0:0:0:
256,192,310141,1,0,0:0:0:0:
256,192,310208,1,0,0:0:0:0:
256,192,310275,1,8,0:0:0:0:
256,192,310342,1,8,0:0:0:0:
256,192,310409,1,0,0:0:0:0:
256,192,310476,1,8,0:0:0:0:
256,192,310543,1,0,0:0:0:0:
256,192,310610,1,0,0:0:0:0:
256,192,310677,1,8,0:0:0:0:
256,192,310743,1,0,0:0:0:0:
256,192,310810,1,8,0:0:0:0:
256,192,310877,1,0,0:0:0:0:
256,192,310944,1,8,0:0:0:0:
256,192,311011,1,8,0:0:0:0:
256,192,311078,1,0,0:0:0:0:
256,192,311145,1,0,0:0:0:0:
256,192,311212,1,8,0:0:0:0:
256,192,311279,1,0,0:0:0:0:
256,192,311346,1,8,0:0:0:0:
256,192,311413,1,8,0:0:0:0:
256,192,311480,1,0,0:0:0:0:
256,192,311547,1,0,0:0:0:0:
256,192,311614,1,8,0:0:0:0:
256,192,311681,1,0,0:0:0:0:
256,192,311748,1,8,0:0:0:0:
256,192,311815,1,8,0:0:0:0:
256,192,311882,1,8,0:0:0:0:
256,192,311949,1,0,0:0:0:0:
256,192,312016,1,8,0:0:0:0:
256,192,312083,1,8,0:0:0:0:
256,192,312150,1,0,0:0:0:0:
256,192,312217,1,0,0:0:0:0:
256,192,312284,1,8,0:0:0:0:
256,192,312351,1,0,0:0:0:0:
256,192,312418,1,8,0:0:0:0:
256,192,312485,1,8,0:0:0:0:
256,192,312552,1,0,0:0:0:0:
256,192,312618,1,0,0:0:0:0:
256,192,312685,1,8,0:0:0:0:
256,192,312752,1,0,0:0:0:0:
256,192,312819,1,8,0:0:0:0:
256,192,312886,1,8,0:0:0:0:
256,192,312953,1,8,0:0:0:0:
256,192,313020,1,8,0:0:0:0:
256,192,313087,1,4,0:0:0:0:
256,192,313221,1,0,0:0:0:0:
256,192,313288,1,8,0:0:0:0:
256,192,313355,1,0,0:0:0:0:
256,192,313422,1,0,0:0:0:0:
256,192,313489,1,8,0:0:0:0:
256,192,313556,1,8,0:0:0:0:
256,192,313623,1,0,0:0:0:0:
256,192,313690,1,8,0:0:0:0:
256,192,313757,1,0,0:0:0:0:
256,192,313824,1,0,0:0:0:0:
256,192,313891,1,8,0:0:0:0:
256,192,313958,1,8,0:0:0:0:
256,192,314025,1,8,0:0:0:0:
256,192,314092,1,0,0:0:0:0:
256,192,314159,1,8,0:0:0:0:
256,192,314226,1,8,0:0:0:0:
256,192,314293,1,0,0:0:0:0:
256,192,314360,1,8,0:0:0:0:
256,192,314427,1,0,0:0:0:0:
256,192,314493,1,0,0:0:0:0:
256,192,314560,1,8,0:0:0:0:
256,192,314627,1,8,0:0:0:0:
256,192,314694,1,0,0:0:0:0:
256,192,314761,1,8,0:0:0:0:
256,192,314828,1,0,0:0:0:0:
256,192,314895,1,0,0:0:0:0:
256,192,314962,1,8,0:0:0:0:
256,192,315029,1,8,0:0:0:0:
256,192,315096,1,0,0:0:0:0:
256,192,315163,1,0,0:0:0:0:
256,192,315230,1,12,0:0:0:0:
256,192,315364,1,0,0:0:0:0:
256,192,315431,1,8,0:0:0:0:
256,192,315498,1,0,0:0:0:0:
256,192,315565,1,0,0:0:0:0:
256,192,315632,1,8,0:0:0:0:
256,192,315766,1,8,0:0:0:0:
256,192,315833,1,8,0:0:0:0:
256,192,315900,1,0,0:0:0:0:
256,192,315967,1,0,0:0:0:0:
256,192,316034,1,8,0:0:0:0:
256,192,316101,1,8,0:0:0:0:
256,192,316168,1,8,0:0:0:0:
256,192,316235,1,8,0:0:0:0:
256,192,316302,1,4,0:0:0:0:
256,192,316569,1,8,0:0:0:0:
256,192,316636,1,8,0:0:0:0:
256,192,316703,1,0,0:0:0:0:
256,192,316770,1,0,0:0:0:0:
256,192,316837,1,8,0:0:0:0:
256,192,316904,1,8,0:0:0:0:
256,192,316971,1,8,0:0:0:0:
256,192,317038,1,8,0:0:0:0:
256,192,317105,1,0,0:0:0:0:
256,192,317172,1,0,0:0:0:0:
256,192,317239,1,8,0:0:0:0:
256,192,317306,1,0,0:0:0:0:
256,192,317373,1,8,0:0:0:0:
256,192,317440,1,8,0:0:0:0:
256,192,317507,1,0,0:0:0:0:
256,192,317574,1,0,0:0:0:0:
256,192,317641,1,0,0:0:0:0:
256,192,317775,1,0,0:0:0:0:
256,192,317909,1,8,0:0:0:0:
256,192,318043,1,8,0:0:0:0:
256,192,318110,1,8,0:0:0:0:
256,192,318177,1,0,0:0:0:0:
256,192,318243,1,0,0:0:0:0:
256,192,318310,1,8,0:0:0:0:
256,192,318377,1,0,0:0:0:0:
256,192,318444,1,8,0:0:0:0:
256,192,318511,1,8,0:0:0:0:
256,192,318578,1,0,0:0:0:0:
256,192,318645,1,0,0:0:0:0:
256,192,318712,1,8,0:0:0:0:
256,192,318846,1,0,0:0:0:0:
256,192,318913,1,0,0:0:0:0:
256,192,318980,1,8,0:0:0:0:
256,192,319114,1,0,0:0:0:0:
256,192,319181,1,0,0:0:0:0:
256,192,319248,1,0,0:0:0:0:
256,192,319315,1,0,0:0:0:0:
256,192,319382,1,0,0:0:0:0:
256,192,319449,1,0,0:0:0:0:
256,192,319516,1,12,0:0:0:0:
256,192,319650,1,12,0:0:0:0:
