osu file format v14

[General]
AudioFilename: audio.mp3
AudioLeadIn: 0
PreviewTime: 267826
Countdown: 0
SampleSet: Drum
StackLeniency: 0.4
Mode: 0
LetterboxInBreaks: 0
WidescreenStoryboard: 1

[Editor]
Bookmarks: 19514,19643,53928,66656,70942,96785,113928,122500,177176,255230,267423,308802,316302,320052
DistanceSpacing: 0.8
BeatDivisor: 8
GridSize: 32
TimelineZoom: 2.450003

[Metadata]
Title:Astral Empire
TitleUnicode:Astral Empire
Artist:DragonForce
ArtistUnicode:DragonForce
Creator:ItsWinter
Version:Break of Dawn
Source:
Tags:dragon force silence player val axer axerite herman li marc hudson sam totman gee anzalone coen janssen frédéric frederic leclercq reaching into infinity power metal speed english 2017
BeatmapID:3954641
BeatmapSetID:1877097

[Difficulty]
HPDrainRate:3.5
CircleSize:4.3
OverallDifficulty:10
ApproachRate:10
SliderMultiplier:2
SliderTickRate:0.5

[Events]
//Background and Video events
0,0,"judgement.png",0,0
//Break Periods
2,141985,143507
//Storyboard Layer 0 (Background)
//Storyboard Layer 1 (Fail)
//Storyboard Layer 2 (Pass)
//Storyboard Layer 3 (Foreground)
//Storyboard Layer 4 (Overlay)
//Storyboard Sound Samples

[TimingPoints]
319,258.620689655172,4,3,1,50,1,0
448,270.27027027027,4,3,1,50,1,8
859,235.294117647059,4,3,1,50,1,8
976,304.568527918782,4,3,1,50,1,8
1128,246.913580246914,4,3,1,50,1,8
1399,236.220472440945,4,3,1,50,1,0
1521,292.682926829268,4,3,1,50,1,8
1667,241.935483870968,4,3,1,50,1,8
1787,255.31914893617,4,3,1,50,1,8
1914,294.117647058824,4,3,1,50,1,8
2208,272.727272727273,4,3,1,50,1,8
2480,271.493212669683,4,3,1,50,1,0
4373,262.008733624454,4,3,1,50,1,8
4438,246.913580246914,4,3,1,50,1,8
4499,230.769230769231,4,3,1,50,1,8
4638,267.857142857143,4,3,1,65,1,0
4638,-66.6666666666667,4,3,1,65,0,0
4838,-66.6666666666667,4,3,1,5,0,0
4905,-66.6666666666667,4,3,1,65,0,0
5441,-66.6666666666667,4,3,1,65,0,0
7517,-66.6666666666667,4,3,1,5,0,0
7584,-66.6666666666667,4,3,1,65,0,0
8923,-66.6666666666667,4,3,1,65,0,0
9124,-66.6666666666667,4,3,1,5,0,0
9191,-66.6666666666667,4,3,1,65,0,0
13209,-100,4,3,7,65,0,0
13343,-100,4,3,1,65,0,0
13611,-100,4,3,8,65,0,0
13745,-100,4,3,1,65,0,0
14013,-100,4,3,9,65,0,0
14146,-100,4,3,1,65,0,0
15352,-50,4,3,1,65,0,0
15553,-50,4,3,1,5,0,0
15620,-71.4285714285714,4,3,1,65,0,0
19370,-200,4,3,1,65,0,0
19571,-200,4,3,1,5,0,0
19638,-66.6666666666667,4,3,1,65,0,0
19905,-83.3333333333333,4,3,1,65,0,0
21513,-100,4,3,1,65,0,0
23381,267.857142857143,4,3,1,65,1,8
23916,267.857142857143,4,3,1,65,1,0
23916,-66.6666666666667,4,3,1,65,0,0
24117,-66.6666666666667,4,3,1,5,0,0
24184,-83.3333333333333,4,3,1,65,0,0
24988,-66.6666666666667,4,3,1,65,0,0
25256,-83.3333333333333,4,3,1,65,0,0
26059,-66.6666666666667,4,3,1,65,0,0
27934,-66.6666666666667,4,3,7,65,0,0
28202,-66.6666666666667,4,3,1,65,0,0
28604,-83.3333333333333,4,3,1,65,0,0
30077,-100,4,3,1,65,0,0
31416,-83.3333333333333,4,3,1,65,0,0
32086,-83.3333333333333,4,3,7,65,0,0
32220,-83.3333333333333,4,3,8,65,0,0
32488,-66.6666666666667,4,3,1,65,0,0
32689,-66.6666666666667,4,3,1,5,0,0
32756,-83.3333333333333,4,3,1,65,0,0
33760,-83.3333333333333,4,3,1,5,0,0
33827,-83.3333333333333,4,3,1,65,0,0
35568,-83.3333333333333,4,3,7,65,0,0
35635,-83.3333333333333,4,3,8,65,0,0
35702,-83.3333333333333,4,3,1,65,0,0
36773,-333.333333333333,4,3,1,65,0,0
37108,-66.6666666666667,4,3,1,65,0,0
40791,-66.6666666666667,4,3,8,65,0,0
41058,267.857142857143,4,3,8,65,1,8
41066,267.857142857143,4,3,1,65,1,0
41066,-66.6666666666667,4,3,1,65,0,0
41267,-66.6666666666667,4,3,1,5,0,0
41334,-83.3333333333333,4,3,1,65,0,0
42138,-66.6666666666667,4,3,1,65,0,0
42338,-66.6666666666667,4,3,1,5,0,0
42405,-66.6666666666667,4,3,1,65,0,0
42539,-83.3333333333333,4,3,1,65,0,0
43209,-66.6666666666667,4,3,1,65,0,0
43410,-66.6666666666667,4,3,1,5,0,0
43477,-83.3333333333333,4,3,1,65,0,0
45352,-66.6666666666667,4,3,1,65,0,0
45754,-83.3333333333333,4,3,1,65,0,0
49638,-333.333333333333,4,3,1,65,0,0
50039,-76.9230769230769,4,3,1,65,0,0
52852,-66.6666666666667,4,3,1,65,0,0
53655,-133.333333333333,4,3,1,65,0,0
53789,-100,4,3,1,65,0,0
53923,-200,4,3,1,65,0,0
54124,-200,4,3,1,5,0,0
54191,-100,4,3,1,65,0,0
54995,-66.6666666666667,4,3,1,65,0,0
55798,-100,4,3,1,65,0,0
56066,-76.9230769230769,4,3,1,65,0,0
61155,-111.111111111111,4,3,1,65,0,0
62495,-333.333333333332,4,3,1,65,0,0
62696,-333.333333333332,4,3,1,5,0,0
62763,-83.3333333333333,4,3,1,65,0,0
63566,-66.6666666666667,4,3,1,65,0,0
64370,-111.111111111111,4,3,1,65,0,0
64638,-83.3333333333333,4,3,1,65,0,0
66780,-200,4,3,1,75,0,1
66981,-200,4,3,1,5,0,1
67048,-200,4,3,1,75,0,1
69994,-66.6666666666667,4,3,1,65,0,0
70263,-200,4,3,7,65,0,0
70530,-100,4,3,8,65,0,0
70798,-80,4,3,9,65,0,0
71066,-66.6666666666667,4,3,1,80,0,1
71267,-66.6666666666667,4,3,1,5,0,1
71334,-66.6666666666667,4,3,1,80,0,1
72941,-100,4,3,1,80,0,1
73209,-66.6666666666667,4,3,1,80,0,1
76155,-100,4,3,1,80,0,1
76423,-66.6666666666667,4,3,1,80,0,1
79905,-83.3333333333333,4,3,1,80,0,1
80039,-66.6666666666667,4,3,1,80,0,1
80977,-83.3333333333333,4,3,1,80,0,1
81111,-66.6666666666667,4,3,1,80,0,1
84727,-83.3333333333333,4,3,1,80,0,1
85396,-66.6666666666667,4,3,1,80,0,1
87405,-133.333333333333,4,3,1,80,0,1
88208,-66.6666666666667,4,3,1,65,0,0
88745,-66.6666666666667,4,3,1,65,0,0
90084,-50,4,3,1,65,0,0
90888,-66.6666666666667,4,3,1,65,0,0
91021,-83.3333333333333,4,3,1,65,0,0
91155,-66.6666666666667,4,3,1,65,0,0
91289,-83.3333333333333,4,3,1,65,0,0
92227,-50,4,3,1,65,0,0
92629,-66.6666666666667,4,3,1,65,0,0
96981,-66.6666666666667,4,3,1,5,0,0
97048,-83.3333333333333,4,3,1,65,0,0
98053,-83.3333333333333,4,3,1,5,0,0
98120,-83.3333333333333,4,3,1,65,0,0
99124,-83.3333333333333,4,3,1,5,0,0
99191,-83.3333333333333,4,3,1,65,0,0
101066,-250,4,3,1,65,0,0
101401,-83.3333333333333,4,3,1,65,0,0
105352,-66.6666666666667,4,3,1,65,0,0
105553,-66.6666666666667,4,3,1,5,0,0
105620,-83.3333333333333,4,3,1,65,0,0
106624,-83.3333333333333,4,3,1,5,0,0
106691,-83.3333333333333,4,3,1,65,0,0
107495,-66.6666666666667,4,3,1,65,0,0
109035,-66.6666666666667,4,3,7,65,0,0
109370,-66.6666666666667,4,3,9,65,0,0
109638,-66.6666666666667,4,3,1,65,0,0
110039,-83.3333333333333,4,3,1,65,0,0
110441,-100,4,3,1,65,0,0
110709,-83.3333333333333,4,3,1,65,0,0
113655,-83.3333333333333,4,3,8,65,0,0
113789,-83.3333333333333,4,3,1,65,0,0
113923,-50,4,3,1,75,0,1
114124,-50,4,3,1,5,0,1
114191,-50,4,3,1,75,0,1
114995,-83.3333333333333,4,3,1,75,0,1
117204,-83.3333333333333,4,3,7,75,0,1
117271,-83.3333333333333,4,3,8,75,0,1
117405,-83.3333333333333,4,3,1,75,0,1
117472,-83.3333333333333,4,3,7,75,0,1
117539,-83.3333333333333,4,3,8,75,0,1
117673,-83.3333333333333,4,3,1,75,0,1
117874,-83.3333333333333,4,3,7,75,0,1
117941,-83.3333333333333,4,3,1,75,0,1
118008,-83.3333333333333,4,3,7,75,0,1
118075,-83.3333333333333,4,3,1,75,0,1
118209,-43.4782608695652,4,3,1,75,0,1
118410,-43.4782608695652,4,3,1,5,0,1
118477,-43.4782608695652,4,3,1,75,0,1
120084,-66.6666666666667,4,3,1,75,0,1
120888,-83.3333333333333,4,3,1,75,0,1
122226,-83.3333333333333,4,3,1,75,0,0
122494,-66.6666666666667,4,3,1,75,0,1
122696,-66.6666666666667,4,3,1,5,0,1
122763,-66.6666666666667,4,3,1,75,0,1
124370,-100,4,3,1,75,0,1
124638,-66.6666666666667,4,3,1,75,0,1
127584,-100,4,3,1,75,0,1
127852,-66.6666666666667,4,3,1,75,0,1
130263,-66.6666666666667,4,3,7,75,0,1
130530,-76.9230769230769,4,3,8,75,0,1
130798,-76.9230769230769,4,3,9,75,0,1
131066,-66.6666666666667,4,3,1,75,0,1
138164,-66.6666666666667,4,3,7,75,0,1
138298,-66.6666666666667,4,3,1,75,0,1
138432,-66.6666666666667,4,3,7,75,0,1
138565,267.857142857143,4,3,7,75,1,9
138571,256.410256410256,4,3,1,50,1,0
138571,-83.3333333333333,4,3,1,50,0,0
138827,260.869565217391,4,3,1,50,1,8
139237,260.869565217391,4,3,1,50,1,8
139628,266.666666666667,4,3,1,50,1,0
139628,-76.9230769230769,4,3,1,50,0,0
140028,283.018867924528,4,3,1,50,1,8
140028,-76.9230769230769,4,3,1,50,0,0
140170,266.666666666667,4,3,1,50,1,8
140587,262.008733624454,4,3,1,50,1,8
140718,262.008733624454,4,3,1,50,1,0
141102,263.157894736842,4,3,1,50,1,8
141785,275.229357798165,4,3,1,75,1,0
141785,-500,4,3,1,75,0,0
143986,-500,4,3,10,50,0,0
144537,-500,4,3,1,50,0,0
147977,-500,4,3,1,5,0,0
148115,-500,4,3,10,50,0,0
148390,-250.000000000001,4,3,10,50,0,0
148872,-250.000000000001,4,3,10,5,0,0
148940,-250.000000000001,4,3,1,50,0,0
150317,-250.000000000001,4,3,10,50,0,0
150592,-500.000000000005,4,3,1,50,0,0
152656,-500.000000000005,4,3,1,5,0,0
152794,-500.000000000005,4,3,10,50,0,0
153344,-333.333333333336,4,3,1,50,0,0
154583,-333.333333333336,4,3,1,5,0,0
154720,-333.333333333336,4,3,1,50,0,0
154996,-142.857142857143,4,3,1,50,0,0
158986,-142.857142857143,4,3,7,50,0,0
159124,-142.857142857143,4,3,8,50,0,0
159399,277.777777777778,4,3,1,50,1,0
159399,-133.333333333333,4,3,1,50,0,0
162176,-100,4,3,1,50,0,0
162732,-133.333333333333,4,3,1,50,0,0
165718,-133.333333333333,4,3,1,5,0,0
165787,-133.333333333333,4,3,1,50,0,0
166065,-100,4,3,1,50,0,0
167315,-111.111111111111,4,3,1,50,0,0
172524,-111.111111111111,4,3,1,5,0,0
172593,-111.111111111111,4,3,1,50,0,0
172662,-111.111111111111,4,3,1,5,0,0
172731,-111.111111111111,4,3,1,50,0,0
177107,-111.111111111111,4,3,1,21,0,0
177176,-83.3333333333333,4,3,1,50,0,0
179399,-125,4,3,1,50,0,0
179468,-125,4,3,1,20,0,0
179537,-100,4,3,1,50,0,0
179954,-83.3333333333333,4,3,1,50,0,0
180162,-83.3333333333333,4,3,1,5,0,0
180232,-83.3333333333333,4,3,1,50,0,0
181690,-83.3333333333333,4,3,1,20,0,0
181760,-83.3333333333333,4,3,1,50,0,0
183635,-83.3333333333333,4,3,1,11,0,0
183704,-83.3333333333333,4,3,1,50,0,0
183774,-83.3333333333333,4,3,1,11,0,0
183843,-83.3333333333333,4,3,1,50,0,0
186343,-100,4,3,1,50,0,0
186621,-125,4,3,1,50,0,0
186899,-166.666666666667,4,3,1,50,0,0
187176,-250.000000000001,4,3,1,50,0,0
187732,-100,4,3,1,50,0,0
188843,-83.3333333333333,4,3,1,50,0,0
189260,-100,4,3,1,50,0,0
192385,-100,4,3,1,5,0,0
192454,-100,4,3,1,50,0,0
192524,-100,4,3,1,21,0,0
192593,-100,4,3,1,50,0,0
196204,-83.3333333333333,4,3,1,50,0,0
196968,-83.3333333333333,4,3,1,5,0,0
197037,-83.3333333333333,4,3,1,50,0,0
197107,-83.3333333333333,4,3,1,5,0,0
197176,-83.3333333333333,4,3,1,50,0,0
199399,275.229357798165,4,3,1,50,1,0
199399,-500,4,3,1,50,0,0
199674,-333.333333333333,4,3,10,20,0,0
199949,-250,4,3,10,30,0,0
200224,-200,4,3,10,30,0,0
200499,-125,4,3,10,40,0,0
201050,-100,4,3,10,50,0,0
201600,-100,4,3,1,70,0,0
203802,267.857142857143,4,3,1,65,1,0
203802,-83.3333333333333,4,3,1,65,0,1
204873,-66.6666666666667,4,3,1,65,0,1
205141,-83.3333333333333,4,3,1,65,0,1
205409,-66.6666666666667,4,3,1,65,0,1
206279,-66.6666666666667,4,3,1,5,0,1
206346,-66.6666666666667,4,3,1,65,0,1
206480,-100,4,3,1,65,0,1
211034,-100,4,3,7,65,0,1
211302,-100,4,3,1,65,0,1
216089,-200,4,3,1,65,0,1
216659,-62.5,4,3,1,65,0,1
220074,-62.5,4,3,1,5,0,1
220141,-62.5,4,3,1,65,0,1
220342,-62.5,4,3,1,5,0,1
220409,-62.5,4,3,1,75,0,1
221480,-76.9230769230769,4,3,1,75,0,1
221748,-83.3333333333333,4,3,1,75,0,1
222016,-62.5,4,3,1,75,0,1
222819,-100,4,3,1,75,0,1
223087,-83.3333333333333,4,3,1,75,0,1
224627,-83.3333333333333,4,3,7,75,0,1
224962,-66.6666666666667,4,3,1,75,0,1
225766,-100,4,3,1,75,0,1
226034,-76.9230769230769,4,3,1,75,0,1
227909,-166.666666666667,4,3,1,75,0,1
228177,-76.9230769230769,4,3,1,75,0,1
228846,-76.9230769230769,4,3,7,75,0,1
228980,-76.9230769230769,4,3,1,75,0,1
229516,-50,4,3,1,75,0,1
231257,-66.6666666666667,4,3,1,75,0,1
233199,-66.6666666666667,4,3,7,75,0,1
233534,-66.6666666666667,4,3,8,75,0,1
233802,-66.6666666666667,4,3,1,75,0,1
237819,-200,4,3,8,75,0,1
238087,-200,4,3,1,75,0,1
238891,-100,4,3,1,75,0,1
239159,-76.9230769230769,4,3,1,75,0,1
239427,-100,4,3,1,75,0,1
239694,-66.6666666666667,4,3,1,75,0,1
240766,-250,4,3,1,75,0,1
241034,-100,4,3,1,75,0,1
241302,-66.6666666666667,4,3,1,75,0,1
241971,-83.3333333333333,4,3,1,75,0,1
246391,-200,4,3,1,75,0,1
246659,-83.3333333333333,4,3,1,75,0,1
249873,-100,4,3,1,75,0,1
250409,-83.3333333333333,4,3,1,75,0,1
250944,-66.6666666666667,4,3,1,75,0,1
252016,-69.5410292072323,4,3,1,75,0,1
252819,-83.3333333333333,4,3,1,75,0,1
254694,-83.3333333333333,4,3,7,75,0,1
254962,-83.3333333333333,4,3,8,75,0,1
255230,-66.6666666666667,4,3,1,75,0,1
258444,-64.5161290322581,4,3,1,75,0,1
259248,-100,4,3,1,75,0,1
261123,-250,4,3,1,75,0,1
261391,-83.3333333333333,4,3,1,75,0,1
263935,-66.6666666666667,4,3,1,75,0,1
270230,-100,4,3,1,75,0,1
273846,-66.6666666666667,4,3,1,75,0,1
273980,-71.4285714285714,4,3,1,65,0,0
274516,-50,4,3,1,75,0,1
274717,-50,4,3,1,5,0,1
274786,-76.9230769230769,4,3,1,70,0,1
277797,-76.9230769230769,4,3,7,70,0,1
277864,-76.9230769230769,4,3,8,70,0,1
277998,-76.9230769230769,4,3,1,70,0,1
278065,-76.9230769230769,4,3,7,70,0,1
278132,-76.9230769230769,4,3,8,70,0,1
278266,-76.9230769230769,4,3,1,70,0,1
278467,-76.9230769230769,4,3,7,70,0,1
278534,-76.9230769230769,4,3,1,70,0,1
278601,-76.9230769230769,4,3,7,70,0,1
278668,-76.9230769230769,4,3,1,70,0,1
278802,-43.4782608695652,4,3,1,75,0,1
279002,-43.4782608695652,4,3,1,5,0,1
279071,-76.9230769230769,4,3,1,75,0,1
282819,-166.666666666667,4,3,1,50,0,0
283087,-66.6666666666667,4,3,1,70,0,1
283288,-66.6666666666667,4,3,1,70,0,1
283355,-66.6666666666667,4,3,1,70,0,1
284159,-83.3333333333333,4,3,1,70,0,1
284962,-100,4,3,1,70,0,1
285230,-83.3333333333333,4,3,1,70,0,1
286302,-83.3333333333333,4,3,1,70,0,1
287373,-66.6666666666667,4,3,1,70,0,1
287775,-76.9230769230769,4,3,1,70,0,1
289248,-100,4,3,1,70,0,1
289516,-76.9230769230769,4,3,1,70,0,1
290855,-76.9230769230769,4,3,7,70,0,1
291123,-76.9230769230769,4,3,8,70,0,1
291391,-76.9230769230769,4,3,9,70,0,1
291659,-76.9230769230769,4,3,1,70,0,1
293534,-100,4,3,1,70,0,1
293802,-76.9230769230769,4,3,1,70,0,1
295944,-66.6666666666667,4,3,1,70,0,1
296748,-100,4,3,1,70,0,1
297016,-66.6666666666667,4,3,1,70,0,1
298891,-200,4,3,1,70,0,1
299025,-100,4,3,1,70,0,1
299761,-100,4,3,7,70,0,1
299828,-100,4,3,1,70,0,1
299962,-100,4,3,8,70,0,1
300096,-100,4,3,1,70,0,1
300230,-83.3333333333333,4,3,1,65,0,0
318177,-100,4,3,7,65,0,0
318310,-100,4,3,1,65,0,0
318444,-166.666666666667,4,3,8,65,0,0
318578,-100,4,3,1,65,0,0
319516,-66.6666666666667,4,3,1,65,0,0
320052,-66.6666666666667,4,3,1,5,0,0

[Colours]
Combo1 : 86,57,191
Combo2 : 191,90,117
Combo3 : 122,54,217
Combo4 : 135,119,242

[HitObjects]
429,377,319,5,6,0:0:0:0:
310,254,448,1,10,0:0:0:0:
462,226,583,1,2,0:0:0:0:
465,222,650,1,0,0:0:0:0:
468,218,718,1,10,0:0:0:0:
262,93,859,5,2,0:0:0:0:
320,254,976,1,10,0:0:0:0:
393,130,1128,1,2,0:0:0:0:
395,125,1189,1,0,0:0:0:0:
397,120,1251,1,10,0:0:0:0:
163,208,1399,5,2,0:0:0:0:
328,253,1521,1,10,0:0:0:0:
261,87,1667,1,2,0:0:0:0:
259,82,1727,1,0,0:0:0:0:
257,77,1787,1,10,0:0:0:0:
95,72,1914,5,2,0:0:0:0:
86,56,1987,1,0,0:0:0:0:
96,37,2061,1,10,0:0:0:0:
121,52,2134,1,0,0:0:0:0:
131,96,2208,1,2,0:0:0:0:
119,137,2276,1,0,0:0:0:0:
84,166,2344,1,10,0:0:0:0:
71,208,2412,1,0,0:0:0:0:
95,249,2480,5,2,0:0:0:0:
239,163,2615,1,10,0:0:0:0:
164,330,2751,1,2,0:0:0:0:
158,338,2819,1,0,0:0:0:0:
153,346,2887,1,10,0:0:0:0:
336,361,3022,5,2,0:0:0:0:
179,255,3158,1,10,0:0:0:0:
327,226,3294,1,2,0:0:0:0:
336,221,3362,1,0,0:0:0:0:
345,216,3430,1,10,0:0:0:0:
226,103,3565,5,2,0:0:0:0:
269,304,3701,1,10,0:0:0:0:
344,132,3837,1,2,0:0:0:0:
341,122,3905,1,0,0:0:0:0:
338,112,3973,1,10,0:0:0:0:
36,268,4108,5,8,0:0:0:0:
77,261,4176,1,8,0:0:0:0:
117,253,4244,1,8,0:0:0:0:
158,246,4312,1,8,0:0:0:0:
205,239,4373,1,8,0:0:0:0:
248,232,4438,1,8,0:0:0:0:
291,225,4499,1,8,0:0:0:0:
332,219,4556,1,8,0:0:0:0:
372,213,4638,6,0,P|229:194|120:182,1,225.000008583069,6|0,0:0|0:0,0:0:0:0:
103,118,4905,2,0,P|75:144|70:192,1,75.0000028610231,2|0,0:0|0:0,0:0:0:0:
188,101,5039,2,0,P|189:62|159:25,1,75.0000028610231,10|0,0:0|0:0,0:0:0:0:
27,21,5173,2,0,P|63:18|95:37,1,75.0000028610231,2|0,0:0|0:0,0:0:0:0:
237,200,5307,2,0,P|200:202|168:183,1,75.0000028610231,10|0,0:0|0:0,0:0:0:0:
313,12,5441,5,2,0:0:0:0:
313,12,5508,1,0,0:0:0:0:
313,12,5575,2,0,B|327:148|327:148|331:153|331:153|349:331,1,300.000011444092,10|10,0:0|0:0,0:0:0:0:
434,366,5977,5,2,0:0:0:0:
434,366,6044,1,0,0:0:0:0:
434,366,6111,2,0,P|451:319|469:293,1,75.0000028610231,10|0,0:0|0:0,0:0:0:0:
263,291,6245,2,0,P|316:306|356:323,1,75.0000028610231,2|0,0:0|0:0,0:0:0:0:
452,198,6379,2,0,P|399:213|359:230,1,75.0000028610231,10|0,0:0|0:0,0:0:0:0:
227,365,6513,5,2,0:0:0:0:
227,365,6579,1,0,0:0:0:0:
227,365,6646,2,0,B|200:362|181:328|181:328|94:293|-3:358|-3:358|24:365|47:400,1,300.000011444092,10|10,0:0|0:0,0:0:0:0:
40,142,7048,6,0,P|83:128|134:120,1,75.0000028610231,2|0,0:0|0:0,0:0:0:0:
129,200,7182,2,0,P|92:207|56:219,1,75.0000028610231,10|0,0:0|0:0,0:0:0:0:
88,19,7316,2,0,P|161:55|318:88,1,225.000008583069,2|0,0:0|0:0,0:0:0:0:
363,35,7584,6,0,P|406:21|457:13,1,75.0000028610231,2|0,0:0|0:0,0:0:0:0:
452,93,7718,2,0,P|415:100|379:112,1,75.0000028610231,10|0,0:0|0:0,0:0:0:0:
301,234,7852,5,2,0:0:0:0:
338,246,7919,1,0,0:0:0:0:
367,275,7986,1,10,0:0:0:0:
411,268,8053,1,0,0:0:0:0:
451,280,8120,2,0,P|352:302|280:320,1,150.000005722046,2|10,0:0|0:0,0:0:0:0:
208,372,8388,5,2,0:0:0:0:
281,157,8521,1,10,0:0:0:0:
201,101,8655,5,2,0:0:0:0:
276,326,8789,1,10,0:0:0:0:
68,233,8923,6,0,B|49:227|27:224|27:224|91:174|164:199|164:199|126:213|104:252,1,225.000008583069,6|0,0:0|0:0,0:0:0:0:
81,313,9191,2,0,P|40:303|-12:299,1,75.0000028610231,2|0,0:0|0:0,0:0:0:0:
137,377,9325,2,0,P|176:361|227:350,1,75.0000028610231,10|0,0:0|0:0,0:0:0:0:
253,215,9459,2,0,P|227:232|222:273,1,75.0000028610231,2|0,0:0|0:0,0:0:0:0:
296,306,9593,2,0,P|322:289|327:248,1,75.0000028610231,10|0,0:0|0:0,0:0:0:0:
325,124,9727,5,2,0:0:0:0:
325,124,9794,1,0,0:0:0:0:
325,124,9861,2,0,P|190:150|9:188,1,300.000011444092,10|10,0:0|0:0,0:0:0:0:
75,21,10263,6,0,P|87:68|96:115,1,75.0000028610231,2|0,0:0|0:0,0:0:0:0:
170,76,10396,2,0,P|162:39|152:3,1,75.0000028610231,10|0,0:0|0:0,0:0:0:0:
224,183,10530,6,0,P|212:230|203:277,1,75.0000028610231,2|0,0:0|0:0,0:0:0:0:
129,238,10664,2,0,P|136:201|146:165,1,75.0000028610231,10|0,0:0|0:0,0:0:0:0:
254,58,10798,5,2,0:0:0:0:
254,58,10865,1,0,0:0:0:0:
254,58,10932,2,0,B|308:28|361:49|385:100|385:100|395:96|395:96|412:153|475:176|526:133,1,300.000011444092,10|10,0:0|0:0,0:0:0:0:
489,0,11334,2,0,P|471:64|463:101,1,75.0000028610231,2|0,0:0|0:0,0:0:0:0:
406,135,11468,2,0,P|423:199|431:236,1,75.0000028610231,10|0,0:0|0:0,0:0:0:0:
484,303,11602,6,0,P|508:206|522:146,1,150.000005722046,2|10,0:0|0:0,0:0:0:0:
398,131,11870,2,0,P|415:195|423:232,1,75.0000028610231,2|0,0:0|0:0,0:0:0:0:
337,257,12004,2,0,P|327:220|317:184,1,75.0000028610231,10|0,0:0|0:0,0:0:0:0:
233,66,12138,5,2,0:0:0:0:
196,78,12204,1,0,0:0:0:0:
167,107,12271,1,10,0:0:0:0:
123,100,12338,1,0,0:0:0:0:
83,112,12405,2,0,P|182:134|254:152,1,150.000005722046,2|10,0:0|0:0,0:0:0:0:
400,363,12673,6,0,P|378:311|369:273,1,75.0000028610231,6|8,0:2|0:0,0:0:0:0:
310,191,12807,2,0,P|298:226|283:260,1,75.0000028610231,8|8,0:0|0:0,0:0:0:0:
197,348,12941,5,10,0:0:0:0:
197,348,13008,1,8,0:0:0:0:
197,348,13075,2,0,P|175:296|166:258,1,75.0000028610231,10|8,0:0|0:0,0:0:0:0:
144,65,13209,5,8,0:0:0:0:
155,68,13276,1,8,0:0:0:0:
165,76,13343,1,8,2:0:0:0:
171,90,13410,1,8,2:0:0:0:
168,111,13477,1,8,2:0:0:0:
149,137,13544,1,8,2:0:0:0:
111,144,13611,1,8,0:0:0:0:
73,126,13678,1,8,0:0:0:0:
51,79,13745,1,8,2:0:0:0:
70,24,13812,1,8,2:0:0:0:
129,7,13879,1,8,2:0:0:0:
187,24,13946,1,8,2:0:0:0:
210,77,14013,1,8,0:0:0:0:
201,141,14079,1,8,0:0:0:0:
156,184,14146,1,8,2:0:0:0:
94,194,14213,1,8,2:0:0:0:
36,168,14280,5,8,3:0:0:0:
90,119,14347,1,8,2:0:0:0:
165,125,14414,1,8,2:0:0:0:
202,190,14481,1,8,2:0:0:0:
185,263,14548,1,8,2:0:0:0:
212,332,14615,1,8,2:0:0:0:
282,357,14682,1,8,3:0:0:0:
353,333,14749,1,8,2:0:0:0:
376,261,14816,1,8,2:0:0:0:
341,194,14883,1,8,2:0:0:0:
280,149,14950,1,8,2:0:0:0:
266,75,15017,1,8,2:0:0:0:
314,18,15084,1,8,3:0:0:0:
388,6,15151,1,8,2:0:0:0:
453,41,15218,1,8,2:0:0:0:
471,113,15285,1,8,2:0:0:0:
435,178,15352,6,0,P|292:140|122:113,1,300,6|0,0:0|0:0,0:0:0:0:
56,42,15620,6,0,L|71:135,1,69.9999978637696,2|0,0:0|0:0,0:0:0:0:
150,125,15754,2,0,L|139:56,1,69.9999978637696,10|0,0:0|0:0,0:0:0:0:
87,271,15888,6,0,L|17:282,1,69.9999978637696,2|0,0:0|0:0,0:0:0:0:
32,199,16021,2,0,L|101:187,1,69.9999978637696,10|0,0:0|0:0,0:0:0:0:
211,253,16155,5,2,0:0:0:0:
211,253,16222,1,0,0:0:0:0:
211,253,16289,2,0,B|317:269|317:269|368:326|368:326|514:349,1,279.999991455078,10|10,0:0|0:0,0:0:0:0:
506,271,16691,5,2,0:0:0:0:
506,271,16758,1,0,0:0:0:0:
506,271,16825,2,0,L|415:255,1,69.9999978637696,10|0,0:0|0:0,0:0:0:0:
453,85,16959,2,0,P|476:121|469:168,1,69.9999978637696,2|0,0:0|0:0,0:0:0:0:
387,173,17093,2,0,P|364:137|371:90,1,69.9999978637696,10|0,0:0|0:0,0:0:0:0:
392,19,17227,5,2,0:0:0:0:
392,19,17294,1,0,0:0:0:0:
392,19,17361,2,0,P|413:179|427:320,1,279.999991455078,10|10,0:0|0:0,0:0:0:0:
199,371,17763,5,2,0:0:0:0:
314,308,17896,1,10,0:0:0:0:
116,280,18030,5,2,0:0:0:0:
391,368,18164,1,10,0:0:0:0:
317,166,18298,6,0,P|300:207|289:242,1,69.9999978637696,2|0,0:0|0:0,0:0:0:0:
202,243,18432,2,0,P|211:209|225:172,1,69.9999978637696,10|0,0:0|0:0,0:0:0:0:
372,20,18566,5,6,0:0:0:0:
412,47,18633,1,8,0:0:0:0:
418,100,18700,1,8,0:0:0:0:
378,141,18767,1,8,0:0:0:0:
323,145,18834,1,8,0:0:0:0:
286,186,18901,1,8,0:0:0:0:
296,247,18968,1,8,0:0:0:0:
346,273,19035,1,8,0:0:0:0:
398,256,19102,6,0,L|305:237,1,69.9999978637696,8|8,0:0|0:0,0:0:0:0:
246,273,19236,2,0,L|177:287,1,69.9999978637696,8|8,0:0|0:0,0:0:0:0:
99,266,19370,6,0,L|6:246,1,75
20,276,19638,6,0,L|330:213,1,300.000011444092,6|2,0:0|0:2,0:0:0:0:
385,168,19972,1,0,0:0:0:0:
385,168,20039,2,0,B|335:132|335:132|265:147,1,119.999996337891,10|2,0:2|0:2,0:0:0:0:
392,324,20307,1,10,0:2:0:0:
479,188,20441,1,2,0:2:0:0:
476,178,20508,1,0,0:0:0:0:
474,168,20575,1,10,0:2:0:0:
383,336,20709,6,0,P|321:324|250:315,1,119.999996337891,2|10,0:2|0:2,0:0:0:0:
237,160,20977,1,2,0:2:0:0:
132,369,21111,2,0,P|147:285|160:228,1,119.999996337891,10|2,0:2|0:2,0:0:0:0:
259,319,21379,1,10,0:2:0:0:
90,188,21513,2,0,P|66:196|43:206,2,50,2|0|10,0:2|0:0|0:2,0:0:0:0:
318,82,21780,5,2,0:2:0:0:
304,55,21847,1,0,0:0:0:0:
270,42,21914,1,10,0:2:0:0:
233,53,21981,1,0,0:0:0:0:
213,88,22048,1,2,0:2:0:0:
227,129,22115,1,0,0:0:0:0:
218,165,22182,1,10,0:2:0:0:
173,182,22249,1,0,0:0:0:0:
134,157,22316,1,2,0:2:0:0:
127,115,22383,1,0,0:0:0:0:
159,74,22450,1,10,0:2:0:0:
143,29,22517,1,0,0:0:0:0:
91,16,22584,1,2,0:2:0:0:
45,47,22651,1,0,0:0:0:0:
43,104,22718,1,10,0:2:0:0:
80,130,22785,1,0,0:0:0:0:
89,125,22852,6,0,P|159:103|201:95,1,100,2|10,0:2|0:2,0:0:0:0:
88,230,23120,1,2,0:2:0:0:
222,17,23254,1,10,0:2:0:0:
357,207,23381,5,8,0:0:0:0:
329,196,23447,1,8,0:0:0:0:
310,189,23514,1,8,0:0:0:0:
300,185,23581,1,8,0:0:0:0:
287,180,23648,5,8,0:0:0:0:
340,173,23715,1,8,0:0:0:0:
393,158,23782,1,8,0:0:0:0:
446,144,23849,1,8,0:0:0:0:
499,130,23916,6,0,P|344:108|246:95,1,225.000008583069,6|0,0:0|0:0,0:0:0:0:
267,88,24184,2,0,L|352:73,1,59.9999981689454,2|0,0:0|0:0,0:0:0:0:
393,158,24318,2,0,L|308:173,1,59.9999981689454,10|0,0:0|0:0,0:0:0:0:
263,248,24452,6,0,P|243:281|224:320,1,59.9999981689454,2|0,0:0|0:0,0:0:0:0:
374,349,24586,2,0,P|359:322|344:296,1,59.9999981689454,10|0,0:0|0:0,0:0:0:0:
439,259,24720,1,2,0:0:0:0:
439,259,24787,1,0,0:0:0:0:
439,259,24854,1,10,0:0:0:0:
151,285,24988,6,0,P|153:208|256:203,1,150.000005722046,2|10,0:0|0:0,0:0:0:0:
382,355,25256,1,2,0:0:0:0:
382,355,25322,1,0,0:0:0:0:
382,355,25389,2,0,L|310:346,1,59.9999981689454,10|0,0:0|0:0,0:0:0:0:
216,339,25523,1,2,0:0:0:0:
439,259,25657,1,10,0:0:0:0:
227,114,25791,5,2,0:0:0:0:
201,132,25858,1,0,0:0:0:0:
191,166,25925,1,10,0:0:0:0:
199,202,25992,1,0,0:0:0:0:
222,225,26059,6,0,P|200:112|172:16,1,150.000005722046,2|10,0:0|0:0,0:0:0:0:
76,104,26327,5,2,0:0:0:0:
384,177,26461,1,10,0:0:0:0:
208,6,26595,5,2,0:0:0:0:
254,203,26729,1,10,0:0:0:0:
258,76,26863,5,2,0:0:0:0:
211,303,26997,1,10,0:0:0:0:
30,197,27131,5,10,0:0:0:0:
22,202,27197,1,8,0:0:0:0:
37,202,27264,2,0,L|135:185,1,75.0000028610231,8|8,0:0|0:0,0:0:0:0:
247,166,27398,5,8,0:0:0:0:
239,161,27465,1,8,0:0:0:0:
254,161,27532,2,0,L|352:178,1,75.0000028610231,8|8,0:0|0:0,0:0:0:0:
462,283,27666,5,8,2:0:0:0:
395,274,27733,1,8,0:0:0:0:
328,265,27800,1,8,0:0:0:0:
261,256,27867,1,8,0:0:0:0:
194,247,27934,1,8,0:0:0:0:
127,238,28001,1,8,0:0:0:0:
60,229,28068,1,8,0:0:0:0:
60,229,28135,1,8,0:0:0:0:
60,229,28202,6,0,P|151:217|395:190,1,300.000011444092,6|2,0:0|0:2,0:0:0:0:
432,242,28537,1,0,0:0:0:0:
432,242,28604,2,0,P|398:304|376:372,1,119.999996337891,10|2,0:2|0:2,0:0:0:0:
436,153,28872,1,10,0:2:0:0:
311,268,29006,1,2,0:2:0:0:
306,272,29072,1,0,0:0:0:0:
301,276,29139,1,10,0:2:0:0:
235,125,29273,6,0,P|347:152|376:163,1,119.999996337891,2|10,0:2|0:2,0:0:0:0:
497,209,29541,1,2,0:2:0:0:
460,38,29675,2,0,P|348:65|319:76,1,119.999996337891,10|2,0:2|0:2,0:0:0:0:
241,217,29943,1,10,0:2:0:0:
191,55,30077,2,0,L|221:2,2,50,2|0|10,0:2|0:0|0:2,0:0:0:0:
63,188,30345,5,2,0:2:0:0:
22,169,30412,1,0,0:0:0:0:
21,121,30479,1,10,0:2:0:0:
57,93,30546,1,0,0:0:0:0:
106,101,30613,1,2,0:2:0:0:
133,140,30680,1,0,0:0:0:0:
126,188,30747,1,10,0:2:0:0:
92,219,30814,1,0,0:0:0:0:
96,270,30881,1,2,0:2:0:0:
133,300,30947,1,0,0:0:0:0:
181,295,31014,1,10,0:2:0:0:
207,255,31081,1,0,0:0:0:0:
198,213,31148,1,2,0:2:0:0:
225,177,31215,1,0,0:0:0:0:
270,179,31282,1,10,0:2:0:0:
299,220,31349,1,0,0:0:0:0:
285,266,31416,1,2,0:2:0:0:
241,282,31483,1,0,0:0:0:0:
199,265,31550,6,0,P|217:203|247:131,1,119.999996337891,10|2,0:2|0:2,0:0:0:0:
337,112,31818,1,10,0:2:0:0:
373,344,31952,5,8,0:0:0:0:
377,339,32019,1,8,0:0:0:0:
381,334,32086,2,0,L|364:247,1,59.9999981689454,8|8,0:0|0:0,0:0:0:0:
430,187,32220,1,8,0:0:0:0:
441,183,32287,1,8,0:0:0:0:
452,179,32354,1,8,0:0:0:0:
463,175,32421,1,8,0:0:0:0:
474,171,32488,6,0,B|507:184|520:202|520:202|432:182|348:172,1,225.000008583069,6|0,0:0|0:0,0:0:0:0:
289,119,32756,2,0,P|273:76|277:48,1,59.9999981689454,2|0,0:0|0:0,0:0:0:0:
353,42,32889,2,0,P|369:85|365:113,1,59.9999981689454,10|0,0:0|0:0,0:0:0:0:
281,229,33023,2,0,P|265:272|269:300,1,59.9999981689454,2|0,0:0|0:0,0:0:0:0:
345,306,33157,2,0,P|361:263|357:235,1,59.9999981689454,10|0,0:0|0:0,0:0:0:0:
210,168,33291,5,2,0:0:0:0:
459,293,33425,1,10,0:0:0:0:
271,234,33559,6,0,B|171:247|171:247|173:249|173:249|46:268,1,179.999994506836,6|0,0:0|0:0,0:0:0:0:
35,196,33827,2,0,L|132:182,1,59.9999981689454,2|0,0:0|0:0,0:0:0:0:
98,106,33961,2,0,L|1:120,1,59.9999981689454,10|0,0:0|0:0,0:0:0:0:
244,162,34095,6,0,L|256:85,1,59.9999981689454,2|0,0:0|0:0,0:0:0:0:
181,73,34229,2,0,L|171:132,1,59.9999981689454,10|0,0:0|0:0,0:0:0:0:
154,268,34363,5,2,0:0:0:0:
338,76,34497,1,10,0:0:0:0:
111,17,34631,6,0,P|41:16|23:90,1,119.999996337891,2|10,0:0|0:0,0:0:0:0:
151,289,34898,5,2,0:0:0:0:
106,147,35032,1,10,0:0:0:0:
115,371,35166,5,2,0:0:0:0:
182,102,35300,1,10,0:0:0:0:
382,260,35434,5,10,0:0:0:0:
344,305,35501,1,8,0:0:0:0:
291,305,35568,1,8,0:0:0:0:
267,284,35635,1,8,0:0:0:0:
256,263,35702,6,0,L|302:247,1,29.9999990844727,8|8,0:0|0:0,0:0:0:0:
472,169,35881,5,6,0:0:0:0:
264,65,36059,5,6,0:0:0:0:
316,379,36238,6,0,L|353:367,1,29.9999990844727,8|8,0:0|0:0,0:0:0:0:
348,137,36416,5,6,0:0:0:0:
140,246,36595,5,6,0:0:0:0:
424,235,36773,6,0,P|445:212|451:177,1,59.9999981689454,6|2,0:0|0:2,0:0:0:0:
422,108,37108,1,0,0:0:0:0:
422,108,37175,2,0,B|351:118|351:118|347:121|347:121|221:140,1,150.000005722046,10|2,0:2|0:2,0:0:0:0:
176,70,37443,1,10,0:2:0:0:
316,253,37577,1,2,0:2:0:0:
319,244,37644,1,0,0:0:0:0:
322,234,37711,1,10,0:2:0:0:
129,136,37845,6,0,P|74:182|112:259,1,150.000005722046,2|10,0:2|0:2,0:0:0:0:
215,185,38113,1,2,0:2:0:0:
139,365,38247,2,0,P|117:220|93:62,1,300.000011444092,10|10,0:2|0:2,0:0:0:0:
36,207,38648,1,2,0:2:0:0:
31,210,38715,1,0,0:0:0:0:
26,213,38782,1,10,0:2:0:0:
182,23,38916,6,0,P|250:21|273:111,1,150.000005722046,2|10,0:2|0:2,0:0:0:0:
207,187,39184,1,2,0:2:0:0:
499,147,39318,2,0,B|358:127|358:127|354:128|354:128|195:105,1,300.000011444092,10|10,0:2|0:2,0:0:0:0:
359,42,39720,1,2,0:2:0:0:
366,33,39787,1,0,0:0:0:0:
373,26,39854,1,10,0:2:0:0:
355,245,39988,6,0,P|432:269|448:206,1,150.000005722046,2|10,0:2|0:2,0:0:0:0:
304,112,40256,1,2,0:2:0:0:
297,119,40322,1,0,0:0:0:0:
290,128,40389,1,10,0:2:0:0:
151,362,40523,5,8,0:0:0:0:
199,345,40590,1,8,0:0:0:0:
243,331,40657,1,8,0:0:0:0:
289,317,40724,1,8,0:0:0:0:
334,300,40791,5,8,0:0:0:0:
320,294,40858,1,8,0:0:0:0:
308,290,40925,1,8,0:0:0:0:
295,286,40992,1,8,0:0:0:0:
281,282,41066,6,0,L|254:39,1,225.000008583069,6|0,0:0|0:0,0:0:0:0:
315,5,41334,2,0,P|359:27|374:71,1,59.9999981689454,2|0,0:0|0:0,0:0:0:0:
325,149,41468,2,0,P|324:119|310:92,1,59.9999981689454,10|0,0:0|0:0,0:0:0:0:
178,55,41602,2,0,P|225:39|267:60,1,59.9999981689454,2|0,0:0|0:0,0:0:0:0:
307,153,41736,2,0,P|285:132|257:123,1,59.9999981689454,10|0,0:0|0:0,0:0:0:0:
145,158,41870,5,2,0:0:0:0:
135,175,41937,1,0,0:0:0:0:
125,189,42004,1,10,0:0:0:0:
111,183,42071,1,0,0:0:0:0:
95,173,42138,6,0,B|215:162|215:162|217:159|217:159|348:148,1,225.000008583069,2|0,0:0|0:0,0:0:0:0:
388,96,42405,1,2,0:0:0:0:
388,96,42472,1,0,0:0:0:0:
388,96,42539,2,0,P|332:65|307:67,1,59.9999981689454,10|0,0:0|0:0,0:0:0:0:
243,85,42673,5,2,0:0:0:0:
438,174,42807,1,10,0:0:0:0:
293,349,42941,5,2,0:0:0:0:
272,328,43008,1,0,0:0:0:0:
263,301,43075,1,10,0:0:0:0:
272,272,43142,1,0,0:0:0:0:
291,253,43209,6,0,B|351:223|423:291|368:300|422:373|526:318,1,225.000008583069,2|0,0:0|0:0,0:0:0:0:
505,220,43477,2,0,P|479:235|458:280,1,59.9999981689454,2|0,0:0|0:0,0:0:0:0:
407,358,43611,2,0,P|392:332|347:311,1,59.9999981689454,10|0,0:0|0:0,0:0:0:0:
262,353,43745,5,2,0:0:0:0:
342,170,43879,1,10,0:0:0:0:
184,254,44013,2,0,P|166:269|154:311,2,59.9999981689454,2|0|10,0:0|0:0|0:0,0:0:0:0:
345,67,44280,5,2,0:0:0:0:
380,275,44414,1,10,0:0:0:0:
188,171,44548,1,2,0:0:0:0:
181,166,44615,1,0,0:0:0:0:
174,161,44682,1,10,0:0:0:0:
184,275,44816,5,2,0:0:0:0:
258,44,44950,1,10,0:0:0:0:
485,208,45084,5,2,0:0:0:0:
443,200,45151,1,0,0:0:0:0:
402,192,45218,1,10,0:0:0:0:
362,184,45285,1,0,0:0:0:0:
322,174,45352,6,0,B|257:220|257:220|508:175,1,299.999990844727,6|2,0:0|0:2,0:0:0:0:
512,114,45687,1,0,0:0:0:0:
512,114,45754,2,0,L|377:89,1,119.999996337891,10|2,0:2|0:2,0:0:0:0:
334,21,46021,1,10,0:2:0:0:
382,246,46155,2,0,L|397:172,2,59.9999981689454,2|0|10,0:2|0:0|0:2,0:0:0:0:
416,368,46423,6,0,P|354:327|282:320,1,119.999996337891,2|10,0:2|0:2,0:0:0:0:
221,377,46691,1,2,0:2:0:0:
303,224,46825,2,0,P|230:245|234:312,1,119.999996337891,10|2,0:2|0:2,0:0:0:0:
394,249,47093,1,10,0:2:0:0:
150,327,47227,1,2,0:2:0:0:
138,322,47294,1,0,0:0:0:0:
127,316,47361,1,10,0:2:0:0:
230,372,47495,5,2,0:2:0:0:
30,216,47629,2,0,P|96:227|158:242,1,119.999996337891,10|2,0:2|0:2,0:0:0:0:
376,48,47896,6,0,B|293:13|245:103|289:92|243:166|158:141,1,239.999992675781,10|10,0:2|0:2,0:0:0:0:
110,30,48298,2,0,P|156:46|185:84,2,59.9999981689454,2|0|10,0:2|0:0|0:2,0:0:0:0:
205,224,48566,6,0,P|264:222|272:148,1,119.999996337891,2|10,0:2|0:2,0:0:0:0:
170,129,48834,1,2,0:2:0:0:
399,237,48968,1,10,0:2:0:0:
254,380,49102,5,8,0:0:0:0:
254,333,49169,1,8,0:0:0:0:
269,285,49236,1,8,0:0:0:0:
267,238,49303,1,8,0:0:0:0:
286,191,49370,1,8,0:0:0:0:
281,143,49437,1,8,0:0:0:0:
305,94,49504,1,8,0:0:0:0:
300,45,49571,1,8,0:0:0:0:
306,34,49638,6,0,L|365:18,1,59.9999981689454,6|2,0:0|0:2,0:0:0:0:
440,72,49972,1,0,0:0:0:0:
440,72,50039,2,0,P|324:56|163:32,1,259.999988098145,10|10,0:2|0:2,0:0:0:0:
361,169,50441,1,2,0:2:0:0:
374,160,50508,1,0,0:0:0:0:
388,153,50575,1,10,0:2:0:0:
308,341,50709,6,0,P|291:242|278:179,1,129.999994049073,2|10,0:2|0:2,0:0:0:0:
411,263,50977,1,2,0:2:0:0:
233,123,51111,2,0,P|184:154|204:234,1,129.999994049073,10|2,0:2|0:2,0:0:0:0:
399,147,51379,1,10,0:2:0:0:
229,47,51513,2,0,P|174:64|154:91,2,64.9999970245363,2|0|10,0:2|0:0|0:2,0:0:0:0:
253,266,51780,6,0,P|155:244|100:234,1,129.999994049073,2|10,0:2|0:2,0:0:0:0:
109,146,52048,1,2,0:2:0:0:
249,380,52182,2,0,P|267:294|306:127,1,259.999988098145,10|10,0:2|0:2,0:0:0:0:
229,47,52584,1,2,0:2:0:0:
221,52,52651,1,0,0:0:0:0:
211,57,52718,1,10,0:2:0:0:
463,121,52852,6,0,B|509:67|509:67|261:130,1,300.000011444092,2|2,0:2|0:2,0:0:0:0:
379,281,53254,2,0,P|387:243|403:179,1,75.0000028610231,10|0,0:2|0:0,0:0:0:0:
245,55,53388,5,8,0:0:0:0:
199,83,53454,1,8,0:0:0:0:
185,132,53521,1,8,0:0:0:0:
202,173,53588,1,8,0:0:0:0:
238,200,53655,2,0,P|263:196|290:175,1,37.5000014305115,14|8,0:0|0:0,0:0:0:0:
331,131,53789,2,0,P|338:108|329:72,1,50,14|8,0:0|0:0,0:0:0:0:
170,13,53923,6,0,P|126:68|126:86,1,75,6|0,0:0|0:0,0:0:0:0:
184,142,54191,5,2,0:0:0:0:
184,142,54258,1,0,0:0:0:0:
184,142,54325,2,0,P|230:156|259:168,1,50,10|0,0:0|0:0,0:0:0:0:
231,241,54459,5,2,0:0:0:0:
231,241,54526,1,0,0:0:0:0:
231,241,54593,2,0,P|253:283|265:313,1,50,10|0,0:0|0:0,0:0:0:0:
211,371,54727,6,0,P|188:322|170:293,1,50,2|0,0:0|0:0,0:0:0:0:
304,206,54861,2,0,P|315:228|324:251,1,50,10|0,0:0|0:0,0:0:0:0:
310,384,54995,6,0,P|301:306|261:71,1,300.000011444092,2|2,0:0|0:0,0:0:0:0:
256,78,55329,1,0,0:0:0:0:
236,64,55396,1,10,0:0:0:0:
393,78,55530,1,2,0:0:0:0:
369,89,55597,1,0,0:0:0:0:
348,101,55664,1,10,0:0:0:0:
488,161,55798,2,0,L|418:143,2,50,2|0|10,0:0|0:0|0:0,0:0:0:0:
395,379,56066,6,0,P|384:316|355:207,1,129.999994049073,2|10,0:0|0:0,0:0:0:0:
319,188,56267,1,0,0:0:0:0:
308,186,56334,2,0,P|288:225|281:263,1,64.9999970245363,2|0,0:0|0:0,0:0:0:0:
301,333,56468,1,10,0:0:0:0:
19,269,56602,6,0,P|79:288|186:326,1,129.999994049073,2|10,0:0|0:0,0:0:0:0:
221,306,56803,1,0,0:0:0:0:
228,298,56870,2,0,P|205:260|177:234,1,64.9999970245363,2|0,0:0|0:0,0:0:0:0:
107,214,57004,1,10,0:0:0:0:
254,68,57138,5,2,0:0:0:0:
266,111,57204,1,0,0:0:0:0:
278,157,57271,1,10,0:0:0:0:
303,4,57405,1,2,0:0:0:0:
228,241,57539,1,10,0:0:0:0:
387,136,57673,5,2,0:0:0:0:
157,65,57807,1,10,0:0:0:0:
314,12,57941,1,2,0:0:0:0:
314,13,58008,1,0,0:0:0:0:
314,13,58075,1,10,0:0:0:0:
424,215,58209,6,0,B|459:293|343:310|279:289|269:178|310:166|375:174,1,259.999988098145,6|2,0:0|0:0,0:0:0:0:
393,139,58544,1,0,0:0:0:0:
393,139,58611,2,0,P|371:241|359:321,1,129.999994049073,10|2,0:0|0:0,0:0:0:0:
278,91,58879,1,10,0:0:0:0:
192,350,59013,5,2,0:0:0:0:
215,339,59079,1,0,0:0:0:0:
237,330,59146,1,10,0:0:0:0:
258,320,59213,1,0,0:0:0:0:
278,309,59280,6,0,P|215:298|127:284,1,129.999994049073,2|10,0:0|0:0,0:0:0:0:
288,99,59548,1,2,0:0:0:0:
288,99,59615,1,0,0:0:0:0:
288,99,59682,2,0,P|337:142|311:213,1,129.999994049073,10|2,0:0|0:0,0:0:0:0:
447,108,59950,1,10,0:0:0:0:
136,207,60084,5,2,0:0:0:0:
113,196,60151,1,0,0:0:0:0:
91,187,60218,1,10,0:0:0:0:
70,177,60285,1,0,0:0:0:0:
49,164,60352,5,2,0:0:0:0:
290,145,60486,1,10,0:0:0:0:
122,60,60620,1,2,0:0:0:0:
187,260,60754,6,0,B|218:312|218:312|188:81,1,259.999988098145,10|10,0:0|0:0,0:0:0:0:
117,39,61155,2,0,L|68:61,2,44.999998626709,2|0|10,0:0|0:0|0:0,0:0:0:0:
244,51,61423,5,14,0:0:0:0:
273,92,61490,1,8,0:0:0:0:
319,103,61557,1,8,0:0:0:0:
354,93,61624,1,0,0:0:0:0:
377,69,61691,1,0,0:0:0:0:
386,37,61758,1,0,0:0:0:0:
379,28,61825,5,8,0:0:0:0:
372,26,61892,1,8,0:0:0:0:
364,38,61959,1,8,0:0:0:0:
359,61,62026,1,8,0:0:0:0:
385,90,62093,1,8,0:0:0:0:
428,111,62160,1,8,0:0:0:0:
461,170,62227,1,8,0:0:0:0:
441,232,62294,1,8,0:0:0:0:
379,247,62361,1,8,0:0:0:0:
321,211,62428,1,8,0:0:0:0:
324,141,62495,6,0,P|312:113|299:95,1,44.999998626709,6|0,0:0|0:0,0:0:0:0:
279,28,62763,5,2,0:0:0:0:
279,28,62829,1,0,0:0:0:0:
279,28,62896,2,0,P|250:43|225:76,1,59.9999981689454,10|0,0:0|0:0,0:0:0:0:
159,32,63030,1,2,0:0:0:0:
159,32,63097,1,0,0:0:0:0:
159,32,63164,2,0,P|149:63|154:104,1,59.9999981689454,10|0,0:0|0:0,0:0:0:0:
222,223,63298,6,0,P|263:213|311:203,1,59.9999981689454,2|0,0:0|0:0,0:0:0:0:
293,129,63432,2,0,P|263:135|234:142,1,59.9999981689454,10|0,0:0|0:0,0:0:0:0:
136,306,63566,6,0,B|207:380|296:305|242:300|332:215|426:303,1,300.000011444092,6|2,0:0|0:0,0:0:0:0:
411,295,63901,1,0,0:0:0:0:
418,308,63968,1,10,0:0:0:0:
386,198,64102,1,2,0:0:0:0:
406,201,64169,1,0,0:0:0:0:
426,213,64236,1,10,0:0:0:0:
315,140,64370,2,0,P|349:116|375:110,2,44.999998626709,2|0|10,0:0|0:0|0:0,0:0:0:0:
305,377,64638,6,0,P|319:302|336:238,1,119.999996337891,2|10,0:0|0:0,0:0:0:0:
485,165,64905,1,2,0:0:0:0:
149,152,65039,2,0,B|279:169|279:169|284:172|284:172|417:190,1,239.999992675781,10|10,0:0|0:0,0:0:0:0:
319,18,65441,1,2,0:0:0:0:
310,23,65508,1,0,0:0:0:0:
301,29,65575,1,10,0:0:0:0:
342,247,65709,5,2,0:0:0:0:
356,196,65776,1,0,0:0:0:0:
366,145,65843,1,10,0:0:0:0:
235,245,65977,1,2,0:0:0:0:
473,180,66111,1,10,0:0:0:0:
320,36,66245,5,8,0:0:0:0:
300,49,66312,1,8,0:0:0:0:
282,62,66379,1,8,0:0:0:0:
265,74,66446,1,8,0:0:0:0:
245,89,66513,5,8,0:0:0:0:
214,78,66579,1,8,0:0:0:0:
179,65,66646,1,8,0:0:0:0:
146,52,66713,1,8,0:0:0:0:
110,35,66780,6,0,L|206:13,1,75,6|0,0:0|0:0,0:0:0:0:
290,36,67048,1,0,0:0:0:0:
296,26,67115,1,0,0:0:0:0:
291,13,67182,5,10,0:0:0:0:
249,33,67249,1,0,0:0:0:0:
240,84,67316,1,0,0:0:0:0:
272,128,67383,1,0,0:0:0:0:
322,138,67450,1,10,0:0:0:0:
360,115,67517,1,0,0:0:0:0:
382,75,67584,1,0,0:0:0:0:
434,83,67651,1,0,0:0:0:0:
451,135,67718,1,10,0:0:0:0:
417,178,67785,1,0,0:0:0:0:
364,181,67852,5,0,0:0:0:0:
323,220,67919,1,0,0:0:0:0:
335,267,67986,1,10,0:0:0:0:
385,297,68053,1,0,0:0:0:0:
392,352,68120,1,0,0:0:0:0:
346,384,68187,1,0,0:0:0:0:
293,365,68254,5,10,0:0:0:0:
270,304,68321,1,0,0:0:0:0:
300,243,68388,1,0,0:0:0:0:
278,173,68454,1,0,0:0:0:0:
211,156,68521,1,10,0:0:0:0:
158,201,68588,1,0,0:0:0:0:
161,275,68655,2,0,L|197:290,3,25,0|0|10|0,0:0|0:0|0:0|0:0,0:0:0:0:
354,316,68923,5,6,0:0:0:0:
424,294,68990,1,0,0:0:0:0:
444,223,69057,1,10,0:0:0:0:
397,166,69124,1,0,0:0:0:0:
323,167,69191,1,0,0:0:0:0:
278,229,69258,1,0,0:0:0:0:
210,251,69325,1,10,0:0:0:0:
146,213,69392,1,0,0:0:0:0:
138,137,69459,1,0,0:0:0:0:
198,89,69526,1,0,0:0:0:0:
269,107,69593,1,10,0:0:0:0:
326,158,69660,1,0,0:0:0:0:
396,144,69727,1,0,0:0:0:0:
425,77,69794,1,0,0:0:0:0:
387,14,69861,1,10,0:0:0:0:
311,5,69928,1,0,0:0:0:0:
258,64,69995,6,0,L|270:148,1,75.0000028610231,8|8,0:0|0:0,0:0:0:0:
311,210,70129,2,0,L|299:294,1,75.0000028610231,8|8,0:0|0:0,0:0:0:0:
247,375,70263,6,0,L|240:334,3,25,8|8|8|8,0:0|0:0|0:0|0:0,0:0:0:0:
320,262,70530,6,0,L|329:208,3,50,8|8|8|8,0:0|0:0|0:0|0:0,0:0:0:0:
253,125,70798,6,0,L|240:50,3,62.5,8|8|8|8,0:0|0:0|0:0|0:0,0:0:0:0:
165,0,71066,6,0,B|319:28|202:81|367:91,1,225.000008583069,6|0,0:0|0:0,0:0:0:0:
374,76,71334,1,2,0:2:0:0:
212,384,71468,2,0,P|187:179|170:74,1,300.000011444092,10|10,0:2|0:2,0:0:0:0:
71,210,71870,1,2,0:2:0:0:
64,213,71937,1,0,0:0:0:0:
58,217,72004,1,10,0:2:0:0:
337,213,72138,6,0,P|222:188|131:167,1,150.000005722046,2|10,0:2|0:2,0:0:0:0:
147,72,72405,1,2,0:2:0:0:
418,243,72539,2,0,P|398:309|325:304,1,150.000005722046,10|2,0:2|0:2,0:0:0:0:
215,202,72807,1,10,0:2:0:0:
429,160,72941,2,0,P|470:175|491:194,2,50,2|0|10,0:2|0:0|0:2,0:0:0:0:
303,377,73209,6,0,P|332:278|340:211,1,150.000005722046,2|10,0:2|0:2,0:0:0:0:
302,65,73477,2,0,P|274:84|261:134,1,75.0000028610231,2|0,0:2|0:0,0:0:0:0:
420,148,73611,2,0,B|483:103|483:103|215:160,1,300.000011444092,10|10,0:2|0:2,0:0:0:0:
161,15,74013,1,2,0:2:0:0:
174,21,74079,1,0,0:0:0:0:
186,26,74146,1,10,0:2:0:0:
158,130,74280,5,2,0:2:0:0:
154,146,74347,1,0,0:0:0:0:
150,165,74414,1,10,0:2:0:0:
146,182,74481,1,0,0:0:0:0:
143,198,74548,1,2,0:2:0:0:
140,214,74615,1,0,0:0:0:0:
137,229,74682,1,10,0:2:0:0:
134,248,74749,1,0,0:0:0:0:
138,270,74816,5,2,0:2:0:0:
138,270,74883,1,0,0:0:0:0:
138,270,74950,2,0,L|116:170,1,75.0000028610231,10|0,0:2|0:0,0:0:0:0:
284,91,75084,5,2,0:2:0:0:
284,91,75151,1,0,0:0:0:0:
284,91,75218,2,0,L|267:164,1,75.0000028610231,10|0,0:2|0:0,0:0:0:0:
268,316,75352,6,0,B|311:363|367:354|429:313|367:303|421:240|501:233|571:319,1,300.000011444092,6|2,0:0|0:2,0:0:0:0:
477,359,75687,1,0,0:0:0:0:
477,359,75754,2,0,P|461:228|451:158,1,150.000005722046,10|2,0:2|0:2,0:0:0:0:
316,199,76021,1,10,0:2:0:0:
469,98,76155,2,0,P|508:117|528:146,2,50,2|0|10,0:2|0:0|0:2,0:0:0:0:
234,98,76423,6,0,P|243:159|332:166,1,150.000005722046,2|10,0:2|0:2,0:0:0:0:
371,10,76691,1,2,0:2:0:0:
322,340,76825,2,0,P|304:226|266:37,1,300.000011444092,10|10,0:2|0:2,0:0:0:0:
182,5,77227,1,2,0:2:0:0:
174,13,77294,1,0,0:0:0:0:
166,22,77361,1,10,0:2:0:0:
119,151,77495,6,0,B|259:127|259:127|269:136|269:136|426:110,1,300.000011444092,2|2,0:2|0:2,0:0:0:0:
421,105,77829,1,0,0:0:0:0:
430,97,77896,1,10,0:2:0:0:
261,235,78030,1,2,0:2:0:0:
310,34,78164,1,10,0:2:0:0:
414,220,78298,1,2,0:2:0:0:
420,228,78365,1,0,0:0:0:0:
428,236,78432,1,10,0:2:0:0:
342,338,78566,5,2,0:2:0:0:
326,358,78633,1,0,0:0:0:0:
299,366,78700,1,10,0:2:0:0:
269,359,78767,1,0,0:0:0:0:
250,332,78834,1,2,0:2:0:0:
228,312,78901,1,0,0:0:0:0:
199,307,78968,1,10,0:2:0:0:
174,316,79035,1,0,0:0:0:0:
166,337,79102,5,2,0:2:0:0:
166,337,79169,1,0,0:0:0:0:
166,337,79236,2,0,P|206:323|250:310,1,75.0000028610231,10|0,0:2|0:0,0:0:0:0:
349,223,79370,5,2,0:2:0:0:
349,223,79437,1,0,0:0:0:0:
349,223,79504,2,0,P|309:209|265:196,1,75.0000028610231,10|0,0:2|0:0,0:0:0:0:
132,126,79638,6,0,P|125:73|207:111,1,150.000005722046,6|0,0:0|0:0,0:0:0:0:
208,143,79838,1,0,0:0:0:0:
207,152,79905,2,0,P|193:200|188:235,1,59.9999981689454,2|0,0:2|0:0,0:0:0:0:
320,322,80039,6,0,P|385:299|477:276,1,150.000005722046,10|0,0:2|0:0,0:0:0:0:
268,224,80307,1,10,0:2:0:0:
451,141,80441,1,2,0:2:0:0:
457,129,80508,1,0,0:0:0:0:
463,119,80575,1,10,0:2:0:0:
383,25,80709,6,0,B|338:2|301:43|323:43|291:90|242:73,1,150.000005722046,2|10,0:2|0:2,0:0:0:0:
245,68,80910,1,0,0:0:0:0:
238,60,80977,2,0,P|291:79|320:104,1,59.9999981689454,2|0,0:2|0:0,0:0:0:0:
250,295,81111,2,0,P|240:228|224:133,1,150.000005722046,10|2,0:2|0:2,0:0:0:0:
343,196,81379,1,10,0:2:0:0:
56,158,81513,1,2,0:2:0:0:
89,164,81579,1,0,0:0:0:0:
125,172,81646,1,10,0:2:0:0:
161,181,81713,1,0,0:0:0:0:
198,192,81780,6,0,L|33:224,1,150.000005722046,2|10,0:2|0:2,0:0:0:0:
238,60,82048,1,2,0:2:0:0:
345,269,82182,2,0,B|198:247|198:247|193:243|193:243|18:215,1,300.000011444092,10|10,0:2|0:2,0:0:0:0:
206,364,82584,1,2,0:2:0:0:
217,354,82651,1,0,0:0:0:0:
227,346,82718,1,10,0:2:0:0:
141,119,82852,5,2,0:2:0:0:
109,144,82919,1,0,0:0:0:0:
111,181,82986,1,10,0:2:0:0:
136,208,83053,1,0,0:0:0:0:
175,212,83120,1,2,0:2:0:0:
205,184,83187,1,0,0:0:0:0:
245,187,83254,1,10,0:2:0:0:
269,218,83321,1,0,0:0:0:0:
270,259,83388,5,2,0:2:0:0:
270,259,83454,1,0,0:0:0:0:
270,259,83521,2,0,P|223:226|211:192,1,75.0000028610231,10|0,0:2|0:0,0:0:0:0:
378,52,83655,1,2,0:2:0:0:
378,52,83722,1,0,0:0:0:0:
378,52,83789,2,0,P|356:102|350:140,1,75.0000028610231,10|0,0:2|0:0,0:0:0:0:
495,282,83923,6,0,P|399:209|215:219,1,300.000011444092,6|2,0:0|0:2,0:0:0:0:
203,320,84258,1,0,0:0:0:0:
203,320,84325,2,0,P|191:257|145:149,1,150.000005722046,10|2,0:2|0:2,0:0:0:0:
75,90,84593,1,10,0:2:0:0:
299,65,84727,2,0,P|260:80|236:94,2,59.9999981689454,2|0|10,0:2|0:0|0:2,0:0:0:0:
408,179,84995,5,2,0:2:0:0:
164,62,85129,1,10,0:2:0:0:
366,14,85263,1,2,0:2:0:0:
302,309,85396,2,0,B|280:163|280:163|287:168|287:168|265:14,1,300.000011444092,10|10,0:2|0:2,0:0:0:0:
470,175,85798,5,2,0:2:0:0:
415,162,85865,1,0,0:0:0:0:
371,151,85932,1,10,0:2:0:0:
325,139,85999,1,0,0:0:0:0:
279,127,86066,6,0,B|231:172|231:172|475:120,1,300.000011444092,6|2,0:2|0:2,0:0:0:0:
467,111,86401,1,0,0:0:0:0:
473,103,86468,1,10,0:2:0:0:
192,262,86602,2,0,B|140:204|140:204|173:71,1,150.000005722046,2|10,0:2|0:2,0:0:0:0:
363,41,86870,5,8,0:0:0:0:
355,77,86937,1,8,0:0:0:0:
348,118,87004,1,8,0:0:0:0:
343,158,87071,1,8,0:0:0:0:
339,195,87138,5,0,0:0:0:0:
318,157,87204,1,8,0:0:0:0:
296,118,87271,1,8,0:0:0:0:
253,125,87338,1,8,0:0:0:0:
209,135,87405,2,0,L|226:203,1,37.5000014305115
329,293,87539,5,0,0:0:0:0:
370,305,87606,1,8,0:0:0:0:
413,317,87673,1,8,0:0:0:0:
439,281,87740,1,8,0:0:0:0:
463,243,87807,2,0,L|402:206,1,37.5000014305115
248,238,87941,5,0,0:0:0:0:
238,273,88008,1,0,0:0:0:0:
232,303,88075,1,0,0:0:0:0:
226,333,88142,1,0,0:0:0:0:
221,361,88209,6,0,B|199:325|199:325|217:283,3,75.0000028610231,14|0|0|0,0:0|0:0|0:0|0:0,0:0:0:0:
312,254,88477,6,0,B|333:223|333:223|310:174,3,75.0000028610231,14|0|0|0,0:0|0:0|0:0|0:0,0:0:0:0:
157,180,88745,5,14,0:0:0:0:
149,186,88812,1,0,0:0:0:0:
159,191,88879,2,0,L|251:166,1,75.0000028610231
362,87,89013,5,14,0:0:0:0:
370,93,89079,1,0,0:0:0:0:
360,98,89146,2,0,L|268:73,1,75.0000028610231
259,281,89280,5,14,0:0:0:0:
268,246,89347,1,0,0:0:0:0:
277,210,89414,1,0,0:0:0:0:
340,317,89548,1,14,0:0:0:0:
181,203,89682,1,0,0:0:0:0:
354,169,89816,1,14,0:0:0:0:
233,356,89950,1,0,0:0:0:0:
414,240,90084,6,0,B|444:202|444:202|428:153,1,100,14|0,0:0|0:0,0:0:0:0:
214,111,90218,2,0,B|184:148|184:148|200:198,1,100,2|0,0:0|0:0,0:0:0:0:
325,312,90352,5,14,0:0:0:0:
340,316,90419,1,0,0:0:0:0:
352,320,90486,1,0,0:0:0:0:
215,194,90620,5,14,0:0:0:0:
200,198,90687,1,0,0:0:0:0:
188,202,90754,1,0,0:0:0:0:
344,29,90888,6,0,P|391:42|413:80,1,75.0000028610231,14|0,0:0|0:0,0:0:0:0:
389,191,91021,2,0,P|382:161|363:137,1,59.9999981689454
216,110,91155,2,0,P|259:85|305:96,1,75.0000028610231,14|0,0:0|0:0,0:0:0:0:
372,198,91289,2,0,P|346:181|317:178,1,59.9999981689454
206,316,91423,5,14,0:0:0:0:
201,303,91490,1,0,0:0:0:0:
191,288,91557,1,0,0:0:0:0:
320,233,91691,5,14,0:0:0:0:
325,220,91758,1,0,0:0:0:0:
335,205,91825,1,0,0:0:0:0:
197,128,91959,5,14,0:0:0:0:
192,115,92026,1,0,0:0:0:0:
182,100,92093,1,0,0:0:0:0:
318,13,92227,6,0,B|301:161|301:161|305:166|305:166|285:342,1,300,14|0,0:0|0:0,0:0:0:0:
378,375,92495,5,14,0:0:0:0:
399,354,92562,1,0,0:0:0:0:
420,333,92629,1,0,0:0:0:0:
441,312,92696,1,0,0:0:0:0:
462,291,92763,5,14,0:0:0:0:
433,282,92829,1,0,0:0:0:0:
405,273,92896,1,0,0:0:0:0:
376,264,92963,1,0,0:0:0:0:
348,256,93030,5,14,0:0:0:0:
304,268,93097,1,0,0:0:0:0:
262,281,93164,1,0,0:0:0:0:
219,295,93231,1,0,0:0:0:0:
177,307,93298,5,14,0:0:0:0:
133,295,93365,1,0,0:0:0:0:
91,282,93432,1,0,0:0:0:0:
48,268,93499,1,0,0:0:0:0:
6,256,93566,5,14,0:0:0:0:
353,236,93700,1,0,0:0:0:0:
90,184,93834,1,14,0:0:0:0:
334,107,93968,1,0,0:0:0:0:
159,120,94102,1,14,0:0:0:0:
258,154,94236,1,0,0:0:0:0:
79,93,94370,6,0,L|54:-9,1,75.0000028610231,14|0,0:0|0:0,0:0:0:0:
334,190,94504,2,0,L|320:276,1,75.0000028610231
217,76,94638,5,14,0:0:0:0:
416,227,94771,1,0,0:0:0:0:
431,221,94838,1,0,0:0:0:0:
445,216,94905,1,14,0:0:0:0:
281,328,95039,1,0,0:0:0:0:
357,121,95173,5,14,0:0:0:0:
361,95,95240,1,0,0:0:0:0:
366,67,95307,1,0,0:0:0:0:
177,251,95441,5,6,0:0:0:0:
172,225,95508,1,0,0:0:0:0:
167,196,95575,1,0,0:0:0:0:
161,168,95642,1,0,0:0:0:0:
156,140,95709,5,6,0:0:0:0:
22,243,95843,2,0,B|170:215|170:215|179:218|179:218|358:185,1,300.000011444092,6|0,0:0|0:0,0:0:0:0:
352,69,96245,5,6,0:0:0:0:
447,312,96379,2,0,B|299:284|299:284|290:287|290:287|111:254,1,300.000011444092,6|0,0:0|0:0,0:0:0:0:
139,110,96780,6,0,B|136:83|117:65|117:65|145:44|161:15|161:15|163:49|178:76|178:76|157:87|141:115,1,225.000008583069,6|0,0:0|0:0,0:0:0:0:
81,169,97048,2,0,P|59:122|44:103,1,59.9999981689454,2|0,0:2|0:0,0:0:0:0:
179,190,97182,2,0,P|213:150|232:136,1,59.9999981689454,10|0,0:2|0:0,0:0:0:0:
114,255,97316,5,2,0:2:0:0:
143,89,97450,1,10,0:2:0:0:
313,239,97584,6,0,L|226:260,1,59.9999981689454,2|0,0:2|0:0,0:0:0:0:
211,182,97718,2,0,L|269:167,1,59.9999981689454,10|0,0:2|0:0,0:0:0:0:
313,339,97852,6,0,P|293:237|273:145,1,179.999994506836,2|0,0:2|0:0,0:0:0:0:
317,84,98120,2,0,P|342:105|361:152,1,59.9999981689454,2|0,0:2|0:0,0:0:0:0:
416,204,98254,2,0,P|432:174|473:146,1,59.9999981689454,10|0,0:2|0:0,0:0:0:0:
259,146,98388,1,2,0:2:0:0:
440,50,98521,1,10,0:2:0:0:
333,353,98655,6,0,L|420:374,1,59.9999981689454,2|0,0:2|0:0,0:0:0:0:
435,296,98789,2,0,L|376:281,1,59.9999981689454,10|0,0:2|0:0,0:0:0:0:
293,263,98923,6,0,B|206:280|206:280|202:285|202:285|64:314,1,179.999994506836,2|0,0:2|0:0,0:0:0:0:
65,239,99191,6,0,L|80:159,1,59.9999981689454,2|0,0:2|0:0,0:0:0:0:
165,148,99325,2,0,L|153:206,1,59.9999981689454,10|0,0:2|0:0,0:0:0:0:
219,358,99459,1,2,0:2:0:0:
314,338,99593,1,10,0:2:0:0:
276,127,99727,6,0,L|260:207,1,59.9999981689454,2|0,0:2|0:0,0:0:0:0:
366,225,99861,2,0,L|377:166,1,59.9999981689454,10|0,0:2|0:0,0:0:0:0:
358,46,99995,5,2,0:2:0:0:
503,161,100129,1,10,0:2:0:0:
284,133,100263,1,2,0:2:0:0:
284,133,100329,1,0,0:0:0:0:
284,133,100396,1,10,0:2:0:0:
451,255,100530,5,8,0:0:0:0:
460,308,100597,1,8,0:0:0:0:
416,342,100664,1,8,0:0:0:0:
364,327,100731,1,8,0:0:0:0:
342,282,100798,1,8,0:0:0:0:
295,263,100865,1,8,0:0:0:0:
246,280,100932,1,8,0:0:0:0:
231,332,100999,1,8,0:0:0:0:
268,366,101066,6,0,P|287:339|333:319,1,80,6|2,0:0|0:2,0:0:0:0:
409,359,101401,1,0,0:0:0:0:
409,359,101468,2,0,P|351:348|236:337,1,119.999996337891,10|2,0:2|0:2,0:0:0:0:
423,222,101736,1,10,0:2:0:0:
258,250,101870,1,2,0:2:0:0:
248,255,101937,1,0,0:0:0:0:
239,259,102004,1,10,0:2:0:0:
282,95,102138,6,0,P|345:116|347:170,1,119.999996337891,2|10,0:2|0:2,0:0:0:0:
264,179,102405,1,2,0:2:0:0:
75,84,102539,2,0,P|147:98|224:120,1,119.999996337891,10|2,0:2|0:2,0:0:0:0:
231,20,102807,1,10,0:2:0:0:
118,174,102941,1,2,0:2:0:0:
122,182,103008,1,0,0:0:0:0:
128,193,103075,1,10,0:2:0:0:
37,163,103209,5,2,0:2:0:0:
241,290,103343,2,0,P|156:271|91:260,1,119.999996337891,10|2,0:2|0:2,0:0:0:0:
257,154,103611,2,0,B|321:128|396:185|343:194|401:268|473:231,1,239.999992675781,10|10,0:2|0:2,0:0:0:0:
230,55,104013,1,2,0:2:0:0:
220,58,104079,1,0,0:0:0:0:
212,61,104146,1,10,0:2:0:0:
444,155,104280,6,0,P|457:102|469:36,1,119.999996337891,2|10,0:2|0:2,0:0:0:0:
361,68,104548,1,2,0:2:0:0:
359,212,104682,2,0,P|317:167|235:177,1,119.999996337891,10|2,0:2|0:2,0:0:0:0:
191,222,104950,1,10,0:2:0:0:
343,327,105084,1,2,0:2:0:0:
372,320,105151,1,0,0:0:0:0:
401,313,105218,1,10,0:2:0:0:
430,307,105285,1,0,0:0:0:0:
457,299,105352,6,0,B|509:336|509:336|291:300,1,225.000008583069,6|0,0:0|0:0,0:0:0:0:
305,239,105620,2,0,L|382:227,1,59.9999981689454,2|0,0:0|0:0,0:0:0:0:
347,383,105754,2,0,L|270:371,1,59.9999981689454,10|0,0:0|0:0,0:0:0:0:
182,323,105888,6,0,P|206:278|213:239,1,59.9999981689454,2|0,0:0|0:0,0:0:0:0:
285,204,106021,2,0,P|261:159|254:120,1,59.9999981689454,10|0,0:0|0:0,0:0:0:0:
228,52,106155,1,2,0:0:0:0:
251,15,106222,1,0,0:0:0:0:
292,9,106289,1,10,0:0:0:0:
324,25,106356,1,0,0:0:0:0:
334,61,106423,6,0,P|205:34|147:26,1,179.999994506836,2|0,0:0|0:0,0:0:0:0:
126,102,106691,6,0,P|164:108|207:118,1,59.9999981689454,2|0,0:0|0:0,0:0:0:0:
264,201,106825,2,0,P|226:207|183:217,1,59.9999981689454,10|0,0:0|0:0,0:0:0:0:
102,223,106959,5,2,0:0:0:0:
281,110,107093,1,10,0:0:0:0:
305,301,107227,5,2,0:0:0:0:
282,345,107294,1,0,0:0:0:0:
242,354,107361,1,10,0:0:0:0:
199,329,107428,1,0,0:0:0:0:
193,283,107495,6,0,B|266:292|266:292|269:296|269:296|361:307,1,150.000005722046,2|10,0:0|0:0,0:0:0:0:
414,256,107763,5,2,0:0:0:0:
328,213,107896,1,10,0:0:0:0:
485,160,108030,5,2,0:0:0:0:
251,246,108164,1,10,0:0:0:0:
512,244,108298,5,2,0:0:0:0:
235,121,108432,1,10,0:0:0:0:
389,29,108566,5,14,0:0:0:0:
437,56,108633,1,8,0:0:0:0:
446,111,108700,1,8,0:0:0:0:
413,161,108767,1,8,0:0:0:0:
358,166,108834,1,0,0:2:0:0:
317,130,108901,1,8,0:0:0:0:
305,76,108968,5,6,0:2:0:0:
297,64,109035,1,0,0:0:0:0:
286,57,109102,1,8,0:0:0:0:
271,53,109169,1,8,0:0:0:0:
257,52,109236,1,8,0:0:0:0:
244,54,109303,1,8,0:0:0:0:
233,68,109370,5,8,0:0:0:0:
217,84,109437,1,8,0:0:0:0:
193,94,109504,1,8,0:0:0:0:
160,90,109571,1,8,0:0:0:0:
134,52,109638,6,0,B|160:15|226:13|274:44|297:141|238:178|238:178|221:143|189:130,1,300.000011444092,6|2,0:0|0:2,0:0:0:0:
160,203,109972,1,0,0:0:0:0:
160,203,110039,2,0,P|117:184|25:175,1,119.999996337891,10|2,0:2|0:2,0:0:0:0:
132,66,110307,1,10,0:2:0:0:
231,142,110441,2,0,P|247:171|257:207,2,50,2|0|10,0:2|0:0|0:2,0:0:0:0:
383,14,110709,6,0,P|354:69|331:134,1,119.999996337891,2|10,0:2|0:2,0:0:0:0:
272,34,110977,1,2,0:2:0:0:
397,204,111111,2,0,P|469:182|527:171,1,119.999996337891,10|2,0:2|0:2,0:0:0:0:
469,297,111379,1,10,0:2:0:0:
318,177,111513,1,2,0:2:0:0:
307,181,111579,1,0,0:0:0:0:
296,187,111646,1,10,0:2:0:0:
287,353,111780,6,0,P|353:320|327:269,1,119.999996337891,2|10,0:2|0:2,0:0:0:0:
203,253,112048,1,2,0:2:0:0:
351,96,112182,2,0,P|318:178|305:226,1,119.999996337891,10|2,0:2|0:2,0:0:0:0:
425,180,112450,1,10,0:2:0:0:
234,173,112584,1,2,0:2:0:0:
222,167,112651,1,0,0:0:0:0:
207,162,112718,1,10,0:2:0:0:
66,262,112852,6,0,P|122:247|207:229,1,119.999996337891,2|10,0:2|0:2,0:0:0:0:
191,70,113120,1,2,0:2:0:0:
176,78,113187,1,0,0:0:0:0:
166,90,113254,1,10,0:2:0:0:
322,142,113388,5,8,0:0:0:0:
333,122,113454,1,8,0:0:0:0:
327,95,113521,2,0,P|298:68|269:63,1,59.9999981689454
357,217,113655,5,8,0:0:0:0:
367,220,113722,1,8,0:0:0:0:
378,219,113789,2,0,P|416:182|422:156,1,59.9999981689454
253,0,113923,6,0,P|234:104|204:352,1,300,6|0,0:0|0:0,0:0:0:0:
362,379,114191,1,10,0:0:0:0:
425,362,114258,1,0,0:0:0:0:
452,300,114325,1,10,0:0:0:0:
423,238,114392,1,0,0:0:0:0:
357,220,114459,1,10,0:0:0:0:
302,256,114526,1,0,0:0:0:0:
278,318,114593,1,10,0:0:0:0:
213,335,114660,1,0,0:0:0:0:
158,297,114727,1,10,0:0:0:0:
164,229,114794,1,0,0:0:0:0:
217,187,114861,1,10,0:0:0:0:
212,121,114928,1,0,0:0:0:0:
153,84,114995,2,0,P|86:106|60:138,1,59.9999981689454,10|0,0:0|0:0,0:0:0:0:
148,280,115129,5,10,0:0:0:0:
186,297,115196,1,0,0:0:0:0:
226,290,115263,1,10,0:0:0:0:
259,267,115329,1,0,0:0:0:0:
276,232,115396,2,0,P|252:206|235:162,1,59.9999981689454,10|0,0:0|0:0,0:0:0:0:
258,53,115530,5,10,0:0:0:0:
290,2,115597,1,0,0:0:0:0:
354,2,115664,1,10,0:0:0:0:
404,40,115731,1,0,0:0:0:0:
404,101,115798,1,10,0:0:0:0:
364,150,115865,1,0,0:0:0:0:
367,210,115932,1,10,0:0:0:0:
414,241,115999,1,0,0:0:0:0:
469,237,116066,2,0,P|492:201|491:167,1,59.9999981689454,10|0,0:0|0:0,0:0:0:0:
290,125,116200,5,10,0:0:0:0:
235,105,116267,1,0,0:0:0:0:
180,93,116334,1,10,0:0:0:0:
122,82,116401,1,0,0:0:0:0:
72,71,116468,2,0,P|115:58|153:50,1,59.9999981689454,10|0,0:0|0:0,0:0:0:0:
290,226,116602,5,10,0:0:0:0:
286,255,116669,1,0,0:0:0:0:
281,284,116736,1,10,0:0:0:0:
276,313,116803,1,0,0:0:0:0:
271,342,116870,6,0,L|257:258,1,59.9999981689454,10|0,0:0|0:0,0:0:0:0:
310,204,117004,2,0,L|324:120,1,59.9999981689454,10|0,0:0|0:0,0:0:0:0:
220,67,117138,6,0,L|207:-16,3,59.9999981689454,8|8|8|8,0:0|0:0|0:0|0:0,0:0:0:0:
384,120,117405,6,0,L|400:33,1,59.9999981689454,8|8,0:0|0:0,0:0:0:0:
182,185,117539,2,0,L|169:102,3,59.9999981689454,8|8|0|0,0:0|0:0|0:0|0:0,0:0:0:0:
393,132,117807,6,0,L|409:45,1,59.9999981689454,8|8,0:0|0:0,0:0:0:0:
144,249,117941,1,8,0:0:0:0:
136,257,118008,1,0,0:0:0:0:
129,266,118075,1,0,0:0:0:0:
122,275,118142,1,0,0:0:0:0:
115,283,118209,6,0,B|38:237|38:237|337:285,1,345.000006580353,6|0,0:0|0:0,0:0:0:0:
414,209,118477,5,10,0:0:0:0:
480,245,118544,1,0,0:0:0:0:
491,317,118611,1,10,0:0:0:0:
440,368,118678,1,0,0:0:0:0:
366,364,118745,1,10,0:0:0:0:
319,308,118812,1,0,0:0:0:0:
334,233,118879,1,10,0:0:0:0:
399,193,118946,1,0,0:0:0:0:
406,118,119013,1,10,0:0:0:0:
349,66,119079,1,0,0:0:0:0:
272,67,119146,1,10,0:0:0:0:
240,140,119213,1,0,0:0:0:0:
274,213,119280,5,10,0:0:0:0:
324,155,119347,1,0,0:0:0:0:
300,83,119414,1,10,0:0:0:0:
229,58,119481,1,0,0:0:0:0:
166,103,119548,1,10,0:0:0:0:
161,178,119615,1,0,0:0:0:0:
104,223,119682,1,10,0:0:0:0:
34,212,119749,1,0,0:0:0:0:
6,146,119816,5,10,0:0:0:0:
51,155,119883,1,0,0:0:0:0:
96,164,119950,1,10,0:0:0:0:
141,173,120017,1,0,0:0:0:0:
186,182,120084,6,0,L|173:83,1,75.0000028610231,10|0,0:0|0:0,0:0:0:0:
64,67,120218,2,0,L|77:166,1,75.0000028610231,10|0,0:0|0:0,0:0:0:0:
164,315,120352,5,10,0:0:0:0:
221,352,120419,1,0,0:0:0:0:
287,337,120486,1,10,0:0:0:0:
311,272,120553,1,0,0:0:0:0:
278,211,120620,1,10,0:0:0:0:
274,143,120687,1,0,0:0:0:0:
320,93,120754,1,10,0:0:0:0:
387,95,120821,1,0,0:0:0:0:
432,150,120888,5,10,0:0:0:0:
390,173,120954,1,0,0:0:0:0:
345,167,121021,1,10,0:0:0:0:
318,134,121088,1,0,0:0:0:0:
318,86,121155,1,10,0:0:0:0:
340,54,121222,1,0,0:0:0:0:
383,40,121289,1,10,0:0:0:0:
423,57,121356,1,0,0:0:0:0:
438,95,121423,5,10,0:0:0:0:
405,127,121490,1,0,0:0:0:0:
365,122,121557,1,10,0:0:0:0:
341,90,121624,1,0,0:0:0:0:
299,65,121691,1,10,0:0:0:0:
249,67,121758,1,0,0:0:0:0:
224,105,121825,2,0,P|210:125|219:179,1,59.9999981689454,10|0,0:0|0:0,0:0:0:0:
346,381,121959,5,8,2:3:0:0:
406,340,122026,1,8,2:3:0:0:
414,267,122093,1,8,2:3:0:0:
360,218,122160,1,8,2:3:0:0:
290,213,122227,1,0,0:0:0:0:
230,192,122294,1,0,0:0:0:0:
211,131,122361,1,0,0:0:0:0:
249,84,122428,1,0,0:0:0:0:
310,84,122495,6,0,P|294:208|268:358,1,225.000008583069,6|0,0:0|0:0,0:0:0:0:
261,306,122763,1,2,0:2:0:0:
450,228,122896,2,0,B|494:251|518:279|518:279|415:236|278:215,1,300.000011444092,10|10,0:2|0:2,0:0:0:0:
421,58,123298,1,2,0:2:0:0:
430,67,123365,1,0,0:0:0:0:
437,79,123432,1,10,0:2:0:0:
231,275,123566,6,0,P|223:216|204:117,1,150.000005722046,2|10,0:2|0:2,0:0:0:0:
346,132,123834,1,2,0:2:0:0:
142,306,123968,2,0,P|160:378|233:352,1,150.000005722046,10|2,0:2|0:2,0:0:0:0:
301,205,124236,1,10,0:2:0:0:
135,219,124370,2,0,P|84:235|71:246,2,50,2|0|10,0:2|0:0|0:2,0:0:0:0:
340,280,124638,6,0,B|416:270|416:270|414:273|414:273|506:262,1,150.000005722046,2|10,0:2|0:2,0:0:0:0:
226,373,124905,2,0,L|205:285,1,75.0000028610231,2|0,0:2|0:0,0:0:0:0:
270,86,125039,2,0,B|254:216|254:216|257:222|257:222|235:396,1,300.000011444092,10|10,0:2|0:2,0:0:0:0:
106,227,125441,1,2,0:2:0:0:
120,221,125508,1,0,0:0:0:0:
132,216,125575,1,10,0:2:0:0:
257,363,125709,5,2,0:2:0:0:
278,356,125776,1,0,0:0:0:0:
299,349,125843,1,10,0:2:0:0:
320,343,125910,1,0,0:0:0:0:
341,337,125977,1,2,0:2:0:0:
362,331,126044,1,0,0:0:0:0:
383,325,126111,1,10,0:2:0:0:
404,319,126178,1,0,0:0:0:0:
430,319,126245,5,2,0:2:0:0:
430,319,126312,1,0,0:0:0:0:
430,319,126379,2,0,P|367:298|336:290,1,75.0000028610231,10|0,0:2|0:0,0:0:0:0:
236,196,126513,5,2,0:2:0:0:
236,196,126579,1,0,0:0:0:0:
236,196,126646,2,0,P|299:175|330:167,1,75.0000028610231,10|0,0:2|0:0,0:0:0:0:
453,37,126780,6,0,B|524:64|532:168|421:206|401:166|401:166|400:105|327:86,1,300.000011444092,6|2,0:0|0:2,0:0:0:0:
298,96,127115,1,0,0:0:0:0:
298,96,127182,2,0,P|437:122|463:129,1,150.000005722046,10|2,0:2|0:2,0:0:0:0:
254,0,127450,1,10,0:2:0:0:
212,166,127584,2,0,P|202:127|194:100,2,50,2|0|10,0:2|0:0|0:2,0:0:0:0:
48,163,127852,6,0,B|12:144|12:144|150:169,1,150.000005722046,2|10,0:2|0:2,0:0:0:0:
153,41,128120,1,2,0:2:0:0:
175,286,128254,2,0,B|161:361|161:361|121:121,1,300.000011444092,10|10,0:2|0:2,0:0:0:0:
278,75,128655,1,2,0:2:0:0:
274,85,128722,1,0,0:0:0:0:
270,94,128789,1,10,0:2:0:0:
511,248,128923,6,0,B|311:167|311:167|199:207,1,300.000011444092,2|2,0:2|0:2,0:0:0:0:
219,203,129258,1,0,0:0:0:0:
208,210,129325,1,10,0:2:0:0:
380,95,129459,1,2,0:2:0:0:
407,283,129593,1,10,0:2:0:0:
252,128,129727,1,2,0:2:0:0:
242,117,129794,1,0,0:0:0:0:
231,104,129861,1,10,0:2:0:0:
249,338,129995,5,8,2:0:0:0:
303,323,130062,1,8,2:0:0:0:
356,307,130129,1,8,2:0:0:0:
407,292,130196,1,8,2:0:0:0:
452,277,130263,5,8,0:0:0:0:
444,267,130329,1,8,0:0:0:0:
435,258,130396,1,8,0:0:0:0:
426,249,130463,1,8,0:0:0:0:
418,239,130530,6,0,L|429:161,3,64.9999970245363,8|8|8|8,0:0|0:0|0:0|0:0,0:0:0:0:
355,110,130798,2,0,L|344:32,3,64.9999970245363,8|8|8|8,0:0|0:0|0:0|0:0,0:0:0:0:
479,37,131066,6,0,P|367:67|303:90,1,150.000005722046,6|10,0:0|0:2,0:0:0:0:
282,139,131267,1,0,0:0:0:0:
271,143,131334,2,0,P|226:127|183:115,1,75.0000028610231,2|0,0:2|0:0,0:0:0:0:
113,15,131468,2,0,P|175:48|162:152,1,150.000005722046,10|2,0:2|0:2,0:0:0:0:
44,122,131736,1,10,0:2:0:0:
174,219,131870,1,2,0:2:0:0:
190,211,131937,1,0,0:0:0:0:
208,202,132004,1,10,0:2:0:0:
305,379,132138,6,0,B|360:331|360:331|322:228,1,150.000005722046,2|10,0:2|0:2,0:0:0:0:
266,301,132338,1,0,0:0:0:0:
260,305,132405,2,0,L|157:286,1,75.0000028610231,2|0,0:2|0:0,0:0:0:0:
55,200,132539,2,0,B|140:186|140:186|145:188|145:188|230:172,1,150.000005722046,10|2,0:2|0:2,0:0:0:0:
104,53,132807,1,10,0:2:0:0:
299,177,132941,1,2,0:2:0:0:
337,151,133008,1,0,0:0:0:0:
347,105,133075,1,10,0:2:0:0:
322,66,133142,1,0,0:0:0:0:
274,52,133209,6,0,P|255:151|245:235,1,150.000005722046,2|10,0:2|0:2,0:0:0:0:
162,97,133477,1,2,0:2:0:0:
471,238,133611,2,0,B|423:199|358:204|321:251|347:254|306:304|256:320|194:278,1,300.000011444092,10|10,0:2|0:2,0:0:0:0:
111,192,134013,1,2,0:2:0:0:
107,180,134079,1,0,0:0:0:0:
104,167,134146,1,10,0:2:0:0:
259,12,134280,5,2,0:2:0:0:
300,26,134347,1,0,0:0:0:0:
313,69,134414,1,10,0:2:0:0:
286,100,134481,1,0,0:0:0:0:
246,98,134548,1,2,0:2:0:0:
212,72,134615,1,0,0:0:0:0:
167,81,134682,1,10,0:2:0:0:
148,122,134749,1,0,0:0:0:0:
166,168,134816,5,2,0:2:0:0:
166,168,134883,1,0,0:0:0:0:
166,168,134950,2,0,P|206:161|252:117,1,75.0000028610231,10|0,0:2|0:0,0:0:0:0:
285,282,135084,5,2,0:2:0:0:
285,282,135151,1,0,0:0:0:0:
285,282,135218,2,0,P|245:275|199:231,1,75.0000028610231,10|0,0:2|0:0,0:0:0:0:
342,26,135352,6,0,P|369:168|396:377,1,300.000011444092,6|2,0:0|0:2,0:0:0:0:
466,363,135687,1,0,0:0:0:0:
466,363,135754,2,0,B|485:328|485:328|361:355,1,150.000005722046,10|2,0:2|0:2,0:0:0:0:
243,380,136021,1,10,0:2:0:0:
404,211,136155,1,2,0:2:0:0:
413,220,136222,1,0,0:0:0:0:
420,229,136289,1,10,0:2:0:0:
265,201,136423,5,2,0:2:0:0:
354,368,136557,1,10,0:2:0:0:
392,111,136691,1,2,0:2:0:0:
96,281,136825,6,0,L|427:211,1,300.000011444092,10|10,0:2|0:2,0:0:0:0:
473,76,137227,5,2,0:2:0:0:
418,89,137294,1,0,0:0:0:0:
374,100,137361,1,10,0:2:0:0:
328,112,137428,1,0,0:0:0:0:
282,124,137495,6,0,B|234:79|234:79|478:131,1,300.000011444092,6|2,0:0|0:2,0:0:0:0:
475,134,137829,1,0,0:0:0:0:
487,138,137896,1,10,0:2:0:0:
348,335,138030,2,0,B|336:373|336:373|301:259,1,150.000005722046,0|8,0:0|0:0,0:0:0:0:
428,216,138298,1,2,0:2:0:0:
438,223,138365,1,0,0:0:0:0:
446,229,138432,1,8,0:0:0:0:
261,368,138571,6,0,P|211:351|134:340,1,119.999996337891,2|2,0:2|0:2,0:0:0:0:
209,165,138827,1,0,0:0:0:0:
236,175,138892,1,0,0:0:0:0:
255,195,138957,1,0,0:0:0:0:
263,225,139022,1,0,0:0:0:0:
258,253,139087,1,0,0:0:0:0:
141,272,139237,5,0,0:0:0:0:
129,267,139302,1,0,0:0:0:0:
116,262,139367,1,0,0:0:0:0:
401,222,139497,5,0,0:0:0:0:
413,217,139563,1,0,0:0:0:0:
426,212,139628,2,0,L|252:184,1,129.999994049073,6|0,0:0|0:0,0:0:0:0:
291,198,139828,1,0,0:0:0:0:
284,204,139894,1,0,0:0:0:0:
198,8,140028,6,0,P|279:49|274:100,1,129.999994049073
275,91,140236,1,0,0:0:0:0:
264,98,140303,1,0,0:0:0:0:
120,136,140436,6,0,P|105:95|96:78,1,50
19,191,140587,1,0,0:0:0:0:
28,197,140652,1,0,0:0:0:0:
38,203,140718,1,0,0:0:0:0:
46,210,140783,1,0,0:0:0:0:
56,217,140849,5,2,0:2:0:0:
89,208,140914,1,2,0:2:0:0:
123,199,140980,1,2,0:2:0:0:
156,190,141045,1,2,0:2:0:0:
190,181,141102,2,0,L|177:111,1,50
211,265,141233,5,2,0:2:0:0:
244,274,141299,1,2,0:2:0:0:
278,283,141365,1,2,0:2:0:0:
311,292,141430,1,2,0:2:0:0:
345,301,141496,6,0,L|329:219,1,50,2|2,0:1|0:2,0:0:0:0:
311,167,141628,2,0,L|327:85,1,50,2|2,0:1|0:2,0:0:0:0:
358,37,141785,5,2,0:1:0:0:
221,72,143986,5,8,0:0:0:0:
357,138,144124,1,8,0:0:0:0:
369,140,144399,5,0,0:0:0:0:
97,227,144537,2,0,B|15:154|15:154|402:224,1,500,14|0,0:0|0:0,0:0:0:0:
364,326,148115,5,8,0:0:0:0:
354,319,148252,1,8,0:0:0:0:
453,153,148390,2,0,B|504:205|504:205|467:273,1,140,8|0,0:0|0:0,0:0:0:0:
442,350,148940,6,0,B|381:330|365:266|434:279|327:163|244:170|175:277|210:317|210:317|216:307|248:293,1,400,14|8,0:0|0:0,0:0:0:0:
205,203,150454,1,8,0:0:0:0:
326,373,150592,6,0,P|313:208|301:72,1,300,6|0,0:0|0:0,0:0:0:0:
359,9,152794,1,8,0:0:0:0:
190,114,152931,1,8,0:0:0:0:
177,106,153207,5,8,0:0:0:0:
451,168,153344,2,0,B|506:184|524:264|403:331|336:269|363:201,1,269.999991760254,14|0,0:0|0:0,0:0:0:0:
376,118,154720,1,0,0:0:0:0:
382,108,154858,1,0,0:0:0:0:
251,11,154996,6,0,L|267:119,1,104.999996795654,6|0,0:0|0:0,0:0:0:0:
274,126,155271,2,0,L|282:97,1,17.4999994659424,8|8,2:0|2:0,2:0:0:0:
152,60,155408,1,0,0:0:0:0:
142,67,155684,6,0,L|136:95,1,17.4999994659424
46,163,155821,1,0,0:0:0:0:
234,363,156096,6,0,P|224:290|210:213,1,139.999995727539,6|0,0:0|0:0,0:0:0:0:
138,299,156509,5,8,2:0:0:0:
316,176,156647,1,8,2:0:0:0:
329,181,156922,5,0,0:0:0:0:
249,145,157060,1,0,0:0:0:0:
175,180,157197,6,0,L|169:209,1,17.4999994659424
331,61,157335,1,0,0:0:0:0:
337,46,157610,5,0,0:0:0:0:
268,306,157748,2,0,L|256:224,1,69.9999978637696,14|0,0:0|0:0,0:0:0:0:
445,118,158023,6,0,L|437:148,1,17.4999994659424,8|8,2:0|2:0,2:0:0:0:
408,243,158161,1,2,0:0:0:0:
275,31,158435,6,0,L|283:61,1,17.4999994659424,8|8,2:0|2:0,2:0:0:0:
312,156,158573,1,2,0:0:0:0:
149,99,158849,6,0,L|141:129,1,17.4999994659424,8|8,2:0|2:0,2:0:0:0:
116,223,158987,1,8,0:0:0:0:
303,216,159124,1,8,0:0:0:0:
365,280,159262,1,8,0:0:0:0:
444,182,159399,6,0,L|273:210,1,150.000005722046,6|2,0:0|0:0,0:0:0:0:
351,278,159815,1,0,0:0:0:0:
213,178,159954,2,0,P|236:133|280:124,1,75.0000028610231,10|0,0:0|0:0,0:0:0:0:
365,274,160232,2,0,P|347:335|341:370,1,75.0000028610231,2|0,0:0|0:0,0:0:0:0:
184,373,160510,6,0,P|173:323|257:283,1,150.000005722046,2|2,0:0|0:0,0:0:0:0:
271,360,160926,1,0,0:0:0:0:
182,263,161065,2,0,P|175:222|171:169,1,75.0000028610231,10|0,0:0|0:0,0:0:0:0:
267,152,161343,2,0,P|270:189|277:226,1,75.0000028610231,2|0,0:0|0:0,0:0:0:0:
388,188,161621,5,2,0:0:0:0:
190,109,161760,1,0,0:0:0:0:
175,112,162037,5,0,0:0:0:0:
456,119,162176,2,0,B|495:85|495:85|334:115,1,200,14|2,0:0|0:0,0:0:0:0:
407,191,162593,1,0,0:0:0:0:
263,50,162732,6,0,P|302:29|353:14,1,75.0000028610231,2|0,0:0|0:0,0:0:0:0:
319,204,163010,2,0,P|279:183|228:168,1,75.0000028610231,2|0,0:0|0:0,0:0:0:0:
164,110,163287,1,10,0:0:0:0:
146,115,163565,5,2,0:0:0:0:
244,161,163704,1,0,0:0:0:0:
89,228,163843,2,0,P|79:166|59:78,1,150.000005722046,6|2,0:2|0:0,0:0:0:0:
46,74,164260,1,0,0:0:0:0:
174,207,164399,6,0,P|210:188|246:181,1,75.0000028610231,10|0,0:0|0:0,0:0:0:0:
315,232,164676,2,0,P|351:251|387:258,1,75.0000028610231,2|0,0:0|0:0,0:0:0:0:
472,224,164954,2,0,L|295:245,1,150.000005722046,2|2,0:0|0:0,0:0:0:0:
380,142,165371,1,0,0:0:0:0:
261,301,165510,2,0,B|222:257|222:257|249:202,1,112.500004291535,10|0,0:0|0:0,0:0:0:0:
253,200,165787,1,2,0:0:0:0:
350,318,165926,1,0,0:0:0:0:
163,353,166065,6,0,B|115:318|115:318|296:344,1,200,2|2,0:0|0:0,0:0:0:0:
261,347,166482,1,0,0:0:0:0:
197,216,166621,5,10,0:0:0:0:
344,259,166760,1,8,0:0:0:0:
288,144,166899,1,2,0:0:0:0:
286,132,167037,1,0,0:0:0:0:
310,50,167176,5,2,0:0:0:0:
185,241,167315,2,0,L|309:216,1,89.9999972534181,8|2,0:0|0:0,0:0:0:0:
203,150,167593,1,0,0:0:0:0:
425,101,167732,5,10,0:0:0:0:
282,137,167871,1,8,0:0:0:0:
451,179,168010,5,6,0:0:0:0:
228,79,168149,1,0,0:0:0:0:
296,297,168287,6,0,P|376:277|325:191,1,179.999994506836,6|0,0:0|0:0,0:0:0:0:
341,195,168704,1,2,0:0:0:0:
160,260,168843,2,0,P|208:241|271:233,1,89.9999972534181,8|2,0:0|0:0,0:0:0:0:
377,318,169121,5,0,0:0:0:0:
381,328,169260,1,2,0:0:0:0:
485,214,169399,2,0,P|467:259|408:257,1,89.9999972534181,0|2,0:0|0:0,0:0:0:0:
415,162,169676,5,0,0:0:0:0:
419,152,169815,1,2,0:0:0:0:
387,341,169954,1,8,0:0:0:0:
391,352,170232,6,0,P|352:326|289:310,1,89.9999972534181,0|2,0:0|0:0,0:0:0:0:
212,353,170510,5,0,0:0:0:0:
396,242,170649,1,2,0:0:0:0:
406,247,170926,5,2,0:0:0:0:
170,171,171065,2,0,B|151:178|137:198|137:198|201:174|288:160,1,179.999994506836,14|0,0:0|0:0,0:0:0:0:
359,94,171482,2,0,P|309:47|263:59,1,89.9999972534181,2|0,0:0|0:0,0:0:0:0:
422,145,171760,2,0,P|449:81|422:42,1,89.9999972534181,2|0,0:0|0:0,0:0:0:0:
337,178,172037,1,2,0:0:0:0:
488,271,172176,2,0,P|446:241|390:229,1,89.9999972534181,8|2,0:0|0:0,0:0:0:0:
326,246,172454,6,0,P|339:271|346:305,1,44.999998626709
266,306,172593,2,0,P|253:331|246:365,1,44.999998626709,2|0,0:0|0:0,0:0:0:0:
321,384,172732,6,0,P|304:279|296:176,1,179.999994506836
353,113,173149,1,2,0:0:0:0:
200,232,173287,2,0,P|157:182|175:146,1,89.9999972534181,8|2,0:0|0:0,0:0:0:0:
286,29,173565,2,0,P|260:84|253:132,1,89.9999972534181,0|2,0:0|0:0,0:0:0:0:
53,213,173843,6,0,P|99:128|154:166,1,179.999994506836
124,258,174260,1,2,0:0:0:0:
318,221,174399,2,0,P|256:201|209:192,1,89.9999972534181,8|2,0:0|0:0,0:0:0:0:
305,383,174676,1,0,0:0:0:0:
379,314,174815,1,2,0:0:0:0:
312,198,174954,6,0,L|336:14,1,179.999994506836
251,12,175371,5,2,0:0:0:0:
429,138,175510,1,8,0:0:0:0:
266,292,175649,2,0,P|227:277|220:225,1,89.9999972534181,10|0,0:0|0:0,0:0:0:0:
322,53,175926,2,0,P|306:105|298:149,1,89.9999972534181,2|0,0:0|0:0,0:0:0:0:
380,226,176204,5,10,0:0:0:0:
131,123,176343,2,0,P|201:141|225:153,1,89.9999972534181,0|2,0:0|0:0,0:0:0:0:
113,262,176621,5,8,0:0:0:0:
61,78,176760,1,10,0:0:0:0:
213,160,176899,1,0,0:0:0:0:
266,93,177037,6,0,P|250:83|214:68,1,44.999998626709,6|0,0:0|0:0,0:0:0:0:
7,202,177176,2,0,B|59:236|136:197|88:181|156:108|240:166,1,239.999992675781,6|2,0:0|0:0,0:0:0:0:
97,80,177593,1,0,0:0:0:0:
309,177,177732,2,0,P|294:242|244:241,1,119.999996337891,10|0,0:0|0:0,0:0:0:0:
240,48,178010,5,2,0:0:0:0:
250,55,178149,1,0,0:0:0:0:
382,113,178287,5,2,0:0:0:0:
221,173,178426,1,0,0:0:0:0:
275,61,178565,1,2,0:0:0:0:
330,210,178704,1,0,0:0:0:0:
136,144,178843,5,10,0:0:0:0:
224,189,178982,1,0,0:0:0:0:
140,256,179121,1,2,0:0:0:0:
231,197,179260,1,0,0:0:0:0:
255,331,179399,6,0,L|190:313,1,40,2|0,0:0|0:0,0:0:0:0:
141,356,179537,2,0,L|283:334,1,100,0|2,0:0|0:0,0:0:0:0:
407,355,179815,5,0,0:0:0:0:
290,175,179954,2,0,P|271:269|251:397,1,179.999994506836,14|0,0:0|0:0,0:0:0:0:
268,367,180232,5,2,0:0:0:0:
460,260,180371,2,0,P|411:273|315:303,1,119.999996337891,0|2,0:0|0:0,0:0:0:0:
277,375,180649,5,0,0:0:0:0:
471,255,180787,2,0,P|422:241|323:219,1,119.999996337891,2|0,0:0|0:0,0:0:0:0:
330,25,181065,5,10,0:0:0:0:
401,84,181204,1,0,0:0:0:0:
295,112,181343,5,2,0:0:0:0:
276,202,181482,1,0,0:0:0:0:
147,145,181621,6,0,P|176:100|198:85,1,59.9999981689454,2|0,0:0|0:0,0:0:0:0:
213,180,181760,2,0,P|154:159|76:144,1,119.999996337891,0|2,0:0|0:0,0:0:0:0:
249,47,182037,5,0,0:0:0:0:
208,268,182176,2,0,P|288:224|276:195,1,119.999996337891,10|0,0:0|0:0,0:0:0:0:
114,37,182454,6,0,B|57:9|-25:58|7:162|46:141|46:141|59:130|99:116,1,239.999992675781,2|2,0:0|0:0,0:0:0:0:
410,139,182871,2,0,P|257:112|157:99,1,239.999992675781
448,57,183287,2,0,P|503:89|489:141,1,119.999996337891,10|0,0:0|0:0,0:0:0:0:
351,270,183565,6,0,L|376:197,1,59.9999981689454,2|0,0:0|0:0,0:0:0:0:
336,151,183704,2,0,L|355:207,1,59.9999981689454
457,225,183843,5,2,0:0:0:0:
466,230,183912,1,0,0:0:0:0:
474,235,183982,1,0,0:0:0:0:
385,365,184121,1,2,0:0:0:0:
339,291,184260,1,0,0:0:0:0:
230,351,184399,5,10,0:0:0:0:
426,293,184537,1,8,0:0:0:0:
326,210,184676,5,2,0:0:0:0:
237,176,184815,1,0,0:0:0:0:
355,70,184954,5,2,0:0:0:0:
321,370,185093,2,0,L|296:126,1,239.999992675781,8|0,0:0|0:0,0:0:0:0:
201,45,185510,5,8,0:0:0:0:
452,149,185649,1,8,0:0:0:0:
263,131,185787,5,6,0:0:0:0:
366,70,185926,1,0,0:0:0:0:
190,47,186065,6,0,P|165:81|153:117,3,59.9999981689454,6|0|2|0,0:0|0:0|0:0|0:0,0:0:0:0:
64,104,186343,2,0,P|70:145|85:176,3,50,0|0|2|0,0:0|0:0|0:0|0:0,0:0:0:0:
162,184,186621,6,0,P|165:226|156:246,3,40,8|0|2|0,0:0|0:0|0:0|0:0,0:0:0:0:
231,272,186899,2,0,P|206:301|187:308,3,29.9999990844727,0|0|2|0,0:0|0:0|0:0|0:0,0:0:0:0:
124,328,187176,6,0,P|116:334|110:342,3,20,0|0|2|0,0:0|0:0|0:0|0:0,0:0:0:0:
194,382,187454,1,0,0:0:0:0:
202,372,187593,1,2,0:0:0:0:
303,342,187732,6,0,L|379:363,2,66.6666666666667,10|0|0,0:0|0:0|0:0,0:0:0:0:
383,276,188010,2,0,L|459:255,2,66.6666666666667,2|0|0,0:0|0:0|0:0,0:0:0:0:
456,355,188287,5,0,0:0:0:0:
355,195,188426,2,0,P|304:226|297:269,1,100,2|0,0:0|0:0,0:0:0:0:
327,338,188704,5,2,0:0:0:0:
512,193,188843,2,0,B|401:181|401:181|399:179|399:179|261:161,1,239.999992675781,14|0,0:0|0:0,0:0:0:0:
166,25,189260,6,0,P|215:44|240:96,1,100,2|0,0:0|0:0,0:0:0:0:
372,102,189537,2,0,P|321:119|293:169,1,100,2|0,0:0|0:0,0:0:0:0:
328,16,189815,1,2,0:0:0:0:
187,208,189954,2,0,P|169:148|145:100,1,100,8|2,0:0|0:0,0:0:0:0:
87,54,190232,2,0,B|69:38|23:54|11:102|48:131,1,100,0|2,0:0|0:0,0:0:0:0:
177,229,190510,5,0,0:0:0:0:
189,140,190649,1,2,0:0:0:0:
201,57,190787,1,0,0:0:0:0:
284,177,190926,5,2,0:0:0:0:
205,153,191065,1,8,0:0:0:0:
124,131,191204,1,2,0:0:0:0:
275,275,191343,5,0,0:0:0:0:
292,194,191482,1,2,0:0:0:0:
374,183,191621,1,0,0:0:0:0:
346,347,191760,5,2,0:0:0:0:
284,290,191899,1,0,0:0:0:0:
214,328,192037,1,2,0:0:0:0:
457,342,192176,6,0,B|341:336|406:368|283:368,1,150,8|0,0:0|0:0,0:0:0:0:
301,366,192454,6,0,L|313:301,1,50
389,306,192593,2,0,L|377:241,1,50,2|0,0:0|0:0,0:0:0:0:
311,198,192732,5,0,0:0:0:0:
285,119,192871,1,2,0:0:0:0:
413,151,193010,5,0,0:0:0:0:
426,75,193149,1,2,0:0:0:0:
341,20,193287,5,10,0:0:0:0:
496,171,193426,2,0,P|472:219|418:215,1,100,2|0,0:0|0:0,0:0:0:0:
196,86,193704,6,0,P|237:33|283:41,1,100,2|0,0:0|0:0,0:0:0:0:
330,231,193982,2,0,P|316:168|299:128,1,100,10|0,0:0|0:0,0:0:0:0:
173,321,194260,2,0,P|202:357|259:351,1,100,2|8,0:0|0:0,0:0:0:0:
413,212,194537,5,10,0:0:0:0:
234,268,194676,1,0,0:0:0:0:
456,350,194815,1,6,0:0:0:0:
389,132,194954,6,0,P|336:162|344:221,1,100,6|0,0:0|0:0,0:0:0:0:
369,282,195232,1,2,0:0:0:0:
128,210,195371,2,0,B|161:204|176:182|176:182|357:213,1,200
294,27,195787,5,2,0:0:0:0:
215,108,195926,1,0,0:0:0:0:
193,11,196065,1,2,0:0:0:0:
431,150,196204,2,0,L|174:114,1,239.999992675781
17,206,196621,6,0,L|163:181,1,119.999996337891,10|0,0:0|0:0,0:0:0:0:
185,275,196899,6,0,L|172:350,1,59.9999981689454,2|0,0:0|0:0,0:0:0:0:
94,345,197037,2,0,L|104:285,1,59.9999981689454
276,232,197176,5,2,0:0:0:0:
362,274,197315,1,0,0:0:0:0:
420,197,197454,1,2,0:0:0:0:
504,243,197593,1,0,0:0:0:0:
346,281,197732,5,10,0:0:0:0:
281,249,197871,1,0,0:0:0:0:
234,304,198010,1,2,0:0:0:0:
169,272,198149,1,0,0:0:0:0:
442,335,198287,5,2,0:0:0:0:
415,185,198426,1,0,0:0:0:0:
278,241,198565,1,2,0:0:0:0:
298,383,198704,1,0,0:0:0:0:
388,286,198843,5,10,0:0:0:0:
352,253,198982,1,0,0:0:0:0:
334,296,199121,1,2,0:0:0:0:
368,329,199260,1,0,0:0:0:0:
429,173,199399,6,0,L|425:147,1,20,12|0,0:0|0:0,0:0:0:0:
332,165,199674,6,0,L|327:132,1,29.9999990844727,8|8,0:0|0:0,0:0:0:0:
228,157,199949,6,0,L|220:104,1,40,8|8,0:0|0:0,0:0:0:0:
114,149,200224,6,0,L|105:90,1,50,8|8,0:0|0:0,0:0:0:0:
23,319,200499,5,8,0:0:0:0:
41,279,200636,1,8,0:0:0:0:
159,307,200775,5,8,0:0:0:0:
184,251,200912,1,8,0:0:0:0:
285,291,201050,5,8,0:0:0:0:
317,219,201187,1,8,0:0:0:0:
402,280,201325,5,8,0:0:0:0:
441,192,201462,1,8,0:0:0:0:
181,72,201600,5,8,0:0:0:0:
346,338,201738,1,8,0:0:0:0:
374,27,201876,1,8,0:0:0:0:
171,249,202013,1,8,0:0:0:0:
459,192,202151,1,8,0:0:0:0:
161,62,202288,5,8,0:0:0:0:
349,359,202426,1,8,0:0:0:0:
385,10,202564,1,8,0:0:0:0:
153,264,202701,1,8,0:0:0:0:
478,203,202839,1,8,0:0:0:0:
153,55,202976,5,8,0:0:0:0:
124,95,203045,1,8,0:0:0:0:
136,144,203114,1,8,0:0:0:0:
180,159,203183,1,8,0:0:0:0:
224,141,203252,5,8,0:0:0:0:
239,97,203321,1,8,0:0:0:0:
283,69,203389,1,8,0:0:0:0:
337,79,203458,1,8,0:0:0:0:
370,128,203527,5,8,0:0:0:0:
357,184,203596,1,8,0:0:0:0:
305,216,203665,1,8,0:0:0:0:
287,278,203733,1,8,0:0:0:0:
340,331,203802,5,6,0:0:0:0:
416,325,203868,1,0,0:0:0:0:
445,259,203935,1,10,0:0:0:0:
418,194,204002,1,0,0:0:0:0:
374,158,204069,1,0,0:0:0:0:
354,124,204136,1,0,0:0:0:0:
362,84,204203,1,10,0:0:0:0:
382,62,204270,1,0,0:0:0:0:
401,61,204337,6,0,P|430:77|470:97,1,59.9999981689454
299,132,204471,2,0,P|270:148|230:168,1,59.9999981689454,10|0,0:0|0:0,0:0:0:0:
319,10,204605,6,0,L|343:107,1,59.9999981689454
382,152,204739,2,0,L|358:249,1,59.9999981689454,10|0,0:0|0:0,0:0:0:0:
308,333,204873,6,0,B|329:370|329:370|308:220,1,150.000005722046,0|10,0:0|0:0,0:0:0:0:
373,215,205074,1,0,0:0:0:0:
379,213,205141,2,0,L|394:155,1,59.9999981689454
421,289,205275,2,0,L|435:347,1,59.9999981689454,10|0,0:0|0:0,0:0:0:0:
294,187,205409,6,0,B|224:175|224:175|219:178|219:178|123:163,1,150.000005722046,0|10,0:0|0:0,0:0:0:0:
86,106,205610,1,0,0:0:0:0:
94,101,205677,2,0,L|185:88,1,75.0000028610231
79,213,205810,2,0,L|-12:226,1,75.0000028610231,10|0,0:0|0:0,0:0:0:0:
234,18,205944,6,0,B|262:45|262:45|256:99,1,75.0000028610231
157,306,206078,2,0,L|183:76,1,225.000008583069,10|0,0:0|0:0,0:0:0:0:
185,73,206346,1,10,0:0:0:0:
384,237,206480,6,0,L|313:219,1,50
245,156,206614,2,0,L|316:138,1,50,10|0,0:0|0:0,0:0:0:0:
379,125,206748,5,8,0:0:0:0:
388,122,206815,1,0,0:0:0:0:
397,119,206882,1,0,0:0:0:0:
406,117,206949,1,0,0:0:0:0:
415,115,207016,6,0,L|428:75,1,25,8|8,0:0|0:0,0:0:0:0:
137,74,207194,5,6,0:0:0:0:
328,327,207373,5,6,0:0:0:0:
318,20,207552,6,0,P|310:50|305:69,1,33.3333333333333,8|8,0:0|0:0,0:0:0:0:
126,293,207730,5,6,0:0:0:0:
464,201,207909,5,6,0:0:0:0:
224,325,208087,5,6,0:0:0:0:
180,334,208153,1,0,0:0:0:0:
136,344,208220,1,10,0:2:0:0:
113,307,208287,1,0,0:0:0:0:
95,266,208354,2,0,L|160:231,1,50,2|0,0:2|0:0,0:0:0:0:
303,184,208488,5,10,0:2:0:0:
339,206,208555,1,0,0:0:0:0:
377,230,208622,1,2,0:2:0:0:
368,273,208689,1,0,0:0:0:0:
349,316,208756,2,0,L|273:283,1,50,10|0,0:2|0:0,0:0:0:0:
214,152,208891,5,2,0:2:0:0:
215,135,208958,1,0,0:0:0:0:
217,119,209025,2,0,L|223:48,1,50,10|0,0:2|0:0,0:0:0:0:
389,7,209159,5,2,0:2:0:0:
437,43,209226,1,0,0:0:0:0:
439,97,209293,1,10,0:2:0:0:
401,128,209360,1,0,0:0:0:0:
364,123,209427,5,2,0:2:0:0:
420,88,209493,1,0,0:0:0:0:
484,124,209560,1,10,0:2:0:0:
489,195,209627,1,0,0:0:0:0:
431,245,209694,5,2,0:2:0:0:
357,238,209761,1,0,0:0:0:0:
289,275,209828,1,10,0:2:0:0:
261,336,209895,1,0,0:0:0:0:
218,378,209962,2,0,P|194:356|163:348,3,50,2|0|10|0,0:2|0:0|0:2|0:0,0:0:0:0:
59,305,210230,5,6,0:0:0:0:
28,241,210297,1,0,0:0:0:0:
73,183,210364,1,10,0:0:0:0:
143,190,210431,1,0,0:0:0:0:
186,249,210498,1,0,0:0:0:0:
240,287,210565,1,0,0:0:0:0:
307,276,210632,1,10,0:0:0:0:
328,216,210699,1,0,0:0:0:0:
295,171,210766,1,0,0:0:0:0:
257,173,210833,1,0,0:0:0:0:
243,184,210900,1,10,0:0:0:0:
243,206,210967,1,0,0:0:0:0:
255,216,211034,6,0,L|275:144,1,50,8|8,0:0|0:0,0:0:0:0:
231,104,211168,2,0,L|211:32,1,50,8|8,0:0|0:0,0:0:0:0:
307,12,211302,6,0,L|332:22,1,25,8|8,0:0|0:0,0:0:0:0:
457,197,211480,5,6,0:0:0:0:
298,359,211659,5,6,0:0:0:0:
205,12,211837,6,0,L|180:22,1,25,8|8,0:0|0:0,0:0:0:0:
75,197,212015,5,6,0:0:0:0:
214,359,212194,5,6,0:0:0:0:
456,228,212373,6,0,P|418:271|378:276,2,66.6666666666667,6|2|2,0:0|2:2|2:2,0:0:0:0:
436,352,212641,6,0,P|378:355|346:330,2,66.6666666666667,2|2|2,0:2|2:2|2:0,0:0:0:0:
323,282,212909,5,2,0:2:0:0:
298,240,212998,1,2,2:0:0:0:
250,239,213087,1,2,2:0:0:0:
208,297,213177,5,2,0:2:0:0:
171,334,213266,1,2,2:0:0:0:
119,316,213355,1,2,2:0:0:0:
94,248,213444,6,0,P|134:236|180:227,1,66.6666666666667,2|2,0:2|2:0,0:0:0:0:
263,95,213623,1,2,2:0:0:0:
206,154,213712,2,0,P|166:142|120:133,1,66.6666666666667,2|2,0:2|2:0,0:0:0:0:
90,12,213891,1,2,2:0:0:0:
145,63,213980,5,2,0:2:0:0:
203,23,214069,1,2,2:0:0:0:
267,55,214159,1,2,2:0:0:0:
311,116,214248,5,2,0:2:0:0:
377,156,214337,1,2,2:0:0:0:
439,112,214427,1,2,2:0:0:0:
435,32,214516,5,2,0:2:0:0:
420,54,214583,1,0,0:0:0:0:
401,71,214650,1,10,0:2:0:0:
378,83,214717,1,0,0:0:0:0:
354,88,214784,1,2,0:2:0:0:
326,89,214851,1,0,0:0:0:0:
303,83,214918,1,10,0:2:0:0:
285,71,214985,1,0,0:0:0:0:
275,60,215052,5,2,0:2:0:0:
304,115,215118,1,0,0:0:0:0:
275,169,215185,1,10,0:2:0:0:
221,195,215252,1,0,0:0:0:0:
196,250,215319,1,2,0:2:0:0:
217,303,215386,1,0,0:0:0:0:
257,318,215453,1,10,0:2:0:0:
286,303,215520,1,0,0:0:0:0:
288,278,215587,6,0,L|254:266,1,25,8|8,0:0|0:0,0:0:0:0:
48,139,215766,5,6,0:0:0:0:
357,58,215944,5,6,0:0:0:0:
125,284,216089,6,0,L|141:252,1,25,8|8,2:0|2:0,0:0:0:0:
240,9,216302,5,6,0:0:0:0:
413,212,216480,5,6,0:0:0:0:
186,375,216659,6,2,B|166:320|89:300|55:293|55:293|89:299|204:254|284:353|284:353|292:348|292:348|359:403|446:386|495:327|495:327|397:333|352:271,1,800,6|10,0:0|0:2,0:1:0:0:
478,119,217462,6,0,P|492:165|502:228,1,80,2|0,0:2|0:0,0:0:0:0:
338,275,217596,2,0,B|346:235|387:95|358:197,1,80,10|0,0:2|0:0,0:0:0:0:
391,100,217730,6,2,B|434:60|405:9|405:9|405:4|405:4|361:-14|297:8|303:75|303:75|299:79|299:79|316:118|291:164|251:171|211:138|211:138|215:134|215:134|212:54|146:31|103:50|103:50|106:64|106:64|65:121|103:182|103:182|109:143|166:103,1,800,2|10,0:2|0:2,0:1:0:0:
281,73,218534,6,0,P|231:52|168:43,1,80,2|0,0:2|0:0,0:0:0:0:
165,113,218668,2,0,P|203:123|239:139,1,80,10|0,0:2|0:0,0:0:0:0:
380,145,218802,5,2,0:2:0:0:
167,250,218935,1,10,0:2:0:0:
324,218,219069,5,2,0:2:0:0:
236,185,219203,1,10,0:2:0:0:
243,363,219337,5,2,0:2:0:0:
304,81,219471,1,10,0:2:0:0:
295,288,219605,5,2,0:2:0:0:
258,171,219739,1,10,0:2:0:0:
470,171,219873,6,0,B|501:178|542:232|456:303|345:273|353:215|392:176,1,240,2|0,0:2|0:0,0:0:0:0:
399,121,220141,2,0,B|430:109|456:62|422:11|340:0|311:52|316:91|357:124|357:124|352:177,1,240,2|0,0:2|0:0,0:0:0:0:
270,287,220409,5,6,0:0:0:0:
309,333,220476,1,8,0:0:0:0:
369,322,220543,1,8,0:0:0:0:
384,265,220610,1,8,0:0:0:0:
346,217,220677,1,8,0:0:0:0:
282,202,220743,1,8,0:0:0:0:
217,192,220810,1,8,0:0:0:0:
154,181,220877,1,8,0:0:0:0:
93,160,220944,6,0,B|27:227|27:227|320:171,1,320,6|2,0:0|0:0,0:0:0:0:
262,183,221279,1,0,0:0:0:0:
273,180,221346,1,10,0:0:0:0:
195,0,221480,2,0,B|147:44|147:44|179:136,1,129.999994049073,2|10,0:0|0:0,0:0:0:0:
402,55,221748,6,0,L|318:33,1,59.9999981689454,2|0,0:0|0:0,0:0:0:0:
272,74,221882,2,0,L|330:58,1,59.9999981689454,10|0,0:0|0:0,0:0:0:0:
510,201,222016,6,0,B|421:184|421:184|343:95|343:95|207:62,1,320,6|2,0:0|0:0,0:0:0:0:
170,162,222351,1,0,0:0:0:0:
170,162,222418,2,0,B|94:156|41:21|164:-30|240:-22|256:70|194:106,1,320,10|10,0:0|0:0,0:0:0:0:
104,235,222819,2,0,P|110:272|121:318,2,50,2|0|10,0:0|0:0|0:0,0:0:0:0:
227,357,223087,6,0,B|291:393|370:321|310:304|386:238|459:302,1,239.999992675781,6|2,0:0|0:0,0:0:0:0:
438,291,223422,1,0,0:0:0:0:
442,301,223489,1,10,0:0:0:0:
258,272,223623,2,0,P|208:261|131:249,1,119.999996337891,2|10,0:0|0:0,0:0:0:0:
127,161,223891,6,0,L|204:138,1,59.9999981689454,6|8,0:0|0:0,0:0:0:0:
57,215,224025,2,0,L|-1:197,1,59.9999981689454,8|8,0:0|0:0,0:0:0:0:
132,63,224159,5,6,0:0:0:0:
182,35,224226,1,8,0:0:0:0:
240,54,224293,1,8,0:0:0:0:
260,109,224360,1,8,0:0:0:0:
232,159,224427,1,8,0:0:0:0:
195,169,224493,1,8,0:0:0:0:
178,161,224561,5,6,0:0:0:0:
207,162,224627,1,8,0:0:0:0:
228,171,224694,1,8,0:0:0:0:
242,182,224761,1,8,0:0:0:0:
260,195,224828,1,8,0:0:0:0:
285,202,224895,1,8,0:0:0:0:
308,192,224962,6,0,L|288:96,1,75.0000028610231
238,283,225096,2,0,L|222:356,1,75.0000028610231
385,354,225230,5,6,0:0:0:0:
445,335,225297,1,0,0:0:0:0:
463,274,225364,1,10,0:2:0:0:
428,225,225431,1,0,0:0:0:0:
372,214,225498,1,2,0:2:0:0:
323,248,225565,1,0,0:0:0:0:
267,237,225632,1,10,0:2:0:0:
251,181,225699,1,0,0:0:0:0:
281,138,225766,6,0,P|305:152|334:164,1,50,2|0,0:2|0:0,0:0:0:0:
210,217,225900,2,0,P|186:231|157:243,1,50,10|0,0:2|0:0,0:0:0:0:
304,300,226034,6,0,L|286:214,1,64.9999970245363,2|0,0:2|0:0,0:0:0:0:
210,119,226168,2,0,L|228:33,1,64.9999970245363,10|0,0:2|0:0,0:0:0:0:
399,22,226302,5,2,0:2:0:0:
454,64,226368,1,0,0:0:0:0:
454,131,226435,1,10,0:2:0:0:
400,170,226502,1,0,0:0:0:0:
332,159,226569,1,2,0:2:0:0:
266,171,226636,1,0,0:0:0:0:
236,231,226703,1,10,0:2:0:0:
260,294,226770,1,0,0:0:0:0:
323,311,226837,6,0,L|309:234,1,64.9999970245363,2|0,0:2|0:0,0:0:0:0:
277,173,226971,2,0,L|291:96,1,64.9999970245363,10|0,0:2|0:0,0:0:0:0:
426,203,227105,5,2,0:2:0:0:
426,203,227172,1,0,0:0:0:0:
426,203,227239,2,0,L|355:190,1,64.9999970245363,10|0,0:2|0:0,0:0:0:0:
268,31,227373,5,2,0:2:0:0:
309,11,227440,1,0,0:0:0:0:
350,26,227507,1,10,0:2:0:0:
366,69,227574,1,0,0:0:0:0:
348,106,227641,1,2,0:2:0:0:
308,120,227708,1,0,0:0:0:0:
282,105,227775,1,10,0:2:0:0:
279,69,227842,1,0,0:0:0:0:
296,58,227909,6,0,L|288:112,3,29.9999990844727,2|0|10|0,0:2|0:0|0:2|0:0,0:0:0:0:
363,181,228177,6,0,P|376:150|393:123,1,64.9999970245363,2|0,0:2|0:0,0:0:0:0:
214,166,228310,2,0,P|201:135|184:108,1,64.9999970245363,10|0,0:2|0:0,0:0:0:0:
463,191,228444,5,8,0:0:0:0:
505,244,228511,1,8,0:0:0:0:
489,308,228578,1,8,0:0:0:0:
424,331,228645,1,8,0:0:0:0:
364,294,228712,1,0,0:0:0:0:
365,226,228779,1,0,0:0:0:0:
334,164,228846,1,8,0:0:0:0:
265,159,228913,1,8,0:0:0:0:
232,219,228980,1,0,0:0:0:0:
255,285,229047,1,0,0:0:0:0:
241,354,229114,5,8,0:0:0:0:
170,380,229181,1,8,0:0:0:0:
102,343,229248,1,8,0:0:0:0:
107,263,229315,1,8,0:0:0:0:
151,201,229382,1,8,0:0:0:0:
130,125,229449,1,8,0:0:0:0:
58,89,229516,6,0,B|8:112|-19:171|-19:171|113:103|267:75,1,400,6|0,0:0|0:0,0:0:0:0:
423,38,229851,1,0,0:0:0:0:
423,38,229918,2,0,B|479:-11|589:104|510:259|410:260|326:263|367:96,1,400,10|10,0:0|0:0,0:0:0:0:
257,86,230319,1,0,0:0:0:0:
257,86,230386,1,0,0:0:0:0:
257,86,230453,1,10,0:0:0:0:
180,193,230587,5,6,0:0:0:0:
302,160,230721,1,10,0:0:0:0:
416,127,230855,1,0,0:0:0:0:
242,270,230989,5,10,0:0:0:0:
331,54,231123,1,0,0:0:0:0:
286,364,231257,2,0,B|267:219|267:219|271:221|271:221|244:19,1,300.000011444092,10|10,0:0|0:0,0:0:0:0:
136,80,231659,5,6,0:0:0:0:
391,127,231793,1,10,0:0:0:0:
230,222,231927,5,0,0:0:0:0:
274,9,232060,1,10,0:0:0:0:
311,277,232194,5,0,0:0:0:0:
245,87,232328,1,10,0:0:0:0:
245,345,232462,5,0,0:0:0:0:
283,156,232596,1,10,0:0:0:0:
382,272,232730,5,6,0:0:0:0:
332,281,232797,1,8,0:0:0:0:
281,291,232864,1,8,0:0:0:0:
231,299,232931,1,8,0:0:0:0:
181,311,232998,1,8,0:0:0:0:
134,323,233065,1,8,0:0:0:0:
81,333,233132,5,6,0:0:0:0:
87,323,233199,1,8,0:0:0:0:
93,313,233266,1,8,0:0:0:0:
100,303,233333,1,8,0:0:0:0:
106,293,233400,1,8,0:0:0:0:
112,284,233467,1,8,0:0:0:0:
118,275,233534,6,0,L|95:362,3,75.0000028610231,8|8|0|0,0:0|0:0|0:0|0:0,0:0:0:0:
205,384,233802,5,6,0:0:0:0:
279,364,233868,1,0,0:0:0:0:
301,291,233935,1,10,0:0:0:0:
261,225,234002,1,0,0:0:0:0:
189,194,234069,1,0,0:0:0:0:
172,117,234136,1,0,0:0:0:0:
226,62,234203,1,10,0:0:0:0:
300,75,234270,1,0,0:0:0:0:
330,146,234337,1,0,0:0:0:0:
404,165,234404,1,0,0:0:0:0:
470,124,234471,1,10,0:0:0:0:
465,46,234538,1,0,0:0:0:0:
400,7,234605,1,0,0:0:0:0:
327,33,234672,1,0,0:0:0:0:
313,108,234739,1,10,0:0:0:0:
349,174,234806,1,0,0:0:0:0:
424,190,234873,5,0,0:0:0:0:
430,115,234940,1,0,0:0:0:0:
380,58,235007,1,10,0:0:0:0:
307,58,235074,1,0,0:0:0:0:
246,100,235141,1,0,0:0:0:0:
242,173,235208,1,0,0:0:0:0:
282,237,235275,1,10,0:0:0:0:
284,310,235342,1,0,0:0:0:0:
228,356,235409,1,0,0:0:0:0:
153,352,235476,1,0,0:0:0:0:
107,294,235543,1,10,0:0:0:0:
120,222,235610,1,0,0:0:0:0:
178,177,235677,1,0,0:0:0:0:
214,114,235743,1,0,0:0:0:0:
187,46,235810,1,10,0:0:0:0:
117,21,235877,1,0,0:0:0:0:
54,54,235944,5,0,0:0:0:0:
101,104,236011,1,0,0:0:0:0:
170,103,236078,1,10,0:0:0:0:
216,48,236145,1,0,0:0:0:0:
275,13,236212,1,0,0:0:0:0:
341,28,236279,1,0,0:0:0:0:
370,90,236346,1,10,0:0:0:0:
340,153,236413,1,0,0:0:0:0:
286,197,236480,1,0,0:0:0:0:
286,265,236547,1,0,0:0:0:0:
336,311,236614,1,10,0:0:0:0:
405,308,236681,1,0,0:0:0:0:
446,253,236748,1,0,0:0:0:0:
425,186,236815,1,0,0:0:0:0:
358,163,236882,1,10,0:0:0:0:
304,207,236949,1,0,0:0:0:0:
301,278,237016,5,6,0:0:0:0:
363,241,237083,1,8,0:0:0:0:
388,171,237150,1,8,0:0:0:0:
374,105,237217,1,8,0:0:0:0:
339,52,237284,1,8,0:0:0:0:
309,27,237351,1,8,0:0:0:0:
284,15,237418,1,8,0:0:0:0:
269,11,237485,1,8,0:0:0:0:
253,13,237552,6,0,L|239:101,1,75.0000028610231,8|8,0:0|0:0,0:0:0:0:
284,180,237685,2,0,L|298:268,1,75.0000028610231,8|8,0:0|0:0,0:0:0:0:
254,339,237819,6,0,L|249:369,3,25,8|8|8|8,0:0|0:0|0:0|0:0,0:0:0:0:
369,311,238087,5,6,0:0:0:0:
394,320,238154,1,0,0:0:0:0:
422,329,238221,1,10,0:2:0:0:
450,339,238288,1,0,0:0:0:0:
477,349,238355,2,0,L|441:365,1,25,2|0,0:2|0:0,0:0:0:0:
387,291,238489,2,0,L|351:275,1,25,10|0,0:2|0:0,0:0:0:0:
480,225,238623,5,2,0:2:0:0:
488,191,238690,1,0,0:0:0:0:
497,157,238757,1,10,0:2:0:0:
506,122,238824,1,0,0:0:0:0:
511,99,238891,2,0,L|480:175,1,50,2|0,0:2|0:0,0:0:0:0:
490,275,239025,2,0,L|471:228,1,50,10|0,0:2|0:0,0:0:0:0:
297,126,239159,6,0,P|346:61|377:107,1,129.999994049073,2|10,0:2|0:2,0:0:0:0:
403,152,239360,1,0,0:0:0:0:
400,161,239427,2,0,P|379:190|372:221,1,50,2|0,0:2|0:0,0:0:0:0:
313,267,239560,2,0,P|303:244|287:224,1,50,10|0,0:2|0:0,0:0:0:0:
111,114,239694,6,0,B|63:158|87:226|167:264|164:217|244:231|253:316|223:351,1,300.000011444092,2|2,0:2|0:2,0:0:0:0:
228,344,240029,1,0,0:0:0:0:
215,354,240096,1,10,0:2:0:0:
42,193,240230,5,2,0:2:0:0:
51,186,240297,1,0,0:0:0:0:
63,186,240364,1,10,0:2:0:0:
71,194,240431,1,0,0:0:0:0:
73,205,240498,1,2,0:2:0:0:
80,214,240565,1,0,0:0:0:0:
90,218,240632,1,10,0:2:0:0:
101,215,240699,1,0,0:0:0:0:
111,209,240766,6,0,P|135:199|143:196,3,20,2|0|10|0,0:2|0:0|0:2|0:0,0:0:0:0:
204,228,241034,6,0,L|235:147,1,50,2|0,0:2|0:0,0:0:0:0:
139,289,241168,2,0,L|165:359,1,50,10|0,0:2|0:0,0:0:0:0:
305,336,241302,5,2,0:2:0:0:
363,325,241368,1,0,0:0:0:0:
394,276,241435,1,10,0:2:0:0:
376,215,241502,1,0,0:0:0:0:
320,189,241569,2,0,P|337:240|344:277,1,75.0000028610231,2|0,0:2|0:0,0:0:0:0:
406,359,241703,2,0,P|414:322|427:287,1,75.0000028610231,10|0,0:2|0:0,0:0:0:0:
505,139,241837,5,2,0:2:0:0:
498,125,241904,1,0,0:0:0:0:
485,116,241971,2,0,P|456:122|429:160,1,59.9999981689454,10|0,0:2|0:0,0:0:0:0:
321,200,242105,5,2,0:2:0:0:
310,211,242172,1,0,0:0:0:0:
294,215,242239,2,0,P|268:200|254:155,1,59.9999981689454,10|0,0:2|0:0,0:0:0:0:
345,8,242373,6,0,L|366:174,1,119.999996337891,6|10,0:0|0:2,0:0:0:0:
437,282,242641,1,2,0:2:0:0:
446,253,242708,1,0,0:0:0:0:
455,222,242775,1,10,0:2:0:0:
464,191,242842,1,0,0:0:0:0:
473,156,242909,6,0,L|492:228,1,59.9999981689454,2|0,0:2|0:0,0:0:0:0:
392,115,243043,2,0,L|407:56,1,59.9999981689454,10|0,0:2|0:0,0:0:0:0:
324,215,243177,5,2,0:2:0:0:
276,204,243243,1,0,0:0:0:0:
227,190,243310,1,10,0:2:0:0:
177,176,243377,1,0,0:0:0:0:
129,161,243444,6,0,L|111:84,1,59.9999981689454,2|0,0:2|0:0,0:0:0:0:
181,263,243578,2,0,L|167:321,1,59.9999981689454,10|0,0:2|0:0,0:0:0:0:
276,129,243712,5,2,0:2:0:0:
268,112,243779,1,0,0:0:0:0:
261,97,243846,1,10,0:2:0:0:
254,83,243913,1,0,0:0:0:0:
246,67,243980,5,2,0:2:0:0:
298,335,244114,1,10,0:2:0:0:
294,144,244248,5,2,0:2:0:0:
266,242,244382,1,10,0:2:0:0:
476,149,244516,5,2,0:2:0:0:
503,80,244583,1,0,0:0:0:0:
459,21,244650,1,10,0:2:0:0:
387,22,244717,1,0,0:0:0:0:
349,80,244784,1,2,0:2:0:0:
292,101,244851,1,0,0:0:0:0:
241,75,244918,1,10,0:2:0:0:
236,34,244985,1,0,0:0:0:0:
249,11,245052,5,2,0:2:0:0:
303,61,245118,1,0,0:0:0:0:
297,131,245185,1,10,0:2:0:0:
244,169,245252,1,0,0:0:0:0:
185,157,245319,1,2,0:2:0:0:
165,119,245386,1,0,0:0:0:0:
166,88,245453,1,10,0:2:0:0:
181,74,245520,1,0,0:0:0:0:
196,73,245587,6,0,L|214:159,1,59.9999981689454,2|0,0:2|0:0,0:0:0:0:
246,248,245721,2,0,L|228:334,1,59.9999981689454,10|0,0:2|0:0,0:0:0:0:
201,62,245855,2,0,L|219:148,1,59.9999981689454,2|0,0:2|0:0,0:0:0:0:
251,255,245989,2,0,L|233:341,1,59.9999981689454,10|0,0:2|0:0,0:0:0:0:
425,306,246123,5,8,2:0:0:0:
435,259,246189,1,8,2:0:0:0:
445,212,246256,1,8,2:0:0:0:
456,165,246323,1,8,2:0:0:0:
464,117,246391,6,0,L|455:81,3,25,4|0|0|0,0:0|0:0|0:0|0:0,0:0:0:0:
352,225,246659,5,6,0:0:0:0:
307,274,246726,1,0,0:0:0:0:
240,273,246793,1,10,0:2:0:0:
208,214,246860,1,0,0:0:0:0:
225,150,246927,1,2,0:2:0:0:
206,87,246993,1,0,0:0:0:0:
142,65,247060,1,10,0:2:0:0:
82,92,247127,1,0,0:0:0:0:
54,155,247194,2,0,P|72:189|86:238,1,59.9999981689454,2|0,0:2|0:0,0:0:0:0:
232,183,247328,5,10,0:2:0:0:
232,183,247395,1,0,0:0:0:0:
232,183,247462,2,0,P|213:144|202:111,1,59.9999981689454,2|0,0:2|0:0,0:0:0:0:
148,263,247596,2,0,P|129:302|118:335,1,59.9999981689454,10|0,0:2|0:0,0:0:0:0:
307,153,247730,5,2,0:2:0:0:
253,318,247864,1,10,0:2:0:0:
302,341,247931,1,0,0:0:0:0:
351,323,247998,1,2,0:2:0:0:
370,277,248065,1,0,0:0:0:0:
356,229,248132,2,0,P|312:268|285:277,1,59.9999981689454,10|0,0:2|0:0,0:0:0:0:
487,276,248266,5,2,0:2:0:0:
487,276,248333,1,0,0:0:0:0:
487,276,248400,2,0,L|469:355,1,59.9999981689454,10|0,0:2|0:0,0:0:0:0:
286,190,248534,5,2,0:2:0:0:
286,190,248601,1,0,0:0:0:0:
286,190,248668,2,0,L|268:111,1,59.9999981689454,10|0,0:2|0:0,0:0:0:0:
458,57,248802,5,2,0:2:0:0:
492,90,248868,1,0,0:0:0:0:
489,132,248935,1,10,0:2:0:0:
450,163,249002,1,0,0:0:0:0:
403,157,249069,1,2,0:2:0:0:
378,119,249136,1,0,0:0:0:0:
379,68,249203,1,10,0:2:0:0:
351,31,249270,1,0,0:0:0:0:
299,24,249337,5,2,0:2:0:0:
292,35,249404,1,0,0:0:0:0:
281,42,249471,1,10,0:2:0:0:
266,47,249538,1,0,0:0:0:0:
254,47,249605,1,2,0:2:0:0:
243,44,249672,1,0,0:0:0:0:
232,39,249739,1,10,0:2:0:0:
223,30,249806,1,0,0:0:0:0:
217,18,249873,6,0,P|257:49|272:82,2,66.6666666666667,2|2|2,0:2|2:2|2:0,0:0:0:0:
351,41,250141,2,0,P|357:91|345:125,2,66.6666666666667,2|2|2,0:2|2:0|2:0,0:0:0:0:
219,178,250409,6,0,P|179:209|164:242,2,79.9999975585938,2|2|2,0:2|2:0|2:0,0:0:0:0:
84,201,250677,2,0,P|77:251|90:285,2,79.9999975585938,2|2|2,0:2|2:0|2:0,0:0:0:0:
166,333,250944,6,2,B|206:392|305:375|314:298|314:298|330:303|330:303|356:206|500:202|518:314,1,450.000017166138,6|10,0:0|0:2,0:0:0:0:
428,348,251480,1,2,0:2:0:0:
375,162,251614,1,10,0:2:0:0:
231,280,251748,2,0,P|224:211|211:118,1,150.000005722046,2|10,0:2|0:2,0:0:0:0:
65,22,252016,6,3,B|102:26|136:52|146:92|138:149|75:187|-3:175|-26:97|25:6|83:4|123:26|193:135|319:169|445:155|491:48,1,716.29456964546,2|10,0:2|0:2,0:0:0:0:
388,33,252819,2,0,P|387:94|456:118,1,119.999996337891,2|10,0:2|0:2,0:0:0:0:
450,333,253087,5,2,0:2:0:0:
490,277,253154,1,0,0:0:0:0:
476,217,253221,1,10,0:2:0:0:
426,188,253288,1,0,0:0:0:0:
373,191,253355,1,2,0:2:0:0:
337,214,253422,1,0,0:0:0:0:
329,238,253489,1,10,0:2:0:0:
332,256,253556,1,0,0:0:0:0:
342,265,253623,5,2,0:2:0:0:
363,308,253690,1,0,0:0:0:0:
348,358,253757,1,10,0:2:0:0:
303,376,253824,1,0,0:0:0:0:
251,360,253891,6,0,L|271:281,1,59.9999981689454,2|0,0:2|0:0,0:0:0:0:
224,206,254025,2,0,L|204:127,1,59.9999981689454,10|0,0:2|0:0,0:0:0:0:
252,45,254159,5,8,0:0:0:0:
299,15,254226,1,8,0:0:0:0:
358,35,254293,1,8,0:0:0:0:
383,91,254360,1,8,0:0:0:0:
364,144,254427,1,8,0:0:0:0:
315,180,254493,1,8,0:0:0:0:
309,240,254560,1,8,0:0:0:0:
359,282,254627,1,8,0:0:0:0:
415,270,254694,6,0,L|401:200,3,59.9999981689454,8|8|8|8,0:0|0:0|0:0|0:0,0:0:0:0:
448,145,254962,2,0,L|462:75,3,59.9999981689454,8|8|8|8,0:0|0:0|0:0|0:0,0:0:0:0:
395,31,255230,6,0,B|372:-7|287:1|277:66|277:66|266:64|266:64|265:115|202:140|160:108,1,300.000011444092,6|2,0:0|0:2,0:0:0:0:
62,26,255565,1,0,0:0:0:0:
62,26,255632,2,0,P|139:46|358:109,1,300.000011444092,10|10,0:2|0:2,0:0:0:0:
131,205,256034,2,0,P|64:186|63:116,1,150.000005722046,2|10,0:2|0:2,0:0:0:0:
299,2,256302,6,0,P|264:192|242:319,1,300.000011444092,2|2,0:2|0:2,0:0:0:0:
302,375,256636,1,0,0:0:0:0:
302,375,256703,2,0,B|343:321|343:321|246:187|246:187|291:98,1,300.000011444092,10|10,0:2|0:2,0:0:0:0:
419,171,257105,2,0,B|454:199|454:199|348:177,1,150.000005722046,2|10,0:2|0:2,0:0:0:0:
102,12,257373,6,0,P|172:13|202:95,1,150.000005722046,2|10,0:2|0:2,0:0:0:0:
147,246,257641,2,0,L|110:153,1,75.0000028610231,2|0,0:2|0:0,0:0:0:0:
10,136,257775,2,0,B|153:158|153:158|155:162|155:162|335:185,1,300.000011444092,10|10,0:2|0:2,0:0:0:0:
392,14,258177,2,0,B|319:3|319:3|282:71,1,150.000005722046,2|10,0:2|0:2,0:0:0:0:
383,323,258444,54,3,B|418:339|446:383|446:383|537:335|544:208|443:133|345:175|345:175|350:150|350:150|219:221|134:80|209:3,1,775.000005912781,2|10,0:2|0:2,3:1:0:0:
397,68,259248,6,0,L|330:86,1,50,2|0,0:2|0:0,0:0:0:0:
275,45,259382,2,0,L|342:63,1,50,10|0,0:2|0:0,0:0:0:0:
463,135,259516,5,6,0:0:0:0:
496,188,259583,1,0,0:0:0:0:
477,242,259650,1,10,0:2:0:0:
428,260,259717,1,0,0:0:0:0:
381,244,259784,1,2,0:2:0:0:
367,213,259851,1,0,0:0:0:0:
376,191,259918,5,10,0:2:0:0:
407,220,259985,1,0,0:0:0:0:
401,267,260052,1,2,0:2:0:0:
368,296,260118,1,0,0:0:0:0:
323,292,260185,1,10,0:2:0:0:
298,272,260252,1,0,0:0:0:0:
304,247,260319,6,0,L|367:259,1,50,2|0,0:2|0:0,0:0:0:0:
241,343,260453,2,0,L|178:355,1,50,10|0,0:2|0:0,0:0:0:0:
196,212,260587,5,2,0:2:0:0:
166,165,260654,1,0,0:0:0:0:
111,146,260721,1,10,0:2:0:0:
64,156,260788,1,0,0:0:0:0:
44,175,260855,1,2,0:2:0:0:
35,191,260922,1,0,0:0:0:0:
36,207,260989,1,10,0:2:0:0:
42,218,261056,1,0,0:0:0:0:
53,223,261123,6,0,L|59:196,3,20,2|0|10|0,0:2|0:0|0:2|0:0,0:0:0:0:
125,259,261391,2,0,L|138:318,3,59.9999981689454,2|0|10|0,0:2|0:0|0:2|0:0,0:0:0:0:
254,383,261659,5,2,0:2:0:0:
301,368,261726,1,0,0:0:0:0:
319,323,261793,1,10,0:2:0:0:
297,274,261860,1,0,0:0:0:0:
256,249,261927,2,0,P|222:283|196:309,1,59.9999981689454,2|0,0:2|0:0,0:0:0:0:
328,196,262060,2,0,P|379:222|417:229,1,59.9999981689454,10|0,0:2|0:0,0:0:0:0:
249,161,262194,5,2,0:2:0:0:
252,152,262261,1,0,0:0:0:0:
256,144,262328,2,0,L|175:167,1,59.9999981689454,10|0,0:2|0:0,0:0:0:0:
352,116,262462,5,2,0:2:0:0:
349,107,262529,1,0,0:0:0:0:
345,99,262596,2,0,L|426:122,1,59.9999981689454,10|0,0:2|0:0,0:0:0:0:
465,288,262730,5,8,0:0:0:0:
422,357,262797,1,8,0:0:0:0:
345,383,262864,1,8,0:0:0:0:
269,353,262931,1,8,0:0:0:0:
230,281,262998,1,6,0:0:0:0:
247,201,263065,1,0,0:0:0:0:
311,151,263132,1,0,0:0:0:0:
393,154,263199,1,0,0:0:0:0:
456,205,263266,5,8,0:0:0:0:
384,256,263333,1,8,0:0:0:0:
293,251,263400,1,8,0:0:0:0:
228,189,263467,1,8,0:0:0:0:
219,99,263534,1,6,0:0:0:0:
269,24,263601,1,0,0:0:0:0:
356,0,263668,1,0,0:0:0:0:
438,36,263735,1,0,0:0:0:0:
477,117,263801,5,6,0:0:0:0:
216,194,263935,2,0,L|192:36,1,150.000005722046,10|0,0:0|0:0,0:0:0:0:
459,211,264203,2,0,L|436:359,1,150.000005722046,10|0,0:0|0:0,0:0:0:0:
126,226,264471,2,0,L|102:68,1,150.000005722046,10|0,0:0|0:0,0:0:0:0:
19,170,264739,1,10,0:0:0:0:
301,192,264873,5,0,0:0:0:0:
217,167,265007,1,10,0:0:0:0:
375,138,265141,5,0,0:0:0:0:
154,216,265275,1,10,0:0:0:0:
244,81,265409,5,0,0:0:0:0:
297,282,265543,1,10,0:0:0:0:
294,19,265677,5,0,0:0:0:0:
238,342,265810,1,10,0:0:0:0:
302,125,265944,5,0,0:0:0:0:
465,370,266078,2,0,L|284:347,1,150.000005722046,10|0,0:0|0:0,0:0:0:0:
71,163,266346,2,0,L|252:186,1,150.000005722046,10|0,0:0|0:0,0:0:0:0:
498,292,266614,2,0,L|317:269,1,150.000005722046,10|0,0:0|0:0,0:0:0:0:
468,135,266882,1,10,0:0:0:0:
154,216,267016,5,0,0:0:0:0:
375,138,267150,1,10,0:0:0:0:
117,133,267284,5,0,0:0:0:0:
423,210,267418,1,10,0:0:0:0:
280,54,267552,5,0,0:0:0:0:
231,80,267618,1,0,0:0:0:0:
213,135,267685,1,10,0:0:0:0:
240,190,267752,1,0,0:0:0:0:
293,221,267819,1,0,0:0:0:0:
328,276,267886,1,0,0:0:0:0:
316,341,267953,1,10,0:0:0:0:
258,372,268020,1,0,0:0:0:0:
249,379,268087,6,0,P|271:150|287:24,1,300.000011444092,6|0,0:0|0:0,0:0:0:0:
485,37,268489,2,0,P|491:147|355:95,1,300.000011444092,10|10,0:0|0:0,0:0:0:0:
364,102,268824,1,0,0:0:0:0:
372,99,268891,2,0,B|422:176|422:176|398:252,1,150.000005722046,0|10,0:0|0:0,0:0:0:0:
405,365,269159,6,0,B|305:340|305:340|241:247|241:247|118:217,1,300.000011444092,2|0,0:0|0:0,0:0:0:0:
134,332,269493,1,0,0:0:0:0:
134,332,269560,2,0,B|277:301|277:301|281:304|281:304|453:266,1,300.000011444092,10|10,0:0|0:0,0:0:0:0:
128,132,269962,2,0,P|63:159|80:248,1,150.000005722046,0|10,0:0|0:0,0:0:0:0:
249,383,270230,5,6,0:0:0:0:
313,344,270297,1,0,0:0:0:0:
319,270,270364,1,10,0:0:0:0:
267,215,270431,1,0,0:0:0:0:
192,205,270498,1,0,0:0:0:0:
129,247,270565,1,0,0:0:0:0:
55,240,270632,1,10,0:0:0:0:
3,184,270699,1,0,0:0:0:0:
21,111,270766,1,0,0:0:0:0:
88,79,270833,1,0,0:0:0:0:
157,103,270900,1,10,0:0:0:0:
198,166,270967,1,0,0:0:0:0:
271,175,271034,1,0,0:0:0:0:
328,127,271101,1,0,0:0:0:0:
329,53,271168,1,10,0:0:0:0:
267,9,271235,1,0,0:0:0:0:
197,33,271302,5,0,0:0:0:0:
197,109,271368,1,0,0:0:0:0:
262,149,271435,1,10,0:0:0:0:
335,128,271502,1,0,0:0:0:0:
386,69,271569,1,0,0:0:0:0:
460,70,271636,1,0,0:0:0:0:
510,126,271703,1,10,0:0:0:0:
494,199,271770,1,0,0:0:0:0:
420,222,271837,6,0,L|331:204,3,50,0|0|10|0,0:0|0:0|0:0|0:0,0:0:0:0:
246,186,272105,2,0,L|157:204,3,50,0|0|10|0,0:0|0:0|0:0|0:0,0:0:0:0:
174,343,272373,5,6,0:0:0:0:
241,381,272440,1,8,0:0:0:0:
319,370,272507,1,8,0:0:0:0:
348,299,272574,1,8,0:0:0:0:
317,226,272641,1,8,0:0:0:0:
242,210,272708,1,8,0:0:0:0:
182,259,272775,5,0,0:0:0:0:
250,297,272842,1,0,0:0:0:0:
322,268,272909,1,8,0:0:0:0:
339,194,272976,1,8,0:0:0:0:
311,118,273043,1,8,0:0:0:0:
325,39,273110,1,8,0:0:0:0:
392,0,273177,1,0,0:0:0:0:
467,17,273243,1,0,0:0:0:0:
512,79,273310,1,0,0:0:0:0:
499,154,273377,1,0,0:0:0:0:
445,212,273444,5,14,0:0:0:0:
370,190,273511,1,8,0:0:0:0:
296,167,273578,1,8,0:0:0:0:
221,144,273645,1,8,0:0:0:0:
147,120,273712,1,8,0:0:0:0:
73,97,273779,1,8,0:0:0:0:
0,70,273846,2,0,L|24:182,1,75.0000028610231
151,294,273980,5,14,0:0:0:0:
151,294,274047,1,0,0:0:0:0:
151,294,274114,2,0,L|135:179,1,69.9999978637696
310,11,274248,5,14,0:0:0:0:
310,11,274315,1,0,0:0:0:0:
310,11,274382,2,0,L|294:126,1,69.9999978637696
243,375,274516,6,0,L|182:-9,1,300,6|0,0:0|0:0,0:0:0:0:
316,3,274784,5,10,0:0:0:0:
374,38,274851,1,0,0:0:0:0:
383,106,274918,1,10,0:0:0:0:
331,155,274985,1,0,0:0:0:0:
259,160,275052,1,10,0:0:0:0:
212,208,275118,1,0,0:0:0:0:
219,275,275185,1,10,0:0:0:0:
277,314,275252,1,0,0:0:0:0:
342,291,275319,1,10,0:0:0:0:
378,231,275386,1,0,0:0:0:0:
438,201,275453,1,10,0:0:0:0:
501,232,275520,1,0,0:0:0:0:
512,301,275587,2,0,P|491:343|451:354,1,64.9999970245363,10|0,0:0|0:0,0:0:0:0:
296,276,275721,5,10,0:0:0:0:
270,242,275788,1,0,0:0:0:0:
269,199,275855,1,10,0:0:0:0:
289,169,275922,1,0,0:0:0:0:
320,157,275989,2,0,P|350:178|402:193,1,64.9999970245363,10|0,0:0|0:0,0:0:0:0:
319,368,276123,5,10,0:0:0:0:
310,323,276190,1,0,0:0:0:0:
301,278,276257,1,10,0:0:0:0:
292,233,276324,1,0,0:0:0:0:
284,188,276391,1,10,0:0:0:0:
276,143,276458,1,0,0:0:0:0:
268,98,276525,1,10,0:0:0:0:
258,53,276592,1,0,0:0:0:0:
248,8,276659,2,0,L|339:38,1,64.9999970245363,10|0,0:0|0:0,0:0:0:0:
195,187,276793,5,10,0:0:0:0:
149,200,276860,1,0,0:0:0:0:
106,173,276927,1,10,0:0:0:0:
98,121,276994,1,0,0:0:0:0:
129,83,277060,2,0,L|117:160,1,64.9999970245363,10|0,0:0|0:0,0:0:0:0:
284,155,277194,5,10,0:0:0:0:
321,165,277261,1,0,0:0:0:0:
358,175,277328,1,10,0:0:0:0:
395,184,277395,1,0,0:0:0:0:
432,194,277462,6,0,L|342:208,1,64.9999970245363,10|0,0:0|0:0,0:0:0:0:
276,166,277596,2,0,L|186:152,1,64.9999970245363,10|0,0:0|0:0,0:0:0:0:
112,225,277730,6,0,L|8:238,3,64.9999970245363,8|8|8|8,0:0|0:0|0:0|0:0,0:0:0:0:
232,84,277998,6,0,L|336:97,1,64.9999970245363,8|8,0:0|0:0,0:0:0:0:
226,277,278132,2,0,L|122:290,3,64.9999970245363,8|8|0|0,0:0|0:0|0:0|0:0,0:0:0:0:
242,80,278400,6,0,L|346:93,1,64.9999970245363,8|8,0:0|0:0,0:0:0:0:
296,294,278534,5,8,0:0:0:0:
301,305,278601,1,0,0:0:0:0:
306,316,278668,1,0,0:0:0:0:
311,328,278735,1,0,0:0:0:0:
316,340,278802,6,0,B|409:279|409:279|118:325,1,345.000006580353,6|0,0:0|0:0,0:0:0:0:
91,210,279069,5,10,0:0:0:0:
150,160,279136,1,0,0:0:0:0:
222,181,279203,1,10,0:0:0:0:
247,251,279270,1,0,0:0:0:0:
224,324,279337,1,10,0:0:0:0:
277,380,279404,1,0,0:0:0:0:
356,374,279471,1,10,0:0:0:0:
402,314,279538,1,0,0:0:0:0:
385,242,279605,1,10,0:0:0:0:
334,188,279672,1,0,0:0:0:0:
354,115,279739,1,10,0:0:0:0:
427,89,279806,1,0,0:0:0:0:
492,127,279873,5,10,0:0:0:0:
433,172,279940,1,0,0:0:0:0:
364,143,280007,1,10,0:0:0:0:
332,79,280074,1,0,0:0:0:0:
274,31,280141,1,10,0:0:0:0:
199,35,280208,1,0,0:0:0:0:
149,90,280275,1,10,0:0:0:0:
157,163,280342,1,0,0:0:0:0:
215,205,280409,5,10,0:0:0:0:
227,166,280476,1,0,0:0:0:0:
235,135,280543,1,10,0:0:0:0:
245,102,280610,1,0,0:0:0:0:
256,63,280677,6,0,L|156:83,1,64.9999970245363,10|0,0:0|0:0,0:0:0:0:
305,163,280810,2,0,L|405:183,1,64.9999970245363,10|0,0:0|0:0,0:0:0:0:
454,59,280944,5,10,0:0:0:0:
395,20,281011,1,0,0:0:0:0:
323,39,281078,1,10,0:0:0:0:
291,108,281145,1,0,0:0:0:0:
312,184,281212,1,10,0:0:0:0:
375,222,281279,1,0,0:0:0:0:
401,291,281346,1,10,0:0:0:0:
364,355,281413,1,0,0:0:0:0:
294,359,281480,5,10,0:0:0:0:
247,321,281547,1,0,0:0:0:0:
244,262,281614,1,10,0:0:0:0:
272,217,281681,1,0,0:0:0:0:
266,168,281748,1,10,0:0:0:0:
221,137,281815,1,0,0:0:0:0:
169,137,281882,1,10,0:0:0:0:
134,176,281949,1,0,0:0:0:0:
132,226,282016,5,10,0:0:0:0:
190,215,282083,1,0,0:0:0:0:
245,204,282150,1,10,0:0:0:0:
298,191,282217,1,0,0:0:0:0:
352,176,282284,1,10,0:0:0:0:
405,164,282351,1,0,0:0:0:0:
462,149,282418,2,0,L|430:249,1,64.9999970245363,10|0,0:0|0:0,0:0:0:0:
330,373,282552,5,8,2:3:0:0:
315,304,282618,1,8,2:3:0:0:
300,233,282685,1,8,2:3:0:0:
285,162,282752,1,8,2:3:0:0:
266,92,282819,1,0,0:0:0:0:
269,80,282886,1,0,0:0:0:0:
272,68,282953,1,0,0:0:0:0:
275,56,283020,1,0,0:0:0:0:
277,48,283087,6,0,L|240:336,1,225.000008583069,6|0,0:0|0:0,0:0:0:0:
246,282,283355,1,2,0:2:0:0:
460,170,283489,2,0,B|512:126|512:126|284:175,1,300.000011444092,10|10,0:2|0:2,0:0:0:0:
161,43,283891,1,2,0:2:0:0:
171,47,283958,1,0,0:0:0:0:
181,51,284025,1,10,0:2:0:0:
116,228,284159,6,0,P|158:216|162:127,1,119.999996337891,2|10,0:2|0:2,0:0:0:0:
75,134,284427,1,2,0:2:0:0:
370,72,284560,2,0,L|214:92,1,119.999996337891,10|2,0:2|0:2,0:0:0:0:
390,196,284828,1,10,0:2:0:0:
464,72,284962,2,0,L|452:4,2,50,2|0|10,0:2|0:0|0:2,0:0:0:0:
428,322,285230,6,0,L|396:169,1,119.999996337891,2|10,0:2|0:2,0:0:0:0:
191,35,285498,2,0,L|277:73,1,59.9999981689454,2|0,0:2|0:0,0:0:0:0:
365,56,285632,2,0,L|115:95,1,239.999992675781,10|10,0:2|0:2,0:0:0:0:
65,53,286034,1,2,0:2:0:0:
59,43,286101,1,0,0:0:0:0:
53,33,286168,1,10,0:2:0:0:
60,190,286302,5,2,0:2:0:0:
75,229,286368,1,0,0:0:0:0:
111,247,286435,1,10,0:2:0:0:
148,235,286502,1,0,0:0:0:0:
167,194,286569,1,2,0:2:0:0:
204,170,286636,1,0,0:0:0:0:
249,184,286703,1,10,0:2:0:0:
268,221,286770,1,0,0:0:0:0:
260,265,286837,5,2,0:2:0:0:
260,265,286904,1,0,0:0:0:0:
260,265,286971,2,0,P|221:244|179:231,1,59.9999981689454,10|0,0:2|0:0,0:0:0:0:
120,137,287105,5,2,0:2:0:0:
120,137,287172,1,0,0:0:0:0:
120,137,287239,2,0,P|159:116|201:103,1,59.9999981689454,10|0,0:2|0:0,0:0:0:0:
301,47,287373,6,0,B|366:47|405:99|352:131|446:162|530:145|533:46,1,300.000011444092,6|2,0:0|0:2,0:0:0:0:
452,16,287708,1,0,0:0:0:0:
452,16,287775,2,0,P|435:89|423:167,1,129.999994049073,10|2,0:2|0:2,0:0:0:0:
481,248,288043,1,10,0:2:0:0:
305,154,288177,1,2,0:2:0:0:
311,143,288243,1,0,0:0:0:0:
315,134,288310,1,10,0:2:0:0:
393,361,288444,6,0,L|365:221,1,129.999994049073,2|10,0:2|0:2,0:0:0:0:
502,157,288712,1,2,0:2:0:0:
233,125,288846,2,0,B|362:148|362:148|366:151|366:151|520:175,1,259.999988098145,10|10,0:2|0:2,0:0:0:0:
333,6,289248,2,0,L|309:78,2,50,2|0|10,0:2|0:0|0:2,0:0:0:0:
356,235,289516,6,0,B|283:186|217:258|258:250|203:332|126:293,1,259.999988098145,2|2,0:2|0:2,0:0:0:0:
124,286,289851,1,0,0:0:0:0:
123,274,289918,1,10,0:2:0:0:
343,331,290052,5,2,0:2:0:0:
176,192,290185,1,10,0:2:0:0:
307,142,290319,1,2,0:2:0:0:
313,132,290386,1,0,0:0:0:0:
320,123,290453,1,10,0:2:0:0:
260,324,290587,5,8,2:0:0:0:
206,309,290654,1,8,2:0:0:0:
153,293,290721,1,8,2:0:0:0:
102,278,290788,1,8,2:0:0:0:
57,263,290855,5,8,0:0:0:0:
65,253,290921,1,8,0:0:0:0:
74,244,290988,1,8,0:0:0:0:
83,235,291055,1,8,0:0:0:0:
91,225,291122,6,0,L|80:147,3,64.9999970245363,8|8|8|8,0:0|0:0|0:0|0:0,0:0:0:0:
154,96,291391,2,0,L|165:18,3,64.9999970245363,8|8|8|8,0:0|0:0|0:0|0:0,0:0:0:0:
78,16,291659,6,0,B|144:26|144:26|146:29|146:29|221:40,1,129.999994049073,6|10,0:0|0:2,0:0:0:0:
254,92,291860,1,0,0:0:0:0:
261,98,291927,2,0,L|348:73,1,64.9999970245363,2|0,0:2|0:0,0:0:0:0:
213,266,292060,6,0,P|198:197|180:118,1,129.999994049073,10|2,0:2|0:2,0:0:0:0:
299,202,292328,1,10,0:2:0:0:
111,108,292462,1,2,0:2:0:0:
101,114,292529,1,0,0:0:0:0:
91,122,292596,1,10,0:2:0:0:
214,337,292730,6,0,P|269:320|347:303,1,129.999994049073,2|10,0:2|0:2,0:0:0:0:
350,301,292931,1,0,0:0:0:0:
359,308,292998,2,0,P|397:318|431:331,1,64.9999970245363,2|0,0:2|0:0,0:0:0:0:
275,235,293132,2,0,L|294:91,1,129.999994049073,10|2,0:2|0:2,0:0:0:0:
221,22,293400,1,10,0:2:0:0:
399,156,293534,1,2,0:2:0:0:
423,148,293601,1,0,0:0:0:0:
448,140,293668,1,10,0:2:0:0:
473,134,293735,1,0,0:0:0:0:
500,126,293802,6,0,L|332:103,1,129.999994049073,2|10,0:2|0:2,0:0:0:0:
332,43,294002,1,0,0:0:0:0:
343,39,294069,2,0,L|418:24,1,64.9999970245363,2|0,0:2|0:0,0:0:0:0:
376,249,294203,2,0,B|410:308|410:308|378:106,1,259.999988098145,10|10,0:2|0:2,0:0:0:0:
253,19,294605,1,2,0:2:0:0:
245,28,294672,1,0,0:0:0:0:
237,37,294739,1,10,0:2:0:0:
97,84,294873,5,2,0:2:0:0:
128,91,294940,1,0,0:0:0:0:
159,98,295007,1,10,0:2:0:0:
190,105,295074,1,0,0:0:0:0:
221,113,295141,1,2,0:2:0:0:
252,121,295208,1,0,0:0:0:0:
283,129,295275,1,10,0:2:0:0:
314,137,295342,1,0,0:0:0:0:
350,152,295409,5,2,0:2:0:0:
350,152,295476,1,0,0:0:0:0:
350,152,295543,2,0,L|365:56,1,64.9999970245363,10|0,0:2|0:0,0:0:0:0:
191,18,295677,5,2,0:2:0:0:
191,18,295744,1,0,0:0:0:0:
191,18,295811,2,0,L|206:114,1,64.9999970245363,10|0,0:2|0:0,0:0:0:0:
89,201,295944,6,0,B|10:164|10:164|229:124,1,300.000011444092,6|2,0:0|0:2,0:0:0:0:
285,214,296279,1,0,0:0:0:0:
285,214,296346,2,0,B|318:233|318:233|178:209,1,150.000005722046,10|2,0:2|0:2,0:0:0:0:
115,108,296614,1,10,0:2:0:0:
114,276,296748,2,0,L|129:190,2,50,2|0|10,0:2|0:0|0:2,0:0:0:0:
258,317,297016,5,2,0:2:0:0:
44,212,297150,1,10,0:2:0:0:
313,94,297284,1,2,0:2:0:0:
219,6,297418,6,0,P|234:107|259:328,1,300.000011444092,10|10,0:2|0:2,0:0:0:0:
421,162,297819,1,2,0:2:0:0:
426,153,297886,1,0,0:0:0:0:
431,143,297953,1,10,0:2:0:0:
491,274,298087,5,6,0:0:0:0:
460,322,298154,1,8,0:0:0:0:
402,332,298221,1,8,0:0:0:0:
357,300,298288,1,8,0:0:0:0:
343,244,298355,1,8,0:0:0:0:
371,192,298422,1,8,0:0:0:0:
428,178,298489,5,0,0:0:0:0:
418,189,298556,1,0,0:0:0:0:
410,201,298623,1,0,0:0:0:0:
404,214,298690,1,8,0:0:0:0:
400,228,298757,1,8,0:0:0:0:
397,242,298824,1,8,0:0:0:0:
398,255,298891,5,0,0:0:0:0:
198,145,299025,1,0,0:0:0:0:
347,49,299159,5,0,0:0:0:0:
344,89,299226,1,8,0:0:0:0:
329,127,299293,1,8,0:0:0:0:
326,169,299360,1,8,0:0:0:0:
313,208,299427,1,8,0:0:0:0:
312,247,299493,1,8,0:0:0:0:
298,288,299560,1,0,0:0:0:0:
298,327,299627,1,0,0:0:0:0:
289,354,299694,6,0,L|272:285,1,50,8|8,0:0|0:0,0:0:0:0:
365,278,299828,2,0,L|377:230,1,50
241,209,299962,5,8,0:0:0:0:
243,217,300029,1,8,0:0:0:0:
246,226,300096,1,0,0:0:0:0:
248,234,300163,1,0,0:0:0:0:
250,241,300230,6,0,P|328:221|404:208,1,119.999996337891,6|10,0:0|0:0,0:0:0:0:
456,293,300431,1,0,0:0:0:0:
456,293,300498,2,0,P|474:241|484:221,1,59.9999981689454,2|0,0:0|0:0,0:0:0:0:
389,119,300632,2,0,P|331:122|331:211,1,119.999996337891,10|2,0:0|0:0,0:0:0:0:
371,287,300900,1,10,0:0:0:0:
488,167,301034,1,2,0:0:0:0:
491,154,301101,1,0,0:0:0:0:
494,142,301168,1,10,0:0:0:0:
497,129,301235,1,0,0:0:0:0:
500,116,301302,6,0,L|333:96,1,119.999996337891,4|10,0:2|0:0,0:0:0:0:
331,35,301502,1,0,0:0:0:0:
331,35,301569,2,0,L|418:11,1,59.9999981689454,2|0,0:0|0:0,0:0:0:0:
321,217,301703,2,0,P|301:150|274:89,1,119.999996337891,10|2,0:0|0:0,0:0:0:0:
233,20,301971,1,10,0:0:0:0:
99,154,302105,1,2,0:0:0:0:
118,164,302172,1,0,0:0:0:0:
139,173,302239,1,10,0:0:0:0:
161,186,302306,1,0,0:0:0:0:
181,198,302373,6,0,L|158:65,1,119.999996337891,4|10,0:2|0:0,0:0:0:0:
81,57,302574,1,0,0:0:0:0:
81,57,302641,2,0,P|97:17|108:-6,1,59.9999981689454,2|0,0:0|0:0,0:0:0:0:
326,89,302775,2,0,P|289:143|225:120,1,119.999996337891,10|2,0:0|0:0,0:0:0:0:
243,26,303043,1,10,0:0:0:0:
409,136,303177,1,2,0:0:0:0:
404,159,303243,1,0,0:0:0:0:
398,182,303310,1,10,0:0:0:0:
393,205,303377,1,0,0:0:0:0:
388,228,303444,6,0,L|528:197,1,119.999996337891,2|10,0:0|0:0,0:0:0:0:
498,213,303645,1,0,0:0:0:0:
491,225,303712,2,0,L|409:207,1,59.9999981689454,2|0,0:0|0:0,0:0:0:0:
338,290,303846,6,0,L|198:321,1,119.999996337891,10|2,0:0|0:0,0:0:0:0:
405,353,304114,1,10,0:0:0:0:
217,237,304248,1,4,0:2:0:0:
199,243,304315,1,0,0:0:0:0:
182,250,304382,1,10,0:0:0:0:
165,257,304449,1,0,0:0:0:0:
148,264,304516,6,0,L|173:131,1,119.999996337891,6|10,0:0|0:0,0:0:0:0:
106,110,304717,1,0,0:0:0:0:
106,110,304784,2,0,L|93:26,1,59.9999981689454,2|0,0:0|0:0,0:0:0:0:
289,105,304918,2,0,P|300:159|230:170,1,119.999996337891,10|2,0:0|0:0,0:0:0:0:
191,39,305185,1,10,0:0:0:0:
274,16,305319,1,2,0:0:0:0:
289,21,305386,1,0,0:0:0:0:
305,26,305453,1,10,0:0:0:0:
321,32,305520,1,0,0:0:0:0:
336,38,305587,6,0,L|484:12,1,119.999996337891,2|10,0:0|0:0,0:0:0:0:
493,83,305788,1,0,0:0:0:0:
493,83,305855,2,0,L|477:158,1,59.9999981689454,2|0,0:0|0:0,0:0:0:0:
391,258,305989,2,0,L|366:125,1,119.999996337891,10|2,0:0|0:0,0:0:0:0:
488,235,306257,1,10,0:0:0:0:
249,124,306391,1,2,0:0:0:0:
232,131,306458,1,0,0:0:0:0:
215,138,306525,1,10,0:0:0:0:
198,145,306592,1,0,0:0:0:0:
181,153,306659,6,0,L|321:187,1,119.999996337891,2|10,0:0|0:0,0:0:0:0:
373,144,306860,1,0,0:0:0:0:
373,144,306927,2,0,L|448:128,1,59.9999981689454,2|0,0:0|0:0,0:0:0:0:
351,355,307060,2,0,L|376:222,1,119.999996337891,10|2,0:0|0:0,0:0:0:0:
307,86,307328,1,10,0:0:0:0:
250,232,307462,1,2,0:0:0:0:
255,249,307529,1,0,0:0:0:0:
260,266,307596,1,10,0:0:0:0:
265,283,307663,1,0,0:0:0:0:
271,299,307730,5,14,0:0:0:0:
384,244,307864,1,0,0:0:0:0:
195,185,307998,1,0,0:0:0:0:
254,383,308132,1,14,0:0:0:0:
127,256,308266,5,0,0:0:0:0:
416,180,308400,1,0,0:0:0:0:
278,384,308534,1,14,0:0:0:0:
202,103,308668,1,0,0:0:0:0:
202,103,308735,1,0,0:0:0:0:
202,103,308802,6,0,L|363:77,1,119.999996337891,6|10,0:0|0:0,0:0:0:0:
398,66,309002,1,0,0:0:0:0:
398,66,309069,2,0,L|480:82,1,59.9999981689454,2|0,0:0|0:0,0:0:0:0:
421,285,309203,2,0,P|395:204|373:148,1,119.999996337891,10|2,0:0|0:0,0:0:0:0:
435,84,309471,1,10,0:0:0:0:
313,223,309605,1,2,0:0:0:0:
306,246,309672,1,0,0:0:0:0:
299,269,309739,1,10,0:0:0:0:
292,292,309806,1,0,0:0:0:0:
286,316,309873,6,0,L|262:193,1,119.999996337891,2|10,0:0|0:0,0:0:0:0:
209,144,310074,1,0,0:0:0:0:
209,144,310141,2,0,L|224:68,1,59.9999981689454,2|0,0:0|0:0,0:0:0:0:
150,211,310275,2,0,P|72:185|7:170,1,119.999996337891,10|2,0:0|0:0,0:0:0:0:
121,90,310543,1,10,0:0:0:0:
204,277,310677,1,2,0:0:0:0:
211,300,310744,1,0,0:0:0:0:
218,323,310811,1,10,0:0:0:0:
225,346,310878,1,0,0:0:0:0:
232,369,310945,6,0,L|256:246,1,119.999996337891,2|10,0:0|0:0,0:0:0:0:
325,225,311145,1,0,0:0:0:0:
325,225,311212,2,0,L|340:301,1,59.9999981689454,2|0,0:0|0:0,0:0:0:0:
485,237,311346,2,0,P|451:185|380:188,1,119.999996337891,10|2,0:0|0:0,0:0:0:0:
409,312,311614,1,10,0:0:0:0:
262,179,311748,1,2,0:0:0:0:
266,155,311815,1,0,0:0:0:0:
270,131,311882,1,10,0:0:0:0:
275,107,311949,1,0,0:0:0:0:
280,83,312016,6,0,P|322:35|387:59,1,119.999996337891,2|10,0:0|0:0,0:0:0:0:
387,120,312217,1,0,0:0:0:0:
387,120,312284,2,0,P|374:153|363:186,1,59.9999981689454,2|0,0:0|0:0,0:0:0:0:
277,279,312418,2,0,P|258:185|247:133,1,119.999996337891,10|2,0:0|0:0,0:0:0:0:
227,27,312685,1,10,0:0:0:0:
65,107,312819,1,2,0:0:0:0:
93,117,312886,1,0,0:0:0:0:
120,127,312953,1,10,0:0:0:0:
147,137,313020,1,0,0:0:0:0:
174,148,313087,6,0,L|39:178,1,119.999996337891,6|10,0:0|0:0,0:0:0:0:
6,117,313288,1,0,0:0:0:0:
6,117,313355,2,0,P|48:104|91:94,1,59.9999981689454,2|0,0:0|0:0,0:0:0:0:
201,217,313489,2,0,L|357:240,1,119.999996337891,10|2,0:0|0:0,0:0:0:0:
191,312,313757,1,10,0:0:0:0:
422,291,313891,1,2,0:0:0:0:
430,297,313958,1,0,0:0:0:0:
439,304,314025,1,10,0:0:0:0:
448,311,314092,1,0,0:0:0:0:
457,318,314159,6,0,L|319:345,1,119.999996337891,2|10,0:0|0:0,0:0:0:0:
267,360,314360,1,0,0:0:0:0:
267,360,314427,2,0,L|279:281,1,59.9999981689454,2|0,0:0|0:0,0:0:0:0:
333,227,314560,2,0,L|319:96,1,119.999996337891,10|2,0:0|0:0,0:0:0:0:
423,162,314828,1,10,0:0:0:0:
243,37,314962,1,2,0:0:0:0:
232,42,315029,1,0,0:0:0:0:
221,47,315096,1,10,0:0:0:0:
210,52,315163,1,0,0:0:0:0:
199,57,315230,6,0,L|337:87,1,119.999996337891,6|10,0:0|0:0,0:0:0:0:
379,129,315431,1,0,0:0:0:0:
379,129,315498,2,0,L|456:109,1,59.9999981689454
511,91,315632,1,10,0:0:0:0:
438,290,315766,5,10,0:0:0:0:
390,277,315833,1,8,0:0:0:0:
342,264,315900,1,8,0:0:0:0:
294,252,315967,1,8,0:0:0:0:
246,240,316034,2,0,L|278:334,1,59.9999981689454,8|8,0:0|0:0,0:0:0:0:
351,177,316168,2,0,L|370:120,1,59.9999981689454,8|8,0:0|0:0,0:0:0:0:
267,9,316302,5,6,0:0:0:0:
259,43,316368,1,0,0:0:0:0:
251,78,316435,1,8,0:0:0:0:
244,113,316502,1,8,0:0:0:0:
237,148,316569,1,8,0:0:0:0:
230,183,316636,1,8,0:0:0:0:
223,218,316703,2,0,L|209:141,1,59.9999981689454,0|8,0:0|0:0,0:0:0:0:
478,189,316837,5,8,0:0:0:0:
454,152,316904,1,8,0:0:0:0:
409,146,316971,1,8,0:0:0:0:
372,172,317038,1,8,0:0:0:0:
363,216,317105,2,0,L|388:295,1,59.9999981689454
438,152,317239,2,0,L|456:94,1,59.9999981689454,8|8,0:0|0:0,0:0:0:0:
301,83,317373,5,8,0:0:0:0:
259,74,317440,1,8,0:0:0:0:
217,66,317507,1,8,0:0:0:0:
175,58,317574,1,8,0:0:0:0:
133,50,317641,5,0,0:0:0:0:
291,1,317775,1,0,0:0:0:0:
279,207,317909,5,14,0:0:0:0:
170,153,318043,1,8,0:0:0:0:
364,106,318177,1,8,0:0:0:0:
297,323,318310,1,0,0:0:0:0:
231,80,318444,1,8,0:0:0:0:
447,242,318578,1,0,0:0:0:0:
166,238,318712,5,14,0:0:0:0:
366,188,318846,1,0,0:0:0:0:
244,52,318980,5,14,0:0:0:0:
307,360,319114,1,0,0:0:0:0:
259,184,319248,5,0,0:0:0:0:
259,184,319315,1,0,0:0:0:0:
259,184,319382,1,0,0:0:0:0:
259,184,319449,1,0,0:0:0:0:
259,184,319516,6,0,L|379:205,1,75.0000028610231,14|0,0:0|0:0,0:0:0:0:
453,255,319650,2,0,B|513:168|513:168|335:195|335:195|339:197|339:197|176:221|176:221|127:230,1,450.000017166138,14|0,0:0|0:0,0:0:0:0:
