osu file format v14

[General]
AudioFilename: audio.ogg
AudioLeadIn: 0
PreviewTime: 263802
Countdown: 0
SampleSet: Soft
StackLeniency: 0.7
Mode: 3
LetterboxInBreaks: 0
SpecialStyle: 0
WidescreenStoryboard: 1

[Editor]
Bookmarks: 54191,68119
DistanceSpacing: 0.8
BeatDivisor: 4
GridSize: 32
TimelineZoom: 1.600003

[Metadata]
Title:Astral Empire
TitleUnicode:Astral Empire
Artist:DragonForce
ArtistUnicode:DragonForce
Creator:Carpihat
Version:hyahya's Dawn / Extra
Source:
Tags:dragon force herman li marc hudson sam totman gee anzalone coen janssen frédéric frederic leclercq reaching into infinity power metal speed english 2017 lovely_hyahya earMUSIC Metal Blade 3Wise JVC Victor Jens Bogren jumpstream
BeatmapID:4310565
BeatmapSetID:2041044

[Difficulty]
HPDrainRate:8
CircleSize:4
OverallDifficulty:8
ApproachRate:5
SliderMultiplier:1.4
SliderTickRate:1

[Events]
//Background and Video events
0,0,"judgement.png",0,0
//Break Periods
//Storyboard Layer 0 (Background)
//Storyboard Layer 1 (Fail)
//Storyboard Layer 2 (Pass)
//Storyboard Layer 3 (Foreground)
//Storyboard Layer 4 (Overlay)
//Storyboard Sound Samples

[TimingPoints]
277,258.620689655172,4,2,1,25,1,0
277,-103.092783505155,4,2,1,25,0,0
406,270.27027027027,4,2,1,25,1,8
406,-99.009900990099,4,2,1,25,0,8
817,235.294117647059,4,2,1,25,1,8
817,-113.636363636364,4,2,1,25,0,8
934,304.568527918782,4,2,1,25,1,8
934,-87.719298245614,4,2,1,25,0,8
1086,246.913580246914,4,2,1,25,1,8
1086,-108.695652173913,4,2,1,25,0,8
1357,236.220472440945,4,2,1,25,1,0
1357,-113.636363636364,4,2,1,25,0,0
1479,292.682926829268,4,2,1,25,1,8
1479,-91.743119266055,4,2,1,25,0,8
1625,241.935483870968,4,2,1,25,1,8
1625,-111.111111111111,4,2,1,25,0,8
1745,255.31914893617,4,2,1,25,1,8
1745,-105.263157894737,4,2,1,25,0,8
1872,294.117647058824,4,2,1,25,1,8
1872,-90.9090909090909,4,2,1,25,0,8
2166,272.727272727273,4,2,1,25,1,8
2166,-98.0392156862745,4,2,1,25,0,8
2438,271.493212669683,4,2,1,25,1,0
2438,-99.009900990099,4,2,1,25,0,0
4331,262.008733624454,4,2,1,25,1,8
4331,-102.040816326531,4,2,1,25,0,8
4396,246.913580246914,4,2,1,25,1,8
4396,-108.695652173913,4,2,1,25,0,8
4457,230.769230769231,4,2,1,25,1,8
4457,-116.279069767442,4,2,1,25,0,8
4596,267.857142857143,4,2,1,25,1,0
23339,267.857142857143,4,2,1,25,1,8
23874,267.857142857143,4,2,1,25,1,0
41016,267.857142857143,4,2,1,25,1,8
41024,267.857142857143,4,2,1,25,1,0
71024,-100,4,2,1,25,0,1
87095,-100,4,2,1,25,0,0
113881,-100,4,2,1,25,0,1
122184,-100,4,2,1,25,0,0
122452,-100,4,2,1,25,0,1
138529,256.410256410256,4,2,1,25,1,0
138529,-104.166666666667,4,2,1,25,0,1
138785,260.869565217391,4,2,1,25,1,8
138785,-102.774922918808,4,2,1,25,0,8
139195,260.869565217391,4,2,1,25,1,8
139195,-103.092783505155,4,2,1,25,0,8
139586,266.666666666667,4,2,1,25,1,0
139586,-99.009900990099,4,2,1,25,0,0
139986,283.018867924528,4,2,1,25,1,8
139986,-94.3396226415094,4,2,1,25,0,8
140128,266.666666666667,4,2,1,25,1,8
140545,262.008733624454,4,2,1,25,1,8
140545,-102.040816326531,4,2,1,25,0,8
140676,262.008733624454,4,2,1,25,1,0
140676,-102.040816326531,4,2,1,25,0,0
141060,263.157894736842,4,2,1,25,1,8
141060,-102.040816326531,4,2,1,25,0,8
141743,275.229357798165,4,2,1,25,1,0
141743,-97.0873786407767,4,2,1,25,0,0
159357,277.777777777778,4,2,1,25,1,0
159357,-96.1538461538461,4,2,1,25,0,0
199357,275.229357798165,4,2,1,25,1,0
199357,-97.0873786407767,4,2,1,25,0,0
203760,267.857142857143,4,2,1,25,1,0
203760,-100,4,2,1,25,0,1
273938,-100,4,2,1,25,0,0
274474,-100,4,2,1,25,0,1
282777,-100,4,2,1,25,0,0
283045,-100,4,2,1,25,0,1
299117,-100,4,2,1,25,0,0

[HitObjects]
64,192,277,5,0,0:0:0:0:
192,192,277,1,0,0:0:0:0:
448,192,406,1,0,0:0:0:0:
192,192,406,1,0,0:0:0:0:
64,192,541,1,0,0:0:0:0:
320,192,608,1,0,0:0:0:0:
448,192,676,1,0,0:0:0:0:
192,192,676,1,0,0:0:0:0:
320,192,817,1,0,0:0:0:0:
448,192,817,1,0,0:0:0:0:
64,192,934,1,0,0:0:0:0:
320,192,934,1,0,0:0:0:0:
448,192,1086,1,0,0:0:0:0:
192,192,1147,1,0,0:0:0:0:
64,192,1209,1,0,0:0:0:0:
320,192,1209,1,0,0:0:0:0:
192,192,1357,1,0,0:0:0:0:
64,192,1357,1,0,0:0:0:0:
448,192,1479,1,0,0:0:0:0:
192,192,1479,1,0,0:0:0:0:
64,192,1625,1,0,0:0:0:0:
320,192,1685,1,0,0:0:0:0:
192,192,1745,1,0,0:0:0:0:
448,192,1745,1,0,0:0:0:0:
64,192,1872,1,0,0:0:0:0:
320,192,1945,1,0,0:0:0:0:
192,192,2019,1,0,0:0:0:0:
64,192,2019,1,0,0:0:0:0:
448,192,2092,1,0,0:0:0:0:
64,192,2166,1,0,0:0:0:0:
320,192,2234,1,0,0:0:0:0:
64,192,2302,1,0,0:0:0:0:
192,192,2302,1,0,0:0:0:0:
448,192,2370,1,0,0:0:0:0:
192,192,2438,1,0,0:0:0:0:
320,192,2438,1,0,0:0:0:0:
320,192,2573,1,0,0:0:0:0:
448,192,2573,1,0,0:0:0:0:
192,192,2732,1,0,0:0:0:0:
320,192,2777,1,0,0:0:0:0:
64,192,2845,1,0,0:0:0:0:
448,192,2845,1,0,0:0:0:0:
320,192,2980,1,0,0:0:0:0:
192,192,2980,1,0,0:0:0:0:
192,192,3116,1,0,0:0:0:0:
64,192,3116,1,0,0:0:0:0:
320,192,3252,1,0,0:0:0:0:
192,192,3320,1,0,0:0:0:0:
448,192,3388,1,0,0:0:0:0:
64,192,3388,1,0,0:0:0:0:
320,192,3523,1,0,0:0:0:0:
192,192,3523,1,0,0:0:0:0:
448,192,3659,1,0,0:0:0:0:
320,192,3659,1,0,0:0:0:0:
192,192,3795,1,0,0:0:0:0:
320,192,3846,1,0,0:0:0:0:
64,192,3931,1,0,0:0:0:0:
448,192,3931,1,0,0:0:0:0:
192,192,4066,1,0,0:0:0:0:
320,192,4066,1,0,0:0:0:0:
448,192,4134,1,0,0:0:0:0:
64,192,4202,1,0,0:0:0:0:
320,192,4270,1,0,0:0:0:0:
192,192,4331,1,0,0:0:0:0:
64,192,4331,1,0,0:0:0:0:
448,192,4396,1,0,0:0:0:0:
320,192,4396,1,0,0:0:0:0:
64,192,4457,1,0,0:0:0:0:
192,192,4457,1,0,0:0:0:0:
448,192,4514,1,0,0:0:0:0:
320,192,4514,1,0,0:0:0:0:
64,192,4596,128,0,4863:0:0:0:0:
192,192,4596,1,0,0:0:0:0:
448,192,4863,1,0,0:0:0:0:
320,192,4863,1,0,0:0:0:0:
64,192,4930,1,0,0:0:0:0:
448,192,4997,1,0,0:0:0:0:
192,192,4997,1,0,0:0:0:0:
192,192,5131,1,0,0:0:0:0:
64,192,5131,1,0,0:0:0:0:
320,192,5265,1,0,0:0:0:0:
64,192,5265,1,0,0:0:0:0:
448,192,5399,1,0,0:0:0:0:
320,192,5399,1,0,0:0:0:0:
64,192,5466,1,0,0:0:0:0:
448,192,5533,1,0,0:0:0:0:
192,192,5533,1,0,0:0:0:0:
320,192,5667,1,0,0:0:0:0:
64,192,5667,1,0,0:0:0:0:
448,192,5801,1,0,0:0:0:0:
320,192,5801,1,0,0:0:0:0:
192,192,5935,1,0,0:0:0:0:
64,192,5935,1,0,0:0:0:0:
448,192,6002,1,0,0:0:0:0:
320,192,6069,1,0,0:0:0:0:
64,192,6069,1,0,0:0:0:0:
448,192,6203,1,0,0:0:0:0:
320,192,6203,1,0,0:0:0:0:
192,192,6337,1,0,0:0:0:0:
448,192,6337,1,0,0:0:0:0:
192,192,6471,1,0,0:0:0:0:
64,192,6471,1,0,0:0:0:0:
448,192,6537,1,0,0:0:0:0:
320,192,6604,1,0,0:0:0:0:
64,192,6604,1,0,0:0:0:0:
448,192,6738,1,0,0:0:0:0:
192,192,6738,1,0,0:0:0:0:
448,192,6872,1,0,0:0:0:0:
320,192,6872,1,0,0:0:0:0:
64,192,7006,1,0,0:0:0:0:
192,192,7006,1,0,0:0:0:0:
320,192,7073,1,0,0:0:0:0:
192,192,7140,1,0,0:0:0:0:
448,192,7140,1,0,0:0:0:0:
448,192,7274,1,0,0:0:0:0:
64,192,7274,1,0,0:0:0:0:
64,192,7408,1,0,0:0:0:0:
192,192,7408,1,0,0:0:0:0:
448,192,7542,1,0,0:0:0:0:
320,192,7542,1,0,0:0:0:0:
192,192,7609,1,0,0:0:0:0:
448,192,7676,1,0,0:0:0:0:
64,192,7676,1,0,0:0:0:0:
320,192,7810,1,0,0:0:0:0:
192,192,7810,1,0,0:0:0:0:
448,192,7877,1,0,0:0:0:0:
64,192,7944,1,0,0:0:0:0:
320,192,7977,1,0,0:0:0:0:
192,192,8011,1,0,0:0:0:0:
64,192,8078,1,0,0:0:0:0:
448,192,8078,1,0,0:0:0:0:
320,192,8145,1,0,0:0:0:0:
448,192,8212,1,0,0:0:0:0:
192,192,8212,1,0,0:0:0:0:
320,192,8346,1,0,0:0:0:0:
64,192,8346,1,0,0:0:0:0:
448,192,8479,1,0,0:0:0:0:
320,192,8479,1,0,0:0:0:0:
192,192,8613,1,0,0:0:0:0:
64,192,8613,1,0,0:0:0:0:
448,192,8680,1,0,0:0:0:0:
320,192,8747,1,0,0:0:0:0:
192,192,8747,1,0,0:0:0:0:
448,192,8881,128,0,9015:0:0:0:0:
64,192,8881,128,0,9015:0:0:0:0:
320,192,9015,1,0,0:0:0:0:
192,192,9015,1,0,0:0:0:0:
192,192,9149,1,0,0:0:0:0:
64,192,9149,1,0,0:0:0:0:
448,192,9216,1,0,0:0:0:0:
320,192,9283,1,0,0:0:0:0:
64,192,9283,1,0,0:0:0:0:
448,192,9417,1,0,0:0:0:0:
320,192,9417,1,0,0:0:0:0:
448,192,9551,1,0,0:0:0:0:
192,192,9551,1,0,0:0:0:0:
192,192,9685,1,0,0:0:0:0:
64,192,9685,1,0,0:0:0:0:
448,192,9752,1,0,0:0:0:0:
320,192,9819,1,0,0:0:0:0:
64,192,9819,1,0,0:0:0:0:
448,192,9953,1,0,0:0:0:0:
192,192,9953,1,0,0:0:0:0:
192,192,10087,1,0,0:0:0:0:
64,192,10087,1,0,0:0:0:0:
448,192,10221,1,0,0:0:0:0:
320,192,10221,1,0,0:0:0:0:
64,192,10287,1,0,0:0:0:0:
448,192,10354,1,0,0:0:0:0:
192,192,10354,1,0,0:0:0:0:
192,192,10488,1,0,0:0:0:0:
64,192,10488,1,0,0:0:0:0:
64,192,10622,1,0,0:0:0:0:
320,192,10622,1,0,0:0:0:0:
448,192,10756,1,0,0:0:0:0:
320,192,10756,1,0,0:0:0:0:
64,192,10823,1,0,0:0:0:0:
448,192,10890,1,0,0:0:0:0:
192,192,10890,1,0,0:0:0:0:
320,192,11024,1,0,0:0:0:0:
64,192,11024,1,0,0:0:0:0:
192,192,11158,1,0,0:0:0:0:
64,192,11158,1,0,0:0:0:0:
320,192,11292,1,0,0:0:0:0:
448,192,11292,1,0,0:0:0:0:
192,192,11359,1,0,0:0:0:0:
64,192,11426,1,0,0:0:0:0:
320,192,11426,1,0,0:0:0:0:
448,192,11560,1,0,0:0:0:0:
64,192,11560,1,0,0:0:0:0:
320,192,11694,1,0,0:0:0:0:
448,192,11694,1,0,0:0:0:0:
192,192,11828,1,0,0:0:0:0:
64,192,11828,1,0,0:0:0:0:
320,192,11895,1,0,0:0:0:0:
448,192,11962,1,0,0:0:0:0:
64,192,11962,1,0,0:0:0:0:
320,192,12096,1,0,0:0:0:0:
192,192,12096,1,0,0:0:0:0:
64,192,12162,1,0,0:0:0:0:
448,192,12229,1,0,0:0:0:0:
192,192,12263,1,0,0:0:0:0:
320,192,12296,1,0,0:0:0:0:
64,192,12363,1,0,0:0:0:0:
448,192,12363,1,0,0:0:0:0:
192,192,12430,1,0,0:0:0:0:
320,192,12497,1,0,0:0:0:0:
64,192,12497,1,0,0:0:0:0:
192,192,12631,1,0,0:0:0:0:
320,192,12631,1,0,0:0:0:0:
64,192,12765,1,0,0:0:0:0:
448,192,12765,1,0,0:0:0:0:
192,192,12832,1,0,0:0:0:0:
448,192,12899,1,0,0:0:0:0:
320,192,12899,1,0,0:0:0:0:
64,192,12966,1,0,0:0:0:0:
320,192,13033,1,0,0:0:0:0:
192,192,13033,1,0,0:0:0:0:
448,192,13100,1,0,0:0:0:0:
192,192,13167,1,0,0:0:0:0:
64,192,13167,1,0,0:0:0:0:
320,192,13234,1,0,0:0:0:0:
64,192,13301,1,0,0:0:0:0:
448,192,13301,1,0,0:0:0:0:
192,192,13368,1,0,0:0:0:0:
448,192,13435,1,0,0:0:0:0:
320,192,13435,1,0,0:0:0:0:
64,192,13502,1,0,0:0:0:0:
192,192,13569,1,0,0:0:0:0:
320,192,13569,1,0,0:0:0:0:
64,192,13636,1,0,0:0:0:0:
448,192,13703,1,0,0:0:0:0:
320,192,13703,1,0,0:0:0:0:
192,192,13770,1,0,0:0:0:0:
448,192,13837,1,0,0:0:0:0:
64,192,13837,1,0,0:0:0:0:
320,192,13904,1,0,0:0:0:0:
64,192,13971,1,0,0:0:0:0:
192,192,13971,1,0,0:0:0:0:
320,192,14037,1,0,0:0:0:0:
64,192,14104,1,0,0:0:0:0:
448,192,14104,1,0,0:0:0:0:
192,192,14171,1,0,0:0:0:0:
448,192,14238,1,0,0:0:0:0:
320,192,14238,1,0,0:0:0:0:
64,192,14305,1,0,0:0:0:0:
448,192,14372,1,0,0:0:0:0:
320,192,14372,1,0,0:0:0:0:
192,192,14439,1,0,0:0:0:0:
64,192,14506,1,0,0:0:0:0:
320,192,14573,1,0,0:0:0:0:
64,192,14640,1,0,0:0:0:0:
192,192,14640,1,0,0:0:0:0:
448,192,14707,1,0,0:0:0:0:
192,192,14774,1,0,0:0:0:0:
64,192,14774,1,0,0:0:0:0:
320,192,14841,1,0,0:0:0:0:
448,192,14908,1,0,0:0:0:0:
192,192,14975,1,0,0:0:0:0:
448,192,15042,1,0,0:0:0:0:
320,192,15042,1,0,0:0:0:0:
192,192,15109,1,0,0:0:0:0:
64,192,15109,1,0,0:0:0:0:
320,192,15176,1,0,0:0:0:0:
448,192,15176,1,0,0:0:0:0:
64,192,15243,1,0,0:0:0:0:
192,192,15243,1,0,0:0:0:0:
320,192,15310,128,0,15578:0:0:0:0:
448,192,15310,1,0,0:0:0:0:
192,192,15578,1,0,0:0:0:0:
448,192,15578,1,0,0:0:0:0:
64,192,15645,1,0,0:0:0:0:
192,192,15712,1,0,0:0:0:0:
448,192,15712,1,0,0:0:0:0:
64,192,15846,1,0,0:0:0:0:
320,192,15846,1,0,0:0:0:0:
64,192,15979,1,0,0:0:0:0:
320,192,15979,1,0,0:0:0:0:
192,192,16113,1,0,0:0:0:0:
448,192,16113,1,0,0:0:0:0:
320,192,16180,1,0,0:0:0:0:
64,192,16247,1,0,0:0:0:0:
192,192,16247,1,0,0:0:0:0:
448,192,16381,1,0,0:0:0:0:
64,192,16381,1,0,0:0:0:0:
192,192,16515,1,0,0:0:0:0:
448,192,16515,1,0,0:0:0:0:
64,192,16649,1,0,0:0:0:0:
320,192,16649,1,0,0:0:0:0:
448,192,16716,1,0,0:0:0:0:
64,192,16783,1,0,0:0:0:0:
320,192,16783,1,0,0:0:0:0:
448,192,16917,1,0,0:0:0:0:
192,192,16917,1,0,0:0:0:0:
192,192,17051,1,0,0:0:0:0:
448,192,17051,1,0,0:0:0:0:
64,192,17185,1,0,0:0:0:0:
320,192,17185,1,0,0:0:0:0:
192,192,17252,1,0,0:0:0:0:
448,192,17319,1,0,0:0:0:0:
320,192,17319,1,0,0:0:0:0:
64,192,17453,1,0,0:0:0:0:
192,192,17453,1,0,0:0:0:0:
320,192,17587,1,0,0:0:0:0:
192,192,17587,1,0,0:0:0:0:
64,192,17721,1,0,0:0:0:0:
448,192,17721,1,0,0:0:0:0:
192,192,17787,1,0,0:0:0:0:
64,192,17854,1,0,0:0:0:0:
448,192,17854,1,0,0:0:0:0:
192,192,17988,1,0,0:0:0:0:
320,192,17988,1,0,0:0:0:0:
192,192,18122,1,0,0:0:0:0:
320,192,18122,1,0,0:0:0:0:
64,192,18256,1,0,0:0:0:0:
448,192,18256,1,0,0:0:0:0:
320,192,18323,1,0,0:0:0:0:
64,192,18390,1,0,0:0:0:0:
192,192,18390,1,0,0:0:0:0:
64,192,18524,1,0,0:0:0:0:
448,192,18524,1,0,0:0:0:0:
192,192,18591,1,0,0:0:0:0:
448,192,18658,1,0,0:0:0:0:
192,192,18725,1,0,0:0:0:0:
64,192,18792,1,0,0:0:0:0:
448,192,18792,1,0,0:0:0:0:
320,192,18859,1,0,0:0:0:0:
64,192,18926,1,0,0:0:0:0:
320,192,18993,1,0,0:0:0:0:
192,192,19060,1,0,0:0:0:0:
64,192,19060,1,0,0:0:0:0:
448,192,19127,1,0,0:0:0:0:
192,192,19194,1,0,0:0:0:0:
320,192,19194,1,0,0:0:0:0:
64,192,19261,1,0,0:0:0:0:
448,192,19328,128,0,19596:0:0:0:0:
320,192,19328,1,0,0:0:0:0:
192,192,19596,1,0,0:0:0:0:
64,192,19596,1,0,0:0:0:0:
320,192,19863,1,0,0:0:0:0:
448,192,19863,1,0,0:0:0:0:
64,192,19930,1,0,0:0:0:0:
192,192,19997,1,0,0:0:0:0:
320,192,19997,1,0,0:0:0:0:
192,192,20131,1,0,0:0:0:0:
448,192,20131,1,0,0:0:0:0:
64,192,20265,1,0,0:0:0:0:
448,192,20265,1,0,0:0:0:0:
64,192,20399,1,0,0:0:0:0:
192,192,20399,1,0,0:0:0:0:
448,192,20466,1,0,0:0:0:0:
192,192,20533,1,0,0:0:0:0:
320,192,20533,1,0,0:0:0:0:
64,192,20667,1,0,0:0:0:0:
320,192,20667,1,0,0:0:0:0:
64,192,20801,1,0,0:0:0:0:
448,192,20801,1,0,0:0:0:0:
320,192,20935,1,0,0:0:0:0:
448,192,20935,1,0,0:0:0:0:
64,192,21002,1,0,0:0:0:0:
320,192,21069,1,0,0:0:0:0:
192,192,21069,1,0,0:0:0:0:
192,192,21203,1,0,0:0:0:0:
448,192,21203,1,0,0:0:0:0:
64,192,21337,1,0,0:0:0:0:
448,192,21337,1,0,0:0:0:0:
64,192,21471,1,0,0:0:0:0:
192,192,21471,1,0,0:0:0:0:
448,192,21537,1,0,0:0:0:0:
192,192,21604,1,0,0:0:0:0:
320,192,21604,1,0,0:0:0:0:
320,192,21738,1,0,0:0:0:0:
448,192,21805,1,0,0:0:0:0:
64,192,21872,1,0,0:0:0:0:
192,192,21872,1,0,0:0:0:0:
448,192,21939,1,0,0:0:0:0:
192,192,22006,1,0,0:0:0:0:
64,192,22073,1,0,0:0:0:0:
448,192,22140,1,0,0:0:0:0:
320,192,22140,1,0,0:0:0:0:
64,192,22207,1,0,0:0:0:0:
320,192,22274,1,0,0:0:0:0:
448,192,22341,1,0,0:0:0:0:
192,192,22408,1,0,0:0:0:0:
64,192,22408,1,0,0:0:0:0:
448,192,22475,1,0,0:0:0:0:
192,192,22542,1,0,0:0:0:0:
64,192,22609,1,0,0:0:0:0:
320,192,22676,1,0,0:0:0:0:
448,192,22676,1,0,0:0:0:0:
64,192,22743,1,0,0:0:0:0:
320,192,22810,1,0,0:0:0:0:
192,192,22810,1,0,0:0:0:0:
192,192,22944,1,0,0:0:0:0:
64,192,22944,1,0,0:0:0:0:
448,192,23078,1,0,0:0:0:0:
320,192,23078,1,0,0:0:0:0:
64,192,23145,1,0,0:0:0:0:
448,192,23212,1,0,0:0:0:0:
192,192,23212,1,0,0:0:0:0:
448,192,23339,1,0,0:0:0:0:
320,192,23339,1,0,0:0:0:0:
64,192,23405,1,0,0:0:0:0:
192,192,23405,1,0,0:0:0:0:
448,192,23472,1,0,0:0:0:0:
320,192,23539,1,0,0:0:0:0:
64,192,23606,1,0,0:0:0:0:
192,192,23606,1,0,0:0:0:0:
448,192,23673,1,0,0:0:0:0:
192,192,23740,1,0,0:0:0:0:
64,192,23740,1,0,0:0:0:0:
448,192,23807,1,0,0:0:0:0:
320,192,23807,1,0,0:0:0:0:
192,192,23874,128,0,24141:0:0:0:0:
64,192,23874,1,0,0:0:0:0:
320,192,24141,1,0,0:0:0:0:
64,192,24141,1,0,0:0:0:0:
448,192,24208,1,0,0:0:0:0:
320,192,24275,1,0,0:0:0:0:
64,192,24275,1,0,0:0:0:0:
448,192,24409,1,0,0:0:0:0:
192,192,24409,1,0,0:0:0:0:
448,192,24543,1,0,0:0:0:0:
192,192,24543,1,0,0:0:0:0:
320,192,24677,1,0,0:0:0:0:
64,192,24677,1,0,0:0:0:0:
192,192,24744,1,0,0:0:0:0:
448,192,24811,1,0,0:0:0:0:
320,192,24811,1,0,0:0:0:0:
64,192,24945,1,0,0:0:0:0:
448,192,24945,1,0,0:0:0:0:
320,192,25079,1,0,0:0:0:0:
64,192,25079,1,0,0:0:0:0:
448,192,25213,1,0,0:0:0:0:
192,192,25213,1,0,0:0:0:0:
64,192,25280,1,0,0:0:0:0:
448,192,25347,1,0,0:0:0:0:
192,192,25347,1,0,0:0:0:0:
64,192,25481,1,0,0:0:0:0:
320,192,25481,1,0,0:0:0:0:
320,192,25615,1,0,0:0:0:0:
64,192,25615,1,0,0:0:0:0:
448,192,25749,1,0,0:0:0:0:
192,192,25749,1,0,0:0:0:0:
320,192,25815,1,0,0:0:0:0:
64,192,25882,1,0,0:0:0:0:
192,192,25882,1,0,0:0:0:0:
448,192,26016,1,0,0:0:0:0:
320,192,26016,1,0,0:0:0:0:
192,192,26150,1,0,0:0:0:0:
320,192,26150,1,0,0:0:0:0:
448,192,26284,1,0,0:0:0:0:
64,192,26284,1,0,0:0:0:0:
320,192,26351,1,0,0:0:0:0:
448,192,26418,1,0,0:0:0:0:
64,192,26418,1,0,0:0:0:0:
320,192,26552,1,0,0:0:0:0:
192,192,26552,1,0,0:0:0:0:
320,192,26686,1,0,0:0:0:0:
192,192,26686,1,0,0:0:0:0:
448,192,26820,1,0,0:0:0:0:
64,192,26820,1,0,0:0:0:0:
192,192,26887,1,0,0:0:0:0:
448,192,26954,1,0,0:0:0:0:
320,192,26954,1,0,0:0:0:0:
192,192,27088,1,0,0:0:0:0:
64,192,27088,128,0,27222:0:0:0:0:
448,192,27155,1,0,0:0:0:0:
320,192,27222,1,0,0:0:0:0:
192,192,27289,1,0,0:0:0:0:
448,192,27356,128,0,27490:0:0:0:0:
320,192,27356,1,0,0:0:0:0:
64,192,27423,1,0,0:0:0:0:
192,192,27490,1,0,0:0:0:0:
320,192,27557,1,0,0:0:0:0:
64,192,27624,128,0,27891:0:0:0:0:
192,192,27624,1,0,0:0:0:0:
448,192,27690,1,0,0:0:0:0:
320,192,27757,1,0,0:0:0:0:
192,192,27824,1,0,0:0:0:0:
448,192,27891,1,0,0:0:0:0:
320,192,27891,1,0,0:0:0:0:
64,192,28025,1,0,0:0:0:0:
192,192,28092,1,0,0:0:0:0:
320,192,28159,128,0,28427:0:0:0:0:
448,192,28159,1,0,0:0:0:0:
192,192,28427,1,0,0:0:0:0:
64,192,28427,1,0,0:0:0:0:
448,192,28494,1,0,0:0:0:0:
320,192,28561,1,0,0:0:0:0:
192,192,28561,1,0,0:0:0:0:
320,192,28695,1,0,0:0:0:0:
64,192,28695,1,0,0:0:0:0:
448,192,28829,1,0,0:0:0:0:
64,192,28829,1,0,0:0:0:0:
448,192,28963,1,0,0:0:0:0:
320,192,28963,1,0,0:0:0:0:
64,192,29030,1,0,0:0:0:0:
320,192,29097,1,0,0:0:0:0:
192,192,29097,1,0,0:0:0:0:
448,192,29231,1,0,0:0:0:0:
192,192,29231,1,0,0:0:0:0:
448,192,29365,1,0,0:0:0:0:
64,192,29365,1,0,0:0:0:0:
192,192,29499,1,0,0:0:0:0:
64,192,29499,1,0,0:0:0:0:
448,192,29565,1,0,0:0:0:0:
192,192,29632,1,0,0:0:0:0:
320,192,29632,1,0,0:0:0:0:
320,192,29766,1,0,0:0:0:0:
64,192,29766,1,0,0:0:0:0:
448,192,29900,1,0,0:0:0:0:
64,192,29900,1,0,0:0:0:0:
448,192,30034,1,0,0:0:0:0:
320,192,30034,1,0,0:0:0:0:
64,192,30101,1,0,0:0:0:0:
320,192,30168,1,0,0:0:0:0:
192,192,30168,1,0,0:0:0:0:
192,192,30302,1,0,0:0:0:0:
448,192,30302,1,0,0:0:0:0:
448,192,30436,1,0,0:0:0:0:
320,192,30436,1,0,0:0:0:0:
64,192,30503,1,0,0:0:0:0:
320,192,30570,1,0,0:0:0:0:
448,192,30637,1,0,0:0:0:0:
64,192,30704,1,0,0:0:0:0:
192,192,30704,1,0,0:0:0:0:
448,192,30771,1,0,0:0:0:0:
192,192,30838,1,0,0:0:0:0:
64,192,30905,1,0,0:0:0:0:
320,192,30972,1,0,0:0:0:0:
448,192,30972,1,0,0:0:0:0:
64,192,31039,1,0,0:0:0:0:
320,192,31106,1,0,0:0:0:0:
448,192,31173,1,0,0:0:0:0:
192,192,31240,1,0,0:0:0:0:
64,192,31240,1,0,0:0:0:0:
448,192,31307,1,0,0:0:0:0:
192,192,31374,1,0,0:0:0:0:
320,192,31374,1,0,0:0:0:0:
64,192,31440,1,0,0:0:0:0:
320,192,31507,1,0,0:0:0:0:
448,192,31507,1,0,0:0:0:0:
64,192,31641,1,0,0:0:0:0:
192,192,31641,1,0,0:0:0:0:
448,192,31708,1,0,0:0:0:0:
320,192,31775,1,0,0:0:0:0:
192,192,31775,1,0,0:0:0:0:
448,192,31909,1,0,0:0:0:0:
64,192,31909,1,0,0:0:0:0:
320,192,31976,1,0,0:0:0:0:
64,192,32043,1,0,0:0:0:0:
192,192,32110,1,0,0:0:0:0:
448,192,32177,1,0,0:0:0:0:
320,192,32177,1,0,0:0:0:0:
64,192,32244,1,0,0:0:0:0:
320,192,32311,1,0,0:0:0:0:
448,192,32311,1,0,0:0:0:0:
64,192,32378,1,0,0:0:0:0:
192,192,32378,1,0,0:0:0:0:
320,192,32445,128,0,32713:0:0:0:0:
448,192,32445,1,0,0:0:0:0:
64,192,32713,1,0,0:0:0:0:
448,192,32713,1,0,0:0:0:0:
192,192,32780,1,0,0:0:0:0:
448,192,32847,1,0,0:0:0:0:
64,192,32847,1,0,0:0:0:0:
192,192,32981,1,0,0:0:0:0:
448,192,32981,1,0,0:0:0:0:
448,192,33115,1,0,0:0:0:0:
192,192,33115,1,0,0:0:0:0:
448,192,33249,1,0,0:0:0:0:
320,192,33249,1,0,0:0:0:0:
64,192,33315,1,0,0:0:0:0:
320,192,33382,1,0,0:0:0:0:
192,192,33382,1,0,0:0:0:0:
192,192,33516,128,0,33784:0:0:0:0:
64,192,33516,1,0,0:0:0:0:
448,192,33784,1,0,0:0:0:0:
64,192,33784,1,0,0:0:0:0:
320,192,33851,1,0,0:0:0:0:
448,192,33918,1,0,0:0:0:0:
64,192,33918,1,0,0:0:0:0:
320,192,34052,1,0,0:0:0:0:
64,192,34052,1,0,0:0:0:0:
320,192,34186,1,0,0:0:0:0:
64,192,34186,1,0,0:0:0:0:
192,192,34320,1,0,0:0:0:0:
64,192,34320,1,0,0:0:0:0:
448,192,34387,1,0,0:0:0:0:
192,192,34454,1,0,0:0:0:0:
320,192,34454,1,0,0:0:0:0:
448,192,34588,1,0,0:0:0:0:
320,192,34588,1,0,0:0:0:0:
192,192,34722,1,0,0:0:0:0:
448,192,34722,1,0,0:0:0:0:
320,192,34856,1,0,0:0:0:0:
64,192,34856,1,0,0:0:0:0:
192,192,34923,1,0,0:0:0:0:
320,192,34990,1,0,0:0:0:0:
64,192,34990,1,0,0:0:0:0:
192,192,35124,1,0,0:0:0:0:
448,192,35124,1,0,0:0:0:0:
192,192,35257,1,0,0:0:0:0:
448,192,35257,1,0,0:0:0:0:
64,192,35391,1,0,0:0:0:0:
448,192,35391,1,0,0:0:0:0:
320,192,35458,1,0,0:0:0:0:
192,192,35525,1,0,0:0:0:0:
64,192,35525,1,0,0:0:0:0:
448,192,35592,1,0,0:0:0:0:
320,192,35592,1,0,0:0:0:0:
192,192,35659,1,0,0:0:0:0:
64,192,35659,1,0,0:0:0:0:
320,192,35704,1,0,0:0:0:0:
64,192,35838,1,0,0:0:0:0:
320,192,35838,1,0,0:0:0:0:
192,192,36016,1,0,0:0:0:0:
448,192,36016,1,0,0:0:0:0:
448,192,36195,1,0,0:0:0:0:
320,192,36195,1,0,0:0:0:0:
192,192,36240,1,0,0:0:0:0:
192,192,36374,1,0,0:0:0:0:
448,192,36374,1,0,0:0:0:0:
64,192,36552,1,0,0:0:0:0:
320,192,36552,1,0,0:0:0:0:
64,192,36731,128,0,36999:0:0:0:0:
192,192,36731,1,0,0:0:0:0:
320,192,36999,1,0,0:0:0:0:
448,192,36999,1,0,0:0:0:0:
192,192,37065,1,0,0:0:0:0:
448,192,37132,1,0,0:0:0:0:
64,192,37132,1,0,0:0:0:0:
320,192,37266,1,0,0:0:0:0:
64,192,37266,1,0,0:0:0:0:
448,192,37400,1,0,0:0:0:0:
320,192,37400,1,0,0:0:0:0:
192,192,37534,1,0,0:0:0:0:
64,192,37534,1,0,0:0:0:0:
320,192,37601,1,0,0:0:0:0:
448,192,37668,1,0,0:0:0:0:
64,192,37668,1,0,0:0:0:0:
448,192,37802,1,0,0:0:0:0:
192,192,37802,1,0,0:0:0:0:
64,192,37936,1,0,0:0:0:0:
192,192,37936,1,0,0:0:0:0:
320,192,38070,1,0,0:0:0:0:
448,192,38070,1,0,0:0:0:0:
192,192,38137,1,0,0:0:0:0:
448,192,38204,1,0,0:0:0:0:
64,192,38204,1,0,0:0:0:0:
64,192,38338,1,0,0:0:0:0:
320,192,38338,1,0,0:0:0:0:
448,192,38472,1,0,0:0:0:0:
320,192,38472,1,0,0:0:0:0:
192,192,38606,1,0,0:0:0:0:
64,192,38606,1,0,0:0:0:0:
320,192,38673,1,0,0:0:0:0:
448,192,38740,1,0,0:0:0:0:
64,192,38740,1,0,0:0:0:0:
192,192,38874,1,0,0:0:0:0:
448,192,38874,1,0,0:0:0:0:
192,192,39007,1,0,0:0:0:0:
64,192,39007,1,0,0:0:0:0:
64,192,39141,1,0,0:0:0:0:
320,192,39141,1,0,0:0:0:0:
192,192,39208,1,0,0:0:0:0:
320,192,39275,1,0,0:0:0:0:
448,192,39275,1,0,0:0:0:0:
64,192,39409,1,0,0:0:0:0:
448,192,39409,1,0,0:0:0:0:
64,192,39543,1,0,0:0:0:0:
320,192,39543,1,0,0:0:0:0:
448,192,39677,1,0,0:0:0:0:
192,192,39677,1,0,0:0:0:0:
320,192,39744,1,0,0:0:0:0:
64,192,39811,1,0,0:0:0:0:
192,192,39811,1,0,0:0:0:0:
448,192,39945,1,0,0:0:0:0:
64,192,39945,1,0,0:0:0:0:
192,192,40079,1,0,0:0:0:0:
448,192,40079,1,0,0:0:0:0:
64,192,40213,1,0,0:0:0:0:
320,192,40213,1,0,0:0:0:0:
192,192,40280,1,0,0:0:0:0:
448,192,40347,1,0,0:0:0:0:
320,192,40347,1,0,0:0:0:0:
192,192,40481,1,0,0:0:0:0:
64,192,40481,1,0,0:0:0:0:
448,192,40548,1,0,0:0:0:0:
320,192,40548,1,0,0:0:0:0:
64,192,40615,1,0,0:0:0:0:
192,192,40615,1,0,0:0:0:0:
448,192,40682,1,0,0:0:0:0:
320,192,40682,1,0,0:0:0:0:
192,192,40749,1,0,0:0:0:0:
64,192,40749,1,0,0:0:0:0:
448,192,40815,1,0,0:0:0:0:
320,192,40882,1,0,0:0:0:0:
64,192,40949,1,0,0:0:0:0:
192,192,41024,128,0,41291:0:0:0:0:
320,192,41024,1,0,0:0:0:0:
448,192,41291,1,0,0:0:0:0:
64,192,41291,1,0,0:0:0:0:
320,192,41358,1,0,0:0:0:0:
64,192,41425,1,0,0:0:0:0:
448,192,41425,1,0,0:0:0:0:
320,192,41559,1,0,0:0:0:0:
64,192,41559,1,0,0:0:0:0:
64,192,41693,1,0,0:0:0:0:
320,192,41693,1,0,0:0:0:0:
64,192,41827,1,0,0:0:0:0:
192,192,41827,1,0,0:0:0:0:
320,192,41894,1,0,0:0:0:0:
192,192,41961,1,0,0:0:0:0:
448,192,41961,1,0,0:0:0:0:
64,192,42095,1,0,0:0:0:0:
448,192,42095,1,0,0:0:0:0:
192,192,42229,1,0,0:0:0:0:
320,192,42229,1,0,0:0:0:0:
64,192,42363,1,0,0:0:0:0:
448,192,42363,1,0,0:0:0:0:
192,192,42430,1,0,0:0:0:0:
64,192,42497,1,0,0:0:0:0:
448,192,42497,1,0,0:0:0:0:
192,192,42631,1,0,0:0:0:0:
448,192,42631,1,0,0:0:0:0:
192,192,42765,1,0,0:0:0:0:
448,192,42765,1,0,0:0:0:0:
320,192,42899,1,0,0:0:0:0:
448,192,42899,1,0,0:0:0:0:
192,192,42965,1,0,0:0:0:0:
320,192,43032,1,0,0:0:0:0:
64,192,43032,1,0,0:0:0:0:
64,192,43166,1,0,0:0:0:0:
448,192,43166,1,0,0:0:0:0:
320,192,43300,1,0,0:0:0:0:
192,192,43300,1,0,0:0:0:0:
64,192,43434,1,0,0:0:0:0:
448,192,43434,1,0,0:0:0:0:
320,192,43501,1,0,0:0:0:0:
192,192,43568,1,0,0:0:0:0:
448,192,43568,1,0,0:0:0:0:
320,192,43702,1,0,0:0:0:0:
64,192,43702,1,0,0:0:0:0:
320,192,43836,1,0,0:0:0:0:
64,192,43836,1,0,0:0:0:0:
448,192,43970,1,0,0:0:0:0:
64,192,43970,1,0,0:0:0:0:
192,192,44037,1,0,0:0:0:0:
320,192,44104,1,0,0:0:0:0:
448,192,44104,1,0,0:0:0:0:
64,192,44238,128,0,44372:0:0:0:0:
192,192,44238,1,0,0:0:0:0:
448,192,44372,1,0,0:0:0:0:
320,192,44372,1,0,0:0:0:0:
192,192,44506,128,0,44640:0:0:0:0:
64,192,44506,1,0,0:0:0:0:
320,192,44573,1,0,0:0:0:0:
64,192,44640,1,0,0:0:0:0:
448,192,44640,1,0,0:0:0:0:
448,192,44774,128,0,44907:0:0:0:0:
320,192,44774,1,0,0:0:0:0:
64,192,44907,128,0,45041:0:0:0:0:
192,192,44907,1,0,0:0:0:0:
320,192,45041,128,0,45175:0:0:0:0:
448,192,45041,1,0,0:0:0:0:
192,192,45108,1,0,0:0:0:0:
64,192,45175,1,0,0:0:0:0:
448,192,45175,1,0,0:0:0:0:
320,192,45242,1,0,0:0:0:0:
64,192,45309,128,0,45577:0:0:0:0:
192,192,45309,1,0,0:0:0:0:
320,192,45577,1,0,0:0:0:0:
448,192,45577,1,0,0:0:0:0:
192,192,45644,1,0,0:0:0:0:
448,192,45711,1,0,0:0:0:0:
64,192,45711,1,0,0:0:0:0:
320,192,45845,1,0,0:0:0:0:
64,192,45845,1,0,0:0:0:0:
448,192,45979,1,0,0:0:0:0:
320,192,45979,1,0,0:0:0:0:
192,192,46113,1,0,0:0:0:0:
64,192,46113,1,0,0:0:0:0:
448,192,46180,1,0,0:0:0:0:
320,192,46247,1,0,0:0:0:0:
64,192,46247,1,0,0:0:0:0:
192,192,46381,1,0,0:0:0:0:
64,192,46381,1,0,0:0:0:0:
192,192,46515,1,0,0:0:0:0:
320,192,46515,1,0,0:0:0:0:
320,192,46649,1,0,0:0:0:0:
448,192,46649,1,0,0:0:0:0:
192,192,46715,1,0,0:0:0:0:
448,192,46782,1,0,0:0:0:0:
64,192,46782,1,0,0:0:0:0:
64,192,46916,1,0,0:0:0:0:
320,192,46916,1,0,0:0:0:0:
448,192,47050,1,0,0:0:0:0:
320,192,47050,1,0,0:0:0:0:
192,192,47184,1,0,0:0:0:0:
64,192,47184,1,0,0:0:0:0:
320,192,47251,1,0,0:0:0:0:
448,192,47318,1,0,0:0:0:0:
64,192,47318,1,0,0:0:0:0:
192,192,47452,1,0,0:0:0:0:
448,192,47452,1,0,0:0:0:0:
192,192,47586,1,0,0:0:0:0:
64,192,47586,1,0,0:0:0:0:
64,192,47720,1,0,0:0:0:0:
320,192,47720,1,0,0:0:0:0:
192,192,47787,1,0,0:0:0:0:
320,192,47854,1,0,0:0:0:0:
448,192,47854,1,0,0:0:0:0:
64,192,47988,1,0,0:0:0:0:
448,192,47988,1,0,0:0:0:0:
64,192,48122,1,0,0:0:0:0:
320,192,48122,1,0,0:0:0:0:
448,192,48256,1,0,0:0:0:0:
192,192,48256,1,0,0:0:0:0:
320,192,48323,1,0,0:0:0:0:
64,192,48390,1,0,0:0:0:0:
192,192,48390,1,0,0:0:0:0:
448,192,48524,128,0,48657:0:0:0:0:
320,192,48524,1,0,0:0:0:0:
192,192,48657,1,0,0:0:0:0:
64,192,48657,1,0,0:0:0:0:
64,192,48791,1,0,0:0:0:0:
320,192,48791,1,0,0:0:0:0:
192,192,48858,1,0,0:0:0:0:
320,192,48925,128,0,49059:0:0:0:0:
448,192,48925,1,0,0:0:0:0:
192,192,49059,1,0,0:0:0:0:
64,192,49059,1,0,0:0:0:0:
448,192,49126,1,0,0:0:0:0:
320,192,49126,1,0,0:0:0:0:
64,192,49193,1,0,0:0:0:0:
192,192,49193,1,0,0:0:0:0:
448,192,49260,1,0,0:0:0:0:
320,192,49260,1,0,0:0:0:0:
192,192,49327,1,0,0:0:0:0:
64,192,49327,1,0,0:0:0:0:
448,192,49394,1,0,0:0:0:0:
320,192,49461,1,0,0:0:0:0:
192,192,49528,1,0,0:0:0:0:
320,192,49595,1,0,0:0:0:0:
448,192,49595,128,0,49863:0:0:0:0:
64,192,49863,1,0,0:0:0:0:
192,192,49863,1,0,0:0:0:0:
320,192,49930,1,0,0:0:0:0:
448,192,49997,1,0,0:0:0:0:
64,192,49997,1,0,0:0:0:0:
448,192,50131,1,0,0:0:0:0:
192,192,50131,1,0,0:0:0:0:
192,192,50265,1,0,0:0:0:0:
64,192,50265,1,0,0:0:0:0:
448,192,50399,1,0,0:0:0:0:
320,192,50399,1,0,0:0:0:0:
192,192,50465,1,0,0:0:0:0:
448,192,50532,1,0,0:0:0:0:
64,192,50532,1,0,0:0:0:0:
448,192,50666,1,0,0:0:0:0:
320,192,50666,1,0,0:0:0:0:
320,192,50800,1,0,0:0:0:0:
192,192,50800,1,0,0:0:0:0:
64,192,50934,1,0,0:0:0:0:
192,192,50934,1,0,0:0:0:0:
320,192,51001,1,0,0:0:0:0:
448,192,51068,1,0,0:0:0:0:
64,192,51068,1,0,0:0:0:0:
192,192,51202,1,0,0:0:0:0:
448,192,51202,1,0,0:0:0:0:
192,192,51336,1,0,0:0:0:0:
64,192,51336,1,0,0:0:0:0:
448,192,51470,1,0,0:0:0:0:
320,192,51470,1,0,0:0:0:0:
192,192,51537,1,0,0:0:0:0:
448,192,51604,1,0,0:0:0:0:
64,192,51604,1,0,0:0:0:0:
64,192,51738,1,0,0:0:0:0:
320,192,51738,1,0,0:0:0:0:
448,192,51872,1,0,0:0:0:0:
320,192,51872,1,0,0:0:0:0:
192,192,52006,1,0,0:0:0:0:
448,192,52006,1,0,0:0:0:0:
320,192,52073,1,0,0:0:0:0:
64,192,52140,1,0,0:0:0:0:
192,192,52140,1,0,0:0:0:0:
64,192,52274,1,0,0:0:0:0:
448,192,52274,1,0,0:0:0:0:
192,192,52407,1,0,0:0:0:0:
448,192,52407,1,0,0:0:0:0:
320,192,52541,1,0,0:0:0:0:
64,192,52541,1,0,0:0:0:0:
192,192,52608,1,0,0:0:0:0:
320,192,52675,1,0,0:0:0:0:
448,192,52675,1,0,0:0:0:0:
64,192,52809,1,0,0:0:0:0:
192,192,52809,1,0,0:0:0:0:
64,192,52943,1,0,0:0:0:0:
320,192,52943,1,0,0:0:0:0:
192,192,53077,1,0,0:0:0:0:
448,192,53077,1,0,0:0:0:0:
320,192,53144,1,0,0:0:0:0:
192,192,53211,1,0,0:0:0:0:
64,192,53211,1,0,0:0:0:0:
448,192,53345,1,0,0:0:0:0:
320,192,53345,1,0,0:0:0:0:
192,192,53412,1,0,0:0:0:0:
64,192,53412,1,0,0:0:0:0:
320,192,53479,1,0,0:0:0:0:
448,192,53479,1,0,0:0:0:0:
192,192,53546,1,0,0:0:0:0:
64,192,53546,1,0,0:0:0:0:
448,192,53613,1,0,0:0:0:0:
320,192,53613,1,0,0:0:0:0:
64,192,53680,1,0,0:0:0:0:
192,192,53747,1,0,0:0:0:0:
320,192,53814,1,0,0:0:0:0:
448,192,53881,128,0,54149:0:0:0:0:
192,192,53881,1,0,0:0:0:0:
320,192,54149,1,0,0:0:0:0:
192,192,54149,1,0,0:0:0:0:
448,192,54215,1,0,0:0:0:0:
64,192,54282,1,0,0:0:0:0:
192,192,54282,1,0,0:0:0:0:
320,192,54416,1,0,0:0:0:0:
64,192,54416,1,0,0:0:0:0:
192,192,54550,1,0,0:0:0:0:
448,192,54550,1,0,0:0:0:0:
320,192,54684,128,0,54751:0:0:0:0:
448,192,54684,1,0,0:0:0:0:
64,192,54751,1,0,0:0:0:0:
192,192,54818,128,0,54885:0:0:0:0:
320,192,54818,1,0,0:0:0:0:
64,192,54952,128,0,55220:0:0:0:0:
192,192,54952,1,0,0:0:0:0:
320,192,55086,1,0,0:0:0:0:
448,192,55086,1,0,0:0:0:0:
448,192,55220,1,0,0:0:0:0:
192,192,55220,1,0,0:0:0:0:
320,192,55287,1,0,0:0:0:0:
64,192,55354,1,0,0:0:0:0:
192,192,55354,1,0,0:0:0:0:
320,192,55488,1,0,0:0:0:0:
448,192,55488,1,0,0:0:0:0:
64,192,55622,1,0,0:0:0:0:
320,192,55622,1,0,0:0:0:0:
192,192,55756,128,0,55823:0:0:0:0:
64,192,55756,1,0,0:0:0:0:
320,192,55890,128,0,55957:0:0:0:0:
192,192,55890,1,0,0:0:0:0:
448,192,56024,128,0,56157:0:0:0:0:
320,192,56024,1,0,0:0:0:0:
192,192,56157,1,0,0:0:0:0:
64,192,56157,1,0,0:0:0:0:
448,192,56224,128,0,56358:0:0:0:0:
64,192,56291,1,0,0:0:0:0:
320,192,56291,1,0,0:0:0:0:
192,192,56358,1,0,0:0:0:0:
320,192,56425,1,0,0:0:0:0:
448,192,56425,128,0,56559:0:0:0:0:
192,192,56559,1,0,0:0:0:0:
64,192,56559,128,0,56693:0:0:0:0:
448,192,56693,1,0,0:0:0:0:
320,192,56693,1,0,0:0:0:0:
64,192,56760,128,0,56894:0:0:0:0:
448,192,56827,1,0,0:0:0:0:
192,192,56827,1,0,0:0:0:0:
320,192,56894,1,0,0:0:0:0:
192,192,56961,1,0,0:0:0:0:
64,192,56961,128,0,57095:0:0:0:0:
320,192,57095,1,0,0:0:0:0:
448,192,57095,128,0,57363:0:0:0:0:
192,192,57229,1,0,0:0:0:0:
64,192,57229,1,0,0:0:0:0:
320,192,57363,1,0,0:0:0:0:
64,192,57363,1,0,0:0:0:0:
192,192,57430,1,0,0:0:0:0:
448,192,57497,1,0,0:0:0:0:
320,192,57497,1,0,0:0:0:0:
192,192,57631,1,0,0:0:0:0:
64,192,57631,1,0,0:0:0:0:
448,192,57765,1,0,0:0:0:0:
320,192,57765,1,0,0:0:0:0:
448,192,57899,1,0,0:0:0:0:
192,192,57899,1,0,0:0:0:0:
320,192,57965,1,0,0:0:0:0:
64,192,58032,1,0,0:0:0:0:
192,192,58032,1,0,0:0:0:0:
448,192,58166,128,0,58434:0:0:0:0:
64,192,58166,1,0,0:0:0:0:
320,192,58434,1,0,0:0:0:0:
192,192,58434,1,0,0:0:0:0:
448,192,58501,1,0,0:0:0:0:
192,192,58568,1,0,0:0:0:0:
64,192,58568,128,0,58702:0:0:0:0:
448,192,58702,1,0,0:0:0:0:
320,192,58702,1,0,0:0:0:0:
64,192,58836,1,0,0:0:0:0:
192,192,58836,1,0,0:0:0:0:
320,192,58970,1,0,0:0:0:0:
448,192,58970,128,0,59104:0:0:0:0:
192,192,59037,1,0,0:0:0:0:
64,192,59104,1,0,0:0:0:0:
320,192,59104,1,0,0:0:0:0:
64,192,59238,128,0,59372:0:0:0:0:
448,192,59238,1,0,0:0:0:0:
448,192,59372,1,0,0:0:0:0:
192,192,59372,1,0,0:0:0:0:
192,192,59506,1,0,0:0:0:0:
320,192,59506,1,0,0:0:0:0:
64,192,59573,1,0,0:0:0:0:
320,192,59640,1,0,0:0:0:0:
448,192,59640,128,0,59774:0:0:0:0:
64,192,59774,1,0,0:0:0:0:
192,192,59774,1,0,0:0:0:0:
448,192,59907,1,0,0:0:0:0:
320,192,59907,1,0,0:0:0:0:
192,192,60041,1,0,0:0:0:0:
64,192,60041,128,0,60175:0:0:0:0:
320,192,60108,1,0,0:0:0:0:
448,192,60175,1,0,0:0:0:0:
192,192,60175,1,0,0:0:0:0:
64,192,60309,1,0,0:0:0:0:
448,192,60309,128,0,60443:0:0:0:0:
192,192,60443,1,0,0:0:0:0:
320,192,60443,1,0,0:0:0:0:
320,192,60577,1,0,0:0:0:0:
448,192,60577,1,0,0:0:0:0:
64,192,60644,1,0,0:0:0:0:
448,192,60711,1,0,0:0:0:0:
192,192,60711,128,0,60845:0:0:0:0:
64,192,60845,1,0,0:0:0:0:
320,192,60845,1,0,0:0:0:0:
192,192,60979,1,0,0:0:0:0:
64,192,60979,1,0,0:0:0:0:
448,192,61113,1,0,0:0:0:0:
320,192,61113,128,0,61247:0:0:0:0:
192,192,61180,1,0,0:0:0:0:
448,192,61247,1,0,0:0:0:0:
64,192,61247,1,0,0:0:0:0:
192,192,61381,1,0,0:0:0:0:
64,192,61381,1,0,0:0:0:0:
448,192,61448,1,0,0:0:0:0:
320,192,61448,1,0,0:0:0:0:
64,192,61515,1,0,0:0:0:0:
320,192,61582,1,0,0:0:0:0:
192,192,61649,1,0,0:0:0:0:
448,192,61715,1,0,0:0:0:0:
64,192,61782,1,0,0:0:0:0:
192,192,61782,1,0,0:0:0:0:
320,192,61849,1,0,0:0:0:0:
448,192,61849,1,0,0:0:0:0:
64,192,61916,1,0,0:0:0:0:
192,192,61983,1,0,0:0:0:0:
448,192,62050,1,0,0:0:0:0:
320,192,62050,1,0,0:0:0:0:
192,192,62117,1,0,0:0:0:0:
64,192,62117,1,0,0:0:0:0:
448,192,62184,1,0,0:0:0:0:
320,192,62184,1,0,0:0:0:0:
192,192,62251,1,0,0:0:0:0:
64,192,62251,1,0,0:0:0:0:
448,192,62318,1,0,0:0:0:0:
320,192,62385,1,0,0:0:0:0:
192,192,62452,128,0,62720:0:0:0:0:
64,192,62452,1,0,0:0:0:0:
448,192,62720,1,0,0:0:0:0:
64,192,62720,1,0,0:0:0:0:
320,192,62787,1,0,0:0:0:0:
448,192,62854,1,0,0:0:0:0:
64,192,62854,1,0,0:0:0:0:
192,192,62988,1,0,0:0:0:0:
448,192,62988,1,0,0:0:0:0:
320,192,63122,1,0,0:0:0:0:
64,192,63122,1,0,0:0:0:0:
192,192,63256,128,0,63323:0:0:0:0:
64,192,63256,1,0,0:0:0:0:
448,192,63323,1,0,0:0:0:0:
320,192,63390,128,0,63457:0:0:0:0:
192,192,63390,1,0,0:0:0:0:
448,192,63524,128,0,63791:0:0:0:0:
320,192,63524,1,0,0:0:0:0:
192,192,63657,1,0,0:0:0:0:
64,192,63657,1,0,0:0:0:0:
64,192,63791,1,0,0:0:0:0:
320,192,63791,1,0,0:0:0:0:
192,192,63858,1,0,0:0:0:0:
448,192,63925,1,0,0:0:0:0:
320,192,63925,1,0,0:0:0:0:
64,192,64059,1,0,0:0:0:0:
192,192,64059,1,0,0:0:0:0:
448,192,64193,1,0,0:0:0:0:
192,192,64193,1,0,0:0:0:0:
320,192,64327,128,0,64394:0:0:0:0:
448,192,64327,1,0,0:0:0:0:
64,192,64394,1,0,0:0:0:0:
192,192,64461,128,0,64528:0:0:0:0:
320,192,64461,1,0,0:0:0:0:
64,192,64595,128,0,64729:0:0:0:0:
192,192,64595,1,0,0:0:0:0:
448,192,64729,1,0,0:0:0:0:
320,192,64729,1,0,0:0:0:0:
64,192,64863,1,0,0:0:0:0:
192,192,64863,1,0,0:0:0:0:
320,192,64930,1,0,0:0:0:0:
448,192,64997,1,0,0:0:0:0:
192,192,64997,128,0,65131:0:0:0:0:
448,192,65131,1,0,0:0:0:0:
320,192,65131,1,0,0:0:0:0:
64,192,65265,1,0,0:0:0:0:
192,192,65265,1,0,0:0:0:0:
448,192,65399,1,0,0:0:0:0:
320,192,65399,128,0,65532:0:0:0:0:
192,192,65465,1,0,0:0:0:0:
64,192,65532,1,0,0:0:0:0:
448,192,65532,1,0,0:0:0:0:
64,192,65666,128,0,65800:0:0:0:0:
192,192,65666,1,0,0:0:0:0:
448,192,65800,1,0,0:0:0:0:
320,192,65800,1,0,0:0:0:0:
64,192,65867,128,0,66001:0:0:0:0:
320,192,65934,1,0,0:0:0:0:
192,192,65934,1,0,0:0:0:0:
448,192,66001,1,0,0:0:0:0:
64,192,66068,1,0,0:0:0:0:
192,192,66068,1,0,0:0:0:0:
320,192,66202,1,0,0:0:0:0:
448,192,66202,1,0,0:0:0:0:
192,192,66269,1,0,0:0:0:0:
64,192,66336,1,0,0:0:0:0:
320,192,66403,1,0,0:0:0:0:
192,192,66470,1,0,0:0:0:0:
64,192,66470,1,0,0:0:0:0:
320,192,66537,1,0,0:0:0:0:
448,192,66604,1,0,0:0:0:0:
192,192,66671,1,0,0:0:0:0:
320,192,66738,128,0,67006:0:0:0:0:
448,192,66738,1,0,0:0:0:0:
64,192,67006,1,0,0:0:0:0:
448,192,67073,1,0,0:0:0:0:
64,192,67140,1,0,0:0:0:0:
192,192,67140,1,0,0:0:0:0:
320,192,67207,1,0,0:0:0:0:
192,192,67274,1,0,0:0:0:0:
64,192,67340,1,0,0:0:0:0:
448,192,67407,1,0,0:0:0:0:
320,192,67407,1,0,0:0:0:0:
192,192,67474,1,0,0:0:0:0:
448,192,67541,1,0,0:0:0:0:
320,192,67608,1,0,0:0:0:0:
192,192,67675,1,0,0:0:0:0:
64,192,67675,1,0,0:0:0:0:
320,192,67742,1,0,0:0:0:0:
448,192,67809,1,0,0:0:0:0:
64,192,67876,1,0,0:0:0:0:
192,192,67943,1,0,0:0:0:0:
320,192,67943,1,0,0:0:0:0:
448,192,68010,1,0,0:0:0:0:
192,192,68077,1,0,0:0:0:0:
64,192,68144,1,0,0:0:0:0:
320,192,68211,1,0,0:0:0:0:
448,192,68211,1,0,0:0:0:0:
192,192,68278,1,0,0:0:0:0:
320,192,68345,1,0,0:0:0:0:
448,192,68412,1,0,0:0:0:0:
192,192,68479,1,0,0:0:0:0:
64,192,68479,1,0,0:0:0:0:
320,192,68546,1,0,0:0:0:0:
64,192,68613,1,0,0:0:0:0:
192,192,68680,1,0,0:0:0:0:
448,192,68747,1,0,0:0:0:0:
320,192,68747,1,0,0:0:0:0:
192,192,68814,1,0,0:0:0:0:
64,192,68881,1,0,0:0:0:0:
448,192,68881,1,0,0:0:0:0:
192,192,69015,1,0,0:0:0:0:
64,192,69015,1,0,0:0:0:0:
448,192,69082,1,0,0:0:0:0:
320,192,69149,1,0,0:0:0:0:
64,192,69215,1,0,0:0:0:0:
320,192,69282,1,0,0:0:0:0:
192,192,69282,1,0,0:0:0:0:
448,192,69349,1,0,0:0:0:0:
192,192,69416,1,0,0:0:0:0:
64,192,69483,1,0,0:0:0:0:
448,192,69550,1,0,0:0:0:0:
320,192,69550,1,0,0:0:0:0:
64,192,69617,1,0,0:0:0:0:
192,192,69684,1,0,0:0:0:0:
448,192,69751,1,0,0:0:0:0:
320,192,69818,1,0,0:0:0:0:
192,192,69818,1,0,0:0:0:0:
320,192,69952,1,0,0:0:0:0:
64,192,69952,1,0,0:0:0:0:
448,192,70019,1,0,0:0:0:0:
192,192,70086,1,0,0:0:0:0:
64,192,70086,1,0,0:0:0:0:
448,192,70153,1,0,0:0:0:0:
320,192,70153,1,0,0:0:0:0:
64,192,70220,1,0,0:0:0:0:
192,192,70220,1,0,0:0:0:0:
320,192,70287,1,0,0:0:0:0:
448,192,70354,1,0,0:0:0:0:
64,192,70421,1,0,0:0:0:0:
320,192,70488,1,0,0:0:0:0:
192,192,70488,1,0,0:0:0:0:
448,192,70555,1,0,0:0:0:0:
64,192,70622,1,0,0:0:0:0:
192,192,70689,1,0,0:0:0:0:
448,192,70756,1,0,0:0:0:0:
320,192,70756,1,0,0:0:0:0:
64,192,70823,1,0,0:0:0:0:
192,192,70890,1,0,0:0:0:0:
320,192,70957,1,0,0:0:0:0:
448,192,71024,1,0,0:0:0:0:
64,192,71024,1,0,0:0:0:0:
192,192,71157,1,0,0:0:0:0:
448,192,71157,1,0,0:0:0:0:
320,192,71291,1,0,0:0:0:0:
64,192,71291,1,0,0:0:0:0:
192,192,71358,1,0,0:0:0:0:
448,192,71425,1,0,0:0:0:0:
320,192,71425,1,0,0:0:0:0:
448,192,71559,1,0,0:0:0:0:
64,192,71559,1,0,0:0:0:0:
320,192,71693,1,0,0:0:0:0:
64,192,71693,1,0,0:0:0:0:
192,192,71827,1,0,0:0:0:0:
448,192,71827,1,0,0:0:0:0:
320,192,71894,1,0,0:0:0:0:
64,192,71961,1,0,0:0:0:0:
192,192,71961,1,0,0:0:0:0:
64,192,72095,1,0,0:0:0:0:
320,192,72095,1,0,0:0:0:0:
448,192,72229,1,0,0:0:0:0:
192,192,72229,1,0,0:0:0:0:
64,192,72363,1,0,0:0:0:0:
192,192,72363,1,0,0:0:0:0:
320,192,72430,1,0,0:0:0:0:
64,192,72497,1,0,0:0:0:0:
448,192,72497,1,0,0:0:0:0:
448,192,72631,1,0,0:0:0:0:
192,192,72631,1,0,0:0:0:0:
320,192,72765,1,0,0:0:0:0:
64,192,72765,1,0,0:0:0:0:
320,192,72899,1,0,0:0:0:0:
448,192,72899,1,0,0:0:0:0:
192,192,72965,1,0,0:0:0:0:
448,192,73032,1,0,0:0:0:0:
64,192,73032,1,0,0:0:0:0:
192,192,73166,1,0,0:0:0:0:
64,192,73166,1,0,0:0:0:0:
192,192,73300,1,0,0:0:0:0:
448,192,73300,1,0,0:0:0:0:
320,192,73434,1,0,0:0:0:0:
448,192,73434,1,0,0:0:0:0:
192,192,73501,1,0,0:0:0:0:
448,192,73568,1,0,0:0:0:0:
320,192,73568,1,0,0:0:0:0:
192,192,73702,1,0,0:0:0:0:
64,192,73702,1,0,0:0:0:0:
320,192,73836,1,0,0:0:0:0:
64,192,73836,1,0,0:0:0:0:
192,192,73970,1,0,0:0:0:0:
448,192,73970,1,0,0:0:0:0:
320,192,74037,1,0,0:0:0:0:
192,192,74104,1,0,0:0:0:0:
64,192,74104,1,0,0:0:0:0:
64,192,74238,1,0,0:0:0:0:
448,192,74238,1,0,0:0:0:0:
192,192,74305,1,0,0:0:0:0:
320,192,74372,1,0,0:0:0:0:
448,192,74372,1,0,0:0:0:0:
64,192,74506,1,0,0:0:0:0:
448,192,74506,1,0,0:0:0:0:
320,192,74573,1,0,0:0:0:0:
192,192,74640,1,0,0:0:0:0:
64,192,74640,1,0,0:0:0:0:
64,192,74774,1,0,0:0:0:0:
448,192,74774,1,0,0:0:0:0:
320,192,74840,1,0,0:0:0:0:
192,192,74907,1,0,0:0:0:0:
448,192,74907,1,0,0:0:0:0:
64,192,75041,1,0,0:0:0:0:
448,192,75041,1,0,0:0:0:0:
192,192,75108,1,0,0:0:0:0:
64,192,75175,1,0,0:0:0:0:
320,192,75175,1,0,0:0:0:0:
192,192,75309,1,0,0:0:0:0:
320,192,75309,1,0,0:0:0:0:
448,192,75443,1,0,0:0:0:0:
192,192,75443,1,0,0:0:0:0:
320,192,75577,1,0,0:0:0:0:
64,192,75577,1,0,0:0:0:0:
192,192,75644,1,0,0:0:0:0:
448,192,75711,1,0,0:0:0:0:
320,192,75711,1,0,0:0:0:0:
448,192,75845,1,0,0:0:0:0:
64,192,75845,1,0,0:0:0:0:
320,192,75979,1,0,0:0:0:0:
64,192,75979,1,0,0:0:0:0:
192,192,76113,1,0,0:0:0:0:
448,192,76113,1,0,0:0:0:0:
320,192,76180,1,0,0:0:0:0:
64,192,76247,1,0,0:0:0:0:
192,192,76247,1,0,0:0:0:0:
64,192,76381,1,0,0:0:0:0:
320,192,76381,1,0,0:0:0:0:
448,192,76515,1,0,0:0:0:0:
192,192,76515,1,0,0:0:0:0:
64,192,76649,1,0,0:0:0:0:
192,192,76649,1,0,0:0:0:0:
320,192,76715,1,0,0:0:0:0:
64,192,76782,1,0,0:0:0:0:
448,192,76782,1,0,0:0:0:0:
448,192,76916,1,0,0:0:0:0:
192,192,76916,1,0,0:0:0:0:
320,192,77050,1,0,0:0:0:0:
64,192,77050,1,0,0:0:0:0:
320,192,77184,1,0,0:0:0:0:
448,192,77184,1,0,0:0:0:0:
192,192,77251,1,0,0:0:0:0:
448,192,77318,1,0,0:0:0:0:
64,192,77318,1,0,0:0:0:0:
320,192,77452,1,0,0:0:0:0:
192,192,77452,1,0,0:0:0:0:
320,192,77586,1,0,0:0:0:0:
64,192,77586,1,0,0:0:0:0:
192,192,77720,1,0,0:0:0:0:
448,192,77720,1,0,0:0:0:0:
320,192,77787,1,0,0:0:0:0:
64,192,77854,1,0,0:0:0:0:
192,192,77854,1,0,0:0:0:0:
320,192,77988,1,0,0:0:0:0:
448,192,77988,1,0,0:0:0:0:
192,192,78122,1,0,0:0:0:0:
448,192,78122,1,0,0:0:0:0:
320,192,78256,1,0,0:0:0:0:
64,192,78256,1,0,0:0:0:0:
192,192,78323,1,0,0:0:0:0:
320,192,78390,1,0,0:0:0:0:
448,192,78390,1,0,0:0:0:0:
448,192,78524,1,0,0:0:0:0:
64,192,78524,1,0,0:0:0:0:
320,192,78590,1,0,0:0:0:0:
192,192,78657,1,0,0:0:0:0:
64,192,78657,1,0,0:0:0:0:
448,192,78791,1,0,0:0:0:0:
64,192,78791,1,0,0:0:0:0:
192,192,78858,1,0,0:0:0:0:
320,192,78925,1,0,0:0:0:0:
448,192,78925,1,0,0:0:0:0:
448,192,79059,1,0,0:0:0:0:
64,192,79059,1,0,0:0:0:0:
192,192,79126,1,0,0:0:0:0:
320,192,79193,1,0,0:0:0:0:
64,192,79193,1,0,0:0:0:0:
448,192,79327,1,0,0:0:0:0:
64,192,79327,1,0,0:0:0:0:
320,192,79394,1,0,0:0:0:0:
448,192,79461,1,0,0:0:0:0:
192,192,79461,1,0,0:0:0:0:
448,192,79595,1,0,0:0:0:0:
64,192,79595,1,0,0:0:0:0:
320,192,79729,1,0,0:0:0:0:
64,192,79729,1,0,0:0:0:0:
192,192,79863,1,0,0:0:0:0:
448,192,79863,1,0,0:0:0:0:
320,192,79930,1,0,0:0:0:0:
64,192,79997,1,0,0:0:0:0:
192,192,79997,1,0,0:0:0:0:
64,192,80131,1,0,0:0:0:0:
448,192,80131,1,0,0:0:0:0:
192,192,80265,1,0,0:0:0:0:
448,192,80265,1,0,0:0:0:0:
320,192,80399,1,0,0:0:0:0:
64,192,80399,1,0,0:0:0:0:
192,192,80465,1,0,0:0:0:0:
448,192,80532,1,0,0:0:0:0:
320,192,80532,1,0,0:0:0:0:
448,192,80666,1,0,0:0:0:0:
192,192,80666,1,0,0:0:0:0:
64,192,80800,1,0,0:0:0:0:
320,192,80800,1,0,0:0:0:0:
448,192,80934,1,0,0:0:0:0:
320,192,80934,1,0,0:0:0:0:
192,192,81001,1,0,0:0:0:0:
448,192,81068,1,0,0:0:0:0:
64,192,81068,1,0,0:0:0:0:
64,192,81202,1,0,0:0:0:0:
320,192,81202,1,0,0:0:0:0:
192,192,81336,1,0,0:0:0:0:
448,192,81336,1,0,0:0:0:0:
192,192,81470,1,0,0:0:0:0:
64,192,81470,1,0,0:0:0:0:
320,192,81537,1,0,0:0:0:0:
64,192,81604,1,0,0:0:0:0:
448,192,81604,1,0,0:0:0:0:
320,192,81738,1,0,0:0:0:0:
448,192,81738,1,0,0:0:0:0:
320,192,81872,1,0,0:0:0:0:
64,192,81872,1,0,0:0:0:0:
192,192,82006,1,0,0:0:0:0:
64,192,82006,1,0,0:0:0:0:
320,192,82073,1,0,0:0:0:0:
64,192,82140,1,0,0:0:0:0:
192,192,82140,1,0,0:0:0:0:
320,192,82274,1,0,0:0:0:0:
448,192,82274,1,0,0:0:0:0:
192,192,82407,1,0,0:0:0:0:
448,192,82407,1,0,0:0:0:0:
320,192,82541,1,0,0:0:0:0:
64,192,82541,1,0,0:0:0:0:
192,192,82608,1,0,0:0:0:0:
320,192,82675,1,0,0:0:0:0:
448,192,82675,1,0,0:0:0:0:
448,192,82809,1,0,0:0:0:0:
64,192,82809,1,0,0:0:0:0:
320,192,82876,1,0,0:0:0:0:
192,192,82943,1,0,0:0:0:0:
64,192,82943,1,0,0:0:0:0:
448,192,83077,1,0,0:0:0:0:
64,192,83077,1,0,0:0:0:0:
192,192,83144,1,0,0:0:0:0:
320,192,83211,1,0,0:0:0:0:
448,192,83211,1,0,0:0:0:0:
448,192,83345,1,0,0:0:0:0:
64,192,83345,1,0,0:0:0:0:
192,192,83412,1,0,0:0:0:0:
320,192,83479,1,0,0:0:0:0:
64,192,83479,1,0,0:0:0:0:
448,192,83613,1,0,0:0:0:0:
64,192,83613,1,0,0:0:0:0:
320,192,83680,1,0,0:0:0:0:
448,192,83747,1,0,0:0:0:0:
192,192,83747,1,0,0:0:0:0:
64,192,83881,1,0,0:0:0:0:
192,192,83881,1,0,0:0:0:0:
64,192,84015,1,0,0:0:0:0:
320,192,84015,1,0,0:0:0:0:
192,192,84149,1,0,0:0:0:0:
448,192,84149,1,0,0:0:0:0:
320,192,84215,1,0,0:0:0:0:
64,192,84282,1,0,0:0:0:0:
192,192,84282,1,0,0:0:0:0:
64,192,84416,1,0,0:0:0:0:
448,192,84416,1,0,0:0:0:0:
192,192,84550,1,0,0:0:0:0:
448,192,84550,1,0,0:0:0:0:
320,192,84684,1,0,0:0:0:0:
64,192,84684,1,0,0:0:0:0:
192,192,84751,1,0,0:0:0:0:
448,192,84818,1,0,0:0:0:0:
320,192,84818,1,0,0:0:0:0:
448,192,84952,1,0,0:0:0:0:
192,192,84952,1,0,0:0:0:0:
64,192,85086,1,0,0:0:0:0:
320,192,85086,1,0,0:0:0:0:
448,192,85220,1,0,0:0:0:0:
320,192,85220,1,0,0:0:0:0:
192,192,85287,1,0,0:0:0:0:
448,192,85354,1,0,0:0:0:0:
64,192,85354,1,0,0:0:0:0:
64,192,85488,1,0,0:0:0:0:
320,192,85488,1,0,0:0:0:0:
192,192,85622,1,0,0:0:0:0:
448,192,85622,1,0,0:0:0:0:
192,192,85756,1,0,0:0:0:0:
64,192,85756,1,0,0:0:0:0:
320,192,85823,1,0,0:0:0:0:
64,192,85890,1,0,0:0:0:0:
448,192,85890,1,0,0:0:0:0:
192,192,85957,1,0,0:0:0:0:
320,192,86024,1,0,0:0:0:0:
448,192,86024,1,0,0:0:0:0:
192,192,86157,1,0,0:0:0:0:
64,192,86157,1,0,0:0:0:0:
320,192,86291,1,0,0:0:0:0:
64,192,86291,1,0,0:0:0:0:
192,192,86358,1,0,0:0:0:0:
448,192,86425,1,0,0:0:0:0:
320,192,86425,1,0,0:0:0:0:
192,192,86559,1,0,0:0:0:0:
64,192,86559,1,0,0:0:0:0:
320,192,86693,1,0,0:0:0:0:
64,192,86693,1,0,0:0:0:0:
192,192,86827,1,0,0:0:0:0:
448,192,86827,1,0,0:0:0:0:
320,192,86894,1,0,0:0:0:0:
192,192,86961,1,0,0:0:0:0:
64,192,87028,1,0,0:0:0:0:
448,192,87095,1,0,0:0:0:0:
320,192,87095,1,0,0:0:0:0:
192,192,87162,1,0,0:0:0:0:
448,192,87229,1,0,0:0:0:0:
320,192,87229,1,0,0:0:0:0:
64,192,87296,1,0,0:0:0:0:
448,192,87363,1,0,0:0:0:0:
320,192,87430,1,0,0:0:0:0:
192,192,87497,1,0,0:0:0:0:
64,192,87497,1,0,0:0:0:0:
320,192,87564,1,0,0:0:0:0:
192,192,87631,1,0,0:0:0:0:
64,192,87631,1,0,0:0:0:0:
448,192,87698,1,0,0:0:0:0:
64,192,87765,1,0,0:0:0:0:
192,192,87832,1,0,0:0:0:0:
448,192,87899,1,0,0:0:0:0:
320,192,87899,1,0,0:0:0:0:
64,192,87965,1,0,0:0:0:0:
448,192,88032,1,0,0:0:0:0:
320,192,88099,1,0,0:0:0:0:
192,192,88166,1,0,0:0:0:0:
64,192,88166,1,0,0:0:0:0:
448,192,88233,1,0,0:0:0:0:
320,192,88300,1,0,0:0:0:0:
192,192,88367,1,0,0:0:0:0:
448,192,88434,1,0,0:0:0:0:
320,192,88434,1,0,0:0:0:0:
64,192,88501,1,0,0:0:0:0:
192,192,88568,1,0,0:0:0:0:
320,192,88635,1,0,0:0:0:0:
192,192,88702,1,0,0:0:0:0:
64,192,88702,1,0,0:0:0:0:
448,192,88769,1,0,0:0:0:0:
320,192,88836,1,0,0:0:0:0:
192,192,88903,1,0,0:0:0:0:
448,192,88970,1,0,0:0:0:0:
320,192,88970,1,0,0:0:0:0:
64,192,89037,1,0,0:0:0:0:
192,192,89104,1,0,0:0:0:0:
320,192,89171,1,0,0:0:0:0:
64,192,89238,128,0,89372:0:0:0:0:
192,192,89238,1,0,0:0:0:0:
448,192,89372,1,0,0:0:0:0:
320,192,89372,1,0,0:0:0:0:
192,192,89506,1,0,0:0:0:0:
320,192,89506,1,0,0:0:0:0:
448,192,89640,1,0,0:0:0:0:
320,192,89640,1,0,0:0:0:0:
448,192,89774,1,0,0:0:0:0:
192,192,89774,1,0,0:0:0:0:
64,192,89907,1,0,0:0:0:0:
448,192,89907,1,0,0:0:0:0:
192,192,90041,1,0,0:0:0:0:
64,192,90041,1,0,0:0:0:0:
192,192,90175,1,0,0:0:0:0:
320,192,90175,1,0,0:0:0:0:
320,192,90309,1,0,0:0:0:0:
448,192,90309,1,0,0:0:0:0:
64,192,90376,1,0,0:0:0:0:
192,192,90443,1,0,0:0:0:0:
320,192,90510,1,0,0:0:0:0:
192,192,90577,1,0,0:0:0:0:
64,192,90577,1,0,0:0:0:0:
448,192,90644,1,0,0:0:0:0:
320,192,90711,1,0,0:0:0:0:
192,192,90778,1,0,0:0:0:0:
448,192,90845,1,0,0:0:0:0:
320,192,90845,1,0,0:0:0:0:
64,192,90912,1,0,0:0:0:0:
320,192,90979,1,0,0:0:0:0:
192,192,90979,1,0,0:0:0:0:
448,192,91046,1,0,0:0:0:0:
192,192,91113,1,0,0:0:0:0:
64,192,91113,1,0,0:0:0:0:
448,192,91180,1,0,0:0:0:0:
320,192,91247,1,0,0:0:0:0:
192,192,91247,1,0,0:0:0:0:
448,192,91381,1,0,0:0:0:0:
320,192,91381,1,0,0:0:0:0:
192,192,91448,1,0,0:0:0:0:
64,192,91515,1,0,0:0:0:0:
320,192,91582,1,0,0:0:0:0:
192,192,91649,1,0,0:0:0:0:
64,192,91649,1,0,0:0:0:0:
320,192,91715,1,0,0:0:0:0:
448,192,91782,1,0,0:0:0:0:
192,192,91849,1,0,0:0:0:0:
448,192,91916,1,0,0:0:0:0:
320,192,91916,1,0,0:0:0:0:
192,192,91983,1,0,0:0:0:0:
64,192,92050,1,0,0:0:0:0:
320,192,92117,1,0,0:0:0:0:
64,192,92184,128,0,92452:0:0:0:0:
192,192,92184,1,0,0:0:0:0:
448,192,92251,1,0,0:0:0:0:
192,192,92318,1,0,0:0:0:0:
320,192,92385,1,0,0:0:0:0:
448,192,92452,1,0,0:0:0:0:
192,192,92519,1,0,0:0:0:0:
448,192,92586,1,0,0:0:0:0:
192,192,92653,1,0,0:0:0:0:
448,192,92720,1,0,0:0:0:0:
64,192,92720,1,0,0:0:0:0:
320,192,92787,1,0,0:0:0:0:
64,192,92854,1,0,0:0:0:0:
320,192,92921,1,0,0:0:0:0:
448,192,92988,1,0,0:0:0:0:
64,192,92988,1,0,0:0:0:0:
192,192,93055,1,0,0:0:0:0:
448,192,93122,1,0,0:0:0:0:
192,192,93189,1,0,0:0:0:0:
64,192,93256,1,0,0:0:0:0:
448,192,93256,1,0,0:0:0:0:
320,192,93323,1,0,0:0:0:0:
64,192,93390,1,0,0:0:0:0:
320,192,93457,1,0,0:0:0:0:
64,192,93524,1,0,0:0:0:0:
192,192,93524,1,0,0:0:0:0:
448,192,93657,1,0,0:0:0:0:
320,192,93657,1,0,0:0:0:0:
192,192,93791,1,0,0:0:0:0:
320,192,93791,1,0,0:0:0:0:
448,192,93925,1,0,0:0:0:0:
320,192,93925,1,0,0:0:0:0:
448,192,94059,1,0,0:0:0:0:
192,192,94059,1,0,0:0:0:0:
320,192,94193,1,0,0:0:0:0:
64,192,94193,1,0,0:0:0:0:
64,192,94327,128,0,94461:0:0:0:0:
192,192,94327,1,0,0:0:0:0:
448,192,94461,128,0,94595:0:0:0:0:
320,192,94461,1,0,0:0:0:0:
192,192,94595,1,0,0:0:0:0:
64,192,94595,1,0,0:0:0:0:
448,192,94729,1,0,0:0:0:0:
320,192,94729,1,0,0:0:0:0:
64,192,94796,1,0,0:0:0:0:
192,192,94796,1,0,0:0:0:0:
448,192,94863,1,0,0:0:0:0:
320,192,94863,1,0,0:0:0:0:
320,192,94997,1,0,0:0:0:0:
192,192,94997,1,0,0:0:0:0:
192,192,95131,1,0,0:0:0:0:
64,192,95131,1,0,0:0:0:0:
448,192,95198,1,0,0:0:0:0:
320,192,95198,1,0,0:0:0:0:
64,192,95265,1,0,0:0:0:0:
192,192,95265,1,0,0:0:0:0:
448,192,95332,1,0,0:0:0:0:
192,192,95399,1,0,0:0:0:0:
64,192,95399,1,0,0:0:0:0:
448,192,95465,1,0,0:0:0:0:
320,192,95465,1,0,0:0:0:0:
64,192,95532,1,0,0:0:0:0:
192,192,95532,1,0,0:0:0:0:
320,192,95599,1,0,0:0:0:0:
448,192,95666,128,0,95733:0:0:0:0:
64,192,95666,128,0,95800:0:0:0:0:
448,192,95800,128,0,96202:0:0:0:0:
192,192,95800,128,0,96202:0:0:0:0:
64,192,96202,128,0,96269:0:0:0:0:
320,192,96202,128,0,96336:0:0:0:0:
64,192,96336,128,0,96738:0:0:0:0:
448,192,96336,128,0,96738:0:0:0:0:
192,192,96738,128,0,97006:0:0:0:0:
320,192,96738,1,0,0:0:0:0:
64,192,97006,1,0,0:0:0:0:
320,192,97006,1,0,0:0:0:0:
448,192,97073,1,0,0:0:0:0:
64,192,97140,1,0,0:0:0:0:
320,192,97140,1,0,0:0:0:0:
192,192,97274,1,0,0:0:0:0:
448,192,97274,1,0,0:0:0:0:
192,192,97407,1,0,0:0:0:0:
448,192,97407,1,0,0:0:0:0:
64,192,97541,1,0,0:0:0:0:
320,192,97541,1,0,0:0:0:0:
192,192,97608,1,0,0:0:0:0:
320,192,97675,1,0,0:0:0:0:
448,192,97675,1,0,0:0:0:0:
448,192,97809,1,0,0:0:0:0:
64,192,97809,1,0,0:0:0:0:
64,192,97943,1,0,0:0:0:0:
320,192,97943,1,0,0:0:0:0:
192,192,98077,1,0,0:0:0:0:
448,192,98077,1,0,0:0:0:0:
64,192,98144,1,0,0:0:0:0:
192,192,98211,1,0,0:0:0:0:
448,192,98211,1,0,0:0:0:0:
320,192,98345,1,0,0:0:0:0:
64,192,98345,1,0,0:0:0:0:
64,192,98479,1,0,0:0:0:0:
320,192,98479,1,0,0:0:0:0:
192,192,98613,1,0,0:0:0:0:
448,192,98613,1,0,0:0:0:0:
320,192,98680,1,0,0:0:0:0:
192,192,98747,1,0,0:0:0:0:
64,192,98747,1,0,0:0:0:0:
320,192,98881,1,0,0:0:0:0:
448,192,98881,1,0,0:0:0:0:
320,192,99015,1,0,0:0:0:0:
192,192,99015,1,0,0:0:0:0:
64,192,99149,1,0,0:0:0:0:
448,192,99149,1,0,0:0:0:0:
320,192,99215,1,0,0:0:0:0:
64,192,99282,1,0,0:0:0:0:
448,192,99282,1,0,0:0:0:0:
192,192,99416,1,0,0:0:0:0:
320,192,99416,1,0,0:0:0:0:
192,192,99550,1,0,0:0:0:0:
320,192,99550,1,0,0:0:0:0:
64,192,99684,1,0,0:0:0:0:
448,192,99684,1,0,0:0:0:0:
192,192,99751,1,0,0:0:0:0:
320,192,99818,1,0,0:0:0:0:
448,192,99818,1,0,0:0:0:0:
320,192,99952,1,0,0:0:0:0:
64,192,99952,1,0,0:0:0:0:
192,192,100086,1,0,0:0:0:0:
448,192,100086,1,0,0:0:0:0:
64,192,100220,1,0,0:0:0:0:
448,192,100220,1,0,0:0:0:0:
320,192,100287,1,0,0:0:0:0:
64,192,100354,1,0,0:0:0:0:
192,192,100354,1,0,0:0:0:0:
448,192,100488,1,0,0:0:0:0:
320,192,100488,1,0,0:0:0:0:
64,192,100555,1,0,0:0:0:0:
192,192,100622,1,0,0:0:0:0:
320,192,100622,1,0,0:0:0:0:
448,192,100689,1,0,0:0:0:0:
192,192,100756,1,0,0:0:0:0:
64,192,100756,128,0,101024:0:0:0:0:
448,192,100823,1,0,0:0:0:0:
320,192,100890,1,0,0:0:0:0:
192,192,100957,1,0,0:0:0:0:
320,192,101024,128,0,101291:0:0:0:0:
448,192,101024,1,0,0:0:0:0:
64,192,101291,1,0,0:0:0:0:
192,192,101291,1,0,0:0:0:0:
448,192,101358,1,0,0:0:0:0:
192,192,101425,1,0,0:0:0:0:
320,192,101425,1,0,0:0:0:0:
64,192,101559,1,0,0:0:0:0:
320,192,101559,1,0,0:0:0:0:
64,192,101693,1,0,0:0:0:0:
448,192,101693,1,0,0:0:0:0:
320,192,101827,1,0,0:0:0:0:
448,192,101827,1,0,0:0:0:0:
64,192,101894,1,0,0:0:0:0:
192,192,101961,1,0,0:0:0:0:
320,192,101961,1,0,0:0:0:0:
192,192,102095,1,0,0:0:0:0:
448,192,102095,1,0,0:0:0:0:
64,192,102229,1,0,0:0:0:0:
448,192,102229,1,0,0:0:0:0:
64,192,102363,1,0,0:0:0:0:
192,192,102363,1,0,0:0:0:0:
448,192,102430,1,0,0:0:0:0:
320,192,102497,1,0,0:0:0:0:
192,192,102497,1,0,0:0:0:0:
64,192,102631,1,0,0:0:0:0:
320,192,102631,1,0,0:0:0:0:
64,192,102765,1,0,0:0:0:0:
448,192,102765,1,0,0:0:0:0:
320,192,102899,1,0,0:0:0:0:
448,192,102899,1,0,0:0:0:0:
64,192,102965,1,0,0:0:0:0:
192,192,103032,1,0,0:0:0:0:
320,192,103032,1,0,0:0:0:0:
192,192,103166,1,0,0:0:0:0:
448,192,103166,1,0,0:0:0:0:
64,192,103300,1,0,0:0:0:0:
320,192,103300,1,0,0:0:0:0:
320,192,103434,1,0,0:0:0:0:
448,192,103434,1,0,0:0:0:0:
192,192,103501,1,0,0:0:0:0:
64,192,103568,1,0,0:0:0:0:
448,192,103568,1,0,0:0:0:0:
64,192,103702,1,0,0:0:0:0:
320,192,103702,1,0,0:0:0:0:
192,192,103836,1,0,0:0:0:0:
448,192,103836,1,0,0:0:0:0:
64,192,103970,1,0,0:0:0:0:
192,192,103970,1,0,0:0:0:0:
320,192,104037,1,0,0:0:0:0:
448,192,104104,1,0,0:0:0:0:
64,192,104104,1,0,0:0:0:0:
192,192,104238,1,0,0:0:0:0:
320,192,104238,1,0,0:0:0:0:
448,192,104372,1,0,0:0:0:0:
320,192,104372,1,0,0:0:0:0:
192,192,104506,1,0,0:0:0:0:
64,192,104506,1,0,0:0:0:0:
448,192,104573,1,0,0:0:0:0:
320,192,104640,1,0,0:0:0:0:
64,192,104640,1,0,0:0:0:0:
448,192,104774,1,0,0:0:0:0:
192,192,104774,1,0,0:0:0:0:
192,192,104907,1,0,0:0:0:0:
320,192,104907,1,0,0:0:0:0:
448,192,105041,1,0,0:0:0:0:
64,192,105041,1,0,0:0:0:0:
192,192,105108,1,0,0:0:0:0:
320,192,105175,1,0,0:0:0:0:
448,192,105175,1,0,0:0:0:0:
64,192,105242,1,0,0:0:0:0:
192,192,105242,1,0,0:0:0:0:
320,192,105309,128,0,105577:0:0:0:0:
448,192,105309,1,0,0:0:0:0:
192,192,105577,1,0,0:0:0:0:
448,192,105577,1,0,0:0:0:0:
64,192,105644,1,0,0:0:0:0:
192,192,105711,1,0,0:0:0:0:
448,192,105711,1,0,0:0:0:0:
64,192,105845,1,0,0:0:0:0:
320,192,105845,1,0,0:0:0:0:
64,192,105979,1,0,0:0:0:0:
320,192,105979,1,0,0:0:0:0:
192,192,106113,1,0,0:0:0:0:
448,192,106113,1,0,0:0:0:0:
320,192,106180,1,0,0:0:0:0:
64,192,106247,1,0,0:0:0:0:
192,192,106247,1,0,0:0:0:0:
448,192,106381,1,0,0:0:0:0:
64,192,106381,1,0,0:0:0:0:
192,192,106515,1,0,0:0:0:0:
448,192,106515,1,0,0:0:0:0:
64,192,106649,1,0,0:0:0:0:
320,192,106649,1,0,0:0:0:0:
448,192,106715,1,0,0:0:0:0:
64,192,106782,1,0,0:0:0:0:
320,192,106782,1,0,0:0:0:0:
448,192,106916,1,0,0:0:0:0:
192,192,106916,1,0,0:0:0:0:
192,192,107050,1,0,0:0:0:0:
448,192,107050,1,0,0:0:0:0:
64,192,107184,1,0,0:0:0:0:
320,192,107184,1,0,0:0:0:0:
192,192,107251,1,0,0:0:0:0:
448,192,107318,1,0,0:0:0:0:
320,192,107318,1,0,0:0:0:0:
64,192,107452,1,0,0:0:0:0:
192,192,107452,1,0,0:0:0:0:
320,192,107586,1,0,0:0:0:0:
192,192,107586,1,0,0:0:0:0:
64,192,107720,1,0,0:0:0:0:
448,192,107720,1,0,0:0:0:0:
192,192,107787,1,0,0:0:0:0:
64,192,107854,1,0,0:0:0:0:
448,192,107854,1,0,0:0:0:0:
192,192,107988,1,0,0:0:0:0:
320,192,107988,1,0,0:0:0:0:
192,192,108122,1,0,0:0:0:0:
320,192,108122,1,0,0:0:0:0:
64,192,108256,1,0,0:0:0:0:
448,192,108256,1,0,0:0:0:0:
320,192,108323,1,0,0:0:0:0:
64,192,108390,1,0,0:0:0:0:
192,192,108390,1,0,0:0:0:0:
64,192,108524,1,0,0:0:0:0:
448,192,108524,1,0,0:0:0:0:
192,192,108590,1,0,0:0:0:0:
448,192,108657,1,0,0:0:0:0:
192,192,108724,1,0,0:0:0:0:
64,192,108791,1,0,0:0:0:0:
448,192,108791,1,0,0:0:0:0:
320,192,108858,1,0,0:0:0:0:
64,192,108925,1,0,0:0:0:0:
320,192,108992,1,0,0:0:0:0:
192,192,109059,1,0,0:0:0:0:
64,192,109059,1,0,0:0:0:0:
448,192,109126,1,0,0:0:0:0:
192,192,109193,1,0,0:0:0:0:
320,192,109193,1,0,0:0:0:0:
64,192,109260,1,0,0:0:0:0:
448,192,109327,128,0,109595:0:0:0:0:
320,192,109327,1,0,0:0:0:0:
192,192,109595,128,0,109863:0:0:0:0:
64,192,109595,1,0,0:0:0:0:
320,192,109863,1,0,0:0:0:0:
448,192,109863,1,0,0:0:0:0:
64,192,109930,1,0,0:0:0:0:
192,192,109997,1,0,0:0:0:0:
320,192,109997,1,0,0:0:0:0:
192,192,110131,1,0,0:0:0:0:
448,192,110131,1,0,0:0:0:0:
64,192,110265,1,0,0:0:0:0:
448,192,110265,1,0,0:0:0:0:
64,192,110399,1,0,0:0:0:0:
192,192,110399,1,0,0:0:0:0:
448,192,110465,1,0,0:0:0:0:
192,192,110532,1,0,0:0:0:0:
320,192,110532,1,0,0:0:0:0:
64,192,110666,1,0,0:0:0:0:
320,192,110666,1,0,0:0:0:0:
64,192,110800,1,0,0:0:0:0:
448,192,110800,1,0,0:0:0:0:
320,192,110934,1,0,0:0:0:0:
448,192,110934,1,0,0:0:0:0:
64,192,111001,1,0,0:0:0:0:
320,192,111068,1,0,0:0:0:0:
192,192,111068,1,0,0:0:0:0:
192,192,111202,1,0,0:0:0:0:
448,192,111202,1,0,0:0:0:0:
64,192,111336,1,0,0:0:0:0:
448,192,111336,1,0,0:0:0:0:
64,192,111470,1,0,0:0:0:0:
192,192,111470,1,0,0:0:0:0:
448,192,111537,1,0,0:0:0:0:
192,192,111604,1,0,0:0:0:0:
320,192,111604,1,0,0:0:0:0:
448,192,111738,1,0,0:0:0:0:
64,192,111738,1,0,0:0:0:0:
448,192,111872,1,0,0:0:0:0:
320,192,111872,1,0,0:0:0:0:
64,192,112006,1,0,0:0:0:0:
192,192,112006,1,0,0:0:0:0:
448,192,112073,1,0,0:0:0:0:
192,192,112140,1,0,0:0:0:0:
320,192,112140,1,0,0:0:0:0:
64,192,112274,1,0,0:0:0:0:
320,192,112274,1,0,0:0:0:0:
64,192,112407,1,0,0:0:0:0:
448,192,112407,1,0,0:0:0:0:
320,192,112541,1,0,0:0:0:0:
448,192,112541,1,0,0:0:0:0:
64,192,112608,1,0,0:0:0:0:
192,192,112675,1,0,0:0:0:0:
320,192,112675,1,0,0:0:0:0:
192,192,112809,1,0,0:0:0:0:
448,192,112809,1,0,0:0:0:0:
64,192,112943,1,0,0:0:0:0:
448,192,112943,1,0,0:0:0:0:
64,192,113077,1,0,0:0:0:0:
192,192,113077,1,0,0:0:0:0:
448,192,113144,1,0,0:0:0:0:
320,192,113211,1,0,0:0:0:0:
192,192,113211,1,0,0:0:0:0:
448,192,113345,1,0,0:0:0:0:
320,192,113345,1,0,0:0:0:0:
64,192,113412,1,0,0:0:0:0:
192,192,113479,1,0,0:0:0:0:
320,192,113546,1,0,0:0:0:0:
192,192,113613,1,0,0:0:0:0:
64,192,113613,1,0,0:0:0:0:
448,192,113680,1,0,0:0:0:0:
320,192,113747,1,0,0:0:0:0:
192,192,113814,1,0,0:0:0:0:
320,192,113881,1,0,0:0:0:0:
448,192,113881,1,0,0:0:0:0:
448,192,114015,1,0,0:0:0:0:
320,192,114015,1,0,0:0:0:0:
448,192,114149,1,0,0:0:0:0:
320,192,114215,1,0,0:0:0:0:
192,192,114282,1,0,0:0:0:0:
64,192,114282,1,0,0:0:0:0:
448,192,114349,1,0,0:0:0:0:
192,192,114416,1,0,0:0:0:0:
64,192,114416,1,0,0:0:0:0:
320,192,114483,1,0,0:0:0:0:
448,192,114550,1,0,0:0:0:0:
192,192,114617,1,0,0:0:0:0:
320,192,114684,1,0,0:0:0:0:
64,192,114751,1,0,0:0:0:0:
192,192,114818,1,0,0:0:0:0:
64,192,114885,1,0,0:0:0:0:
448,192,114952,1,0,0:0:0:0:
320,192,114952,1,0,0:0:0:0:
192,192,115019,1,0,0:0:0:0:
448,192,115086,1,0,0:0:0:0:
320,192,115086,1,0,0:0:0:0:
64,192,115153,1,0,0:0:0:0:
448,192,115220,1,0,0:0:0:0:
320,192,115287,1,0,0:0:0:0:
64,192,115354,1,0,0:0:0:0:
192,192,115354,1,0,0:0:0:0:
448,192,115421,1,0,0:0:0:0:
192,192,115488,1,0,0:0:0:0:
64,192,115488,1,0,0:0:0:0:
320,192,115555,1,0,0:0:0:0:
448,192,115622,1,0,0:0:0:0:
192,192,115689,1,0,0:0:0:0:
320,192,115756,1,0,0:0:0:0:
64,192,115823,1,0,0:0:0:0:
192,192,115890,1,0,0:0:0:0:
64,192,115957,1,0,0:0:0:0:
320,192,116024,1,0,0:0:0:0:
448,192,116024,1,0,0:0:0:0:
192,192,116090,1,0,0:0:0:0:
448,192,116157,1,0,0:0:0:0:
320,192,116157,1,0,0:0:0:0:
64,192,116224,1,0,0:0:0:0:
448,192,116291,1,0,0:0:0:0:
320,192,116358,1,0,0:0:0:0:
192,192,116425,1,0,0:0:0:0:
64,192,116425,1,0,0:0:0:0:
448,192,116492,1,0,0:0:0:0:
192,192,116559,1,0,0:0:0:0:
64,192,116559,1,0,0:0:0:0:
320,192,116626,1,0,0:0:0:0:
448,192,116693,1,0,0:0:0:0:
320,192,116760,1,0,0:0:0:0:
192,192,116827,1,0,0:0:0:0:
64,192,116827,1,0,0:0:0:0:
448,192,116894,1,0,0:0:0:0:
320,192,116961,1,0,0:0:0:0:
192,192,116961,1,0,0:0:0:0:
64,192,117028,1,0,0:0:0:0:
448,192,117095,1,0,0:0:0:0:
320,192,117095,1,0,0:0:0:0:
64,192,117162,1,0,0:0:0:0:
192,192,117229,1,0,0:0:0:0:
320,192,117296,1,0,0:0:0:0:
192,192,117363,1,0,0:0:0:0:
448,192,117363,1,0,0:0:0:0:
192,192,117497,1,0,0:0:0:0:
448,192,117497,1,0,0:0:0:0:
320,192,117675,1,0,0:0:0:0:
192,192,117720,1,0,0:0:0:0:
320,192,117765,1,0,0:0:0:0:
64,192,117765,1,0,0:0:0:0:
320,192,117899,1,0,0:0:0:0:
64,192,117899,1,0,0:0:0:0:
448,192,118032,1,0,0:0:0:0:
320,192,118099,1,0,0:0:0:0:
192,192,118166,1,0,0:0:0:0:
64,192,118166,1,0,0:0:0:0:
64,192,118300,1,0,0:0:0:0:
192,192,118300,1,0,0:0:0:0:
64,192,118434,1,0,0:0:0:0:
192,192,118501,1,0,0:0:0:0:
320,192,118568,1,0,0:0:0:0:
448,192,118568,1,0,0:0:0:0:
64,192,118635,1,0,0:0:0:0:
320,192,118702,1,0,0:0:0:0:
448,192,118702,1,0,0:0:0:0:
192,192,118769,1,0,0:0:0:0:
64,192,118836,1,0,0:0:0:0:
320,192,118903,1,0,0:0:0:0:
192,192,118970,1,0,0:0:0:0:
448,192,119037,1,0,0:0:0:0:
320,192,119104,1,0,0:0:0:0:
64,192,119171,1,0,0:0:0:0:
320,192,119238,1,0,0:0:0:0:
448,192,119238,1,0,0:0:0:0:
192,192,119305,1,0,0:0:0:0:
448,192,119372,1,0,0:0:0:0:
320,192,119439,1,0,0:0:0:0:
192,192,119506,1,0,0:0:0:0:
64,192,119506,1,0,0:0:0:0:
448,192,119573,1,0,0:0:0:0:
320,192,119640,1,0,0:0:0:0:
192,192,119640,1,0,0:0:0:0:
64,192,119707,1,0,0:0:0:0:
448,192,119774,1,0,0:0:0:0:
320,192,119774,1,0,0:0:0:0:
192,192,119840,1,0,0:0:0:0:
64,192,119907,1,0,0:0:0:0:
192,192,119974,1,0,0:0:0:0:
320,192,120041,1,0,0:0:0:0:
448,192,120041,1,0,0:0:0:0:
64,192,120108,1,0,0:0:0:0:
192,192,120175,1,0,0:0:0:0:
320,192,120175,1,0,0:0:0:0:
448,192,120242,1,0,0:0:0:0:
64,192,120309,1,0,0:0:0:0:
192,192,120309,1,0,0:0:0:0:
320,192,120376,1,0,0:0:0:0:
64,192,120443,1,0,0:0:0:0:
448,192,120443,1,0,0:0:0:0:
192,192,120510,1,0,0:0:0:0:
448,192,120577,1,0,0:0:0:0:
320,192,120577,1,0,0:0:0:0:
64,192,120644,1,0,0:0:0:0:
320,192,120711,1,0,0:0:0:0:
192,192,120711,1,0,0:0:0:0:
448,192,120778,1,0,0:0:0:0:
192,192,120845,1,0,0:0:0:0:
64,192,120845,1,0,0:0:0:0:
320,192,120912,1,0,0:0:0:0:
64,192,120979,1,0,0:0:0:0:
448,192,120979,1,0,0:0:0:0:
192,192,121046,1,0,0:0:0:0:
448,192,121113,1,0,0:0:0:0:
320,192,121113,1,0,0:0:0:0:
64,192,121180,1,0,0:0:0:0:
192,192,121247,1,0,0:0:0:0:
448,192,121314,1,0,0:0:0:0:
64,192,121381,1,0,0:0:0:0:
192,192,121381,1,0,0:0:0:0:
320,192,121448,1,0,0:0:0:0:
64,192,121515,1,0,0:0:0:0:
192,192,121582,1,0,0:0:0:0:
448,192,121649,1,0,0:0:0:0:
320,192,121649,1,0,0:0:0:0:
64,192,121715,1,0,0:0:0:0:
448,192,121782,1,0,0:0:0:0:
320,192,121782,1,0,0:0:0:0:
192,192,121849,1,0,0:0:0:0:
448,192,121916,1,0,0:0:0:0:
192,192,121983,1,0,0:0:0:0:
320,192,122050,1,0,0:0:0:0:
448,192,122117,1,0,0:0:0:0:
192,192,122184,1,0,0:0:0:0:
64,192,122184,1,0,0:0:0:0:
448,192,122251,1,0,0:0:0:0:
320,192,122318,1,0,0:0:0:0:
192,192,122385,1,0,0:0:0:0:
64,192,122452,1,0,0:0:0:0:
448,192,122452,1,0,0:0:0:0:
320,192,122586,1,0,0:0:0:0:
64,192,122586,1,0,0:0:0:0:
192,192,122720,1,0,0:0:0:0:
448,192,122720,1,0,0:0:0:0:
64,192,122854,1,0,0:0:0:0:
192,192,122854,1,0,0:0:0:0:
64,192,122988,1,0,0:0:0:0:
448,192,122988,1,0,0:0:0:0:
192,192,123122,1,0,0:0:0:0:
448,192,123122,1,0,0:0:0:0:
320,192,123256,1,0,0:0:0:0:
64,192,123256,1,0,0:0:0:0:
192,192,123323,1,0,0:0:0:0:
448,192,123390,1,0,0:0:0:0:
320,192,123390,1,0,0:0:0:0:
448,192,123524,1,0,0:0:0:0:
192,192,123524,1,0,0:0:0:0:
64,192,123657,1,0,0:0:0:0:
320,192,123657,1,0,0:0:0:0:
448,192,123791,1,0,0:0:0:0:
320,192,123791,1,0,0:0:0:0:
192,192,123858,1,0,0:0:0:0:
448,192,123925,1,0,0:0:0:0:
64,192,123925,1,0,0:0:0:0:
64,192,124059,1,0,0:0:0:0:
320,192,124059,1,0,0:0:0:0:
192,192,124193,1,0,0:0:0:0:
448,192,124193,1,0,0:0:0:0:
192,192,124327,1,0,0:0:0:0:
64,192,124327,1,0,0:0:0:0:
320,192,124394,1,0,0:0:0:0:
64,192,124461,1,0,0:0:0:0:
448,192,124461,1,0,0:0:0:0:
320,192,124595,1,0,0:0:0:0:
448,192,124595,1,0,0:0:0:0:
320,192,124729,1,0,0:0:0:0:
64,192,124729,1,0,0:0:0:0:
192,192,124863,1,0,0:0:0:0:
64,192,124863,1,0,0:0:0:0:
320,192,124930,1,0,0:0:0:0:
64,192,124997,1,0,0:0:0:0:
192,192,124997,1,0,0:0:0:0:
320,192,125131,1,0,0:0:0:0:
448,192,125131,1,0,0:0:0:0:
192,192,125265,1,0,0:0:0:0:
448,192,125265,1,0,0:0:0:0:
320,192,125399,1,0,0:0:0:0:
64,192,125399,1,0,0:0:0:0:
192,192,125465,1,0,0:0:0:0:
320,192,125532,1,0,0:0:0:0:
448,192,125532,1,0,0:0:0:0:
448,192,125666,1,0,0:0:0:0:
64,192,125666,1,0,0:0:0:0:
320,192,125733,1,0,0:0:0:0:
192,192,125800,1,0,0:0:0:0:
64,192,125800,1,0,0:0:0:0:
448,192,125934,1,0,0:0:0:0:
64,192,125934,1,0,0:0:0:0:
192,192,126001,1,0,0:0:0:0:
320,192,126068,1,0,0:0:0:0:
448,192,126068,1,0,0:0:0:0:
448,192,126202,1,0,0:0:0:0:
64,192,126202,1,0,0:0:0:0:
192,192,126269,1,0,0:0:0:0:
320,192,126336,1,0,0:0:0:0:
64,192,126336,1,0,0:0:0:0:
448,192,126470,1,0,0:0:0:0:
64,192,126470,1,0,0:0:0:0:
320,192,126537,1,0,0:0:0:0:
448,192,126604,1,0,0:0:0:0:
192,192,126604,1,0,0:0:0:0:
64,192,126738,1,0,0:0:0:0:
192,192,126738,1,0,0:0:0:0:
64,192,126872,1,0,0:0:0:0:
320,192,126872,1,0,0:0:0:0:
192,192,127006,1,0,0:0:0:0:
448,192,127006,1,0,0:0:0:0:
320,192,127073,1,0,0:0:0:0:
64,192,127140,1,0,0:0:0:0:
192,192,127140,1,0,0:0:0:0:
64,192,127274,1,0,0:0:0:0:
448,192,127274,1,0,0:0:0:0:
192,192,127407,1,0,0:0:0:0:
448,192,127407,1,0,0:0:0:0:
320,192,127541,1,0,0:0:0:0:
64,192,127541,1,0,0:0:0:0:
192,192,127608,1,0,0:0:0:0:
448,192,127675,1,0,0:0:0:0:
320,192,127675,1,0,0:0:0:0:
448,192,127809,1,0,0:0:0:0:
192,192,127809,1,0,0:0:0:0:
64,192,127943,1,0,0:0:0:0:
320,192,127943,1,0,0:0:0:0:
448,192,128077,1,0,0:0:0:0:
320,192,128077,1,0,0:0:0:0:
192,192,128144,1,0,0:0:0:0:
448,192,128211,1,0,0:0:0:0:
64,192,128211,1,0,0:0:0:0:
64,192,128345,1,0,0:0:0:0:
320,192,128345,1,0,0:0:0:0:
192,192,128479,1,0,0:0:0:0:
448,192,128479,1,0,0:0:0:0:
192,192,128613,1,0,0:0:0:0:
64,192,128613,1,0,0:0:0:0:
320,192,128680,1,0,0:0:0:0:
64,192,128747,1,0,0:0:0:0:
448,192,128747,1,0,0:0:0:0:
192,192,128881,1,0,0:0:0:0:
320,192,128881,1,0,0:0:0:0:
192,192,129015,1,0,0:0:0:0:
448,192,129015,1,0,0:0:0:0:
320,192,129149,1,0,0:0:0:0:
64,192,129149,1,0,0:0:0:0:
192,192,129215,1,0,0:0:0:0:
448,192,129282,1,0,0:0:0:0:
320,192,129282,1,0,0:0:0:0:
192,192,129416,1,0,0:0:0:0:
64,192,129416,1,0,0:0:0:0:
320,192,129550,1,0,0:0:0:0:
64,192,129550,1,0,0:0:0:0:
192,192,129684,1,0,0:0:0:0:
448,192,129684,1,0,0:0:0:0:
320,192,129751,1,0,0:0:0:0:
192,192,129818,1,0,0:0:0:0:
64,192,129818,1,0,0:0:0:0:
64,192,129952,1,0,0:0:0:0:
448,192,129952,1,0,0:0:0:0:
192,192,130019,1,0,0:0:0:0:
320,192,130086,1,0,0:0:0:0:
448,192,130086,1,0,0:0:0:0:
192,192,130153,1,0,0:0:0:0:
64,192,130220,1,0,0:0:0:0:
448,192,130220,1,0,0:0:0:0:
64,192,130488,1,0,0:0:0:0:
448,192,130488,1,0,0:0:0:0:
320,192,130555,1,0,0:0:0:0:
192,192,130622,1,0,0:0:0:0:
64,192,130756,1,0,0:0:0:0:
448,192,130756,1,0,0:0:0:0:
192,192,130823,1,0,0:0:0:0:
320,192,130890,1,0,0:0:0:0:
64,192,131024,1,0,0:0:0:0:
448,192,131024,1,0,0:0:0:0:
192,192,131157,1,0,0:0:0:0:
448,192,131157,1,0,0:0:0:0:
320,192,131291,1,0,0:0:0:0:
64,192,131291,1,0,0:0:0:0:
192,192,131358,1,0,0:0:0:0:
448,192,131425,1,0,0:0:0:0:
320,192,131425,1,0,0:0:0:0:
448,192,131559,1,0,0:0:0:0:
64,192,131559,1,0,0:0:0:0:
320,192,131693,1,0,0:0:0:0:
64,192,131693,1,0,0:0:0:0:
192,192,131827,1,0,0:0:0:0:
448,192,131827,1,0,0:0:0:0:
320,192,131894,1,0,0:0:0:0:
64,192,131961,1,0,0:0:0:0:
192,192,131961,1,0,0:0:0:0:
64,192,132095,1,0,0:0:0:0:
320,192,132095,1,0,0:0:0:0:
448,192,132229,1,0,0:0:0:0:
192,192,132229,1,0,0:0:0:0:
64,192,132363,1,0,0:0:0:0:
192,192,132363,1,0,0:0:0:0:
320,192,132430,1,0,0:0:0:0:
64,192,132497,1,0,0:0:0:0:
448,192,132497,1,0,0:0:0:0:
448,192,132631,1,0,0:0:0:0:
192,192,132631,1,0,0:0:0:0:
320,192,132765,1,0,0:0:0:0:
64,192,132765,1,0,0:0:0:0:
320,192,132899,1,0,0:0:0:0:
448,192,132899,1,0,0:0:0:0:
192,192,132965,1,0,0:0:0:0:
448,192,133032,1,0,0:0:0:0:
64,192,133032,1,0,0:0:0:0:
192,192,133166,1,0,0:0:0:0:
64,192,133166,1,0,0:0:0:0:
192,192,133300,1,0,0:0:0:0:
448,192,133300,1,0,0:0:0:0:
320,192,133434,1,0,0:0:0:0:
448,192,133434,1,0,0:0:0:0:
192,192,133501,1,0,0:0:0:0:
448,192,133568,1,0,0:0:0:0:
320,192,133568,1,0,0:0:0:0:
192,192,133702,1,0,0:0:0:0:
64,192,133702,1,0,0:0:0:0:
320,192,133836,1,0,0:0:0:0:
64,192,133836,1,0,0:0:0:0:
192,192,133970,1,0,0:0:0:0:
448,192,133970,1,0,0:0:0:0:
320,192,134037,1,0,0:0:0:0:
192,192,134104,1,0,0:0:0:0:
64,192,134104,1,0,0:0:0:0:
64,192,134238,1,0,0:0:0:0:
448,192,134238,1,0,0:0:0:0:
192,192,134305,1,0,0:0:0:0:
320,192,134372,1,0,0:0:0:0:
448,192,134372,1,0,0:0:0:0:
64,192,134506,1,0,0:0:0:0:
448,192,134506,1,0,0:0:0:0:
320,192,134573,1,0,0:0:0:0:
192,192,134640,1,0,0:0:0:0:
64,192,134640,1,0,0:0:0:0:
64,192,134774,1,0,0:0:0:0:
448,192,134774,1,0,0:0:0:0:
320,192,134840,1,0,0:0:0:0:
192,192,134907,1,0,0:0:0:0:
448,192,134907,1,0,0:0:0:0:
64,192,135041,1,0,0:0:0:0:
448,192,135041,1,0,0:0:0:0:
192,192,135108,1,0,0:0:0:0:
64,192,135175,1,0,0:0:0:0:
320,192,135175,1,0,0:0:0:0:
192,192,135309,1,0,0:0:0:0:
320,192,135309,1,0,0:0:0:0:
448,192,135443,1,0,0:0:0:0:
192,192,135443,1,0,0:0:0:0:
320,192,135577,1,0,0:0:0:0:
64,192,135577,1,0,0:0:0:0:
192,192,135644,1,0,0:0:0:0:
448,192,135711,1,0,0:0:0:0:
320,192,135711,1,0,0:0:0:0:
448,192,135845,1,0,0:0:0:0:
64,192,135845,1,0,0:0:0:0:
320,192,135979,1,0,0:0:0:0:
64,192,135979,1,0,0:0:0:0:
192,192,136113,1,0,0:0:0:0:
448,192,136113,1,0,0:0:0:0:
320,192,136180,1,0,0:0:0:0:
64,192,136247,1,0,0:0:0:0:
192,192,136247,1,0,0:0:0:0:
64,192,136381,1,0,0:0:0:0:
320,192,136381,1,0,0:0:0:0:
448,192,136515,1,0,0:0:0:0:
192,192,136515,1,0,0:0:0:0:
64,192,136649,1,0,0:0:0:0:
192,192,136649,1,0,0:0:0:0:
320,192,136715,1,0,0:0:0:0:
64,192,136782,1,0,0:0:0:0:
448,192,136782,1,0,0:0:0:0:
448,192,136916,1,0,0:0:0:0:
192,192,136916,1,0,0:0:0:0:
320,192,137050,1,0,0:0:0:0:
192,192,137050,1,0,0:0:0:0:
448,192,137184,1,0,0:0:0:0:
64,192,137184,1,0,0:0:0:0:
320,192,137251,1,0,0:0:0:0:
192,192,137318,1,0,0:0:0:0:
64,192,137318,1,0,0:0:0:0:
448,192,137385,1,0,0:0:0:0:
192,192,137452,1,0,0:0:0:0:
320,192,137452,1,0,0:0:0:0:
320,192,137586,1,0,0:0:0:0:
64,192,137586,1,0,0:0:0:0:
192,192,137720,1,0,0:0:0:0:
448,192,137720,1,0,0:0:0:0:
320,192,137787,1,0,0:0:0:0:
64,192,137854,1,0,0:0:0:0:
192,192,137854,1,0,0:0:0:0:
64,192,137988,1,0,0:0:0:0:
448,192,137988,1,0,0:0:0:0:
320,192,138122,1,0,0:0:0:0:
448,192,138189,1,0,0:0:0:0:
64,192,138256,1,0,0:0:0:0:
192,192,138256,1,0,0:0:0:0:
448,192,138323,1,0,0:0:0:0:
320,192,138323,1,0,0:0:0:0:
64,192,138390,1,0,0:0:0:0:
192,192,138457,1,0,0:0:0:0:
320,192,138529,1,0,0:0:0:0:
448,192,138529,1,0,0:0:0:0:
192,192,138657,1,0,0:0:0:0:
64,192,138657,1,0,0:0:0:0:
320,192,138785,1,0,0:0:0:0:
192,192,138850,1,0,0:0:0:0:
320,192,138915,1,0,0:0:0:0:
448,192,138915,1,0,0:0:0:0:
64,192,139045,1,0,0:0:0:0:
192,192,139195,1,0,0:0:0:0:
320,192,139260,1,0,0:0:0:0:
448,192,139325,1,0,0:0:0:0:
64,192,139325,1,0,0:0:0:0:
320,192,139455,1,0,0:0:0:0:
192,192,139521,1,0,0:0:0:0:
448,192,139586,1,0,0:0:0:0:
64,192,139586,1,0,0:0:0:0:
320,192,139719,1,0,0:0:0:0:
64,192,139786,1,0,0:0:0:0:
192,192,139852,1,0,0:0:0:0:
448,192,139852,1,0,0:0:0:0:
64,192,139986,1,0,0:0:0:0:
448,192,140128,1,0,0:0:0:0:
192,192,140194,1,0,0:0:0:0:
64,192,140261,1,0,0:0:0:0:
320,192,140261,1,0,0:0:0:0:
448,192,140328,1,0,0:0:0:0:
192,192,140394,1,0,0:0:0:0:
320,192,140461,1,0,0:0:0:0:
64,192,140545,1,0,0:0:0:0:
192,192,140610,1,0,0:0:0:0:
320,192,140676,1,0,0:0:0:0:
448,192,140741,1,0,0:0:0:0:
64,192,140807,1,0,0:0:0:0:
192,192,140872,1,0,0:0:0:0:
64,192,140938,1,0,0:0:0:0:
192,192,141003,1,0,0:0:0:0:
320,192,141060,1,0,0:0:0:0:
64,192,141125,1,0,0:0:0:0:
448,192,141191,1,0,0:0:0:0:
320,192,141257,1,0,0:0:0:0:
448,192,141323,1,0,0:0:0:0:
320,192,141388,1,0,0:0:0:0:
192,192,141454,1,0,0:0:0:0:
448,192,141520,1,0,0:0:0:0:
64,192,141586,1,0,0:0:0:0:
320,192,141652,1,0,0:0:0:0:
192,192,141743,128,0,142018:0:0:0:0:
64,192,141743,128,0,142155:0:0:0:0:
448,192,142155,1,0,0:0:0:0:
320,192,142568,1,0,0:0:0:0:
64,192,142843,1,0,0:0:0:0:
192,192,143256,1,0,0:0:0:0:
320,192,143669,1,0,0:0:0:0:
192,192,143944,1,0,0:0:0:0:
64,192,143944,1,0,0:0:0:0:
192,192,144082,1,0,0:0:0:0:
64,192,144082,1,0,0:0:0:0:
192,192,144357,1,0,0:0:0:0:
64,192,144357,1,0,0:0:0:0:
448,192,144495,128,0,146146:0:0:0:0:
64,192,144495,128,0,148073:0:0:0:0:
192,192,146146,1,0,0:0:0:0:
320,192,146559,1,0,0:0:0:0:
448,192,146972,1,0,0:0:0:0:
320,192,147247,1,0,0:0:0:0:
192,192,147660,1,0,0:0:0:0:
448,192,148073,1,0,0:0:0:0:
320,192,148073,1,0,0:0:0:0:
192,192,148210,1,0,0:0:0:0:
320,192,148210,1,0,0:0:0:0:
64,192,148348,128,0,148898:0:0:0:0:
192,192,148348,128,0,150275:0:0:0:0:
320,192,148898,1,0,0:0:0:0:
448,192,148898,128,0,150275:0:0:0:0:
320,192,150275,1,0,0:0:0:0:
64,192,150275,1,0,0:0:0:0:
320,192,150412,1,0,0:0:0:0:
192,192,150412,1,0,0:0:0:0:
192,192,150550,128,0,150963:0:0:0:0:
448,192,150550,128,0,152752:0:0:0:0:
64,192,150963,1,0,0:0:0:0:
320,192,151376,1,0,0:0:0:0:
64,192,151697,1,0,0:0:0:0:
192,192,152064,1,0,0:0:0:0:
320,192,152476,1,0,0:0:0:0:
192,192,152752,1,0,0:0:0:0:
64,192,152752,1,0,0:0:0:0:
192,192,152889,1,0,0:0:0:0:
64,192,152889,1,0,0:0:0:0:
192,192,153165,1,0,0:0:0:0:
64,192,153165,1,0,0:0:0:0:
192,192,153302,128,0,154678:0:0:0:0:
448,192,153302,128,0,154816:0:0:0:0:
320,192,154678,1,0,0:0:0:0:
64,192,154678,1,0,0:0:0:0:
320,192,154816,1,0,0:0:0:0:
192,192,154816,1,0,0:0:0:0:
448,192,154954,128,0,155259:0:0:0:0:
192,192,154954,1,0,0:0:0:0:
64,192,155206,1,0,0:0:0:0:
320,192,155259,1,0,0:0:0:0:
192,192,155259,1,0,0:0:0:0:
448,192,155366,1,0,0:0:0:0:
320,192,155366,1,0,0:0:0:0:
320,192,155619,1,0,0:0:0:0:
192,192,155619,1,0,0:0:0:0:
64,192,155779,1,0,0:0:0:0:
192,192,155779,1,0,0:0:0:0:
448,192,156054,1,0,0:0:0:0:
64,192,156054,1,0,0:0:0:0:
448,192,156467,1,0,0:0:0:0:
320,192,156467,1,0,0:0:0:0:
448,192,156605,1,0,0:0:0:0:
320,192,156605,1,0,0:0:0:0:
192,192,156880,1,0,0:0:0:0:
64,192,156880,1,0,0:0:0:0:
320,192,157018,1,0,0:0:0:0:
192,192,157018,1,0,0:0:0:0:
448,192,157155,128,0,157568:0:0:0:0:
320,192,157155,1,0,0:0:0:0:
192,192,157293,1,0,0:0:0:0:
64,192,157293,1,0,0:0:0:0:
320,192,157568,1,0,0:0:0:0:
192,192,157568,1,0,0:0:0:0:
448,192,157706,1,0,0:0:0:0:
320,192,157706,1,0,0:0:0:0:
448,192,157964,1,0,0:0:0:0:
320,192,158015,1,0,0:0:0:0:
192,192,158015,1,0,0:0:0:0:
192,192,158119,1,0,0:0:0:0:
64,192,158119,1,0,0:0:0:0:
192,192,158359,1,0,0:0:0:0:
448,192,158411,1,0,0:0:0:0:
320,192,158411,1,0,0:0:0:0:
320,192,158531,1,0,0:0:0:0:
192,192,158531,1,0,0:0:0:0:
320,192,158790,1,0,0:0:0:0:
64,192,158841,1,0,0:0:0:0:
192,192,158841,1,0,0:0:0:0:
320,192,158944,1,0,0:0:0:0:
448,192,158944,1,0,0:0:0:0:
192,192,159082,1,0,0:0:0:0:
320,192,159082,1,0,0:0:0:0:
64,192,159220,1,0,0:0:0:0:
192,192,159220,1,0,0:0:0:0:
64,192,159357,128,0,161440:0:0:0:0:
448,192,159357,1,0,0:0:0:0:
192,192,159634,1,0,0:0:0:0:
192,192,159773,1,0,0:0:0:0:
448,192,159912,1,0,0:0:0:0:
320,192,159912,1,0,0:0:0:0:
320,192,160190,1,0,0:0:0:0:
320,192,160329,1,0,0:0:0:0:
192,192,160745,1,0,0:0:0:0:
192,192,160884,1,0,0:0:0:0:
448,192,161023,1,0,0:0:0:0:
320,192,161023,1,0,0:0:0:0:
320,192,161301,1,0,0:0:0:0:
192,192,161301,1,0,0:0:0:0:
192,192,161579,1,0,0:0:0:0:
64,192,161579,1,0,0:0:0:0:
192,192,161718,1,0,0:0:0:0:
64,192,161718,1,0,0:0:0:0:
192,192,161995,1,0,0:0:0:0:
64,192,161995,1,0,0:0:0:0:
448,192,162134,1,0,0:0:0:0:
64,192,162134,128,0,163523:0:0:0:0:
320,192,162412,1,0,0:0:0:0:
320,192,162551,1,0,0:0:0:0:
192,192,162968,1,0,0:0:0:0:
192,192,163107,1,0,0:0:0:0:
448,192,163245,1,0,0:0:0:0:
320,192,163245,1,0,0:0:0:0:
192,192,163523,1,0,0:0:0:0:
320,192,163523,128,0,163662:0:0:0:0:
64,192,163662,1,0,0:0:0:0:
192,192,163662,128,0,163801:0:0:0:0:
320,192,163801,1,0,0:0:0:0:
448,192,163801,128,0,165745:0:0:0:0:
320,192,164079,1,0,0:0:0:0:
320,192,164218,1,0,0:0:0:0:
192,192,164357,1,0,0:0:0:0:
64,192,164357,1,0,0:0:0:0:
192,192,164634,1,0,0:0:0:0:
192,192,164773,1,0,0:0:0:0:
320,192,165190,1,0,0:0:0:0:
320,192,165329,1,0,0:0:0:0:
64,192,165468,1,0,0:0:0:0:
192,192,165468,1,0,0:0:0:0:
320,192,165745,128,0,165884:0:0:0:0:
64,192,165745,1,0,0:0:0:0:
64,192,165884,1,0,0:0:0:0:
448,192,165884,128,0,166023:0:0:0:0:
320,192,166023,1,0,0:0:0:0:
192,192,166023,128,0,166995:0:0:0:0:
64,192,166301,1,0,0:0:0:0:
64,192,166440,1,0,0:0:0:0:
320,192,166579,1,0,0:0:0:0:
448,192,166579,1,0,0:0:0:0:
320,192,166718,1,0,0:0:0:0:
448,192,166718,1,0,0:0:0:0:
64,192,166857,1,0,0:0:0:0:
64,192,166995,1,0,0:0:0:0:
192,192,167134,1,0,0:0:0:0:
448,192,167273,1,0,0:0:0:0:
320,192,167273,1,0,0:0:0:0:
64,192,167412,1,0,0:0:0:0:
64,192,167551,1,0,0:0:0:0:
320,192,167690,1,0,0:0:0:0:
448,192,167690,1,0,0:0:0:0:
320,192,167829,1,0,0:0:0:0:
448,192,167829,1,0,0:0:0:0:
64,192,167968,1,0,0:0:0:0:
192,192,167968,1,0,0:0:0:0:
192,192,168107,1,0,0:0:0:0:
320,192,168107,1,0,0:0:0:0:
448,192,168245,128,0,170329:0:0:0:0:
320,192,168245,1,0,0:0:0:0:
320,192,168523,1,0,0:0:0:0:
320,192,168662,1,0,0:0:0:0:
64,192,168801,1,0,0:0:0:0:
192,192,168801,1,0,0:0:0:0:
192,192,169079,1,0,0:0:0:0:
192,192,169218,1,0,0:0:0:0:
320,192,169634,1,0,0:0:0:0:
320,192,169773,1,0,0:0:0:0:
64,192,169912,1,0,0:0:0:0:
192,192,169912,1,0,0:0:0:0:
192,192,170190,1,0,0:0:0:0:
320,192,170190,1,0,0:0:0:0:
320,192,170468,1,0,0:0:0:0:
448,192,170468,1,0,0:0:0:0:
320,192,170607,1,0,0:0:0:0:
448,192,170607,1,0,0:0:0:0:
320,192,170884,1,0,0:0:0:0:
448,192,170884,1,0,0:0:0:0:
64,192,171023,1,0,0:0:0:0:
448,192,171023,128,0,172412:0:0:0:0:
192,192,171301,1,0,0:0:0:0:
192,192,171440,1,0,0:0:0:0:
320,192,171857,1,0,0:0:0:0:
320,192,171995,1,0,0:0:0:0:
64,192,172134,1,0,0:0:0:0:
192,192,172134,1,0,0:0:0:0:
320,192,172412,1,0,0:0:0:0:
192,192,172412,128,0,172551:0:0:0:0:
448,192,172551,1,0,0:0:0:0:
320,192,172551,128,0,172690:0:0:0:0:
192,192,172690,1,0,0:0:0:0:
64,192,172690,128,0,174634:0:0:0:0:
192,192,172968,1,0,0:0:0:0:
192,192,173107,1,0,0:0:0:0:
320,192,173245,1,0,0:0:0:0:
448,192,173245,1,0,0:0:0:0:
320,192,173523,1,0,0:0:0:0:
320,192,173662,1,0,0:0:0:0:
192,192,174079,1,0,0:0:0:0:
192,192,174218,1,0,0:0:0:0:
448,192,174357,1,0,0:0:0:0:
320,192,174357,1,0,0:0:0:0:
192,192,174634,128,0,174773:0:0:0:0:
448,192,174634,1,0,0:0:0:0:
448,192,174773,1,0,0:0:0:0:
64,192,174773,128,0,174912:0:0:0:0:
192,192,174912,1,0,0:0:0:0:
320,192,174912,128,0,175468:0:0:0:0:
448,192,175190,1,0,0:0:0:0:
448,192,175329,1,0,0:0:0:0:
192,192,175468,128,0,175884:0:0:0:0:
64,192,175468,1,0,0:0:0:0:
320,192,175607,1,0,0:0:0:0:
448,192,175607,1,0,0:0:0:0:
64,192,175745,1,0,0:0:0:0:
64,192,175884,1,0,0:0:0:0:
192,192,176023,1,0,0:0:0:0:
448,192,176162,1,0,0:0:0:0:
320,192,176162,1,0,0:0:0:0:
64,192,176301,1,0,0:0:0:0:
64,192,176440,1,0,0:0:0:0:
320,192,176579,1,0,0:0:0:0:
448,192,176579,1,0,0:0:0:0:
320,192,176718,1,0,0:0:0:0:
448,192,176718,1,0,0:0:0:0:
64,192,176857,1,0,0:0:0:0:
192,192,176857,1,0,0:0:0:0:
192,192,176995,1,0,0:0:0:0:
320,192,176995,1,0,0:0:0:0:
448,192,177134,128,0,177273:0:0:0:0:
320,192,177134,1,0,0:0:0:0:
64,192,177273,128,0,177968:0:0:0:0:
192,192,177412,1,0,0:0:0:0:
192,192,177551,1,0,0:0:0:0:
448,192,177690,1,0,0:0:0:0:
320,192,177690,1,0,0:0:0:0:
192,192,177968,1,0,0:0:0:0:
192,192,178107,1,0,0:0:0:0:
448,192,178245,128,0,178384:0:0:0:0:
192,192,178384,128,0,178523:0:0:0:0:
320,192,178523,1,0,0:0:0:0:
64,192,178523,128,0,178662:0:0:0:0:
320,192,178662,1,0,0:0:0:0:
448,192,178662,128,0,178801:0:0:0:0:
192,192,178801,1,0,0:0:0:0:
64,192,178801,128,0,178940:0:0:0:0:
320,192,178940,128,0,179079:0:0:0:0:
448,192,179079,1,0,0:0:0:0:
192,192,179079,128,0,179218:0:0:0:0:
64,192,179218,128,0,179357:0:0:0:0:
448,192,179357,1,0,0:0:0:0:
320,192,179357,1,0,0:0:0:0:
320,192,179495,128,0,179634:0:0:0:0:
448,192,179495,1,0,0:0:0:0:
192,192,179634,128,0,179773:0:0:0:0:
448,192,179773,1,0,0:0:0:0:
320,192,179773,1,0,0:0:0:0:
64,192,179912,128,0,180884:0:0:0:0:
448,192,179912,128,0,181301:0:0:0:0:
192,192,180190,128,0,180329:0:0:0:0:
320,192,180329,128,0,180607:0:0:0:0:
192,192,180607,128,0,180745:0:0:0:0:
320,192,180745,1,0,0:0:0:0:
320,192,180884,1,0,0:0:0:0:
64,192,181023,1,0,0:0:0:0:
192,192,181023,1,0,0:0:0:0:
192,192,181301,1,0,0:0:0:0:
64,192,181301,1,0,0:0:0:0:
192,192,181440,128,0,181579:0:0:0:0:
320,192,181440,1,0,0:0:0:0:
320,192,181579,128,0,183523:0:0:0:0:
448,192,181579,1,0,0:0:0:0:
448,192,181857,1,0,0:0:0:0:
448,192,181995,128,0,182134:0:0:0:0:
64,192,182134,1,0,0:0:0:0:
192,192,182134,1,0,0:0:0:0:
64,192,182412,128,0,182551:0:0:0:0:
448,192,182412,1,0,0:0:0:0:
448,192,182551,1,0,0:0:0:0:
192,192,182829,128,0,182968:0:0:0:0:
448,192,182968,1,0,0:0:0:0:
448,192,183107,1,0,0:0:0:0:
64,192,183245,128,0,183384:0:0:0:0:
192,192,183245,1,0,0:0:0:0:
448,192,183523,1,0,0:0:0:0:
192,192,183523,128,0,183662:0:0:0:0:
448,192,183662,1,0,0:0:0:0:
320,192,183662,128,0,183801:0:0:0:0:
64,192,183801,128,0,184357:0:0:0:0:
192,192,184079,1,0,0:0:0:0:
192,192,184218,1,0,0:0:0:0:
320,192,184357,1,0,0:0:0:0:
448,192,184357,128,0,185607:0:0:0:0:
192,192,184495,1,0,0:0:0:0:
64,192,184495,1,0,0:0:0:0:
320,192,184634,1,0,0:0:0:0:
320,192,184773,1,0,0:0:0:0:
64,192,185051,128,0,185190:0:0:0:0:
192,192,185051,1,0,0:0:0:0:
320,192,185190,1,0,0:0:0:0:
320,192,185329,1,0,0:0:0:0:
64,192,185468,1,0,0:0:0:0:
192,192,185468,1,0,0:0:0:0:
192,192,185607,1,0,0:0:0:0:
320,192,185607,1,0,0:0:0:0:
320,192,185745,1,0,0:0:0:0:
448,192,185745,1,0,0:0:0:0:
448,192,185884,1,0,0:0:0:0:
64,192,185884,1,0,0:0:0:0:
192,192,186023,1,0,0:0:0:0:
64,192,186023,1,0,0:0:0:0:
320,192,186116,1,0,0:0:0:0:
64,192,186208,1,0,0:0:0:0:
448,192,186301,1,0,0:0:0:0:
320,192,186301,1,0,0:0:0:0:
192,192,186394,1,0,0:0:0:0:
448,192,186486,1,0,0:0:0:0:
192,192,186579,1,0,0:0:0:0:
64,192,186579,1,0,0:0:0:0:
320,192,186671,1,0,0:0:0:0:
64,192,186764,1,0,0:0:0:0:
448,192,186857,1,0,0:0:0:0:
320,192,186857,1,0,0:0:0:0:
192,192,186949,1,0,0:0:0:0:
448,192,187042,1,0,0:0:0:0:
192,192,187134,1,0,0:0:0:0:
320,192,187134,1,0,0:0:0:0:
64,192,187227,1,0,0:0:0:0:
320,192,187319,1,0,0:0:0:0:
448,192,187412,1,0,0:0:0:0:
64,192,187412,1,0,0:0:0:0:
192,192,187505,1,0,0:0:0:0:
448,192,187597,1,0,0:0:0:0:
192,192,187690,1,0,0:0:0:0:
320,192,187690,1,0,0:0:0:0:
64,192,187782,1,0,0:0:0:0:
320,192,187875,1,0,0:0:0:0:
448,192,187968,1,0,0:0:0:0:
64,192,187968,1,0,0:0:0:0:
192,192,188060,1,0,0:0:0:0:
448,192,188153,1,0,0:0:0:0:
64,192,188245,1,0,0:0:0:0:
192,192,188245,1,0,0:0:0:0:
192,192,188384,1,0,0:0:0:0:
64,192,188384,1,0,0:0:0:0:
192,192,188662,1,0,0:0:0:0:
64,192,188662,1,0,0:0:0:0:
448,192,188801,128,0,190190:0:0:0:0:
64,192,188801,128,0,189773:0:0:0:0:
192,192,189079,1,0,0:0:0:0:
192,192,189218,1,0,0:0:0:0:
320,192,189634,1,0,0:0:0:0:
320,192,189773,1,0,0:0:0:0:
64,192,189912,1,0,0:0:0:0:
192,192,189912,1,0,0:0:0:0:
64,192,190190,128,0,190329:0:0:0:0:
192,192,190259,128,0,190398:0:0:0:0:
320,192,190329,128,0,190468:0:0:0:0:
448,192,190398,128,0,190537:0:0:0:0:
64,192,190468,128,0,190884:0:0:0:0:
448,192,190745,1,0,0:0:0:0:
448,192,190884,1,0,0:0:0:0:
320,192,190884,128,0,191301:0:0:0:0:
192,192,191023,1,0,0:0:0:0:
64,192,191023,1,0,0:0:0:0:
448,192,191301,1,0,0:0:0:0:
192,192,191301,128,0,191718:0:0:0:0:
448,192,191440,1,0,0:0:0:0:
64,192,191718,128,0,191995:0:0:0:0:
320,192,191857,1,0,0:0:0:0:
320,192,191995,1,0,0:0:0:0:
192,192,192134,1,0,0:0:0:0:
64,192,192134,128,0,192412:0:0:0:0:
320,192,192412,1,0,0:0:0:0:
448,192,192412,1,0,0:0:0:0:
192,192,192551,1,0,0:0:0:0:
320,192,192551,1,0,0:0:0:0:
192,192,192690,128,0,192829:0:0:0:0:
64,192,192690,128,0,193245:0:0:0:0:
320,192,192829,128,0,192968:0:0:0:0:
448,192,192968,128,0,193107:0:0:0:0:
320,192,193107,128,0,193245:0:0:0:0:
192,192,193245,1,0,0:0:0:0:
448,192,193245,128,0,194357:0:0:0:0:
192,192,193384,1,0,0:0:0:0:
320,192,193384,1,0,0:0:0:0:
64,192,193523,1,0,0:0:0:0:
320,192,193662,128,0,193801:0:0:0:0:
64,192,193662,1,0,0:0:0:0:
64,192,193940,128,0,194079:0:0:0:0:
192,192,193940,1,0,0:0:0:0:
320,192,194079,1,0,0:0:0:0:
320,192,194218,128,0,194357:0:0:0:0:
192,192,194357,1,0,0:0:0:0:
64,192,194357,1,0,0:0:0:0:
64,192,194495,128,0,194634:0:0:0:0:
192,192,194495,1,0,0:0:0:0:
448,192,194634,1,0,0:0:0:0:
320,192,194634,1,0,0:0:0:0:
448,192,194773,1,0,0:0:0:0:
192,192,194773,1,0,0:0:0:0:
320,192,194912,128,0,195051:0:0:0:0:
64,192,194912,128,0,196579:0:0:0:0:
448,192,195051,128,0,195190:0:0:0:0:
192,192,195190,1,0,0:0:0:0:
192,192,195329,128,0,195468:0:0:0:0:
320,192,195468,1,0,0:0:0:0:
448,192,195468,1,0,0:0:0:0:
192,192,195745,1,0,0:0:0:0:
192,192,195884,128,0,196023:0:0:0:0:
320,192,196023,128,0,196162:0:0:0:0:
448,192,196162,128,0,196301:0:0:0:0:
192,192,196301,1,0,0:0:0:0:
192,192,196440,1,0,0:0:0:0:
448,192,196579,128,0,196718:0:0:0:0:
320,192,196579,1,0,0:0:0:0:
64,192,196718,128,0,196857:0:0:0:0:
192,192,196857,1,0,0:0:0:0:
192,192,196995,128,0,197134:0:0:0:0:
320,192,197134,128,0,197273:0:0:0:0:
448,192,197134,128,0,197690:0:0:0:0:
64,192,197273,128,0,197412:0:0:0:0:
320,192,197412,1,0,0:0:0:0:
320,192,197551,128,0,197690:0:0:0:0:
64,192,197690,128,0,197829:0:0:0:0:
192,192,197690,1,0,0:0:0:0:
320,192,197829,128,0,197968:0:0:0:0:
448,192,197968,128,0,198801:0:0:0:0:
192,192,197968,1,0,0:0:0:0:
192,192,198107,1,0,0:0:0:0:
64,192,198245,128,0,198384:0:0:0:0:
192,192,198384,128,0,198523:0:0:0:0:
320,192,198523,1,0,0:0:0:0:
320,192,198662,128,0,198801:0:0:0:0:
64,192,198801,128,0,198940:0:0:0:0:
192,192,198801,1,0,0:0:0:0:
448,192,198940,128,0,199079:0:0:0:0:
192,192,199079,1,0,0:0:0:0:
64,192,199079,1,0,0:0:0:0:
320,192,199218,1,0,0:0:0:0:
192,192,199218,1,0,0:0:0:0:
320,192,199357,1,0,0:0:0:0:
448,192,199357,1,0,0:0:0:0:
448,192,199494,1,0,0:0:0:0:
64,192,199632,1,0,0:0:0:0:
64,192,199769,1,0,0:0:0:0:
448,192,199907,1,0,0:0:0:0:
448,192,200045,1,0,0:0:0:0:
64,192,200182,1,0,0:0:0:0:
64,192,200320,1,0,0:0:0:0:
448,192,200457,1,0,0:0:0:0:
448,192,200595,1,0,0:0:0:0:
64,192,200733,1,0,0:0:0:0:
64,192,200870,1,0,0:0:0:0:
448,192,201008,1,0,0:0:0:0:
448,192,201145,1,0,0:0:0:0:
64,192,201283,1,0,0:0:0:0:
64,192,201421,1,0,0:0:0:0:
448,192,201558,1,0,0:0:0:0:
320,192,201558,1,0,0:0:0:0:
320,192,201696,1,0,0:0:0:0:
448,192,201696,1,0,0:0:0:0:
64,192,201834,1,0,0:0:0:0:
192,192,201834,1,0,0:0:0:0:
192,192,201971,1,0,0:0:0:0:
64,192,201971,1,0,0:0:0:0:
448,192,202109,1,0,0:0:0:0:
320,192,202109,1,0,0:0:0:0:
320,192,202246,1,0,0:0:0:0:
448,192,202246,1,0,0:0:0:0:
64,192,202384,1,0,0:0:0:0:
192,192,202384,1,0,0:0:0:0:
192,192,202522,1,0,0:0:0:0:
64,192,202522,1,0,0:0:0:0:
448,192,202659,1,0,0:0:0:0:
320,192,202659,1,0,0:0:0:0:
448,192,202797,1,0,0:0:0:0:
320,192,202797,1,0,0:0:0:0:
192,192,202934,1,0,0:0:0:0:
64,192,202934,1,0,0:0:0:0:
448,192,203003,1,0,0:0:0:0:
320,192,203072,1,0,0:0:0:0:
64,192,203072,1,0,0:0:0:0:
192,192,203141,1,0,0:0:0:0:
64,192,203210,1,0,0:0:0:0:
448,192,203210,1,0,0:0:0:0:
320,192,203279,1,0,0:0:0:0:
448,192,203347,1,0,0:0:0:0:
64,192,203347,1,0,0:0:0:0:
192,192,203416,1,0,0:0:0:0:
320,192,203485,1,0,0:0:0:0:
448,192,203485,1,0,0:0:0:0:
64,192,203554,1,0,0:0:0:0:
192,192,203623,1,0,0:0:0:0:
320,192,203623,1,0,0:0:0:0:
64,192,203691,1,0,0:0:0:0:
448,192,203760,1,0,0:0:0:0:
320,192,203826,1,0,0:0:0:0:
64,192,203893,1,0,0:0:0:0:
192,192,203893,1,0,0:0:0:0:
448,192,203960,1,0,0:0:0:0:
320,192,204027,1,0,0:0:0:0:
192,192,204094,1,0,0:0:0:0:
64,192,204161,1,0,0:0:0:0:
448,192,204161,1,0,0:0:0:0:
320,192,204228,1,0,0:0:0:0:
64,192,204295,1,0,0:0:0:0:
192,192,204362,1,0,0:0:0:0:
448,192,204429,1,0,0:0:0:0:
320,192,204429,1,0,0:0:0:0:
64,192,204496,1,0,0:0:0:0:
192,192,204563,1,0,0:0:0:0:
320,192,204630,1,0,0:0:0:0:
448,192,204697,1,0,0:0:0:0:
64,192,204697,1,0,0:0:0:0:
192,192,204764,1,0,0:0:0:0:
320,192,204831,128,0,204965:0:0:0:0:
192,192,204965,1,0,0:0:0:0:
64,192,204965,1,0,0:0:0:0:
448,192,205032,1,0,0:0:0:0:
320,192,205099,1,0,0:0:0:0:
192,192,205166,1,0,0:0:0:0:
448,192,205233,1,0,0:0:0:0:
320,192,205233,1,0,0:0:0:0:
64,192,205300,1,0,0:0:0:0:
192,192,205367,128,0,205501:0:0:0:0:
320,192,205501,1,0,0:0:0:0:
448,192,205501,1,0,0:0:0:0:
64,192,205568,1,0,0:0:0:0:
192,192,205635,1,0,0:0:0:0:
320,192,205701,1,0,0:0:0:0:
64,192,205768,1,0,0:0:0:0:
192,192,205768,1,0,0:0:0:0:
448,192,205835,1,0,0:0:0:0:
320,192,205902,128,0,206036:0:0:0:0:
192,192,206036,1,0,0:0:0:0:
64,192,206036,1,0,0:0:0:0:
64,192,206170,1,0,0:0:0:0:
448,192,206170,1,0,0:0:0:0:
320,192,206237,1,0,0:0:0:0:
64,192,206304,1,0,0:0:0:0:
192,192,206304,1,0,0:0:0:0:
448,192,206438,1,0,0:0:0:0:
320,192,206438,1,0,0:0:0:0:
448,192,206572,1,0,0:0:0:0:
64,192,206572,1,0,0:0:0:0:
192,192,206639,1,0,0:0:0:0:
448,192,206706,1,0,0:0:0:0:
320,192,206706,1,0,0:0:0:0:
64,192,206773,1,0,0:0:0:0:
320,192,206840,1,0,0:0:0:0:
192,192,206907,1,0,0:0:0:0:
64,192,206974,1,0,0:0:0:0:
448,192,206974,1,0,0:0:0:0:
320,192,207018,1,0,0:0:0:0:
320,192,207152,1,0,0:0:0:0:
64,192,207152,1,0,0:0:0:0:
192,192,207331,1,0,0:0:0:0:
64,192,207331,1,0,0:0:0:0:
64,192,207487,1,0,0:0:0:0:
448,192,207487,1,0,0:0:0:0:
192,192,207554,1,0,0:0:0:0:
448,192,207688,1,0,0:0:0:0:
192,192,207688,1,0,0:0:0:0:
448,192,207867,1,0,0:0:0:0:
320,192,207867,1,0,0:0:0:0:
64,192,208045,128,0,208179:0:0:0:0:
320,192,208045,1,0,0:0:0:0:
448,192,208179,1,0,0:0:0:0:
320,192,208179,1,0,0:0:0:0:
64,192,208246,1,0,0:0:0:0:
320,192,208313,1,0,0:0:0:0:
64,192,208380,1,0,0:0:0:0:
192,192,208447,128,0,208581:0:0:0:0:
448,192,208447,1,0,0:0:0:0:
448,192,208581,1,0,0:0:0:0:
192,192,208648,1,0,0:0:0:0:
320,192,208715,1,0,0:0:0:0:
448,192,208715,1,0,0:0:0:0:
192,192,208782,1,0,0:0:0:0:
320,192,208849,128,0,208983:0:0:0:0:
64,192,208849,1,0,0:0:0:0:
448,192,208916,1,0,0:0:0:0:
192,192,208983,1,0,0:0:0:0:
64,192,208983,1,0,0:0:0:0:
320,192,209050,1,0,0:0:0:0:
448,192,209117,1,0,0:0:0:0:
64,192,209184,1,0,0:0:0:0:
448,192,209251,1,0,0:0:0:0:
320,192,209251,1,0,0:0:0:0:
192,192,209318,1,0,0:0:0:0:
64,192,209385,1,0,0:0:0:0:
320,192,209451,1,0,0:0:0:0:
64,192,209518,1,0,0:0:0:0:
192,192,209518,1,0,0:0:0:0:
320,192,209585,1,0,0:0:0:0:
448,192,209652,1,0,0:0:0:0:
192,192,209719,1,0,0:0:0:0:
448,192,209786,1,0,0:0:0:0:
320,192,209786,1,0,0:0:0:0:
192,192,209853,1,0,0:0:0:0:
64,192,209920,1,0,0:0:0:0:
448,192,209987,1,0,0:0:0:0:
64,192,210054,1,0,0:0:0:0:
192,192,210054,1,0,0:0:0:0:
320,192,210121,1,0,0:0:0:0:
448,192,210188,128,0,210322:0:0:0:0:
64,192,210322,1,0,0:0:0:0:
192,192,210322,1,0,0:0:0:0:
320,192,210389,1,0,0:0:0:0:
448,192,210456,1,0,0:0:0:0:
192,192,210523,1,0,0:0:0:0:
448,192,210590,1,0,0:0:0:0:
320,192,210590,1,0,0:0:0:0:
192,192,210657,1,0,0:0:0:0:
64,192,210724,1,0,0:0:0:0:
320,192,210791,1,0,0:0:0:0:
64,192,210858,1,0,0:0:0:0:
192,192,210858,1,0,0:0:0:0:
320,192,210925,1,0,0:0:0:0:
64,192,210992,1,0,0:0:0:0:
448,192,210992,1,0,0:0:0:0:
192,192,211059,1,0,0:0:0:0:
448,192,211126,1,0,0:0:0:0:
320,192,211193,1,0,0:0:0:0:
448,192,211237,1,0,0:0:0:0:
64,192,211282,1,0,0:0:0:0:
192,192,211282,1,0,0:0:0:0:
64,192,211438,1,0,0:0:0:0:
192,192,211438,1,0,0:0:0:0:
320,192,211617,1,0,0:0:0:0:
192,192,211617,1,0,0:0:0:0:
64,192,211773,1,0,0:0:0:0:
448,192,211818,1,0,0:0:0:0:
320,192,211818,1,0,0:0:0:0:
320,192,211974,1,0,0:0:0:0:
448,192,211974,1,0,0:0:0:0:
320,192,212152,1,0,0:0:0:0:
192,192,212152,1,0,0:0:0:0:
64,192,212331,1,0,0:0:0:0:
192,192,212331,1,0,0:0:0:0:
448,192,212398,1,0,0:0:0:0:
64,192,212465,1,0,0:0:0:0:
320,192,212465,1,0,0:0:0:0:
192,192,212599,1,0,0:0:0:0:
320,192,212599,1,0,0:0:0:0:
64,192,212666,1,0,0:0:0:0:
192,192,212733,1,0,0:0:0:0:
448,192,212733,1,0,0:0:0:0:
320,192,212867,1,0,0:0:0:0:
448,192,212867,1,0,0:0:0:0:
192,192,212934,1,0,0:0:0:0:
320,192,213001,1,0,0:0:0:0:
64,192,213001,1,0,0:0:0:0:
448,192,213135,1,0,0:0:0:0:
64,192,213135,1,0,0:0:0:0:
320,192,213201,1,0,0:0:0:0:
448,192,213268,1,0,0:0:0:0:
192,192,213268,1,0,0:0:0:0:
192,192,213402,1,0,0:0:0:0:
64,192,213402,1,0,0:0:0:0:
320,192,213469,1,0,0:0:0:0:
448,192,213536,1,0,0:0:0:0:
64,192,213536,1,0,0:0:0:0:
320,192,213670,1,0,0:0:0:0:
192,192,213670,1,0,0:0:0:0:
448,192,213737,1,0,0:0:0:0:
64,192,213804,1,0,0:0:0:0:
192,192,213804,1,0,0:0:0:0:
320,192,213938,1,0,0:0:0:0:
448,192,213938,1,0,0:0:0:0:
64,192,214005,1,0,0:0:0:0:
192,192,214072,1,0,0:0:0:0:
320,192,214072,1,0,0:0:0:0:
448,192,214206,1,0,0:0:0:0:
64,192,214206,1,0,0:0:0:0:
192,192,214273,1,0,0:0:0:0:
320,192,214340,1,0,0:0:0:0:
448,192,214340,1,0,0:0:0:0:
192,192,214474,1,0,0:0:0:0:
64,192,214474,1,0,0:0:0:0:
320,192,214563,1,0,0:0:0:0:
192,192,214652,1,0,0:0:0:0:
64,192,214742,1,0,0:0:0:0:
448,192,214742,1,0,0:0:0:0:
320,192,214809,1,0,0:0:0:0:
64,192,214876,1,0,0:0:0:0:
192,192,214876,1,0,0:0:0:0:
448,192,215010,1,0,0:0:0:0:
320,192,215010,1,0,0:0:0:0:
64,192,215076,1,0,0:0:0:0:
320,192,215143,1,0,0:0:0:0:
192,192,215143,1,0,0:0:0:0:
448,192,215210,1,0,0:0:0:0:
192,192,215277,1,0,0:0:0:0:
64,192,215277,1,0,0:0:0:0:
320,192,215344,1,0,0:0:0:0:
64,192,215411,1,0,0:0:0:0:
448,192,215478,1,0,0:0:0:0:
320,192,215523,1,0,0:0:0:0:
64,192,215568,1,0,0:0:0:0:
192,192,215568,1,0,0:0:0:0:
64,192,215724,1,0,0:0:0:0:
192,192,215724,1,0,0:0:0:0:
320,192,215902,1,0,0:0:0:0:
192,192,215902,1,0,0:0:0:0:
64,192,216059,1,0,0:0:0:0:
448,192,216103,1,0,0:0:0:0:
320,192,216103,1,0,0:0:0:0:
320,192,216260,1,0,0:0:0:0:
448,192,216260,1,0,0:0:0:0:
320,192,216438,1,0,0:0:0:0:
192,192,216438,1,0,0:0:0:0:
64,192,216617,1,0,0:0:0:0:
448,192,216617,1,0,0:0:0:0:
64,192,216751,1,0,0:0:0:0:
192,192,216751,1,0,0:0:0:0:
448,192,216818,1,0,0:0:0:0:
192,192,216885,1,0,0:0:0:0:
448,192,216951,1,0,0:0:0:0:
64,192,217018,1,0,0:0:0:0:
192,192,217018,1,0,0:0:0:0:
448,192,217085,1,0,0:0:0:0:
192,192,217152,1,0,0:0:0:0:
448,192,217219,1,0,0:0:0:0:
64,192,217286,1,0,0:0:0:0:
192,192,217286,1,0,0:0:0:0:
448,192,217420,1,0,0:0:0:0:
320,192,217420,1,0,0:0:0:0:
192,192,217487,1,0,0:0:0:0:
320,192,217554,1,0,0:0:0:0:
64,192,217554,1,0,0:0:0:0:
448,192,217688,1,0,0:0:0:0:
64,192,217688,1,0,0:0:0:0:
448,192,217822,1,0,0:0:0:0:
320,192,217822,1,0,0:0:0:0:
64,192,217889,1,0,0:0:0:0:
320,192,217956,1,0,0:0:0:0:
64,192,218023,1,0,0:0:0:0:
448,192,218090,1,0,0:0:0:0:
320,192,218090,1,0,0:0:0:0:
64,192,218157,1,0,0:0:0:0:
320,192,218224,1,0,0:0:0:0:
64,192,218291,1,0,0:0:0:0:
448,192,218358,1,0,0:0:0:0:
320,192,218358,1,0,0:0:0:0:
64,192,218492,1,0,0:0:0:0:
192,192,218492,1,0,0:0:0:0:
320,192,218559,1,0,0:0:0:0:
192,192,218626,1,0,0:0:0:0:
448,192,218626,1,0,0:0:0:0:
448,192,218760,1,0,0:0:0:0:
320,192,218760,1,0,0:0:0:0:
320,192,218893,1,0,0:0:0:0:
192,192,218893,1,0,0:0:0:0:
192,192,219027,1,0,0:0:0:0:
64,192,219027,1,0,0:0:0:0:
448,192,219094,1,0,0:0:0:0:
320,192,219161,1,0,0:0:0:0:
64,192,219161,1,0,0:0:0:0:
192,192,219295,1,0,0:0:0:0:
64,192,219295,1,0,0:0:0:0:
320,192,219429,1,0,0:0:0:0:
192,192,219429,1,0,0:0:0:0:
320,192,219563,1,0,0:0:0:0:
448,192,219563,1,0,0:0:0:0:
64,192,219630,1,0,0:0:0:0:
192,192,219697,1,0,0:0:0:0:
448,192,219697,1,0,0:0:0:0:
448,192,219831,1,0,0:0:0:0:
320,192,219831,1,0,0:0:0:0:
64,192,219898,1,0,0:0:0:0:
320,192,219965,1,0,0:0:0:0:
192,192,219965,1,0,0:0:0:0:
192,192,220099,1,0,0:0:0:0:
64,192,220099,1,0,0:0:0:0:
448,192,220166,1,0,0:0:0:0:
320,192,220233,1,0,0:0:0:0:
192,192,220233,1,0,0:0:0:0:
64,192,220300,1,0,0:0:0:0:
448,192,220367,1,0,0:0:0:0:
320,192,220367,1,0,0:0:0:0:
64,192,220434,1,0,0:0:0:0:
320,192,220501,1,0,0:0:0:0:
192,192,220501,1,0,0:0:0:0:
448,192,220568,1,0,0:0:0:0:
192,192,220635,1,0,0:0:0:0:
64,192,220635,1,0,0:0:0:0:
448,192,220701,1,0,0:0:0:0:
320,192,220768,1,0,0:0:0:0:
192,192,220768,1,0,0:0:0:0:
64,192,220835,1,0,0:0:0:0:
448,192,220902,1,0,0:0:0:0:
320,192,220902,1,0,0:0:0:0:
448,192,221036,1,0,0:0:0:0:
192,192,221036,1,0,0:0:0:0:
320,192,221170,1,0,0:0:0:0:
64,192,221170,1,0,0:0:0:0:
448,192,221237,1,0,0:0:0:0:
320,192,221304,1,0,0:0:0:0:
192,192,221304,1,0,0:0:0:0:
64,192,221438,1,0,0:0:0:0:
192,192,221438,1,0,0:0:0:0:
320,192,221572,1,0,0:0:0:0:
64,192,221572,1,0,0:0:0:0:
320,192,221706,1,0,0:0:0:0:
448,192,221706,1,0,0:0:0:0:
64,192,221773,1,0,0:0:0:0:
192,192,221840,1,0,0:0:0:0:
320,192,221840,1,0,0:0:0:0:
192,192,221974,1,0,0:0:0:0:
64,192,221974,1,0,0:0:0:0:
448,192,222108,1,0,0:0:0:0:
64,192,222108,1,0,0:0:0:0:
448,192,222242,1,0,0:0:0:0:
320,192,222242,1,0,0:0:0:0:
64,192,222309,1,0,0:0:0:0:
320,192,222376,1,0,0:0:0:0:
192,192,222376,1,0,0:0:0:0:
320,192,222510,1,0,0:0:0:0:
192,192,222510,1,0,0:0:0:0:
448,192,222643,1,0,0:0:0:0:
64,192,222643,1,0,0:0:0:0:
448,192,222777,1,0,0:0:0:0:
320,192,222777,1,0,0:0:0:0:
64,192,222844,1,0,0:0:0:0:
320,192,222911,1,0,0:0:0:0:
448,192,222911,1,0,0:0:0:0:
192,192,223045,1,0,0:0:0:0:
64,192,223045,1,0,0:0:0:0:
64,192,223179,1,0,0:0:0:0:
192,192,223179,1,0,0:0:0:0:
448,192,223313,1,0,0:0:0:0:
320,192,223313,1,0,0:0:0:0:
64,192,223380,1,0,0:0:0:0:
192,192,223447,1,0,0:0:0:0:
320,192,223447,1,0,0:0:0:0:
64,192,223581,1,0,0:0:0:0:
448,192,223581,1,0,0:0:0:0:
320,192,223715,1,0,0:0:0:0:
448,192,223715,1,0,0:0:0:0:
64,192,223849,1,0,0:0:0:0:
192,192,223849,1,0,0:0:0:0:
448,192,223916,1,0,0:0:0:0:
64,192,223983,1,0,0:0:0:0:
192,192,223983,1,0,0:0:0:0:
320,192,224117,1,0,0:0:0:0:
448,192,224117,1,0,0:0:0:0:
192,192,224251,1,0,0:0:0:0:
448,192,224251,1,0,0:0:0:0:
192,192,224385,1,0,0:0:0:0:
320,192,224385,1,0,0:0:0:0:
64,192,224518,1,0,0:0:0:0:
320,192,224518,1,0,0:0:0:0:
64,192,224652,1,0,0:0:0:0:
192,192,224652,1,0,0:0:0:0:
320,192,224719,1,0,0:0:0:0:
192,192,224786,1,0,0:0:0:0:
448,192,224786,1,0,0:0:0:0:
448,192,224920,128,0,225054:0:0:0:0:
64,192,224920,1,0,0:0:0:0:
320,192,225054,128,0,225188:0:0:0:0:
64,192,225054,1,0,0:0:0:0:
448,192,225188,1,0,0:0:0:0:
192,192,225188,1,0,0:0:0:0:
320,192,225322,1,0,0:0:0:0:
192,192,225322,1,0,0:0:0:0:
64,192,225456,1,0,0:0:0:0:
448,192,225456,1,0,0:0:0:0:
192,192,225523,1,0,0:0:0:0:
64,192,225590,1,0,0:0:0:0:
320,192,225590,1,0,0:0:0:0:
192,192,225724,1,0,0:0:0:0:
448,192,225724,1,0,0:0:0:0:
192,192,225858,1,0,0:0:0:0:
320,192,225858,1,0,0:0:0:0:
448,192,225992,1,0,0:0:0:0:
64,192,225992,1,0,0:0:0:0:
192,192,226059,1,0,0:0:0:0:
320,192,226126,1,0,0:0:0:0:
64,192,226126,1,0,0:0:0:0:
448,192,226260,1,0,0:0:0:0:
192,192,226260,1,0,0:0:0:0:
192,192,226393,1,0,0:0:0:0:
320,192,226393,1,0,0:0:0:0:
448,192,226527,1,0,0:0:0:0:
64,192,226527,1,0,0:0:0:0:
320,192,226594,1,0,0:0:0:0:
448,192,226661,1,0,0:0:0:0:
192,192,226661,1,0,0:0:0:0:
320,192,226795,1,0,0:0:0:0:
64,192,226795,1,0,0:0:0:0:
320,192,226929,1,0,0:0:0:0:
192,192,226929,1,0,0:0:0:0:
64,192,227063,1,0,0:0:0:0:
448,192,227063,1,0,0:0:0:0:
320,192,227130,1,0,0:0:0:0:
192,192,227197,1,0,0:0:0:0:
448,192,227197,1,0,0:0:0:0:
64,192,227331,1,0,0:0:0:0:
192,192,227398,1,0,0:0:0:0:
448,192,227465,1,0,0:0:0:0:
320,192,227465,1,0,0:0:0:0:
64,192,227532,1,0,0:0:0:0:
320,192,227599,1,0,0:0:0:0:
192,192,227599,1,0,0:0:0:0:
448,192,227666,1,0,0:0:0:0:
320,192,227733,1,0,0:0:0:0:
192,192,227733,1,0,0:0:0:0:
64,192,227800,1,0,0:0:0:0:
448,192,227867,1,0,0:0:0:0:
320,192,227934,1,0,0:0:0:0:
64,192,228001,1,0,0:0:0:0:
192,192,228001,1,0,0:0:0:0:
448,192,228068,1,0,0:0:0:0:
192,192,228135,1,0,0:0:0:0:
320,192,228135,1,0,0:0:0:0:
64,192,228201,1,0,0:0:0:0:
192,192,228268,1,0,0:0:0:0:
320,192,228268,1,0,0:0:0:0:
448,192,228335,1,0,0:0:0:0:
192,192,228402,1,0,0:0:0:0:
64,192,228402,1,0,0:0:0:0:
448,192,228469,1,0,0:0:0:0:
320,192,228469,1,0,0:0:0:0:
64,192,228536,1,0,0:0:0:0:
192,192,228536,1,0,0:0:0:0:
448,192,228603,1,0,0:0:0:0:
320,192,228603,1,0,0:0:0:0:
64,192,228670,1,0,0:0:0:0:
320,192,228737,1,0,0:0:0:0:
192,192,228804,1,0,0:0:0:0:
448,192,228871,1,0,0:0:0:0:
64,192,228938,1,0,0:0:0:0:
320,192,229005,1,0,0:0:0:0:
192,192,229072,1,0,0:0:0:0:
64,192,229072,1,0,0:0:0:0:
448,192,229139,1,0,0:0:0:0:
320,192,229139,1,0,0:0:0:0:
64,192,229206,1,0,0:0:0:0:
192,192,229206,1,0,0:0:0:0:
448,192,229273,1,0,0:0:0:0:
320,192,229273,1,0,0:0:0:0:
64,192,229340,1,0,0:0:0:0:
192,192,229340,1,0,0:0:0:0:
448,192,229407,1,0,0:0:0:0:
320,192,229407,1,0,0:0:0:0:
64,192,229474,1,0,0:0:0:0:
192,192,229474,1,0,0:0:0:0:
448,192,229608,1,0,0:0:0:0:
64,192,229608,1,0,0:0:0:0:
192,192,229742,1,0,0:0:0:0:
448,192,229742,1,0,0:0:0:0:
320,192,229809,1,0,0:0:0:0:
192,192,229876,1,0,0:0:0:0:
64,192,229876,1,0,0:0:0:0:
320,192,230010,1,0,0:0:0:0:
64,192,230010,1,0,0:0:0:0:
192,192,230143,1,0,0:0:0:0:
320,192,230143,1,0,0:0:0:0:
448,192,230277,1,0,0:0:0:0:
64,192,230277,1,0,0:0:0:0:
192,192,230344,1,0,0:0:0:0:
448,192,230411,1,0,0:0:0:0:
320,192,230411,1,0,0:0:0:0:
192,192,230545,1,0,0:0:0:0:
64,192,230545,1,0,0:0:0:0:
320,192,230679,1,0,0:0:0:0:
64,192,230679,1,0,0:0:0:0:
448,192,230813,1,0,0:0:0:0:
320,192,230813,1,0,0:0:0:0:
64,192,230880,1,0,0:0:0:0:
448,192,230947,1,0,0:0:0:0:
192,192,230947,1,0,0:0:0:0:
64,192,231081,1,0,0:0:0:0:
192,192,231081,1,0,0:0:0:0:
448,192,231215,1,0,0:0:0:0:
320,192,231215,1,0,0:0:0:0:
192,192,231282,1,0,0:0:0:0:
448,192,231349,1,0,0:0:0:0:
64,192,231349,1,0,0:0:0:0:
320,192,231416,1,0,0:0:0:0:
64,192,231483,1,0,0:0:0:0:
192,192,231483,1,0,0:0:0:0:
448,192,231617,1,0,0:0:0:0:
320,192,231617,1,0,0:0:0:0:
192,192,231751,1,0,0:0:0:0:
448,192,231751,1,0,0:0:0:0:
192,192,231885,1,0,0:0:0:0:
64,192,231885,1,0,0:0:0:0:
448,192,231951,1,0,0:0:0:0:
320,192,232018,1,0,0:0:0:0:
64,192,232018,1,0,0:0:0:0:
192,192,232152,1,0,0:0:0:0:
320,192,232152,1,0,0:0:0:0:
64,192,232286,1,0,0:0:0:0:
448,192,232286,1,0,0:0:0:0:
192,192,232353,1,0,0:0:0:0:
320,192,232420,1,0,0:0:0:0:
448,192,232420,1,0,0:0:0:0:
64,192,232487,1,0,0:0:0:0:
192,192,232554,1,0,0:0:0:0:
320,192,232599,128,0,232777:0:0:0:0:
448,192,232599,128,0,232777:0:0:0:0:
64,192,232688,1,0,0:0:0:0:
192,192,232867,128,0,233045:0:0:0:0:
320,192,232867,128,0,233045:0:0:0:0:
448,192,233090,1,0,0:0:0:0:
64,192,233135,128,0,233358:0:0:0:0:
192,192,233135,128,0,233358:0:0:0:0:
320,192,233358,128,0,233492:0:0:0:0:
192,192,233492,128,0,233626:0:0:0:0:
64,192,233492,1,0,0:0:0:0:
448,192,233626,128,0,233760:0:0:0:0:
64,192,233760,1,0,0:0:0:0:
192,192,233804,1,0,0:0:0:0:
320,192,233849,1,0,0:0:0:0:
448,192,233893,1,0,0:0:0:0:
64,192,233938,1,0,0:0:0:0:
192,192,233983,1,0,0:0:0:0:
448,192,234027,1,0,0:0:0:0:
320,192,234072,1,0,0:0:0:0:
192,192,234117,1,0,0:0:0:0:
64,192,234161,1,0,0:0:0:0:
448,192,234206,1,0,0:0:0:0:
320,192,234251,1,0,0:0:0:0:
64,192,234295,1,0,0:0:0:0:
192,192,234340,1,0,0:0:0:0:
320,192,234385,1,0,0:0:0:0:
448,192,234429,1,0,0:0:0:0:
64,192,234474,1,0,0:0:0:0:
192,192,234518,1,0,0:0:0:0:
320,192,234563,1,0,0:0:0:0:
448,192,234608,1,0,0:0:0:0:
192,192,234652,1,0,0:0:0:0:
320,192,234697,1,0,0:0:0:0:
64,192,234742,1,0,0:0:0:0:
192,192,234786,1,0,0:0:0:0:
448,192,234831,1,0,0:0:0:0:
320,192,234876,1,0,0:0:0:0:
192,192,234920,1,0,0:0:0:0:
64,192,234965,1,0,0:0:0:0:
448,192,235010,1,0,0:0:0:0:
320,192,235054,1,0,0:0:0:0:
64,192,235099,1,0,0:0:0:0:
192,192,235143,1,0,0:0:0:0:
320,192,235188,1,0,0:0:0:0:
448,192,235233,1,0,0:0:0:0:
64,192,235277,1,0,0:0:0:0:
192,192,235322,1,0,0:0:0:0:
448,192,235367,1,0,0:0:0:0:
320,192,235411,1,0,0:0:0:0:
192,192,235456,1,0,0:0:0:0:
64,192,235501,1,0,0:0:0:0:
448,192,235545,1,0,0:0:0:0:
320,192,235590,1,0,0:0:0:0:
192,192,235635,1,0,0:0:0:0:
64,192,235679,1,0,0:0:0:0:
320,192,235724,1,0,0:0:0:0:
192,192,235768,1,0,0:0:0:0:
448,192,235813,1,0,0:0:0:0:
320,192,235858,1,0,0:0:0:0:
64,192,235902,1,0,0:0:0:0:
192,192,235947,1,0,0:0:0:0:
320,192,235992,1,0,0:0:0:0:
448,192,236036,1,0,0:0:0:0:
64,192,236081,1,0,0:0:0:0:
192,192,236126,1,0,0:0:0:0:
448,192,236170,1,0,0:0:0:0:
320,192,236215,1,0,0:0:0:0:
192,192,236260,1,0,0:0:0:0:
64,192,236304,1,0,0:0:0:0:
448,192,236349,1,0,0:0:0:0:
320,192,236393,1,0,0:0:0:0:
64,192,236438,1,0,0:0:0:0:
192,192,236483,1,0,0:0:0:0:
320,192,236527,1,0,0:0:0:0:
448,192,236572,1,0,0:0:0:0:
64,192,236617,1,0,0:0:0:0:
192,192,236661,1,0,0:0:0:0:
320,192,236706,1,0,0:0:0:0:
448,192,236751,1,0,0:0:0:0:
192,192,236795,1,0,0:0:0:0:
320,192,236840,1,0,0:0:0:0:
64,192,236885,1,0,0:0:0:0:
192,192,236929,1,0,0:0:0:0:
448,192,236974,1,0,0:0:0:0:
320,192,237018,1,0,0:0:0:0:
64,192,237063,1,0,0:0:0:0:
192,192,237108,1,0,0:0:0:0:
320,192,237152,1,0,0:0:0:0:
448,192,237197,1,0,0:0:0:0:
192,192,237242,1,0,0:0:0:0:
64,192,237286,1,0,0:0:0:0:
448,192,237331,1,0,0:0:0:0:
320,192,237376,1,0,0:0:0:0:
192,192,237420,1,0,0:0:0:0:
64,192,237465,1,0,0:0:0:0:
320,192,237510,1,0,0:0:0:0:
192,192,237554,1,0,0:0:0:0:
448,192,237599,1,0,0:0:0:0:
64,192,237643,1,0,0:0:0:0:
320,192,237688,1,0,0:0:0:0:
192,192,237733,1,0,0:0:0:0:
448,192,237777,1,0,0:0:0:0:
320,192,237822,128,0,238045:0:0:0:0:
448,192,238045,1,0,0:0:0:0:
64,192,238045,1,0,0:0:0:0:
192,192,238112,1,0,0:0:0:0:
448,192,238179,1,0,0:0:0:0:
64,192,238179,1,0,0:0:0:0:
320,192,238246,1,0,0:0:0:0:
64,192,238313,1,0,0:0:0:0:
192,192,238313,1,0,0:0:0:0:
448,192,238380,1,0,0:0:0:0:
192,192,238447,1,0,0:0:0:0:
320,192,238447,1,0,0:0:0:0:
64,192,238514,1,0,0:0:0:0:
320,192,238581,1,0,0:0:0:0:
448,192,238581,1,0,0:0:0:0:
192,192,238648,1,0,0:0:0:0:
448,192,238715,1,0,0:0:0:0:
64,192,238715,1,0,0:0:0:0:
320,192,238782,1,0,0:0:0:0:
64,192,238849,1,0,0:0:0:0:
192,192,238849,1,0,0:0:0:0:
448,192,238916,1,0,0:0:0:0:
192,192,238983,1,0,0:0:0:0:
320,192,238983,1,0,0:0:0:0:
64,192,239050,1,0,0:0:0:0:
320,192,239117,1,0,0:0:0:0:
448,192,239117,1,0,0:0:0:0:
448,192,239251,1,0,0:0:0:0:
192,192,239251,1,0,0:0:0:0:
192,192,239385,1,0,0:0:0:0:
64,192,239385,1,0,0:0:0:0:
320,192,239451,1,0,0:0:0:0:
64,192,239518,1,0,0:0:0:0:
448,192,239518,1,0,0:0:0:0:
320,192,239652,1,0,0:0:0:0:
448,192,239652,128,0,239920:0:0:0:0:
192,192,239786,1,0,0:0:0:0:
64,192,239786,1,0,0:0:0:0:
320,192,239920,1,0,0:0:0:0:
64,192,239920,1,0,0:0:0:0:
192,192,239987,1,0,0:0:0:0:
448,192,240054,1,0,0:0:0:0:
320,192,240054,1,0,0:0:0:0:
192,192,240188,1,0,0:0:0:0:
64,192,240188,1,0,0:0:0:0:
320,192,240255,1,0,0:0:0:0:
64,192,240322,1,0,0:0:0:0:
448,192,240322,1,0,0:0:0:0:
192,192,240389,1,0,0:0:0:0:
448,192,240456,1,0,0:0:0:0:
320,192,240456,1,0,0:0:0:0:
64,192,240523,1,0,0:0:0:0:
320,192,240590,1,0,0:0:0:0:
192,192,240590,1,0,0:0:0:0:
448,192,240657,1,0,0:0:0:0:
192,192,240724,1,0,0:0:0:0:
64,192,240724,1,0,0:0:0:0:
320,192,240791,1,0,0:0:0:0:
64,192,240858,1,0,0:0:0:0:
448,192,240858,1,0,0:0:0:0:
192,192,240925,1,0,0:0:0:0:
448,192,240992,1,0,0:0:0:0:
320,192,240992,1,0,0:0:0:0:
64,192,241059,1,0,0:0:0:0:
320,192,241126,1,0,0:0:0:0:
192,192,241126,1,0,0:0:0:0:
448,192,241193,1,0,0:0:0:0:
64,192,241260,1,0,0:0:0:0:
192,192,241260,1,0,0:0:0:0:
448,192,241326,1,0,0:0:0:0:
192,192,241393,1,0,0:0:0:0:
320,192,241393,1,0,0:0:0:0:
64,192,241460,1,0,0:0:0:0:
320,192,241527,1,0,0:0:0:0:
448,192,241527,1,0,0:0:0:0:
192,192,241594,1,0,0:0:0:0:
448,192,241661,1,0,0:0:0:0:
64,192,241661,1,0,0:0:0:0:
320,192,241728,1,0,0:0:0:0:
64,192,241795,1,0,0:0:0:0:
192,192,241795,1,0,0:0:0:0:
448,192,241862,1,0,0:0:0:0:
192,192,241929,1,0,0:0:0:0:
320,192,241929,1,0,0:0:0:0:
64,192,241996,1,0,0:0:0:0:
320,192,242063,1,0,0:0:0:0:
448,192,242063,1,0,0:0:0:0:
192,192,242130,1,0,0:0:0:0:
448,192,242197,1,0,0:0:0:0:
64,192,242197,1,0,0:0:0:0:
320,192,242264,1,0,0:0:0:0:
64,192,242331,1,0,0:0:0:0:
192,192,242331,1,0,0:0:0:0:
192,192,242465,1,0,0:0:0:0:
64,192,242465,1,0,0:0:0:0:
192,192,242599,1,0,0:0:0:0:
64,192,242599,1,0,0:0:0:0:
448,192,242666,1,0,0:0:0:0:
192,192,242733,1,0,0:0:0:0:
320,192,242733,1,0,0:0:0:0:
64,192,242800,1,0,0:0:0:0:
448,192,242867,1,0,0:0:0:0:
320,192,242867,1,0,0:0:0:0:
448,192,243001,1,0,0:0:0:0:
320,192,243001,1,0,0:0:0:0:
448,192,243135,1,0,0:0:0:0:
320,192,243135,1,0,0:0:0:0:
64,192,243201,1,0,0:0:0:0:
320,192,243268,1,0,0:0:0:0:
192,192,243268,1,0,0:0:0:0:
448,192,243335,1,0,0:0:0:0:
64,192,243402,1,0,0:0:0:0:
192,192,243402,1,0,0:0:0:0:
192,192,243536,1,0,0:0:0:0:
64,192,243536,1,0,0:0:0:0:
192,192,243670,1,0,0:0:0:0:
64,192,243670,1,0,0:0:0:0:
320,192,243737,1,0,0:0:0:0:
448,192,243804,1,0,0:0:0:0:
64,192,243804,1,0,0:0:0:0:
192,192,243871,1,0,0:0:0:0:
448,192,243938,1,0,0:0:0:0:
320,192,243938,1,0,0:0:0:0:
64,192,244072,1,0,0:0:0:0:
320,192,244072,1,0,0:0:0:0:
192,192,244206,1,0,0:0:0:0:
64,192,244206,1,0,0:0:0:0:
320,192,244273,1,0,0:0:0:0:
448,192,244340,1,0,0:0:0:0:
192,192,244340,1,0,0:0:0:0:
448,192,244474,1,0,0:0:0:0:
320,192,244474,1,0,0:0:0:0:
192,192,244541,1,0,0:0:0:0:
448,192,244608,1,0,0:0:0:0:
64,192,244608,1,0,0:0:0:0:
320,192,244675,1,0,0:0:0:0:
64,192,244742,1,0,0:0:0:0:
192,192,244742,1,0,0:0:0:0:
320,192,244809,1,0,0:0:0:0:
64,192,244876,1,0,0:0:0:0:
448,192,244876,1,0,0:0:0:0:
192,192,244943,1,0,0:0:0:0:
448,192,245010,1,0,0:0:0:0:
320,192,245010,1,0,0:0:0:0:
192,192,245076,1,0,0:0:0:0:
448,192,245143,1,0,0:0:0:0:
64,192,245143,1,0,0:0:0:0:
320,192,245210,1,0,0:0:0:0:
64,192,245277,1,0,0:0:0:0:
192,192,245277,1,0,0:0:0:0:
320,192,245344,1,0,0:0:0:0:
64,192,245411,1,0,0:0:0:0:
448,192,245411,1,0,0:0:0:0:
192,192,245478,1,0,0:0:0:0:
448,192,245545,1,0,0:0:0:0:
320,192,245545,1,0,0:0:0:0:
448,192,245679,1,0,0:0:0:0:
320,192,245679,1,0,0:0:0:0:
448,192,245813,1,0,0:0:0:0:
320,192,245813,1,0,0:0:0:0:
64,192,245880,1,0,0:0:0:0:
448,192,245947,1,0,0:0:0:0:
320,192,245947,1,0,0:0:0:0:
192,192,246081,1,0,0:0:0:0:
64,192,246081,1,0,0:0:0:0:
320,192,246148,1,0,0:0:0:0:
64,192,246215,1,0,0:0:0:0:
448,192,246282,1,0,0:0:0:0:
64,192,246349,1,0,0:0:0:0:
192,192,246349,1,0,0:0:0:0:
448,192,246416,1,0,0:0:0:0:
320,192,246416,1,0,0:0:0:0:
192,192,246483,1,0,0:0:0:0:
64,192,246483,1,0,0:0:0:0:
448,192,246550,1,0,0:0:0:0:
320,192,246550,1,0,0:0:0:0:
64,192,246617,1,0,0:0:0:0:
192,192,246650,1,0,0:0:0:0:
320,192,246717,1,0,0:0:0:0:
64,192,246751,1,0,0:0:0:0:
192,192,246795,1,0,0:0:0:0:
448,192,246840,1,0,0:0:0:0:
320,192,246885,1,0,0:0:0:0:
192,192,246951,1,0,0:0:0:0:
64,192,247018,1,0,0:0:0:0:
448,192,247085,1,0,0:0:0:0:
320,192,247119,1,0,0:0:0:0:
192,192,247152,1,0,0:0:0:0:
64,192,247186,1,0,0:0:0:0:
320,192,247286,1,0,0:0:0:0:
448,192,247353,1,0,0:0:0:0:
64,192,247420,1,0,0:0:0:0:
192,192,247454,1,0,0:0:0:0:
320,192,247521,1,0,0:0:0:0:
448,192,247554,1,0,0:0:0:0:
192,192,247688,1,0,0:0:0:0:
64,192,247733,1,0,0:0:0:0:
448,192,247822,1,0,0:0:0:0:
320,192,247855,1,0,0:0:0:0:
192,192,247889,1,0,0:0:0:0:
64,192,247956,1,0,0:0:0:0:
320,192,248023,1,0,0:0:0:0:
192,192,248056,1,0,0:0:0:0:
448,192,248090,1,0,0:0:0:0:
320,192,248190,1,0,0:0:0:0:
64,192,248224,1,0,0:0:0:0:
192,192,248324,1,0,0:0:0:0:
448,192,248358,1,0,0:0:0:0:
320,192,248458,1,0,0:0:0:0:
64,192,248492,1,0,0:0:0:0:
192,192,248559,1,0,0:0:0:0:
448,192,248592,1,0,0:0:0:0:
320,192,248626,1,0,0:0:0:0:
192,192,248726,1,0,0:0:0:0:
448,192,248760,1,0,0:0:0:0:
320,192,248760,1,0,0:0:0:0:
64,192,248826,1,0,0:0:0:0:
320,192,248893,1,0,0:0:0:0:
192,192,248893,1,0,0:0:0:0:
448,192,248960,1,0,0:0:0:0:
192,192,249027,1,0,0:0:0:0:
64,192,249027,1,0,0:0:0:0:
320,192,249094,1,0,0:0:0:0:
64,192,249161,1,0,0:0:0:0:
448,192,249161,1,0,0:0:0:0:
192,192,249251,1,0,0:0:0:0:
448,192,249295,1,0,0:0:0:0:
320,192,249295,1,0,0:0:0:0:
192,192,249362,1,0,0:0:0:0:
448,192,249429,1,0,0:0:0:0:
64,192,249429,1,0,0:0:0:0:
320,192,249496,1,0,0:0:0:0:
64,192,249563,1,0,0:0:0:0:
192,192,249563,1,0,0:0:0:0:
448,192,249630,1,0,0:0:0:0:
192,192,249697,1,0,0:0:0:0:
320,192,249742,1,0,0:0:0:0:
448,192,249831,1,0,0:0:0:0:
64,192,249831,1,0,0:0:0:0:
192,192,249920,1,0,0:0:0:0:
448,192,249965,1,0,0:0:0:0:
64,192,250010,1,0,0:0:0:0:
192,192,250099,1,0,0:0:0:0:
320,192,250210,1,0,0:0:0:0:
64,192,250233,1,0,0:0:0:0:
448,192,250277,1,0,0:0:0:0:
320,192,250367,1,0,0:0:0:0:
192,192,250456,1,0,0:0:0:0:
448,192,250501,1,0,0:0:0:0:
64,192,250523,1,0,0:0:0:0:
192,192,250635,1,0,0:0:0:0:
448,192,250701,1,0,0:0:0:0:
320,192,250724,1,0,0:0:0:0:
64,192,250768,1,0,0:0:0:0:
192,192,250813,1,0,0:0:0:0:
320,192,250902,1,0,0:0:0:0:
64,192,250902,1,0,0:0:0:0:
320,192,251036,1,0,0:0:0:0:
448,192,251036,1,0,0:0:0:0:
64,192,251103,1,0,0:0:0:0:
448,192,251170,1,0,0:0:0:0:
192,192,251237,1,0,0:0:0:0:
320,192,251304,1,0,0:0:0:0:
448,192,251304,1,0,0:0:0:0:
192,192,251371,1,0,0:0:0:0:
320,192,251438,1,0,0:0:0:0:
64,192,251505,1,0,0:0:0:0:
448,192,251572,1,0,0:0:0:0:
320,192,251572,1,0,0:0:0:0:
64,192,251639,1,0,0:0:0:0:
448,192,251706,1,0,0:0:0:0:
320,192,251773,1,0,0:0:0:0:
192,192,251840,1,0,0:0:0:0:
64,192,251840,1,0,0:0:0:0:
448,192,251907,1,0,0:0:0:0:
64,192,251974,1,0,0:0:0:0:
320,192,251974,1,0,0:0:0:0:
192,192,252108,1,0,0:0:0:0:
64,192,252108,1,0,0:0:0:0:
448,192,252175,1,0,0:0:0:0:
192,192,252242,1,0,0:0:0:0:
448,192,252309,1,0,0:0:0:0:
192,192,252376,1,0,0:0:0:0:
64,192,252376,1,0,0:0:0:0:
320,192,252443,1,0,0:0:0:0:
64,192,252510,1,0,0:0:0:0:
320,192,252576,1,0,0:0:0:0:
192,192,252643,1,0,0:0:0:0:
64,192,252643,1,0,0:0:0:0:
448,192,252710,1,0,0:0:0:0:
192,192,252777,1,0,0:0:0:0:
448,192,252844,1,0,0:0:0:0:
64,192,252911,1,0,0:0:0:0:
192,192,252911,1,0,0:0:0:0:
320,192,252978,1,0,0:0:0:0:
64,192,253045,1,0,0:0:0:0:
192,192,253045,1,0,0:0:0:0:
320,192,253112,1,0,0:0:0:0:
64,192,253179,1,0,0:0:0:0:
448,192,253179,1,0,0:0:0:0:
192,192,253246,1,0,0:0:0:0:
448,192,253313,1,0,0:0:0:0:
320,192,253313,1,0,0:0:0:0:
192,192,253380,1,0,0:0:0:0:
448,192,253447,1,0,0:0:0:0:
64,192,253447,1,0,0:0:0:0:
320,192,253514,1,0,0:0:0:0:
64,192,253581,1,0,0:0:0:0:
192,192,253581,1,0,0:0:0:0:
320,192,253648,1,0,0:0:0:0:
64,192,253715,1,0,0:0:0:0:
448,192,253715,1,0,0:0:0:0:
192,192,253782,1,0,0:0:0:0:
448,192,253849,1,0,0:0:0:0:
320,192,253849,1,0,0:0:0:0:
192,192,253916,1,0,0:0:0:0:
448,192,253983,1,0,0:0:0:0:
64,192,253983,1,0,0:0:0:0:
320,192,254050,1,0,0:0:0:0:
64,192,254117,1,0,0:0:0:0:
192,192,254117,1,0,0:0:0:0:
320,192,254184,1,0,0:0:0:0:
64,192,254251,1,0,0:0:0:0:
448,192,254318,1,0,0:0:0:0:
64,192,254385,1,0,0:0:0:0:
192,192,254385,1,0,0:0:0:0:
448,192,254451,1,0,0:0:0:0:
320,192,254451,1,0,0:0:0:0:
64,192,254518,1,0,0:0:0:0:
192,192,254518,1,0,0:0:0:0:
320,192,254585,1,0,0:0:0:0:
448,192,254585,1,0,0:0:0:0:
64,192,254652,1,0,0:0:0:0:
192,192,254652,1,0,0:0:0:0:
448,192,254719,1,0,0:0:0:0:
320,192,254786,1,0,0:0:0:0:
64,192,254853,1,0,0:0:0:0:
448,192,254920,1,0,0:0:0:0:
320,192,254987,1,0,0:0:0:0:
64,192,255054,1,0,0:0:0:0:
192,192,255121,1,0,0:0:0:0:
320,192,255188,1,0,0:0:0:0:
448,192,255188,1,0,0:0:0:0:
192,192,255322,1,0,0:0:0:0:
448,192,255322,1,0,0:0:0:0:
320,192,255456,1,0,0:0:0:0:
64,192,255456,1,0,0:0:0:0:
192,192,255523,1,0,0:0:0:0:
320,192,255590,1,0,0:0:0:0:
448,192,255590,1,0,0:0:0:0:
64,192,255724,1,0,0:0:0:0:
448,192,255724,1,0,0:0:0:0:
64,192,255858,1,0,0:0:0:0:
192,192,255858,1,0,0:0:0:0:
320,192,255992,1,0,0:0:0:0:
448,192,255992,1,0,0:0:0:0:
64,192,256059,1,0,0:0:0:0:
192,192,256126,1,0,0:0:0:0:
448,192,256126,1,0,0:0:0:0:
192,192,256260,1,0,0:0:0:0:
64,192,256260,1,0,0:0:0:0:
320,192,256393,1,0,0:0:0:0:
64,192,256393,1,0,0:0:0:0:
192,192,256527,1,0,0:0:0:0:
448,192,256527,1,0,0:0:0:0:
320,192,256594,1,0,0:0:0:0:
192,192,256661,1,0,0:0:0:0:
64,192,256661,1,0,0:0:0:0:
448,192,256795,1,0,0:0:0:0:
64,192,256795,1,0,0:0:0:0:
448,192,256929,1,0,0:0:0:0:
320,192,256929,1,0,0:0:0:0:
192,192,257063,1,0,0:0:0:0:
64,192,257063,1,0,0:0:0:0:
448,192,257130,1,0,0:0:0:0:
320,192,257197,1,0,0:0:0:0:
64,192,257197,1,0,0:0:0:0:
320,192,257331,1,0,0:0:0:0:
448,192,257331,1,0,0:0:0:0:
64,192,257465,1,0,0:0:0:0:
448,192,257465,1,0,0:0:0:0:
192,192,257599,1,0,0:0:0:0:
320,192,257599,1,0,0:0:0:0:
448,192,257666,1,0,0:0:0:0:
192,192,257733,1,0,0:0:0:0:
320,192,257733,1,0,0:0:0:0:
448,192,257867,1,0,0:0:0:0:
64,192,257867,1,0,0:0:0:0:
192,192,258001,1,0,0:0:0:0:
320,192,258001,1,0,0:0:0:0:
64,192,258135,1,0,0:0:0:0:
192,192,258135,1,0,0:0:0:0:
448,192,258201,1,0,0:0:0:0:
64,192,258268,1,0,0:0:0:0:
320,192,258268,1,0,0:0:0:0:
192,192,258402,1,0,0:0:0:0:
448,192,258402,1,0,0:0:0:0:
64,192,258469,1,0,0:0:0:0:
192,192,258536,1,0,0:0:0:0:
320,192,258536,1,0,0:0:0:0:
448,192,258670,1,0,0:0:0:0:
64,192,258670,1,0,0:0:0:0:
320,192,258737,1,0,0:0:0:0:
192,192,258804,1,0,0:0:0:0:
64,192,258804,1,0,0:0:0:0:
320,192,258938,1,0,0:0:0:0:
448,192,258938,1,0,0:0:0:0:
192,192,259005,1,0,0:0:0:0:
64,192,259072,1,0,0:0:0:0:
448,192,259072,1,0,0:0:0:0:
320,192,259206,1,0,0:0:0:0:
192,192,259206,1,0,0:0:0:0:
448,192,259273,1,0,0:0:0:0:
64,192,259340,1,0,0:0:0:0:
192,192,259340,1,0,0:0:0:0:
448,192,259474,1,0,0:0:0:0:
64,192,259474,1,0,0:0:0:0:
192,192,259541,1,0,0:0:0:0:
448,192,259608,1,0,0:0:0:0:
320,192,259608,1,0,0:0:0:0:
64,192,259675,1,0,0:0:0:0:
320,192,259742,1,0,0:0:0:0:
192,192,259742,1,0,0:0:0:0:
448,192,259809,1,0,0:0:0:0:
192,192,259876,1,0,0:0:0:0:
64,192,259876,1,0,0:0:0:0:
320,192,259943,1,0,0:0:0:0:
64,192,260010,1,0,0:0:0:0:
448,192,260010,1,0,0:0:0:0:
192,192,260076,1,0,0:0:0:0:
448,192,260143,1,0,0:0:0:0:
320,192,260143,1,0,0:0:0:0:
64,192,260210,1,0,0:0:0:0:
320,192,260277,1,0,0:0:0:0:
192,192,260277,1,0,0:0:0:0:
448,192,260344,1,0,0:0:0:0:
192,192,260411,1,0,0:0:0:0:
64,192,260411,1,0,0:0:0:0:
448,192,260478,1,0,0:0:0:0:
192,192,260545,1,0,0:0:0:0:
320,192,260545,1,0,0:0:0:0:
64,192,260612,1,0,0:0:0:0:
320,192,260679,1,0,0:0:0:0:
448,192,260679,1,0,0:0:0:0:
192,192,260746,1,0,0:0:0:0:
448,192,260813,1,0,0:0:0:0:
64,192,260813,1,0,0:0:0:0:
320,192,260880,1,0,0:0:0:0:
64,192,260947,1,0,0:0:0:0:
192,192,260947,1,0,0:0:0:0:
448,192,261014,1,0,0:0:0:0:
192,192,261081,1,0,0:0:0:0:
320,192,261081,1,0,0:0:0:0:
64,192,261148,1,0,0:0:0:0:
320,192,261215,1,0,0:0:0:0:
448,192,261215,1,0,0:0:0:0:
192,192,261282,1,0,0:0:0:0:
448,192,261349,1,0,0:0:0:0:
64,192,261349,1,0,0:0:0:0:
320,192,261416,1,0,0:0:0:0:
64,192,261483,1,0,0:0:0:0:
192,192,261483,1,0,0:0:0:0:
448,192,261550,1,0,0:0:0:0:
320,192,261617,1,0,0:0:0:0:
192,192,261617,1,0,0:0:0:0:
448,192,261684,1,0,0:0:0:0:
192,192,261751,1,0,0:0:0:0:
64,192,261751,1,0,0:0:0:0:
320,192,261818,1,0,0:0:0:0:
64,192,261885,1,0,0:0:0:0:
448,192,261885,1,0,0:0:0:0:
192,192,261951,1,0,0:0:0:0:
320,192,262018,1,0,0:0:0:0:
448,192,262018,1,0,0:0:0:0:
64,192,262085,1,0,0:0:0:0:
320,192,262152,1,0,0:0:0:0:
192,192,262152,1,0,0:0:0:0:
448,192,262219,1,0,0:0:0:0:
192,192,262286,1,0,0:0:0:0:
64,192,262286,1,0,0:0:0:0:
320,192,262353,1,0,0:0:0:0:
64,192,262420,1,0,0:0:0:0:
448,192,262420,1,0,0:0:0:0:
192,192,262487,1,0,0:0:0:0:
448,192,262554,1,0,0:0:0:0:
320,192,262554,1,0,0:0:0:0:
64,192,262621,1,0,0:0:0:0:
448,192,262688,1,0,0:0:0:0:
320,192,262688,1,0,0:0:0:0:
64,192,262755,1,0,0:0:0:0:
192,192,262755,1,0,0:0:0:0:
448,192,262822,1,0,0:0:0:0:
320,192,262822,1,0,0:0:0:0:
64,192,262889,1,0,0:0:0:0:
192,192,262889,1,0,0:0:0:0:
448,192,262956,1,0,0:0:0:0:
192,192,263023,1,0,0:0:0:0:
320,192,263090,1,0,0:0:0:0:
64,192,263157,1,0,0:0:0:0:
448,192,263224,1,0,0:0:0:0:
320,192,263224,1,0,0:0:0:0:
192,192,263291,1,0,0:0:0:0:
64,192,263291,1,0,0:0:0:0:
448,192,263358,1,0,0:0:0:0:
320,192,263358,1,0,0:0:0:0:
64,192,263425,1,0,0:0:0:0:
192,192,263425,1,0,0:0:0:0:
448,192,263492,1,0,0:0:0:0:
192,192,263559,1,0,0:0:0:0:
320,192,263626,1,0,0:0:0:0:
64,192,263693,1,0,0:0:0:0:
448,192,263760,1,0,0:0:0:0:
320,192,263760,1,0,0:0:0:0:
448,192,263893,1,0,0:0:0:0:
192,192,263893,1,0,0:0:0:0:
192,192,264027,1,0,0:0:0:0:
64,192,264027,1,0,0:0:0:0:
448,192,264094,1,0,0:0:0:0:
320,192,264161,1,0,0:0:0:0:
64,192,264161,1,0,0:0:0:0:
448,192,264295,1,0,0:0:0:0:
320,192,264295,1,0,0:0:0:0:
448,192,264429,1,0,0:0:0:0:
192,192,264429,1,0,0:0:0:0:
64,192,264563,1,0,0:0:0:0:
192,192,264563,1,0,0:0:0:0:
448,192,264630,1,0,0:0:0:0:
320,192,264697,1,0,0:0:0:0:
64,192,264697,1,0,0:0:0:0:
192,192,264831,1,0,0:0:0:0:
448,192,264831,1,0,0:0:0:0:
448,192,264965,1,0,0:0:0:0:
320,192,264965,1,0,0:0:0:0:
320,192,265099,1,0,0:0:0:0:
192,192,265099,1,0,0:0:0:0:
448,192,265166,1,0,0:0:0:0:
192,192,265233,1,0,0:0:0:0:
64,192,265233,1,0,0:0:0:0:
320,192,265367,1,0,0:0:0:0:
64,192,265367,1,0,0:0:0:0:
448,192,265501,1,0,0:0:0:0:
320,192,265501,1,0,0:0:0:0:
448,192,265635,1,0,0:0:0:0:
64,192,265635,1,0,0:0:0:0:
320,192,265701,1,0,0:0:0:0:
448,192,265768,1,0,0:0:0:0:
192,192,265768,1,0,0:0:0:0:
64,192,265902,1,0,0:0:0:0:
192,192,265902,1,0,0:0:0:0:
64,192,266036,1,0,0:0:0:0:
320,192,266036,1,0,0:0:0:0:
320,192,266170,1,0,0:0:0:0:
448,192,266170,1,0,0:0:0:0:
64,192,266237,1,0,0:0:0:0:
192,192,266304,1,0,0:0:0:0:
448,192,266304,1,0,0:0:0:0:
64,192,266438,1,0,0:0:0:0:
192,192,266438,1,0,0:0:0:0:
64,192,266572,1,0,0:0:0:0:
320,192,266572,1,0,0:0:0:0:
320,192,266706,1,0,0:0:0:0:
448,192,266706,1,0,0:0:0:0:
64,192,266773,1,0,0:0:0:0:
192,192,266840,1,0,0:0:0:0:
448,192,266840,1,0,0:0:0:0:
64,192,266974,1,0,0:0:0:0:
320,192,266974,1,0,0:0:0:0:
448,192,267041,1,0,0:0:0:0:
64,192,267108,1,0,0:0:0:0:
192,192,267108,1,0,0:0:0:0:
448,192,267242,1,0,0:0:0:0:
192,192,267242,1,0,0:0:0:0:
64,192,267309,1,0,0:0:0:0:
320,192,267376,1,0,0:0:0:0:
448,192,267376,1,0,0:0:0:0:
192,192,267510,1,0,0:0:0:0:
64,192,267510,1,0,0:0:0:0:
448,192,267576,1,0,0:0:0:0:
64,192,267643,1,0,0:0:0:0:
192,192,267710,1,0,0:0:0:0:
320,192,267777,1,0,0:0:0:0:
448,192,267777,1,0,0:0:0:0:
64,192,267844,1,0,0:0:0:0:
448,192,267911,1,0,0:0:0:0:
320,192,267978,1,0,0:0:0:0:
192,192,268045,1,0,0:0:0:0:
64,192,268045,1,0,0:0:0:0:
320,192,268179,1,0,0:0:0:0:
64,192,268179,1,0,0:0:0:0:
320,192,268313,1,0,0:0:0:0:
192,192,268313,1,0,0:0:0:0:
448,192,268380,1,0,0:0:0:0:
64,192,268447,1,0,0:0:0:0:
192,192,268447,1,0,0:0:0:0:
448,192,268581,1,0,0:0:0:0:
64,192,268581,1,0,0:0:0:0:
448,192,268715,1,0,0:0:0:0:
320,192,268715,1,0,0:0:0:0:
192,192,268849,1,0,0:0:0:0:
64,192,268849,1,0,0:0:0:0:
448,192,268916,1,0,0:0:0:0:
320,192,268983,1,0,0:0:0:0:
64,192,268983,1,0,0:0:0:0:
320,192,269117,1,0,0:0:0:0:
448,192,269117,1,0,0:0:0:0:
192,192,269251,1,0,0:0:0:0:
448,192,269251,1,0,0:0:0:0:
192,192,269385,1,0,0:0:0:0:
320,192,269385,1,0,0:0:0:0:
64,192,269451,1,0,0:0:0:0:
448,192,269518,1,0,0:0:0:0:
320,192,269518,1,0,0:0:0:0:
64,192,269652,1,0,0:0:0:0:
448,192,269652,1,0,0:0:0:0:
64,192,269786,1,0,0:0:0:0:
192,192,269786,1,0,0:0:0:0:
320,192,269920,1,0,0:0:0:0:
448,192,269920,1,0,0:0:0:0:
64,192,269987,1,0,0:0:0:0:
192,192,270054,1,0,0:0:0:0:
448,192,270054,1,0,0:0:0:0:
192,192,270188,1,0,0:0:0:0:
64,192,270188,1,0,0:0:0:0:
320,192,270255,1,0,0:0:0:0:
64,192,270322,1,0,0:0:0:0:
448,192,270322,1,0,0:0:0:0:
192,192,270389,1,0,0:0:0:0:
448,192,270456,1,0,0:0:0:0:
320,192,270456,1,0,0:0:0:0:
192,192,270523,1,0,0:0:0:0:
448,192,270590,1,0,0:0:0:0:
64,192,270590,1,0,0:0:0:0:
320,192,270657,1,0,0:0:0:0:
64,192,270724,1,0,0:0:0:0:
192,192,270724,1,0,0:0:0:0:
320,192,270791,1,0,0:0:0:0:
64,192,270858,1,0,0:0:0:0:
448,192,270858,1,0,0:0:0:0:
192,192,270925,1,0,0:0:0:0:
448,192,270992,1,0,0:0:0:0:
320,192,270992,1,0,0:0:0:0:
192,192,271059,1,0,0:0:0:0:
448,192,271126,1,0,0:0:0:0:
64,192,271126,1,0,0:0:0:0:
320,192,271193,1,0,0:0:0:0:
192,192,271260,1,0,0:0:0:0:
64,192,271260,1,0,0:0:0:0:
320,192,271326,1,0,0:0:0:0:
64,192,271393,1,0,0:0:0:0:
448,192,271393,1,0,0:0:0:0:
192,192,271460,1,0,0:0:0:0:
448,192,271527,1,0,0:0:0:0:
320,192,271527,1,0,0:0:0:0:
192,192,271594,1,0,0:0:0:0:
448,192,271661,1,0,0:0:0:0:
64,192,271661,1,0,0:0:0:0:
320,192,271728,1,0,0:0:0:0:
64,192,271795,1,0,0:0:0:0:
192,192,271795,1,0,0:0:0:0:
320,192,271862,1,0,0:0:0:0:
64,192,271929,1,0,0:0:0:0:
448,192,271929,1,0,0:0:0:0:
192,192,271996,1,0,0:0:0:0:
448,192,272063,1,0,0:0:0:0:
320,192,272063,1,0,0:0:0:0:
192,192,272130,1,0,0:0:0:0:
448,192,272197,1,0,0:0:0:0:
64,192,272197,1,0,0:0:0:0:
320,192,272264,1,0,0:0:0:0:
64,192,272331,1,0,0:0:0:0:
192,192,272331,1,0,0:0:0:0:
448,192,272398,1,0,0:0:0:0:
192,192,272465,1,0,0:0:0:0:
320,192,272532,1,0,0:0:0:0:
64,192,272599,1,0,0:0:0:0:
192,192,272666,1,0,0:0:0:0:
448,192,272733,1,0,0:0:0:0:
320,192,272733,1,0,0:0:0:0:
192,192,272800,1,0,0:0:0:0:
448,192,272867,1,0,0:0:0:0:
64,192,272867,1,0,0:0:0:0:
320,192,272934,1,0,0:0:0:0:
192,192,273001,1,0,0:0:0:0:
320,192,273068,1,0,0:0:0:0:
448,192,273135,1,0,0:0:0:0:
64,192,273135,1,0,0:0:0:0:
192,192,273201,1,0,0:0:0:0:
320,192,273268,1,0,0:0:0:0:
192,192,273335,5,0,0:0:0:0:
448,192,273402,5,0,0:0:0:0:
64,192,273402,1,0,0:0:0:0:
320,192,273469,1,0,0:0:0:0:
192,192,273536,1,0,0:0:0:0:
320,192,273603,1,0,0:0:0:0:
64,192,273670,1,0,0:0:0:0:
448,192,273670,1,0,0:0:0:0:
192,192,273737,1,0,0:0:0:0:
320,192,273804,1,0,0:0:0:0:
448,192,273871,1,0,0:0:0:0:
64,192,273938,5,0,0:0:0:0:
192,192,273938,1,0,0:0:0:0:
320,192,274005,1,0,0:0:0:0:
192,192,274072,1,0,0:0:0:0:
64,192,274139,1,0,0:0:0:0:
448,192,274206,1,0,0:0:0:0:
320,192,274206,1,0,0:0:0:0:
192,192,274273,1,0,0:0:0:0:
320,192,274340,1,0,0:0:0:0:
448,192,274407,1,0,0:0:0:0:
64,192,274474,1,0,0:0:0:0:
192,192,274474,1,0,0:0:0:0:
192,192,274608,1,0,0:0:0:0:
64,192,274608,1,0,0:0:0:0:
64,192,274742,1,0,0:0:0:0:
192,192,274809,1,0,0:0:0:0:
448,192,274876,1,0,0:0:0:0:
320,192,274876,1,0,0:0:0:0:
64,192,274943,1,0,0:0:0:0:
448,192,275010,1,0,0:0:0:0:
320,192,275010,1,0,0:0:0:0:
192,192,275076,1,0,0:0:0:0:
64,192,275143,1,0,0:0:0:0:
320,192,275210,1,0,0:0:0:0:
192,192,275277,1,0,0:0:0:0:
448,192,275344,1,0,0:0:0:0:
320,192,275411,1,0,0:0:0:0:
448,192,275478,1,0,0:0:0:0:
192,192,275545,1,0,0:0:0:0:
64,192,275545,1,0,0:0:0:0:
320,192,275612,1,0,0:0:0:0:
192,192,275679,1,0,0:0:0:0:
64,192,275679,1,0,0:0:0:0:
448,192,275746,1,0,0:0:0:0:
64,192,275813,1,0,0:0:0:0:
192,192,275880,1,0,0:0:0:0:
320,192,275947,1,0,0:0:0:0:
448,192,275947,1,0,0:0:0:0:
64,192,276014,1,0,0:0:0:0:
448,192,276081,1,0,0:0:0:0:
320,192,276081,1,0,0:0:0:0:
192,192,276148,1,0,0:0:0:0:
64,192,276215,1,0,0:0:0:0:
320,192,276282,1,0,0:0:0:0:
192,192,276349,1,0,0:0:0:0:
448,192,276416,1,0,0:0:0:0:
320,192,276483,1,0,0:0:0:0:
448,192,276550,1,0,0:0:0:0:
64,192,276617,1,0,0:0:0:0:
192,192,276617,1,0,0:0:0:0:
320,192,276684,1,0,0:0:0:0:
192,192,276751,1,0,0:0:0:0:
64,192,276751,1,0,0:0:0:0:
448,192,276818,1,0,0:0:0:0:
64,192,276885,1,0,0:0:0:0:
192,192,276951,1,0,0:0:0:0:
448,192,277018,1,0,0:0:0:0:
320,192,277018,1,0,0:0:0:0:
64,192,277085,1,0,0:0:0:0:
448,192,277152,1,0,0:0:0:0:
320,192,277152,1,0,0:0:0:0:
192,192,277219,1,0,0:0:0:0:
64,192,277286,1,0,0:0:0:0:
192,192,277353,1,0,0:0:0:0:
448,192,277420,1,0,0:0:0:0:
320,192,277420,1,0,0:0:0:0:
64,192,277487,1,0,0:0:0:0:
320,192,277554,1,0,0:0:0:0:
192,192,277554,1,0,0:0:0:0:
448,192,277621,1,0,0:0:0:0:
192,192,277688,1,0,0:0:0:0:
64,192,277688,1,0,0:0:0:0:
448,192,277755,1,0,0:0:0:0:
320,192,277822,1,0,0:0:0:0:
192,192,277889,1,0,0:0:0:0:
64,192,277956,1,0,0:0:0:0:
320,192,277956,1,0,0:0:0:0:
64,192,278090,1,0,0:0:0:0:
320,192,278090,1,0,0:0:0:0:
192,192,278268,1,0,0:0:0:0:
320,192,278313,1,0,0:0:0:0:
448,192,278358,1,0,0:0:0:0:
192,192,278358,1,0,0:0:0:0:
448,192,278492,1,0,0:0:0:0:
192,192,278492,1,0,0:0:0:0:
64,192,278626,1,0,0:0:0:0:
192,192,278693,1,0,0:0:0:0:
448,192,278760,1,0,0:0:0:0:
320,192,278760,1,0,0:0:0:0:
320,192,278893,1,0,0:0:0:0:
448,192,278893,1,0,0:0:0:0:
448,192,279027,1,0,0:0:0:0:
320,192,279094,1,0,0:0:0:0:
64,192,279161,1,0,0:0:0:0:
192,192,279161,1,0,0:0:0:0:
448,192,279228,1,0,0:0:0:0:
64,192,279295,1,0,0:0:0:0:
192,192,279295,1,0,0:0:0:0:
320,192,279362,1,0,0:0:0:0:
448,192,279429,1,0,0:0:0:0:
192,192,279496,1,0,0:0:0:0:
320,192,279563,1,0,0:0:0:0:
64,192,279630,1,0,0:0:0:0:
192,192,279697,1,0,0:0:0:0:
448,192,279764,1,0,0:0:0:0:
64,192,279831,1,0,0:0:0:0:
192,192,279831,1,0,0:0:0:0:
320,192,279898,1,0,0:0:0:0:
64,192,279965,1,0,0:0:0:0:
192,192,280032,1,0,0:0:0:0:
448,192,280099,1,0,0:0:0:0:
320,192,280099,1,0,0:0:0:0:
64,192,280166,1,0,0:0:0:0:
320,192,280233,1,0,0:0:0:0:
192,192,280233,1,0,0:0:0:0:
448,192,280300,1,0,0:0:0:0:
192,192,280367,1,0,0:0:0:0:
64,192,280367,1,0,0:0:0:0:
320,192,280434,1,0,0:0:0:0:
448,192,280501,1,0,0:0:0:0:
320,192,280568,1,0,0:0:0:0:
64,192,280635,1,0,0:0:0:0:
192,192,280635,1,0,0:0:0:0:
448,192,280701,1,0,0:0:0:0:
192,192,280768,1,0,0:0:0:0:
320,192,280768,1,0,0:0:0:0:
64,192,280835,1,0,0:0:0:0:
448,192,280902,1,0,0:0:0:0:
320,192,280902,1,0,0:0:0:0:
192,192,280969,1,0,0:0:0:0:
448,192,281036,1,0,0:0:0:0:
64,192,281036,1,0,0:0:0:0:
320,192,281103,1,0,0:0:0:0:
64,192,281170,1,0,0:0:0:0:
192,192,281170,1,0,0:0:0:0:
448,192,281237,1,0,0:0:0:0:
192,192,281304,1,0,0:0:0:0:
320,192,281304,1,0,0:0:0:0:
64,192,281371,1,0,0:0:0:0:
320,192,281438,1,0,0:0:0:0:
448,192,281438,1,0,0:0:0:0:
192,192,281505,1,0,0:0:0:0:
448,192,281572,1,0,0:0:0:0:
64,192,281572,1,0,0:0:0:0:
320,192,281639,1,0,0:0:0:0:
64,192,281706,1,0,0:0:0:0:
192,192,281706,1,0,0:0:0:0:
448,192,281773,1,0,0:0:0:0:
320,192,281840,1,0,0:0:0:0:
64,192,281907,1,0,0:0:0:0:
448,192,281974,1,0,0:0:0:0:
320,192,281974,1,0,0:0:0:0:
192,192,282041,1,0,0:0:0:0:
448,192,282108,1,0,0:0:0:0:
320,192,282175,1,0,0:0:0:0:
64,192,282242,1,0,0:0:0:0:
192,192,282242,1,0,0:0:0:0:
448,192,282309,1,0,0:0:0:0:
64,192,282376,1,0,0:0:0:0:
192,192,282376,1,0,0:0:0:0:
320,192,282443,1,0,0:0:0:0:
64,192,282510,1,0,0:0:0:0:
320,192,282576,1,0,0:0:0:0:
192,192,282643,1,0,0:0:0:0:
64,192,282710,1,0,0:0:0:0:
320,192,282777,1,0,0:0:0:0:
448,192,282777,1,0,0:0:0:0:
64,192,282844,1,0,0:0:0:0:
192,192,282911,1,0,0:0:0:0:
320,192,282978,1,0,0:0:0:0:
448,192,283045,1,0,0:0:0:0:
64,192,283045,1,0,0:0:0:0:
192,192,283179,1,0,0:0:0:0:
448,192,283179,1,0,0:0:0:0:
320,192,283313,1,0,0:0:0:0:
64,192,283313,1,0,0:0:0:0:
448,192,283447,1,0,0:0:0:0:
320,192,283447,1,0,0:0:0:0:
448,192,283581,1,0,0:0:0:0:
64,192,283581,1,0,0:0:0:0:
320,192,283715,1,0,0:0:0:0:
64,192,283715,1,0,0:0:0:0:
192,192,283849,1,0,0:0:0:0:
448,192,283849,1,0,0:0:0:0:
320,192,283916,1,0,0:0:0:0:
64,192,283983,1,0,0:0:0:0:
192,192,283983,1,0,0:0:0:0:
64,192,284117,1,0,0:0:0:0:
320,192,284117,1,0,0:0:0:0:
448,192,284251,1,0,0:0:0:0:
192,192,284251,1,0,0:0:0:0:
64,192,284385,1,0,0:0:0:0:
192,192,284385,1,0,0:0:0:0:
320,192,284451,1,0,0:0:0:0:
64,192,284518,1,0,0:0:0:0:
448,192,284518,1,0,0:0:0:0:
448,192,284652,1,0,0:0:0:0:
192,192,284652,1,0,0:0:0:0:
320,192,284786,1,0,0:0:0:0:
64,192,284786,1,0,0:0:0:0:
320,192,284920,1,0,0:0:0:0:
448,192,284920,1,0,0:0:0:0:
192,192,284987,1,0,0:0:0:0:
448,192,285054,1,0,0:0:0:0:
64,192,285054,1,0,0:0:0:0:
192,192,285188,1,0,0:0:0:0:
64,192,285188,1,0,0:0:0:0:
192,192,285322,1,0,0:0:0:0:
448,192,285322,1,0,0:0:0:0:
320,192,285456,1,0,0:0:0:0:
448,192,285456,1,0,0:0:0:0:
192,192,285523,1,0,0:0:0:0:
448,192,285590,1,0,0:0:0:0:
320,192,285590,1,0,0:0:0:0:
192,192,285724,1,0,0:0:0:0:
64,192,285724,1,0,0:0:0:0:
320,192,285858,1,0,0:0:0:0:
64,192,285858,1,0,0:0:0:0:
192,192,285992,1,0,0:0:0:0:
448,192,285992,1,0,0:0:0:0:
320,192,286059,1,0,0:0:0:0:
192,192,286126,1,0,0:0:0:0:
64,192,286126,1,0,0:0:0:0:
64,192,286260,1,0,0:0:0:0:
448,192,286260,1,0,0:0:0:0:
192,192,286326,1,0,0:0:0:0:
320,192,286393,1,0,0:0:0:0:
448,192,286393,1,0,0:0:0:0:
64,192,286527,1,0,0:0:0:0:
448,192,286527,1,0,0:0:0:0:
320,192,286594,1,0,0:0:0:0:
192,192,286661,1,0,0:0:0:0:
64,192,286661,1,0,0:0:0:0:
64,192,286795,1,0,0:0:0:0:
448,192,286795,1,0,0:0:0:0:
320,192,286862,1,0,0:0:0:0:
192,192,286929,1,0,0:0:0:0:
448,192,286929,1,0,0:0:0:0:
64,192,287063,1,0,0:0:0:0:
448,192,287063,1,0,0:0:0:0:
192,192,287130,1,0,0:0:0:0:
64,192,287197,1,0,0:0:0:0:
320,192,287197,1,0,0:0:0:0:
448,192,287331,1,0,0:0:0:0:
64,192,287331,1,0,0:0:0:0:
320,192,287331,1,0,0:0:0:0:
448,192,287465,1,0,0:0:0:0:
192,192,287465,1,0,0:0:0:0:
320,192,287599,1,0,0:0:0:0:
64,192,287599,1,0,0:0:0:0:
192,192,287666,1,0,0:0:0:0:
448,192,287733,1,0,0:0:0:0:
320,192,287733,1,0,0:0:0:0:
448,192,287867,1,0,0:0:0:0:
64,192,287867,1,0,0:0:0:0:
320,192,288001,1,0,0:0:0:0:
64,192,288001,1,0,0:0:0:0:
192,192,288135,1,0,0:0:0:0:
448,192,288135,1,0,0:0:0:0:
320,192,288201,1,0,0:0:0:0:
64,192,288268,1,0,0:0:0:0:
192,192,288268,1,0,0:0:0:0:
64,192,288402,1,0,0:0:0:0:
320,192,288402,1,0,0:0:0:0:
448,192,288536,1,0,0:0:0:0:
192,192,288536,1,0,0:0:0:0:
64,192,288670,1,0,0:0:0:0:
192,192,288670,1,0,0:0:0:0:
320,192,288737,1,0,0:0:0:0:
64,192,288804,1,0,0:0:0:0:
448,192,288804,1,0,0:0:0:0:
448,192,288938,1,0,0:0:0:0:
192,192,288938,1,0,0:0:0:0:
320,192,289072,1,0,0:0:0:0:
64,192,289072,1,0,0:0:0:0:
320,192,289206,1,0,0:0:0:0:
448,192,289206,1,0,0:0:0:0:
192,192,289273,1,0,0:0:0:0:
448,192,289340,1,0,0:0:0:0:
64,192,289340,1,0,0:0:0:0:
320,192,289474,1,0,0:0:0:0:
192,192,289474,1,0,0:0:0:0:
320,192,289608,1,0,0:0:0:0:
64,192,289608,1,0,0:0:0:0:
192,192,289742,1,0,0:0:0:0:
448,192,289742,1,0,0:0:0:0:
320,192,289809,1,0,0:0:0:0:
64,192,289876,1,0,0:0:0:0:
192,192,289876,1,0,0:0:0:0:
320,192,290010,1,0,0:0:0:0:
448,192,290010,1,0,0:0:0:0:
192,192,290143,1,0,0:0:0:0:
448,192,290143,1,0,0:0:0:0:
320,192,290277,1,0,0:0:0:0:
64,192,290277,1,0,0:0:0:0:
192,192,290344,1,0,0:0:0:0:
320,192,290411,1,0,0:0:0:0:
448,192,290411,1,0,0:0:0:0:
448,192,290545,1,0,0:0:0:0:
64,192,290545,1,0,0:0:0:0:
320,192,290612,1,0,0:0:0:0:
192,192,290679,1,0,0:0:0:0:
64,192,290679,1,0,0:0:0:0:
320,192,290746,1,0,0:0:0:0:
448,192,290813,1,0,0:0:0:0:
64,192,290813,1,0,0:0:0:0:
448,192,291081,1,0,0:0:0:0:
64,192,291081,1,0,0:0:0:0:
192,192,291148,1,0,0:0:0:0:
320,192,291215,1,0,0:0:0:0:
448,192,291349,1,0,0:0:0:0:
64,192,291349,1,0,0:0:0:0:
320,192,291416,1,0,0:0:0:0:
192,192,291483,1,0,0:0:0:0:
448,192,291617,1,0,0:0:0:0:
64,192,291617,1,0,0:0:0:0:
320,192,291751,1,0,0:0:0:0:
64,192,291751,1,0,0:0:0:0:
192,192,291885,1,0,0:0:0:0:
448,192,291885,1,0,0:0:0:0:
320,192,291951,1,0,0:0:0:0:
64,192,292018,1,0,0:0:0:0:
192,192,292018,1,0,0:0:0:0:
64,192,292152,1,0,0:0:0:0:
448,192,292152,1,0,0:0:0:0:
192,192,292286,1,0,0:0:0:0:
448,192,292286,1,0,0:0:0:0:
320,192,292420,1,0,0:0:0:0:
64,192,292420,1,0,0:0:0:0:
192,192,292487,1,0,0:0:0:0:
448,192,292554,1,0,0:0:0:0:
320,192,292554,1,0,0:0:0:0:
448,192,292688,1,0,0:0:0:0:
192,192,292688,1,0,0:0:0:0:
64,192,292822,1,0,0:0:0:0:
320,192,292822,1,0,0:0:0:0:
448,192,292956,1,0,0:0:0:0:
320,192,292956,1,0,0:0:0:0:
192,192,293023,1,0,0:0:0:0:
448,192,293090,1,0,0:0:0:0:
64,192,293090,1,0,0:0:0:0:
64,192,293224,1,0,0:0:0:0:
320,192,293224,1,0,0:0:0:0:
192,192,293358,1,0,0:0:0:0:
448,192,293358,1,0,0:0:0:0:
192,192,293492,1,0,0:0:0:0:
64,192,293492,1,0,0:0:0:0:
320,192,293559,1,0,0:0:0:0:
64,192,293626,1,0,0:0:0:0:
448,192,293626,1,0,0:0:0:0:
320,192,293760,1,0,0:0:0:0:
448,192,293760,1,0,0:0:0:0:
320,192,293893,1,0,0:0:0:0:
64,192,293893,1,0,0:0:0:0:
192,192,294027,1,0,0:0:0:0:
64,192,294027,1,0,0:0:0:0:
320,192,294094,1,0,0:0:0:0:
64,192,294161,1,0,0:0:0:0:
192,192,294161,1,0,0:0:0:0:
320,192,294295,1,0,0:0:0:0:
448,192,294295,1,0,0:0:0:0:
192,192,294429,1,0,0:0:0:0:
448,192,294429,1,0,0:0:0:0:
320,192,294563,1,0,0:0:0:0:
64,192,294563,1,0,0:0:0:0:
192,192,294630,1,0,0:0:0:0:
320,192,294697,1,0,0:0:0:0:
448,192,294697,1,0,0:0:0:0:
448,192,294831,1,0,0:0:0:0:
64,192,294831,1,0,0:0:0:0:
320,192,294898,1,0,0:0:0:0:
192,192,294965,1,0,0:0:0:0:
64,192,294965,1,0,0:0:0:0:
448,192,295099,1,0,0:0:0:0:
64,192,295099,1,0,0:0:0:0:
192,192,295166,1,0,0:0:0:0:
320,192,295233,1,0,0:0:0:0:
448,192,295233,1,0,0:0:0:0:
448,192,295367,1,0,0:0:0:0:
64,192,295367,1,0,0:0:0:0:
192,192,295434,1,0,0:0:0:0:
320,192,295501,1,0,0:0:0:0:
64,192,295501,1,0,0:0:0:0:
448,192,295635,1,0,0:0:0:0:
64,192,295635,1,0,0:0:0:0:
320,192,295701,1,0,0:0:0:0:
448,192,295768,1,0,0:0:0:0:
192,192,295768,1,0,0:0:0:0:
64,192,295902,1,0,0:0:0:0:
448,192,295902,1,0,0:0:0:0:
192,192,295902,1,0,0:0:0:0:
64,192,296036,1,0,0:0:0:0:
320,192,296036,1,0,0:0:0:0:
192,192,296170,1,0,0:0:0:0:
448,192,296170,1,0,0:0:0:0:
320,192,296237,1,0,0:0:0:0:
64,192,296304,1,0,0:0:0:0:
192,192,296304,1,0,0:0:0:0:
64,192,296438,1,0,0:0:0:0:
448,192,296438,1,0,0:0:0:0:
192,192,296572,1,0,0:0:0:0:
448,192,296572,1,0,0:0:0:0:
320,192,296706,1,0,0:0:0:0:
64,192,296706,1,0,0:0:0:0:
192,192,296773,1,0,0:0:0:0:
448,192,296840,1,0,0:0:0:0:
320,192,296840,1,0,0:0:0:0:
448,192,296974,1,0,0:0:0:0:
192,192,296974,1,0,0:0:0:0:
64,192,297108,1,0,0:0:0:0:
320,192,297108,1,0,0:0:0:0:
448,192,297242,1,0,0:0:0:0:
320,192,297242,1,0,0:0:0:0:
192,192,297309,1,0,0:0:0:0:
448,192,297376,1,0,0:0:0:0:
64,192,297376,1,0,0:0:0:0:
64,192,297510,1,0,0:0:0:0:
320,192,297510,1,0,0:0:0:0:
192,192,297643,1,0,0:0:0:0:
320,192,297643,1,0,0:0:0:0:
64,192,297777,1,0,0:0:0:0:
448,192,297777,1,0,0:0:0:0:
192,192,297844,1,0,0:0:0:0:
320,192,297911,1,0,0:0:0:0:
448,192,297911,1,0,0:0:0:0:
64,192,297978,1,0,0:0:0:0:
448,192,298045,1,0,0:0:0:0:
320,192,298045,1,0,0:0:0:0:
192,192,298112,1,0,0:0:0:0:
448,192,298179,1,0,0:0:0:0:
64,192,298179,1,0,0:0:0:0:
320,192,298246,1,0,0:0:0:0:
64,192,298313,1,0,0:0:0:0:
192,192,298313,1,0,0:0:0:0:
320,192,298380,1,0,0:0:0:0:
448,192,298447,1,0,0:0:0:0:
64,192,298447,1,0,0:0:0:0:
192,192,298514,1,0,0:0:0:0:
448,192,298581,1,0,0:0:0:0:
320,192,298581,1,0,0:0:0:0:
192,192,298648,1,0,0:0:0:0:
448,192,298715,1,0,0:0:0:0:
64,192,298715,1,0,0:0:0:0:
320,192,298782,1,0,0:0:0:0:
64,192,298849,1,0,0:0:0:0:
192,192,298849,1,0,0:0:0:0:
320,192,298916,1,0,0:0:0:0:
64,192,298983,1,0,0:0:0:0:
448,192,298983,1,0,0:0:0:0:
192,192,299050,1,0,0:0:0:0:
448,192,299117,1,0,0:0:0:0:
320,192,299117,1,0,0:0:0:0:
64,192,299184,1,0,0:0:0:0:
448,192,299251,1,0,0:0:0:0:
320,192,299251,1,0,0:0:0:0:
64,192,299318,1,0,0:0:0:0:
192,192,299318,1,0,0:0:0:0:
448,192,299385,1,0,0:0:0:0:
320,192,299385,1,0,0:0:0:0:
64,192,299518,1,0,0:0:0:0:
192,192,299518,1,0,0:0:0:0:
448,192,299585,1,0,0:0:0:0:
320,192,299585,1,0,0:0:0:0:
64,192,299652,1,0,0:0:0:0:
192,192,299652,1,0,0:0:0:0:
320,192,299786,1,0,0:0:0:0:
448,192,299853,1,0,0:0:0:0:
192,192,299920,1,0,0:0:0:0:
320,192,299987,1,0,0:0:0:0:
64,192,300054,1,0,0:0:0:0:
192,192,300121,1,0,0:0:0:0:
448,192,300188,1,0,0:0:0:0:
320,192,300188,1,0,0:0:0:0:
320,192,300322,1,0,0:0:0:0:
64,192,300322,1,0,0:0:0:0:
192,192,300389,1,0,0:0:0:0:
448,192,300456,1,0,0:0:0:0:
192,192,300523,1,0,0:0:0:0:
320,192,300590,1,0,0:0:0:0:
64,192,300590,1,0,0:0:0:0:
320,192,300724,1,0,0:0:0:0:
192,192,300791,1,0,0:0:0:0:
448,192,300858,1,0,0:0:0:0:
64,192,300858,1,0,0:0:0:0:
192,192,300925,1,0,0:0:0:0:
320,192,300992,1,0,0:0:0:0:
64,192,301059,1,0,0:0:0:0:
448,192,301126,1,0,0:0:0:0:
192,192,301126,1,0,0:0:0:0:
64,192,301260,1,0,0:0:0:0:
320,192,301260,1,0,0:0:0:0:
192,192,301393,1,0,0:0:0:0:
448,192,301393,1,0,0:0:0:0:
320,192,301460,1,0,0:0:0:0:
64,192,301527,1,0,0:0:0:0:
320,192,301594,1,0,0:0:0:0:
192,192,301661,1,0,0:0:0:0:
448,192,301661,1,0,0:0:0:0:
192,192,301795,1,0,0:0:0:0:
320,192,301862,1,0,0:0:0:0:
64,192,301929,1,0,0:0:0:0:
448,192,301929,1,0,0:0:0:0:
320,192,301996,1,0,0:0:0:0:
192,192,302063,1,0,0:0:0:0:
448,192,302130,1,0,0:0:0:0:
64,192,302197,1,0,0:0:0:0:
320,192,302197,1,0,0:0:0:0:
192,192,302331,1,0,0:0:0:0:
64,192,302331,1,0,0:0:0:0:
320,192,302465,1,0,0:0:0:0:
448,192,302465,1,0,0:0:0:0:
192,192,302532,1,0,0:0:0:0:
448,192,302599,1,0,0:0:0:0:
192,192,302666,1,0,0:0:0:0:
320,192,302733,1,0,0:0:0:0:
64,192,302733,1,0,0:0:0:0:
192,192,302867,1,0,0:0:0:0:
320,192,302934,1,0,0:0:0:0:
64,192,303001,1,0,0:0:0:0:
448,192,303001,1,0,0:0:0:0:
320,192,303068,1,0,0:0:0:0:
192,192,303135,1,0,0:0:0:0:
448,192,303201,1,0,0:0:0:0:
192,192,303268,1,0,0:0:0:0:
64,192,303268,1,0,0:0:0:0:
320,192,303402,1,0,0:0:0:0:
448,192,303402,1,0,0:0:0:0:
192,192,303536,1,0,0:0:0:0:
64,192,303536,1,0,0:0:0:0:
320,192,303603,1,0,0:0:0:0:
64,192,303670,1,0,0:0:0:0:
320,192,303737,1,0,0:0:0:0:
192,192,303804,1,0,0:0:0:0:
448,192,303804,1,0,0:0:0:0:
320,192,303938,1,0,0:0:0:0:
192,192,304005,1,0,0:0:0:0:
448,192,304072,1,0,0:0:0:0:
64,192,304072,1,0,0:0:0:0:
192,192,304139,1,0,0:0:0:0:
448,192,304206,1,0,0:0:0:0:
320,192,304273,1,0,0:0:0:0:
64,192,304340,1,0,0:0:0:0:
192,192,304340,1,0,0:0:0:0:
448,192,304474,1,0,0:0:0:0:
320,192,304474,1,0,0:0:0:0:
320,192,304608,1,0,0:0:0:0:
64,192,304608,1,0,0:0:0:0:
192,192,304675,1,0,0:0:0:0:
448,192,304742,1,0,0:0:0:0:
192,192,304809,1,0,0:0:0:0:
320,192,304876,1,0,0:0:0:0:
64,192,304876,1,0,0:0:0:0:
320,192,305010,1,0,0:0:0:0:
192,192,305076,1,0,0:0:0:0:
448,192,305143,1,0,0:0:0:0:
64,192,305143,1,0,0:0:0:0:
192,192,305210,1,0,0:0:0:0:
320,192,305277,1,0,0:0:0:0:
64,192,305344,1,0,0:0:0:0:
448,192,305411,1,0,0:0:0:0:
192,192,305411,1,0,0:0:0:0:
64,192,305545,1,0,0:0:0:0:
320,192,305545,1,0,0:0:0:0:
192,192,305679,1,0,0:0:0:0:
448,192,305679,1,0,0:0:0:0:
320,192,305746,1,0,0:0:0:0:
64,192,305813,1,0,0:0:0:0:
320,192,305880,1,0,0:0:0:0:
192,192,305947,1,0,0:0:0:0:
448,192,305947,1,0,0:0:0:0:
192,192,306081,1,0,0:0:0:0:
320,192,306148,1,0,0:0:0:0:
64,192,306215,1,0,0:0:0:0:
448,192,306215,1,0,0:0:0:0:
320,192,306282,1,0,0:0:0:0:
192,192,306349,1,0,0:0:0:0:
448,192,306416,1,0,0:0:0:0:
64,192,306483,1,0,0:0:0:0:
320,192,306483,1,0,0:0:0:0:
192,192,306617,1,0,0:0:0:0:
64,192,306617,1,0,0:0:0:0:
320,192,306751,1,0,0:0:0:0:
448,192,306751,1,0,0:0:0:0:
192,192,306818,1,0,0:0:0:0:
448,192,306885,1,0,0:0:0:0:
192,192,306951,1,0,0:0:0:0:
320,192,307018,1,0,0:0:0:0:
64,192,307018,1,0,0:0:0:0:
192,192,307152,1,0,0:0:0:0:
320,192,307219,1,0,0:0:0:0:
64,192,307286,1,0,0:0:0:0:
448,192,307286,1,0,0:0:0:0:
320,192,307353,1,0,0:0:0:0:
192,192,307420,1,0,0:0:0:0:
448,192,307487,1,0,0:0:0:0:
192,192,307554,1,0,0:0:0:0:
64,192,307554,1,0,0:0:0:0:
448,192,307688,1,0,0:0:0:0:
320,192,307688,1,0,0:0:0:0:
320,192,307822,1,0,0:0:0:0:
192,192,307822,1,0,0:0:0:0:
448,192,307889,1,0,0:0:0:0:
192,192,307956,1,0,0:0:0:0:
64,192,307956,1,0,0:0:0:0:
320,192,308090,1,0,0:0:0:0:
192,192,308090,1,0,0:0:0:0:
448,192,308224,1,0,0:0:0:0:
320,192,308224,1,0,0:0:0:0:
64,192,308291,1,0,0:0:0:0:
320,192,308358,1,0,0:0:0:0:
192,192,308358,1,0,0:0:0:0:
192,192,308492,1,0,0:0:0:0:
64,192,308492,1,0,0:0:0:0:
320,192,308626,1,0,0:0:0:0:
192,192,308626,1,0,0:0:0:0:
448,192,308693,1,0,0:0:0:0:
64,192,308760,1,0,0:0:0:0:
320,192,308760,1,0,0:0:0:0:
192,192,308893,1,0,0:0:0:0:
448,192,308893,1,0,0:0:0:0:
320,192,308960,1,0,0:0:0:0:
64,192,309027,1,0,0:0:0:0:
320,192,309094,1,0,0:0:0:0:
192,192,309161,1,0,0:0:0:0:
448,192,309161,1,0,0:0:0:0:
192,192,309295,1,0,0:0:0:0:
320,192,309362,1,0,0:0:0:0:
64,192,309429,1,0,0:0:0:0:
448,192,309429,1,0,0:0:0:0:
320,192,309496,1,0,0:0:0:0:
192,192,309563,1,0,0:0:0:0:
448,192,309630,1,0,0:0:0:0:
64,192,309697,1,0,0:0:0:0:
320,192,309697,1,0,0:0:0:0:
448,192,309831,1,0,0:0:0:0:
192,192,309831,1,0,0:0:0:0:
320,192,309965,1,0,0:0:0:0:
64,192,309965,1,0,0:0:0:0:
192,192,310032,1,0,0:0:0:0:
448,192,310099,1,0,0:0:0:0:
192,192,310166,1,0,0:0:0:0:
320,192,310233,1,0,0:0:0:0:
64,192,310233,1,0,0:0:0:0:
320,192,310367,1,0,0:0:0:0:
192,192,310434,1,0,0:0:0:0:
448,192,310501,1,0,0:0:0:0:
64,192,310501,1,0,0:0:0:0:
192,192,310568,1,0,0:0:0:0:
320,192,310635,1,0,0:0:0:0:
64,192,310701,1,0,0:0:0:0:
448,192,310768,1,0,0:0:0:0:
192,192,310768,1,0,0:0:0:0:
320,192,310902,1,0,0:0:0:0:
448,192,310902,1,0,0:0:0:0:
192,192,311036,1,0,0:0:0:0:
64,192,311036,1,0,0:0:0:0:
320,192,311103,1,0,0:0:0:0:
64,192,311170,1,0,0:0:0:0:
320,192,311237,1,0,0:0:0:0:
192,192,311304,1,0,0:0:0:0:
448,192,311304,1,0,0:0:0:0:
320,192,311438,1,0,0:0:0:0:
192,192,311505,1,0,0:0:0:0:
448,192,311572,1,0,0:0:0:0:
64,192,311572,1,0,0:0:0:0:
192,192,311639,1,0,0:0:0:0:
320,192,311706,1,0,0:0:0:0:
64,192,311773,1,0,0:0:0:0:
192,192,311840,1,0,0:0:0:0:
448,192,311840,1,0,0:0:0:0:
320,192,311974,1,0,0:0:0:0:
64,192,311974,1,0,0:0:0:0:
320,192,312108,1,0,0:0:0:0:
448,192,312108,1,0,0:0:0:0:
192,192,312175,1,0,0:0:0:0:
448,192,312242,1,0,0:0:0:0:
192,192,312309,1,0,0:0:0:0:
320,192,312376,1,0,0:0:0:0:
64,192,312376,1,0,0:0:0:0:
192,192,312510,1,0,0:0:0:0:
320,192,312576,1,0,0:0:0:0:
64,192,312643,1,0,0:0:0:0:
448,192,312643,1,0,0:0:0:0:
320,192,312710,1,0,0:0:0:0:
192,192,312777,1,0,0:0:0:0:
448,192,312844,1,0,0:0:0:0:
192,192,312911,1,0,0:0:0:0:
64,192,312911,1,0,0:0:0:0:
448,192,313045,1,0,0:0:0:0:
320,192,313045,1,0,0:0:0:0:
320,192,313179,1,0,0:0:0:0:
64,192,313179,1,0,0:0:0:0:
192,192,313246,1,0,0:0:0:0:
448,192,313313,1,0,0:0:0:0:
192,192,313380,1,0,0:0:0:0:
320,192,313447,1,0,0:0:0:0:
64,192,313447,1,0,0:0:0:0:
320,192,313581,1,0,0:0:0:0:
192,192,313648,1,0,0:0:0:0:
448,192,313715,1,0,0:0:0:0:
64,192,313715,1,0,0:0:0:0:
192,192,313782,1,0,0:0:0:0:
320,192,313849,1,0,0:0:0:0:
64,192,313916,1,0,0:0:0:0:
448,192,313983,1,0,0:0:0:0:
192,192,313983,1,0,0:0:0:0:
64,192,314117,1,0,0:0:0:0:
320,192,314117,1,0,0:0:0:0:
192,192,314251,1,0,0:0:0:0:
448,192,314251,1,0,0:0:0:0:
320,192,314318,1,0,0:0:0:0:
64,192,314385,1,0,0:0:0:0:
320,192,314451,1,0,0:0:0:0:
192,192,314518,1,0,0:0:0:0:
448,192,314518,1,0,0:0:0:0:
192,192,314652,1,0,0:0:0:0:
320,192,314719,1,0,0:0:0:0:
64,192,314786,1,0,0:0:0:0:
448,192,314786,1,0,0:0:0:0:
320,192,314853,1,0,0:0:0:0:
192,192,314920,1,0,0:0:0:0:
448,192,314987,1,0,0:0:0:0:
64,192,315054,1,0,0:0:0:0:
320,192,315054,1,0,0:0:0:0:
192,192,315188,1,0,0:0:0:0:
64,192,315188,1,0,0:0:0:0:
320,192,315322,1,0,0:0:0:0:
448,192,315322,1,0,0:0:0:0:
192,192,315389,1,0,0:0:0:0:
448,192,315456,1,0,0:0:0:0:
192,192,315523,1,0,0:0:0:0:
320,192,315590,1,0,0:0:0:0:
64,192,315590,1,0,0:0:0:0:
192,192,315724,1,0,0:0:0:0:
320,192,315791,1,0,0:0:0:0:
64,192,315858,1,0,0:0:0:0:
448,192,315858,1,0,0:0:0:0:
320,192,315925,1,0,0:0:0:0:
64,192,315992,1,0,0:0:0:0:
192,192,315992,1,0,0:0:0:0:
448,192,316059,1,0,0:0:0:0:
320,192,316059,1,0,0:0:0:0:
64,192,316126,1,0,0:0:0:0:
192,192,316126,1,0,0:0:0:0:
448,192,316193,1,0,0:0:0:0:
320,192,316193,1,0,0:0:0:0:
64,192,316260,1,0,0:0:0:0:
192,192,316260,1,0,0:0:0:0:
448,192,316393,1,0,0:0:0:0:
192,192,316393,1,0,0:0:0:0:
64,192,316460,1,0,0:0:0:0:
448,192,316527,1,0,0:0:0:0:
320,192,316527,1,0,0:0:0:0:
64,192,316594,1,0,0:0:0:0:
320,192,316661,1,0,0:0:0:0:
192,192,316661,1,0,0:0:0:0:
448,192,316728,1,0,0:0:0:0:
192,192,316795,1,0,0:0:0:0:
64,192,316795,1,0,0:0:0:0:
448,192,316862,1,0,0:0:0:0:
320,192,316929,1,0,0:0:0:0:
192,192,316929,1,0,0:0:0:0:
64,192,316996,1,0,0:0:0:0:
448,192,317063,1,0,0:0:0:0:
320,192,317063,1,0,0:0:0:0:
64,192,317130,1,0,0:0:0:0:
320,192,317197,1,0,0:0:0:0:
192,192,317197,1,0,0:0:0:0:
448,192,317264,1,0,0:0:0:0:
64,192,317331,1,0,0:0:0:0:
192,192,317331,1,0,0:0:0:0:
448,192,317398,1,0,0:0:0:0:
320,192,317465,1,0,0:0:0:0:
192,192,317465,1,0,0:0:0:0:
64,192,317532,1,0,0:0:0:0:
448,192,317599,1,0,0:0:0:0:
320,192,317599,1,0,0:0:0:0:
320,192,317733,1,0,0:0:0:0:
192,192,317733,1,0,0:0:0:0:
64,192,317867,1,0,0:0:0:0:
192,192,317867,1,0,0:0:0:0:
448,192,318001,1,0,0:0:0:0:
64,192,318001,1,0,0:0:0:0:
192,192,318068,1,0,0:0:0:0:
448,192,318135,1,0,0:0:0:0:
320,192,318135,1,0,0:0:0:0:
64,192,318201,1,0,0:0:0:0:
320,192,318268,1,0,0:0:0:0:
192,192,318268,1,0,0:0:0:0:
448,192,318335,1,0,0:0:0:0:
192,192,318402,1,0,0:0:0:0:
64,192,318402,1,0,0:0:0:0:
448,192,318469,1,0,0:0:0:0:
320,192,318536,1,0,0:0:0:0:
192,192,318536,1,0,0:0:0:0:
64,192,318603,1,0,0:0:0:0:
448,192,318670,1,0,0:0:0:0:
320,192,318670,1,0,0:0:0:0:
448,192,318804,1,0,0:0:0:0:
192,192,318804,1,0,0:0:0:0:
320,192,318871,1,0,0:0:0:0:
192,192,318938,1,0,0:0:0:0:
64,192,318938,1,0,0:0:0:0:
64,192,319072,1,0,0:0:0:0:
448,192,319072,1,0,0:0:0:0:
192,192,319139,1,0,0:0:0:0:
448,192,319206,1,0,0:0:0:0:
320,192,319206,1,0,0:0:0:0:
64,192,319273,1,0,0:0:0:0:
320,192,319340,1,0,0:0:0:0:
192,192,319340,1,0,0:0:0:0:
448,192,319407,1,0,0:0:0:0:
64,192,319474,1,0,0:0:0:0:
192,192,319474,1,0,0:0:0:0:
192,192,319608,128,0,320010:0:0:0:0:
64,192,319608,128,0,320143:0:0:0:0:
