osu file format v14

[General]
AudioFilename: audio.mp3
AudioLeadIn: 0
PreviewTime: 71145
Countdown: 0
SampleSet: None
StackLeniency: 0.7
Mode: 0
LetterboxInBreaks: 0
WidescreenStoryboard: 0

[Editor]
DistanceSpacing: 1
BeatDivisor: 8
GridSize: 4
TimelineZoom: 4.299998

[Metadata]
Title:Astral Empire
TitleUnicode:Astral Empire
Artist:DragonForce
ArtistUnicode:DragonForce
Creator:Bibbity Bill
Version:Legend
Source:
Tags:reaching into infinity power metal english rsi deathstream speed
BeatmapID:1603635
BeatmapSetID:615127

[Difficulty]
HPDrainRate:4
CircleSize:4.2
OverallDifficulty:9.5
ApproachRate:10
SliderMultiplier:1.8
SliderTickRate:2

[Events]
//Background and Video events
0,0,"coolbattle.jpg",0,0
//Break Periods
//Storyboard Layer 0 (Background)
//Storyboard Layer 1 (Fail)
//Storyboard Layer 2 (Pass)
//Storyboard Layer 3 (Foreground)
//Storyboard Sound Samples

[TimingPoints]
200,270.27027027027,4,3,1,50,1,0
3983,-100,4,3,2,50,0,0
4051,-100,4,3,1,50,0,0
4516,267.857142857143,4,3,1,50,1,0
4716,-100,4,3,1,5,0,0
4783,-100,4,3,1,50,0,0
12551,-100,4,3,2,50,0,0
12685,-100,4,3,1,50,0,0
12819,-200,4,3,1,50,0,0
13087,-100,4,3,2,50,0,0
13154,-100,4,3,1,50,0,0
13489,-100,4,3,2,50,0,0
13556,-100,4,3,1,50,0,0
13891,-100,4,3,2,50,0,0
13957,-100,4,3,1,50,0,0
14158,-66.6666666666667,4,3,2,50,0,0
14225,-66.6666666666667,4,3,1,50,0,0
14560,-66.6666666666667,4,3,2,50,0,0
14627,-66.6666666666667,4,3,1,50,0,0
14962,-66.6666666666667,4,3,2,50,0,0
15029,-66.6666666666667,4,3,1,50,0,0
15230,-100,4,3,1,50,0,0
15431,-100,4,3,1,5,0,0
15498,-100,4,3,1,50,0,0
18712,-100,4,3,2,50,0,0
18779,-100,4,3,1,50,0,0
18980,-80,4,3,2,50,0,0
19047,-80,4,3,1,50,0,0
19248,-100,4,3,5,50,0,0
19516,-100,4,3,1,50,0,0
19716,-100,4,3,1,5,0,0
19783,-100,4,3,1,50,0,0
24002,-100,4,3,1,5,0,0
24069,-100,4,3,1,50,0,0
27551,-80,4,3,2,50,0,0
27618,-80,4,3,1,50,0,0
27819,-80,4,3,2,50,0,0
27886,-80,4,3,1,50,0,0
28087,-100,4,3,1,50,0,0
28288,-100,4,3,1,5,0,0
28355,-100,4,3,1,50,0,0
31837,-133.333333333333,4,3,1,50,0,0
31904,-133.333333333333,4,3,5,35,0,0
32105,-133.333333333333,4,3,3,50,0,0
32172,-133.333333333333,4,3,5,35,0,0
32373,-100,4,3,1,50,0,0
32574,-100,4,3,1,5,0,0
32641,-100,4,3,1,50,0,0
33645,-100,4,3,1,5,0,0
33712,-100,4,3,1,50,0,0
35319,-133.333333333333,4,3,5,50,0,0
35587,-100,4,3,1,50,0,0
36859,-100,4,3,1,5,0,0
36926,-100,4,3,1,50,0,0
40676,-100,4,3,5,50,0,0
40944,-100,4,3,1,50,0,0
41145,-100,4,3,1,5,0,0
41212,-100,4,3,1,50,0,0
45431,-100,4,3,1,5,0,0
45498,-100,4,3,1,50,0,0
49248,-100,4,3,2,50,0,0
49315,-100,4,3,1,50,0,0
49716,-100,4,3,1,5,0,0
49783,-100,4,3,1,50,0,0
54002,-100,4,3,1,5,0,0
54069,-100,4,3,1,50,0,0
61569,-100,4,3,5,50,0,0
61636,-100,4,3,1,50,0,0
62574,-100,4,3,1,5,0,0
62641,-100,4,3,1,50,0,0
66859,-100,4,3,1,5,0,0
66926,-100,4,3,1,50,0,0
68801,-66.6666666666667,4,3,1,50,0,0
69873,-57.1428571428571,4,3,1,50,0,0
70141,-133.333333333333,4,3,4,50,0,0
70944,-80,4,3,1,70,0,1
86748,-133.333333333333,4,3,1,70,0,1
87016,-80,4,3,2,70,0,1
87082,-80,4,3,1,70,0,1
87417,-80,4,3,2,70,0,1
87484,-80,4,3,1,70,0,1
87819,-133.333333333333,4,3,5,70,0,1
88087,-100,4,3,1,50,0,0
92105,-200,4,3,1,50,0,0
92373,-100,4,3,1,50,0,0
94248,-133.333333333333,4,3,1,50,0,0
94516,-100,4,3,1,50,0,0
95319,-100,4,3,5,50,0,0
95587,-100,4,3,1,50,0,0
100676,-100,4,3,2,50,0,0
100743,-100,4,3,1,50,0,0
101145,-100,4,3,1,5,0,0
101212,-100,4,3,1,50,0,0
105431,-100,4,3,1,5,0,0
105498,-100,4,3,1,50,0,0
108846,-133.333333333333,4,3,2,50,0,0
108913,-133.333333333333,4,3,4,35,0,0
109248,-200,4,3,2,50,0,0
109315,-200,4,3,5,35,0,0
109516,-100,4,3,1,50,0,0
109716,-100,4,3,1,5,0,0
109783,-100,4,3,1,50,0,0
113266,-200,4,3,4,35,0,0
113533,-200,4,3,5,35,0,0
113801,-80,4,3,1,70,0,1
117016,-80,4,3,5,35,0,1
117283,-80,4,3,1,70,0,1
117350,-80,4,3,5,35,0,1
117417,-80,4,3,1,70,0,1
117484,-80,4,3,5,35,0,1
117685,-80,4,3,1,70,0,1
117752,-80,4,3,5,35,0,1
117819,-80,4,3,1,70,0,1
117886,-80,4,3,5,35,0,1
118087,-80,4,3,1,70,0,1
121301,-66.6666666666667,4,3,1,70,0,1
121837,-57.1428571428571,4,3,1,70,0,1
122105,-200,4,3,2,50,0,0
122239,-200,4,3,1,50,0,0
122306,-200,4,3,1,5,0,0
122373,-80,4,3,1,70,0,1
130141,-100,4,3,2,70,0,1
130207,-100,4,3,3,35,0,1
130408,-133.333333333333,4,3,2,70,0,1
130475,-133.333333333333,4,3,4,35,0,1
130676,-200,4,3,2,70,0,1
130743,-200,4,3,5,35,0,1
130944,-80,4,3,1,70,0,1
138042,-80,4,3,3,70,0,1
138310,-80,4,3,4,70,0,1
138578,-80,4,3,5,70,0,1
138846,-80,4,3,4,70,0,1
139248,-80,4,3,3,70,0,1
139516,-80,4,3,2,70,0,1
139783,-80,4,3,5,70,0,1
140185,-80,4,3,4,70,0,1
140587,-100,4,3,5,70,0,1
140989,-133.333333333333,4,3,5,70,0,1
141391,-200,4,3,5,70,0,1
141658,550.45871559633,4,3,2,50,1,0
143034,-100,4,3,2,5,0,0
143171,-100,4,3,2,50,0,0
143859,-100,4,3,1,50,0,0
144410,-156.25,4,3,1,50,0,0
145924,-100,4,3,1,5,0,0
146061,-100,4,3,1,50,0,0
148676,-100,4,3,1,5,0,0
148813,-133.333333333333,4,3,1,50,0,0
150052,-133.333333333333,4,3,1,5,0,0
150190,-133.333333333333,4,3,1,50,0,0
150465,-100,4,3,1,50,0,0
150740,-100,4,3,1,5,0,0
150878,-100,4,3,1,50,0,0
151841,-100,4,3,1,5,0,0
151979,-100,4,3,1,50,0,0
153217,-153.846153846154,4,3,1,50,0,0
154456,-153.846153846154,4,3,1,5,0,0
154593,-153.846153846154,4,3,1,50,0,0
154869,-66.6666666666667,4,3,1,50,0,0
158997,-66.6666666666667,4,3,5,50,0,0
159272,555.555555555556,4,3,1,50,1,0
159272,-66.6666666666667,4,3,1,50,0,0
167883,-66.6666666666667,4,3,1,35,0,0
168022,-66.6666666666667,4,3,1,50,0,0
199272,275.229357798165,4,3,1,50,1,0
202849,-200,4,3,2,50,0,0
202918,-200,4,3,1,50,0,0
203125,-133.333333333333,4,3,2,50,0,0
203194,-133.333333333333,4,3,1,50,0,0
203400,-100,4,3,2,50,0,0
203469,-100,4,3,1,50,0,0
203675,267.857142857143,4,3,1,50,1,0
203675,-80,4,3,1,50,0,0
204746,-100,4,3,1,50,0,0
209032,-80,4,3,1,50,0,0
209634,-100,4,3,1,50,0,0
209768,-80,4,3,1,50,0,0
210103,-100,4,3,1,50,0,0
210237,-80,4,3,1,50,0,0
211175,-66.6666666666667,4,3,1,50,0,0
211710,-200,4,3,1,50,0,0
212246,-100,4,3,1,50,0,0
213853,-86.9565217391304,4,3,1,50,0,0
214389,-100,4,3,1,50,0,0
215192,-100,4,3,5,50,0,0
215460,-100,4,3,1,50,0,0
216666,-100,4,3,2,50,0,0
216933,-100,4,3,1,50,0,0
217737,-100,4,3,2,50,0,0
218005,-100,4,3,1,50,0,0
220951,-100,4,3,2,50,0,0
221219,-100,4,3,1,50,0,0
224835,-100,4,3,2,50,0,0
225036,-100,4,3,2,5,0,0
225103,-100,4,3,1,50,0,0
226175,-80,4,3,1,50,0,0
227246,-66.6666666666667,4,3,1,50,0,0
228317,-57.1428571428571,4,3,1,50,0,0
228585,-285.714285714286,4,3,1,50,0,0
228853,-66.6666666666667,4,3,1,50,0,0
229389,-100,4,3,1,50,0,0
233005,-100,4,3,5,50,0,0
233273,-100,4,3,1,50,0,0
234746,-80,4,3,1,50,0,0
235817,-66.6666666666667,4,3,1,50,0,0
236889,-285.714285714286,4,3,2,50,0,0
236956,-285.714285714286,4,3,1,50,0,0
237157,-285.714285714286,4,3,2,50,0,0
237224,-285.714285714286,4,3,1,50,0,0
237425,-66.6666666666667,4,3,2,50,0,0
237491,-66.6666666666667,4,3,1,50,0,0
237692,-100,4,3,2,50,0,0
237893,-100,4,3,2,5,0,0
237960,-100,4,3,1,50,0,0
239701,-100,4,3,2,50,0,0
239969,-100,4,3,1,50,0,0
241175,-66.6666666666667,4,3,1,50,0,0
242246,-100,4,3,1,50,0,0
244389,-80,4,3,1,50,0,0
245996,-133.333333333333,4,3,1,50,0,0
246532,-80,4,3,1,50,0,0
248675,-100,4,3,1,50,0,0
250282,-86.9565217391304,4,3,1,50,0,0
250817,-100,4,3,1,50,0,0
250951,-100,4,3,2,50,0,0
251219,-100,4,3,1,50,0,0
252023,-100,4,3,2,50,0,0
252291,-100,4,3,1,50,0,0
254032,-80,4,3,1,50,0,0
254567,-80,4,3,2,50,0,0
254634,-80,4,3,1,50,0,0
254835,-80,4,3,2,50,0,0
254902,-80,4,3,1,50,0,0
255103,-100,4,3,1,50,0,0
255237,-100,4,3,2,50,0,0
255505,-100,4,3,1,50,0,0
258451,-100,4,3,2,50,0,0
258719,-100,4,3,1,50,0,0
261532,-80,4,3,1,50,0,0
262603,-66.6666666666667,4,3,1,50,0,0
262871,-100,4,3,1,50,0,0
263139,-57.1428571428571,4,3,1,50,0,0
263407,-100,4,3,1,50,0,0
263675,-100,4,3,1,50,0,0
267425,-80,4,3,1,50,0,0
267960,-100,4,3,1,50,0,0
270103,-80,4,3,1,50,0,0
272246,-66.6666666666667,4,3,1,50,0,0
272648,-66.6666666666667,4,3,2,50,0,0
272715,-66.6666666666667,4,3,1,50,0,0
273050,-66.6666666666667,4,3,2,50,0,0
273116,-66.6666666666667,4,3,1,50,0,0
273317,-57.1428571428571,4,3,2,50,0,0
273384,-57.1428571428571,4,3,1,50,0,0
273853,-57.1428571428571,4,3,2,50,0,0
273920,-57.1428571428571,4,3,1,50,0,0
274121,-57.1428571428571,4,3,2,50,0,0
274188,-57.1428571428571,4,3,1,50,0,0
274389,-80,4,3,1,70,0,1
274590,-80,4,3,1,5,0,1
274657,-80,4,3,1,70,0,1
277603,-80,4,3,1,70,0,1
277670,-80,4,3,3,35,0,1
277871,-80,4,3,1,70,0,1
277938,-80,4,3,3,35,0,1
278005,-80,4,3,1,70,0,1
278072,-80,4,3,3,35,0,1
278273,-80,4,3,1,70,0,1
278340,-80,4,3,3,35,0,1
278407,-80,4,3,1,70,0,1
278474,-80,4,3,3,35,0,1
278675,-80,4,3,1,70,0,1
281889,-66.6666666666667,4,3,1,70,0,1
282425,-57.1428571428571,4,3,1,70,0,1
282692,-200,4,3,2,50,0,0
282826,-200,4,3,1,50,0,0
282893,-200,4,3,1,5,0,0
282960,-80,4,3,1,70,0,1
290728,-100,4,3,2,70,0,1
290795,-100,4,3,3,35,0,1
290996,-133.333333333333,4,3,2,70,0,1
291063,-133.333333333333,4,3,4,35,0,1
291264,-200,4,3,2,70,0,1
291331,-200,4,3,5,35,0,1
291532,-80,4,3,1,70,0,1
298362,-80,4,3,2,70,0,1
298429,-80,4,3,1,70,0,1
298764,-80,4,3,2,70,0,1
298831,-80,4,3,1,70,0,1
299032,-100,4,3,2,70,0,1
299099,-100,4,3,1,70,0,1
299300,-133.333333333333,4,3,2,70,0,1
299366,-133.333333333333,4,3,3,35,0,1
299567,-200,4,3,1,70,0,1
299634,-200,4,3,4,35,0,1
299835,-100,4,3,5,35,0,1
300103,-100,4,3,1,50,0,0
315639,-100,4,3,2,50,0,0
315773,-100,4,3,1,50,0,0
315907,-100,4,3,2,50,0,0
315974,-100,4,3,1,50,0,0

[Colours]
Combo1 : 122,155,194
Combo2 : 192,192,192
Combo3 : 254,218,141
Combo4 : 255,154,149

[HitObjects]
180,208,200,5,4,0:0:0:0:
397,208,335,1,10,0:0:0:0:
251,358,470,1,0,0:0:0:0:
251,358,537,1,0,0:0:0:0:
251,358,605,1,10,0:0:0:0:
351,154,740,1,0,0:0:0:0:
322,358,875,1,10,0:0:0:0:
226,154,1010,1,0,0:0:0:0:
226,154,1078,1,0,0:0:0:0:
226,154,1145,1,10,0:0:0:0:
430,133,1281,6,0,P|440:89|427:47,1,90,0|10,0:0|0:0,0:0:0:0:
277,0,1551,1,0,0:0:0:0:
277,0,1618,1,0,0:0:0:0:
277,0,1686,1,10,0:0:0:0:
86,109,1821,1,0,0:0:0:0:
86,109,1889,1,0,0:0:0:0:
86,109,1956,2,0,L|78:65,1,45,10|0,0:0|0:0,0:0:0:0:
174,25,2091,1,0,0:0:0:0:
174,25,2159,1,0,0:0:0:0:
174,25,2227,2,0,L|182:69,1,45,10|0,0:0|0:0,0:0:0:0:
322,179,2362,6,0,P|333:136|320:94,1,90,0|10,0:0|0:0,0:0:0:0:
204,245,2632,1,0,0:0:0:0:
204,245,2699,1,0,0:0:0:0:
204,245,2767,1,10,0:0:0:0:
78,65,2902,1,0,0:0:0:0:
255,138,3037,1,10,0:0:0:0:
102,254,3172,1,0,0:0:0:0:
102,254,3240,1,0,0:0:0:0:
102,254,3308,1,10,0:0:0:0:
255,138,3443,6,0,P|268:180|257:223,1,90,0|10,0:0|0:0,0:0:0:0:
126,370,3713,1,0,0:0:0:0:
126,370,3781,1,0,0:0:0:0:
126,370,3848,1,10,0:0:0:0:
1,134,3983,1,2,0:0:0:0:
12,90,4051,1,8,0:0:0:0:
40,55,4118,1,8,0:0:0:0:
79,33,4186,1,8,0:0:0:0:
124,28,4254,1,8,0:0:0:0:
166,41,4321,1,8,0:0:0:0:
202,69,4389,1,8,0:0:0:0:
222,109,4456,1,8,0:0:0:0:
226,153,4516,6,0,B|218:200|218:200|237:233|237:233|229:281,1,135,12|0,0:0|0:0,0:0:0:0:
225,304,4783,1,0,0:0:0:0:
0,184,4917,1,10,0:0:0:0:
40,384,5051,1,0,0:0:0:0:
146,189,5185,1,10,0:0:0:0:
333,384,5319,1,0,0:0:0:0:
333,384,5386,1,0,0:0:0:0:
333,384,5453,6,0,B|363:356|403:375|403:375|443:330|497:343,1,180,10|10,0:0|0:0,0:0:0:0:
272,115,5855,1,0,0:0:0:0:
512,267,5989,1,10,0:0:0:0:
270,200,6123,1,0,0:0:0:0:
512,95,6257,1,10,0:0:0:0:
394,310,6391,1,0,0:0:0:0:
394,310,6457,1,0,0:0:0:0:
394,310,6524,6,0,B|344:334|308:310|308:310|270:285|223:310,1,180,10|10,0:0|0:0,0:0:0:0:
88,177,6926,1,0,0:0:0:0:
270,127,7060,1,10,0:0:0:0:
240,384,7194,2,0,P|195:380|162:351,1,90,0|10,0:0|0:0,0:0:0:0:
56,111,7462,1,0,0:0:0:0:
0,293,7596,1,10,0:0:0:0:
270,127,7730,6,0,L|226:111,1,45
272,256,7864,2,0,L|316:272,1,45,10|0,0:0|0:0,0:0:0:0:
178,49,7998,2,0,P|150:85|150:129,1,90,0|10,0:0|0:0,0:0:0:0:
388,359,8266,1,0,0:0:0:0:
270,127,8399,1,10,0:0:0:0:
230,359,8533,1,0,0:0:0:0:
362,127,8667,1,10,0:0:0:0:
388,359,8801,6,0,P|415:324|416:280,1,90,4|10,0:0|0:0,0:0:0:0:
196,132,9069,1,0,0:0:0:0:
154,384,9203,1,10,0:0:0:0:
53,183,9337,1,0,0:0:0:0:
297,333,9471,1,10,0:0:0:0:
196,132,9605,1,0,0:0:0:0:
196,132,9672,1,0,0:0:0:0:
196,132,9739,6,0,B|188:187|188:187|204:252|204:252|195:308,1,179.549992602768,10|10,0:0|0:0,0:0:0:0:
347,95,10141,1,0,0:0:0:0:
159,69,10274,1,10,0:0:0:0:
384,200,10408,1,0,0:0:0:0:
119,175,10542,1,10,0:0:0:0:
264,0,10676,1,0,0:0:0:0:
264,0,10743,1,0,0:0:0:0:
264,0,10810,6,0,B|286:45|263:86|263:86|238:126|263:173,1,180,10|10,0:0|0:0,0:0:0:0:
398,350,11212,1,0,0:0:0:0:
491,180,11346,1,10,0:0:0:0:
254,384,11480,2,0,P|240:341|252:298,1,90,0|10,0:0|0:0,0:0:0:0:
391,79,11748,2,0,P|404:121|392:164,1,90,0|10,0:0|0:0,0:0:0:0:
125,272,12016,6,0,L|136:226,1,45
287,175,12149,2,0,L|275:220,1,45,10|0,0:0|0:0,0:0:0:0:
114,111,12283,1,0,0:0:0:0:
367,80,12417,1,10,0:0:0:0:
120,348,12551,1,2,0:0:0:0:
373,317,12685,1,8,0:0:0:0:
120,348,12819,5,8,0:0:0:0:
104,332,12886,1,8,0:0:0:0:
95,311,12953,1,8,0:0:0:0:
92,289,13020,1,8,0:0:0:0:
97,267,13087,5,8,0:0:0:0:
123,230,13154,1,8,0:0:0:0:
165,215,13221,1,8,0:0:0:0:
207,230,13288,1,8,0:0:0:0:
235,264,13355,1,8,0:0:0:0:
274,286,13422,1,8,0:0:0:0:
318,291,13489,5,8,0:0:0:0:
361,278,13556,1,8,0:0:0:0:
394,248,13623,1,8,0:0:0:0:
413,207,13690,1,8,0:0:0:0:
413,163,13757,1,8,0:0:0:0:
395,122,13824,1,8,0:0:0:0:
362,92,13891,5,8,0:0:0:0:
320,78,13957,1,8,0:0:0:0:
275,82,14024,1,8,0:0:0:0:
236,104,14091,1,8,0:0:0:0:
210,141,14158,5,8,0:0:0:0:
162,189,14225,1,8,0:0:0:0:
94,193,14292,1,8,0:0:0:0:
39,154,14359,1,8,0:0:0:0:
25,88,14426,1,8,0:0:0:0:
58,29,14493,1,8,0:0:0:0:
121,3,14560,5,8,0:0:0:0:
185,25,14627,1,8,0:0:0:0:
234,72,14694,1,8,0:0:0:0:
232,140,14761,1,8,0:0:0:0:
279,189,14828,1,8,0:0:0:0:
347,193,14895,1,8,0:0:0:0:
401,152,14962,5,8,0:0:0:0:
415,86,15029,1,8,0:0:0:0:
385,26,15096,1,8,0:0:0:0:
322,3,15163,1,8,0:0:0:0:
258,24,15230,6,0,B|228:60|228:60|188:76|188:76|159:111,1,135,4|0,0:0|0:0,0:0:0:0:
27,245,15498,1,0,0:0:0:0:
131,34,15632,1,10,0:0:0:0:
173,268,15766,1,0,0:0:0:0:
2,101,15900,1,10,0:0:0:0:
232,136,16034,1,0,0:0:0:0:
232,136,16101,1,0,0:0:0:0:
232,136,16167,1,10,0:0:0:0:
96,383,16301,6,0,P|85:340|94:297,1,90,0|10,0:0|0:0,0:0:0:0:
184,76,16570,1,0,0:0:0:0:
400,136,16704,1,10,0:0:0:0:
164,173,16838,1,0,0:0:0:0:
420,39,16972,1,10,0:0:0:0:
374,253,17106,1,0,0:0:0:0:
374,253,17172,1,0,0:0:0:0:
374,253,17239,1,10,0:0:0:0:
88,217,17373,6,0,P|76:172|88:127,1,90,0|10,0:0|0:0,0:0:0:0:
490,266,17641,1,0,0:0:0:0:
224,72,17774,1,10,0:0:0:0:
326,382,17908,1,0,0:0:0:0:
427,71,18042,1,10,0:0:0:0:
164,267,18177,1,0,0:0:0:0:
490,266,18310,1,8,0:0:0:0:
224,72,18445,5,8,0:0:0:0:
191,102,18511,1,8,0:0:0:0:
178,145,18578,1,8,0:0:0:0:
187,189,18645,1,8,0:0:0:0:
217,222,18712,1,8,0:0:0:0:
260,235,18779,1,8,0:0:0:0:
304,225,18846,1,8,0:0:0:0:
337,195,18913,1,8,0:0:0:0:
351,154,18980,5,8,0:0:0:0:
393,118,19047,1,8,0:0:0:0:
448,116,19114,1,8,0:0:0:0:
494,147,19181,1,8,0:0:0:0:
511,200,19248,6,0,P|506:223|498:243,1,45,8|8,0:0|0:0,0:0:0:0:
422,291,19382,2,0,P|413:270|409:248,1,45,8|8,0:0|0:0,0:0:0:0:
505,340,19516,6,0,P|453:382|387:381,1,135,4|0,0:0|0:0,0:0:0:0:
214,305,19783,1,0,0:0:0:0:
214,305,19850,1,0,0:0:0:0:
214,305,19917,2,0,B|205:237|205:237|230:198|230:198|220:131,1,180,8|8,0:0|0:0,0:0:0:0:
74,235,20319,2,0,P|62:277|77:319,1,90,0|8,0:0|0:0,0:0:0:0:
260,384,20587,5,0,0:0:0:0:
347,166,20721,1,8,0:0:0:0:
214,305,20855,1,0,0:0:0:0:
214,305,20922,1,0,0:0:0:0:
214,305,20989,2,0,L|191:126,1,180,8|8,0:0|0:0,0:0:0:0:
106,71,21391,2,0,P|134:36|177:25,1,90,0|8,0:0|0:0,0:0:0:0:
365,121,21658,5,0,0:0:0:0:
365,121,21725,1,0,0:0:0:0:
365,121,21792,2,0,L|345:162,1,45,8|0,0:0|0:0,0:0:0:0:
214,305,21926,1,0,0:0:0:0:
214,305,21993,1,0,0:0:0:0:
214,305,22060,2,0,L|233:263,1,45,8|0,0:0|0:0,0:0:0:0:
163,85,22194,1,0,0:0:0:0:
163,85,22261,1,0,0:0:0:0:
163,85,22328,2,0,L|143:126,1,45,8|0,0:0|0:0,0:0:0:0:
13,269,22462,1,0,0:0:0:0:
13,269,22529,1,0,0:0:0:0:
13,269,22596,2,0,L|32:227,1,45,8|0,0:0|0:0,0:0:0:0:
33,23,22730,5,0,0:0:0:0:
290,21,22864,1,8,0:0:0:0:
128,262,22998,1,0,0:0:0:0:
161,0,23132,1,8,0:0:0:0:
139,174,23267,1,8,0:0:0:0:
172,146,23332,1,8,0:0:0:0:
216,138,23399,1,8,0:0:0:0:
260,149,23466,1,8,0:0:0:0:
294,178,23533,1,8,0:0:0:0:
329,206,23600,1,8,0:0:0:0:
373,214,23667,1,8,0:0:0:0:
416,203,23734,1,8,0:0:0:0:
449,172,23801,6,0,P|467:108|440:48,1,135,12|0,0:0|0:0,0:0:0:0:
259,59,24069,1,0,0:0:0:0:
316,259,24203,1,10,0:0:0:0:
391,114,24337,1,0,0:0:0:0:
183,188,24471,1,10,0:0:0:0:
335,354,24605,1,0,0:0:0:0:
335,354,24671,1,0,0:0:0:0:
335,354,24738,1,10,0:0:0:0:
271,127,24873,6,0,B|235:95|235:95|194:83,1,90,0|10,0:0|0:0,0:0:0:0:
151,338,25140,1,0,0:0:0:0:
0,173,25274,1,10,0:0:0:0:
267,266,25408,1,0,0:0:0:0:
120,108,25542,1,10,0:0:0:0:
161,370,25676,1,0,0:0:0:0:
161,370,25743,1,0,0:0:0:0:
161,370,25810,1,10,0:0:0:0:
365,312,25944,6,0,P|377:268|365:224,1,90,0|10,0:0|0:0,0:0:0:0:
195,109,26212,1,0,0:0:0:0:
470,316,26346,1,10,0:0:0:0:
350,39,26480,1,0,0:0:0:0:
312,384,26614,1,10,0:0:0:0:
492,145,26748,1,0,0:0:0:0:
171,276,26882,1,10,0:0:0:0:
354,161,27016,5,8,0:0:0:0:
376,122,27082,1,8,0:0:0:0:
375,77,27149,1,8,0:0:0:0:
351,39,27216,1,8,0:0:0:0:
310,22,27283,1,8,0:0:0:0:
266,28,27350,1,8,0:0:0:0:
231,56,27417,1,8,0:0:0:0:
217,98,27484,1,8,0:0:0:0:
228,141,27551,5,8,0:0:0:0:
268,180,27618,1,8,0:0:0:0:
323,178,27685,1,8,0:0:0:0:
366,142,27752,1,8,0:0:0:0:
407,104,27819,1,8,0:0:0:0:
462,104,27886,1,8,0:0:0:0:
503,142,27953,1,8,0:0:0:0:
510,197,28020,1,8,0:0:0:0:
479,242,28087,6,0,P|414:256|363:215,1,135,12|0,0:0|0:0,0:0:0:0:
231,56,28355,1,0,0:0:0:0:
231,56,28422,1,0,0:0:0:0:
231,56,28489,2,0,B|256:102|231:142|231:142|206:181|230:226,1,180,8|8,0:0|0:0,0:0:0:0:
278,321,28891,2,0,P|235:333|191:325,1,90,0|8,0:0|0:0,0:0:0:0:
293,185,29158,5,0,0:0:0:0:
413,378,29292,1,8,0:0:0:0:
424,101,29426,1,0,0:0:0:0:
424,101,29493,1,0,0:0:0:0:
424,101,29560,2,0,P|456:181|411:255,1,180,8|8,0:0|0:0,0:0:0:0:
232,76,29962,2,0,P|191:56|147:57,1,90,0|8,0:0|0:0,0:0:0:0:
76,155,30229,5,0,0:0:0:0:
76,155,30297,1,0,0:0:0:0:
76,155,30364,2,0,P|80:179|92:195,1,45,8|0,0:0|0:0,0:0:0:0:
190,177,30498,1,0,0:0:0:0:
190,177,30564,1,0,0:0:0:0:
190,177,30632,2,0,P|186:153|174:137,1,45,8|0,0:0|0:0,0:0:0:0:
24,257,30765,1,0,0:0:0:0:
24,257,30832,1,0,0:0:0:0:
24,257,30899,2,0,P|39:275|57:283,1,45,8|0,0:0|0:0,0:0:0:0:
242,75,31034,1,0,0:0:0:0:
242,75,31100,1,0,0:0:0:0:
242,75,31167,2,0,P|227:57|209:49,1,45,8|0,0:0|0:0,0:0:0:0:
82,25,31301,5,0,0:0:0:0:
159,275,31435,1,8,0:0:0:0:
309,18,31569,1,0,0:0:0:0:
386,268,31703,1,8,0:0:0:0:
121,138,31837,1,8,0:0:0:0:
105,167,31904,1,8,0:0:0:0:
100,200,31971,1,8,0:0:0:0:
109,232,32038,1,8,0:0:0:0:
130,258,32105,1,8,0:0:0:0:
159,275,32172,1,8,0:0:0:0:
192,279,32239,1,8,0:0:0:0:
224,270,32306,1,8,0:0:0:0:
250,248,32373,6,0,P|269:186|238:127,1,135,4|0,0:0|0:0,0:0:0:0:
26,36,32641,1,0,0:0:0:0:
265,110,32774,1,10,0:0:0:0:
34,171,32909,1,0,0:0:0:0:
237,126,33042,1,10,0:0:0:0:
48,312,33177,1,0,0:0:0:0:
48,312,33244,1,0,0:0:0:0:
48,312,33311,1,10,0:0:0:0:
264,109,33444,6,0,P|329:111|374:159,1,135,4|0,0:0|0:0,0:0:0:0:
371,384,33713,1,0,0:0:0:0:
512,207,33847,1,10,0:0:0:0:
298,182,33980,1,0,0:0:0:0:
468,308,34114,1,10,0:0:0:0:
367,96,34249,1,0,0:0:0:0:
367,96,34316,1,0,0:0:0:0:
367,96,34383,1,10,0:0:0:0:
371,384,34516,6,0,P|381:340|369:297,1,90,0|10,0:0|0:0,0:0:0:0:
170,52,34783,1,0,0:0:0:0:
261,344,34917,1,10,0:0:0:0:
368,9,35051,2,0,P|356:52|366:95,1,90,0|10,0:0|0:0,0:0:0:0:
452,258,35319,1,8,0:0:0:0:
464,289,35385,1,8,0:0:0:0:
464,323,35452,1,8,0:0:0:0:
453,355,35520,1,8,0:0:0:0:
432,381,35587,6,0,B|392:356|392:356|364:288,2,120,8|4|0,0:0|0:0|0:0,0:0:0:0:
366,95,36122,1,8,0:0:0:0:
243,335,36301,1,4,0:0:0:0:
98,107,36480,1,0,0:0:0:0:
388,221,36658,6,0,B|399:170|399:170|365:94,1,135,4|0,0:0|0:0,0:0:0:0:
198,0,36926,1,0,0:0:0:0:
198,0,36993,1,0,0:0:0:0:
197,0,37060,2,0,P|162:78|213:147,1,180,8|8,0:0|0:0,0:0:0:0:
445,267,37462,2,0,P|461:225|450:182,1,90,0|8,0:0|0:0,0:0:0:0:
292,112,37730,5,0,0:0:0:0:
333,297,37864,1,8,0:0:0:0:
166,384,37998,1,0,0:0:0:0:
166,384,38065,1,0,0:0:0:0:
166,384,38132,2,0,B|174:328|174:328|156:265|156:265|163:208,1,180,8|8,0:0|0:0,0:0:0:0:
266,47,38533,2,0,P|227:23|183:25,1,90,0|8,0:0|0:0,0:0:0:0:
79,186,38801,6,0,L|68:142,1,45
324,220,38935,2,0,L|313:263,1,45,8|0,0:0|0:0,0:0:0:0:
153,163,39069,1,0,0:0:0:0:
153,163,39136,1,0,0:0:0:0:
153,163,39203,2,0,L|163:206,1,45,8|0,0:0|0:0,0:0:0:0:
397,284,39337,2,0,L|407:240,1,45
229,175,39471,2,0,L|239:218,1,45,8|0,0:0|0:0,0:0:0:0:
473,296,39605,1,0,0:0:0:0:
473,296,39672,1,0,0:0:0:0:
473,296,39739,2,0,L|483:252,1,45,8|0,0:0|0:0,0:0:0:0:
223,382,39873,6,0,L|245:288,1,90,0|8,0:0|0:0,0:0:0:0:
336,100,40141,2,0,P|346:143|330:184,1,90,0|8,0:0|0:0,0:0:0:0:
33,150,40408,1,8,0:0:0:0:
3,182,40474,1,8,0:0:0:0:
0,227,40541,1,8,0:0:0:0:
22,265,40608,1,8,0:0:0:0:
63,284,40676,6,0,L|112:267,1,45,8|8,0:0|0:0,0:0:0:0:
201,169,40810,2,0,L|151:168,1,45,8|8,0:0|0:0,0:0:0:0:
206,380,40944,6,0,P|220:315|197:252,1,135,4|0,0:0|0:0,0:0:0:0:
3,182,41212,1,0,0:0:0:0:
224,119,41346,1,10,0:0:0:0:
32,3,41480,1,0,0:0:0:0:
259,140,41613,1,10,0:0:0:0:
0,227,41747,1,0,0:0:0:0:
0,227,41814,1,0,0:0:0:0:
0,227,41881,1,10,0:0:0:0:
244,384,42015,6,0,P|258:341|245:299,1,90,0|10,0:0|0:0,0:0:0:0:
154,69,42283,1,0,0:0:0:0:
372,205,42417,1,10,0:0:0:0:
112,220,42551,1,0,0:0:0:0:
334,59,42685,1,10,0:0:0:0:
245,299,42819,1,0,0:0:0:0:
245,299,42886,1,0,0:0:0:0:
245,299,42953,1,10,0:0:0:0:
242,16,43087,6,0,P|228:59|241:101,1,90,0|10,0:0|0:0,0:0:0:0:
485,269,43355,1,0,0:0:0:0:
441,16,43488,1,10,0:0:0:0:
198,269,43623,1,0,0:0:0:0:
242,16,43757,1,10,0:0:0:0:
342,347,43890,1,0,0:0:0:0:
134,128,44024,1,10,0:0:0:0:
486,182,44158,6,0,P|498:140|484:98,1,90,0|10,0:0|0:0,0:0:0:0:
242,16,44426,1,0,0:0:0:0:
242,16,44493,1,0,0:0:0:0:
242,16,44560,1,10,0:0:0:0:
290,271,44694,1,0,0:0:0:0:
134,128,44828,1,10,0:0:0:0:
387,66,44962,1,8,0:0:0:0:
415,99,45028,1,8,0:0:0:0:
424,143,45096,1,8,0:0:0:0:
410,185,45163,1,8,0:0:0:0:
377,215,45230,6,0,B|394:260|394:260|391:347,1,135,12|0,0:0|0:0,0:0:0:0:
231,384,45498,1,0,0:0:0:0:
231,384,45565,1,0,0:0:0:0:
231,384,45632,2,0,B|233:325|233:325|208:269|208:269|208:209,1,180,8|8,0:0|0:0,0:0:0:0:
57,120,46033,2,0,P|42:161|54:204,1,90,0|8,0:0|0:0,0:0:0:0:
221,297,46301,5,0,0:0:0:0:
354,160,46435,1,8,0:0:0:0:
159,57,46569,1,0,0:0:0:0:
159,57,46636,1,0,0:0:0:0:
159,57,46703,2,0,P|180:18|220:0,1,90,8|0,0:0|0:0,0:0:0:0:
269,185,46971,1,8,0:0:0:0:
458,167,47105,2,0,P|473:126|461:83,1,90,0|8,0:0|0:0,0:0:0:0:
143,140,47373,6,0,L|136:184,1,45
368,228,47507,2,0,L|375:184,1,45,8|0,0:0|0:0,0:0:0:0:
262,113,47641,1,0,0:0:0:0:
262,113,47708,1,0,0:0:0:0:
262,113,47775,2,0,L|270:61,1,45,8|0,0:0|0:0,0:0:0:0:
143,140,47908,2,0,L|136:184,1,45
368,228,48042,2,0,L|375:184,1,45,8|0,0:0|0:0,0:0:0:0:
252,300,48176,1,0,0:0:0:0:
252,300,48243,1,0,0:0:0:0:
252,300,48310,2,0,L|258:255,1,45,8|0,0:0|0:0,0:0:0:0:
368,228,48444,6,0,P|380:272|368:316,1,90,0|8,0:0|0:0,0:0:0:0:
142,226,48712,2,0,P|131:182|143:139,1,90,0|8,0:0|0:0,0:0:0:0:
320,0,48980,1,8,0:0:0:0:
285,28,49047,1,8,0:0:0:0:
268,69,49114,1,8,0:0:0:0:
271,113,49181,1,8,0:0:0:0:
295,151,49248,1,8,0:0:0:0:
295,196,49315,1,8,0:0:0:0:
277,237,49382,1,8,0:0:0:0:
240,262,49449,1,8,0:0:0:0:
196,269,49516,6,0,P|135:242|109:181,1,135,12|0,0:0|0:0,0:0:0:0:
268,69,49783,1,0,0:0:0:0:
268,69,49850,1,0,0:0:0:0:
268,69,49917,2,0,B|343:65|343:65|438:107,1,180,8|8,0:0|0:0,0:0:0:0:
512,249,50319,2,0,P|514:293|489:330,1,90,0|8,0:0|0:0,0:0:0:0:
310,194,50587,5,0,0:0:0:0:
371,384,50721,1,8,0:0:0:0:
476,166,50855,1,0,0:0:0:0:
476,166,50922,1,0,0:0:0:0:
476,166,50989,2,0,P|422:98|337:110,1,180,8|8,0:0|0:0,0:0:0:0:
373,269,51391,2,0,P|335:293|291:290,1,90,0|8,0:0|0:0,0:0:0:0:
97,201,51658,6,0,P|84:182|80:160,1,45
181,148,51792,2,0,P|203:147|224:154,1,45,8|0,0:0|0:0,0:0:0:0:
188,249,51926,1,0,0:0:0:0:
188,249,51993,1,0,0:0:0:0:
188,249,52060,2,0,P|177:268|160:283,1,45,8|0,0:0|0:0,0:0:0:0:
401,193,52194,2,0,P|414:212|418:234,1,45
317,246,52328,2,0,P|295:247|274:240,1,45,8|0,0:0|0:0,0:0:0:0:
310,145,52462,1,0,0:0:0:0:
310,145,52529,1,0,0:0:0:0:
310,145,52596,2,0,P|321:126|338:111,1,45,8|0,0:0|0:0,0:0:0:0:
489,182,52730,6,0,P|504:223|498:267,1,90,0|8,0:0|0:0,0:0:0:0:
282,325,52998,2,0,P|267:284|273:240,1,90,0|8,0:0|0:0,0:0:0:0:
367,28,53266,1,8,0:0:0:0:
344,66,53332,1,8,0:0:0:0:
338,110,53399,1,8,0:0:0:0:
351,153,53466,1,8,0:0:0:0:
382,185,53533,1,8,0:0:0:0:
402,225,53600,1,8,0:0:0:0:
404,269,53667,1,8,0:0:0:0:
387,310,53734,1,8,0:0:0:0:
354,340,53801,6,0,P|283:353|218:313,1,135,12|0,0:0|0:0,0:0:0:0:
129,201,54069,2,0,L|86:211,3,45,0|0|10|0,0:0|0:0|0:0|0:0,0:0:0:0:
307,141,54337,2,0,L|350:151,3,45,0|0|10|0,0:0|0:0|0:0|0:0,0:0:0:0:
186,24,54605,2,0,L|165:89,1,45
207,178,54739,2,0,L|226:137,1,45,10|0,0:0|0:0,0:0:0:0:
151,292,54873,6,0,L|108:302,3,45,0|0|10|0,0:0|0:0|0:0|0:0,0:0:0:0:
329,232,55141,2,0,L|372:242,3,45,0|0|10|0,0:0|0:0|0:0|0:0,0:0:0:0:
252,297,55408,2,0,L|264:339,3,45,0|0|10|0,0:0|0:0|0:0|0:0,0:0:0:0:
102,164,55676,2,0,L|144:154,1,45
261,198,55810,2,0,L|216:207,1,45,10|0,0:0|0:0,0:0:0:0:
241,1,55944,6,0,P|283:22|303:58,1,90,0|10,0:0|0:0,0:0:0:0:
313,153,56145,2,0,L|313:248,1,90
213,344,56346,2,0,L|213:299,1,45,10|0,0:0|0:0,0:0:0:0:
54,257,56480,2,0,P|39:212|51:172,1,90,0|10,0:0|0:0,0:0:0:0:
143,323,56681,2,0,P|112:358|71:367,1,90
155,211,56882,2,0,P|178:214|200:228,1,45,10|0,0:0|0:0,0:0:0:0:
280,288,57016,5,0,0:0:0:0:
391,37,57149,1,10,0:0:0:0:
345,246,57283,1,0,0:0:0:0:
285,1,57417,1,10,0:0:0:0:
219,242,57551,1,0,0:0:0:0:
172,44,57685,1,10,0:0:0:0:
280,288,57819,1,0,0:0:0:0:
285,71,57953,1,10,0:0:0:0:
280,288,58087,6,0,L|323:297,3,45,4|0|10|0,0:0|0:0|0:0|0:0,0:0:0:0:
227,166,58355,1,0,0:0:0:0:
227,166,58422,1,0,0:0:0:0:
227,166,58489,2,0,L|183:175,3,45,10|0|0|0,0:0|0:0|0:0|0:0,0:0:0:0:
330,81,58757,1,10,0:0:0:0:
330,81,58824,1,0,0:0:0:0:
330,81,58891,2,0,L|373:90,3,45,0|0|10|0,0:0|0:0|0:0|0:0,0:0:0:0:
223,0,59158,6,0,L|180:9,3,45,0|0|10|0,0:0|0:0|0:0|0:0,0:0:0:0:
301,149,59426,1,0,0:0:0:0:
301,149,59493,1,0,0:0:0:0:
301,149,59560,2,0,L|314:190,3,45,10|0|0|0,0:0|0:0|0:0|0:0,0:0:0:0:
207,108,59828,1,10,0:0:0:0:
207,108,59895,1,0,0:0:0:0:
207,108,59962,2,0,L|193:149,3,45,0|0|10|0,0:0|0:0|0:0|0:0,0:0:0:0:
275,264,60230,6,0,P|318:273|360:260,1,90,0|10,0:0|0:0,0:0:0:0:
459,87,60498,1,0,0:0:0:0:
459,87,60565,1,0,0:0:0:0:
459,87,60632,2,0,P|415:77|373:90,1,90,10|0,0:0|0:0,0:0:0:0:
420,224,60899,1,10,0:0:0:0:
420,224,61033,2,0,L|405:312,1,90,0|10,0:0|0:0,0:0:0:0:
258,371,61301,5,8,0:0:0:0:
215,384,61368,1,8,0:0:0:0:
171,376,61435,1,8,0:0:0:0:
135,350,61502,1,8,0:0:0:0:
116,310,61569,1,8,0:0:0:0:
116,265,61636,1,8,0:0:0:0:
137,226,61703,1,8,0:0:0:0:
174,200,61770,1,8,0:0:0:0:
218,194,61837,5,8,0:0:0:0:
253,167,61904,1,8,0:0:0:0:
274,127,61971,1,8,0:0:0:0:
274,83,62038,1,8,0:0:0:0:
255,43,62105,1,8,0:0:0:0:
220,15,62172,1,8,0:0:0:0:
176,6,62239,1,8,0:0:0:0:
133,18,62306,1,8,0:0:0:0:
99,47,62373,6,0,P|82:111|106:172,1,135,12|0,0:0|0:0,0:0:0:0:
246,250,62641,2,0,L|202:256,3,45,0|0|10|0,0:0|0:0|0:0|0:0,0:0:0:0:
380,188,62908,2,0,L|424:194,3,45,0|0|10|0,0:0|0:0|0:0|0:0,0:0:0:0:
332,107,63176,2,0,L|326:62,1,45
253,127,63310,2,0,L|259:172,1,45,10|0,0:0|0:0,0:0:0:0:
369,263,63444,6,0,L|413:269,3,45,0|0|10|0,0:0|0:0|0:0|0:0,0:0:0:0:
235,325,63712,2,0,L|191:331,3,45,0|0|10|0,0:0|0:0|0:0|0:0,0:0:0:0:
328,349,63980,2,0,L|355:384,3,45,0|0|10|0,0:0|0:0|0:0|0:0,0:0:0:0:
244,224,64248,2,0,P|231:206|227:183,1,45
366,85,64382,2,0,P|377:103|380:126,1,45,10|0,0:0|0:0,0:0:0:0:
369,263,64516,5,0,0:0:0:0:
95,293,64649,1,10,0:0:0:0:
251,99,64783,1,0,0:0:0:0:
282,380,64917,1,10,0:0:0:0:
88,218,65051,1,0,0:0:0:0:
359,191,65185,1,10,0:0:0:0:
206,381,65319,1,0,0:0:0:0:
175,108,65453,1,10,0:0:0:0:
369,263,65587,6,0,P|381:305|368:348,1,90,0|10,0:0|0:0,0:0:0:0:
175,268,65855,2,0,P|162:225|175:182,1,90,0|10,0:0|0:0,0:0:0:0:
420,221,66122,1,8,0:0:0:0:
395,184,66190,1,8,0:0:0:0:
356,163,66257,1,8,0:0:0:0:
311,164,66324,1,8,0:0:0:0:
271,185,66391,2,0,P|257:203|252:225,1,45,8|8,0:0|0:0,0:0:0:0:
465,163,66524,2,0,P|478:145|483:123,1,45,8|8,0:0|0:0,0:0:0:0:
367,287,66658,6,0,P|383:222|355:162,1,135,12|0,0:0|0:0,0:0:0:0:
182,96,66926,5,0,0:0:0:0:
138,103,66993,1,0,0:0:0:0:
100,126,67060,1,10,0:0:0:0:
72,161,67127,1,0,0:0:0:0:
59,204,67194,1,0,0:0:0:0:
62,249,67261,1,0,0:0:0:0:
81,289,67328,5,10,0:0:0:0:
113,320,67395,1,0,0:0:0:0:
154,338,67462,1,0,0:0:0:0:
199,340,67529,1,0,0:0:0:0:
241,325,67596,1,10,0:0:0:0:
276,296,67663,1,0,0:0:0:0:
296,256,67730,5,0,0:0:0:0:
303,212,67797,1,0,0:0:0:0:
327,175,67864,1,10,0:0:0:0:
364,150,67931,1,0,0:0:0:0:
408,142,67998,1,0,0:0:0:0:
451,152,68065,1,0,0:0:0:0:
487,179,68132,5,10,0:0:0:0:
509,218,68199,1,0,0:0:0:0:
512,263,68266,1,0,0:0:0:0:
498,305,68332,1,0,0:0:0:0:
468,338,68399,1,10,0:0:0:0:
427,356,68466,1,0,0:0:0:0:
382,356,68533,5,0,0:0:0:0:
340,338,68600,1,0,0:0:0:0:
310,305,68667,1,10,0:0:0:0:
296,262,68734,1,0,0:0:0:0:
301,217,68801,5,4,0:0:0:0:
323,153,68868,1,0,0:0:0:0:
304,88,68935,1,10,0:0:0:0:
253,45,69002,1,0,0:0:0:0:
186,39,69069,1,0,0:0:0:0:
128,73,69136,1,0,0:0:0:0:
99,134,69203,1,10,0:0:0:0:
109,201,69270,1,0,0:0:0:0:
156,250,69337,5,0,0:0:0:0:
221,265,69404,1,0,0:0:0:0:
283,239,69471,1,10,0:0:0:0:
334,195,69538,1,0,0:0:0:0:
402,196,69605,1,0,0:0:0:0:
451,242,69672,1,0,0:0:0:0:
453,309,69739,1,10,0:0:0:0:
411,361,69806,1,0,0:0:0:0:
343,365,69873,5,8,0:0:0:0:
279,320,69940,1,8,0:0:0:0:
202,307,70007,1,8,0:0:0:0:
127,327,70074,1,8,0:0:0:0:
66,376,70141,6,0,L|33:381,3,33.7500012874604,8|0|0|0,0:0|0:0|0:0|0:0,0:0:0:0:
115,252,70408,2,0,L|148:257,3,33.7500012874604,8|0|0|0,0:0|0:0|0:0|0:0,0:0:0:0:
41,145,70676,2,0,L|8:150,3,33.7500012874604,8|0|0|0,0:0|0:0|0:0|0:0,0:0:0:0:
219,23,70944,6,0,P|237:75|218:127,1,112.5,4|8,0:0|0:0,0:0:0:0:
140,257,71212,1,0,0:0:0:0:
140,257,71279,1,0,0:0:0:0:
140,257,71346,2,0,B|193:277|193:277|248:271,1,112.5,8|0,0:0|0:0,0:0:0:0:
367,79,71614,1,8,0:0:0:0:
218,126,71748,1,0,0:0:0:0:
218,126,71815,1,0,0:0:0:0:
218,126,71882,2,0,L|206:181,1,56.25,8|0,0:0|0:0,0:0:0:0:
67,103,72016,6,0,P|49:51|68:-1,1,112.5,0|8,0:0|0:0,0:0:0:0:
234,38,72283,1,0,0:0:0:0:
234,38,72350,1,0,0:0:0:0:
234,38,72417,2,0,L|339:0,1,112.5,8|0,0:0|0:0,0:0:0:0:
341,227,72685,1,8,0:0:0:0:
495,99,72819,2,0,L|490:42,1,56.25
387,112,72953,2,0,L|391:168,1,56.25,8|0,0:0|0:0,0:0:0:0:
468,291,73087,6,0,B|478:238|478:238|472:179,1,112.5,0|8,0:0|0:0,0:0:0:0:
228,101,73355,1,0,0:0:0:0:
228,101,73422,1,0,0:0:0:0:
228,101,73489,2,0,B|218:154|218:154|224:213,1,112.5,8|0,0:0|0:0,0:0:0:0:
348,353,73757,1,8,0:0:0:0:
96,256,73891,1,0,0:0:0:0:
96,256,73957,1,0,0:0:0:0:
96,256,74024,2,0,L|85:172,1,56.25,8|0,0:0|0:0,0:0:0:0:
46,327,74158,6,0,P|98:343|150:323,1,112.5,0|8,0:0|0:0,0:0:0:0:
292,168,74426,2,0,L|318:277,1,112.5,0|8,0:0|0:0,0:0:0:0:
59,136,74694,1,0,0:0:0:0:
59,136,74761,1,0,0:0:0:0:
59,136,74828,2,0,L|11:108,1,56.25,8|0,0:0|0:0,0:0:0:0:
67,296,74962,1,0,0:0:0:0:
67,296,75029,1,0,0:0:0:0:
67,296,75096,2,0,L|115:324,1,56.25,8|0,0:0|0:0,0:0:0:0:
227,384,75230,6,0,P|247:336|227:280,1,112.5,4|8,0:0|0:0,0:0:0:0:
127,67,75498,1,0,0:0:0:0:
127,67,75565,1,0,0:0:0:0:
127,67,75632,2,0,P|107:115|127:171,1,112.5,8|0,0:0|0:0,0:0:0:0:
318,277,75899,1,8,0:0:0:0:
403,90,76033,1,0,0:0:0:0:
403,90,76100,1,0,0:0:0:0:
404,90,76167,2,0,P|408:117|402:144,1,56.25,8|0,0:0|0:0,0:0:0:0:
253,221,76301,6,0,B|240:275|240:275|250:331,1,112.5,0|8,0:0|0:0,0:0:0:0:
509,384,76569,1,0,0:0:0:0:
509,384,76636,1,0,0:0:0:0:
509,384,76703,2,0,B|519:327|519:327|506:273,1,112.5,8|0,0:0|0:0,0:0:0:0:
318,277,76971,1,8,0:0:0:0:
404,90,77105,2,0,L|349:100,1,56.25
261,10,77239,2,0,L|206:0,1,56.25,8|0,0:0|0:0,0:0:0:0:
69,84,77373,6,0,P|52:136|72:187,1,112.5,0|8,0:0|0:0,0:0:0:0:
223,371,77641,1,0,0:0:0:0:
223,371,77707,1,0,0:0:0:0:
223,371,77774,2,0,L|234:259,1,112.5,8|0,0:0|0:0,0:0:0:0:
205,0,78042,1,8,0:0:0:0:
459,63,78176,1,0,0:0:0:0:
459,63,78243,1,0,0:0:0:0:
459,63,78310,2,0,P|467:89|464:117,1,56.25,8|0,0:0|0:0,0:0:0:0:
374,219,78444,6,0,P|319:227|273:197,1,112.5,0|8,0:0|0:0,0:0:0:0:
305,21,78712,2,0,P|259:-8|205:0,1,112.5,0|8,0:0|0:0,0:0:0:0:
83,102,78980,1,0,0:0:0:0:
83,102,79046,1,0,0:0:0:0:
83,102,79114,2,0,L|139:118,1,56.25,8|0,0:0|0:0,0:0:0:0:
273,197,79248,1,0,0:0:0:0:
273,197,79315,1,0,0:0:0:0:
273,197,79382,2,0,L|217:213,1,56.25,8|0,0:0|0:0,0:0:0:0:
61,282,79515,6,0,P|50:228|77:180,1,112.5,4|8,0:0|0:0,0:0:0:0:
278,156,79783,1,0,0:0:0:0:
274,198,79850,1,0,0:0:0:0:
266,240,79917,2,0,L|210:256,1,56.25,8|0,0:0|0:0,0:0:0:0:
106,384,80051,2,0,L|162:368,1,56.25
317,308,80185,2,0,L|262:323,1,56.25,8|0,0:0|0:0,0:0:0:0:
103,273,80319,1,0,0:0:0:0:
107,231,80386,1,0,0:0:0:0:
115,189,80453,2,0,L|171:173,1,56.25,8|0,0:0|0:0,0:0:0:0:
334,240,80587,6,0,P|350:187|327:138,1,112.5,0|8,0:0|0:0,0:0:0:0:
112,25,80855,1,0,0:0:0:0:
138,57,80921,1,0,0:0:0:0:
172,83,80989,2,0,L|226:67,1,56.25,8|0,0:0|0:0,0:0:0:0:
169,173,81123,2,0,L|114:157,1,56.25
170,264,81257,2,0,L|224:248,1,56.25,8|0,0:0|0:0,0:0:0:0:
340,304,81391,1,0,0:0:0:0:
366,272,81457,1,0,0:0:0:0:
377,231,81524,2,0,L|368:175,1,56.25,8|0,0:0|0:0,0:0:0:0:
283,40,81658,6,0,P|234:16|179:23,1,112.5,0|8,0:0|0:0,0:0:0:0:
263,158,81926,1,0,0:0:0:0:
263,158,81993,1,0,0:0:0:0:
263,158,82060,2,0,P|312:182|367:175,1,112.5,8|0,0:0|0:0,0:0:0:0:
512,49,82328,1,8,0:0:0:0:
456,296,82462,1,0,0:0:0:0:
456,296,82529,1,0,0:0:0:0:
456,296,82596,2,0,P|430:307|402:305,1,56.25,8|0,0:0|0:0,0:0:0:0:
292,229,82730,6,0,P|243:205|188:212,1,112.5,0|8,0:0|0:0,0:0:0:0:
39,148,82998,2,0,L|53:259,1,112.5,0|8,0:0|0:0,0:0:0:0:
212,384,83265,1,0,0:0:0:0:
212,384,83331,1,0,0:0:0:0:
212,384,83399,2,0,L|204:328,1,56.25,8|0,0:0|0:0,0:0:0:0:
388,372,83532,1,0,0:0:0:0:
388,372,83600,1,0,0:0:0:0:
388,372,83667,2,0,L|380:316,1,56.25,8|0,0:0|0:0,0:0:0:0:
266,108,83801,6,0,P|235:153|241:208,1,112.5,4|8,0:0|0:0,0:0:0:0:
463,182,84069,1,0,0:0:0:0:
463,182,84136,1,0,0:0:0:0:
463,182,84203,2,0,P|493:136|487:81,1,112.5,8|0,0:0|0:0,0:0:0:0:
316,0,84471,1,8,0:0:0:0:
97,95,84605,2,0,L|91:39,1,56.25
194,0,84739,2,0,L|199:56,1,56.25,8|0,0:0|0:0,0:0:0:0:
165,186,84873,6,0,P|158:240|188:287,1,112.5,0|8,0:0|0:0,0:0:0:0:
392,280,85141,1,0,0:0:0:0:
392,280,85207,1,0,0:0:0:0:
392,280,85274,1,8,0:0:0:0:
247,111,85408,1,0,0:0:0:0:
252,363,85542,1,8,0:0:0:0:
369,143,85676,1,8,0:0:0:0:
418,119,85742,1,8,0:0:0:0:
473,130,85809,1,8,0:0:0:0:
509,172,85876,1,8,0:0:0:0:
512,229,85944,6,0,L|495:340,1,112.5,12|8,0:0|0:0,0:0:0:0:
292,191,86212,1,0,0:0:0:0:
292,191,86279,1,0,0:0:0:0:
292,191,86346,1,8,0:0:0:0:
408,384,86480,1,0,0:0:0:0:
418,119,86614,1,8,0:0:0:0:
223,384,86748,5,8,0:0:0:0:
189,379,86815,1,8,0:0:0:0:
159,364,86882,1,8,0:0:0:0:
136,339,86948,1,8,0:0:0:0:
123,310,87016,5,8,0:0:0:0:
129,255,87082,1,8,0:0:0:0:
165,212,87149,1,8,0:0:0:0:
219,198,87216,1,8,0:0:0:0:
271,216,87283,1,8,0:0:0:0:
304,260,87350,1,8,0:0:0:0:
343,299,87417,5,8,0:0:0:0:
397,314,87484,1,8,0:0:0:0:
451,302,87551,1,8,0:0:0:0:
492,264,87618,1,8,0:0:0:0:
510,212,87685,1,8,0:0:0:0:
500,157,87752,1,8,0:0:0:0:
465,114,87819,5,8,0:0:0:0:
435,98,87886,1,8,0:0:0:0:
402,91,87953,1,8,0:0:0:0:
368,95,88020,1,8,0:0:0:0:
338,109,88087,6,0,L|380:124,3,45,12|0|0|0,0:0|0:0|0:0|0:0,0:0:0:0:
263,194,88355,2,0,L|221:209,3,45,8|0|0|0,0:0|0:0|0:0|0:0,0:0:0:0:
340,277,88623,2,0,L|382:292,3,45,8|0|0|0,0:0|0:0|0:0|0:0,0:0:0:0:
263,359,88891,2,0,L|221:374,3,45,8|0|0|0,0:0|0:0|0:0|0:0,0:0:0:0:
263,194,89158,5,8,0:0:0:0:
154,38,89292,1,0,0:0:0:0:
263,359,89426,1,8,0:0:0:0:
362,36,89560,1,0,0:0:0:0:
123,253,89694,1,8,0:0:0:0:
444,237,89828,1,0,0:0:0:0:
258,0,89962,6,0,P|266:42|254:84,2,90,8|0|8,0:0|0:0|0:0,0:0:0:0:
119,51,90297,5,0,0:0:0:0:
99,91,90364,1,0,0:0:0:0:
106,135,90431,1,0,0:0:0:0:
136,168,90498,1,8,0:0:0:0:
179,180,90565,1,0,0:0:0:0:
222,168,90632,1,0,0:0:0:0:
248,131,90699,1,0,0:0:0:0:
253,86,90766,6,0,L|296:97,3,45,8|0|0|0,0:0|0:0|0:0|0:0,0:0:0:0:
178,180,91033,2,0,L|134:168,3,45,8|0|0|0,0:0|0:0|0:0|0:0,0:0:0:0:
309,253,91301,5,8,0:0:0:0:
354,254,91368,1,0,0:0:0:0:
394,234,91435,1,0,0:0:0:0:
423,200,91502,1,0,0:0:0:0:
435,157,91569,1,8,0:0:0:0:
427,113,91636,1,0,0:0:0:0:
401,76,91703,1,0,0:0:0:0:
363,53,91770,1,0,0:0:0:0:
319,50,91837,1,8,0:0:0:0:
277,65,91904,1,0,0:0:0:0:
245,96,91971,1,0,0:0:0:0:
229,138,92038,1,0,0:0:0:0:
233,182,92105,6,0,L|287:143,1,67.5,8|0,0:0|0:0,0:0:0:0:
289,337,92373,5,8,0:0:0:0:
334,338,92440,1,0,0:0:0:0:
376,322,92507,1,0,0:0:0:0:
406,289,92574,1,0,0:0:0:0:
419,247,92641,1,8,0:0:0:0:
414,203,92707,1,0,0:0:0:0:
390,165,92774,1,0,0:0:0:0:
351,142,92841,1,0,0:0:0:0:
306,136,92908,5,8,0:0:0:0:
263,151,92975,1,0,0:0:0:0:
231,182,93042,1,0,0:0:0:0:
214,223,93109,1,0,0:0:0:0:
218,268,93176,1,8,0:0:0:0:
240,307,93243,1,0,0:0:0:0:
277,333,93310,1,0,0:0:0:0:
321,340,93377,1,0,0:0:0:0:
364,328,93444,5,8,0:0:0:0:
168,76,93578,1,0,0:0:0:0:
191,384,93712,1,8,0:0:0:0:
438,107,93846,1,0,0:0:0:0:
178,229,93980,1,8,0:0:0:0:
434,364,94114,1,0,0:0:0:0:
331,187,94248,6,0,L|325:118,2,67.5000025749208,8|0|8,0:0|0:0|0:0,0:0:0:0:
271,318,94582,5,0,0:0:0:0:
227,324,94649,1,0,0:0:0:0:
184,312,94716,1,0,0:0:0:0:
151,282,94783,1,8,0:0:0:0:
134,241,94850,1,0,0:0:0:0:
137,196,94917,1,0,0:0:0:0:
158,157,94984,1,0,0:0:0:0:
195,132,95051,6,0,L|185:177,3,45,8|0|0|0,0:0|0:0|0:0|0:0,0:0:0:0:
380,132,95319,2,0,L|390:177,3,45,8|0|0|0,0:0|0:0|0:0|0:0,0:0:0:0:
289,52,95587,5,8,0:0:0:0:
414,377,95721,1,12,0:0:0:0:
186,285,96123,5,8,0:0:0:0:
511,159,96257,1,12,0:0:0:0:
183,38,96658,5,12,0:0:0:0:
236,384,96926,5,0,0:0:0:0:
52,206,97060,1,10,0:0:0:0:
300,240,97194,1,0,0:0:0:0:
78,358,97328,1,10,0:0:0:0:
191,135,97463,1,0,0:0:0:0:
191,135,97530,1,0,0:0:0:0:
191,135,97597,1,10,0:0:0:0:
376,280,97730,6,0,P|387:236|373:194,1,90,0|10,0:0|0:0,0:0:0:0:
198,12,97998,1,0,0:0:0:0:
404,121,98132,1,10,0:0:0:0:
119,52,98266,1,0,0:0:0:0:
358,48,98399,1,10,0:0:0:0:
232,234,98533,1,0,0:0:0:0:
232,234,98600,1,0,0:0:0:0:
232,234,98667,1,10,0:0:0:0:
265,92,98801,6,0,L|284:4,1,90,0|10,0:0|0:0,0:0:0:0:
184,161,99069,1,0,0:0:0:0:
488,58,99203,1,10,0:0:0:0:
415,296,99338,1,0,0:0:0:0:
283,4,99471,1,10,0:0:0:0:
245,323,99605,1,0,0:0:0:0:
512,196,99739,1,10,0:0:0:0:
185,76,99873,6,0,P|171:118|183:160,1,90,0|10,0:0|0:0,0:0:0:0:
301,344,100140,1,0,0:0:0:0:
301,344,100207,1,0,0:0:0:0:
301,344,100274,1,10,0:0:0:0:
95,239,100408,1,8,0:0:0:0:
50,242,100475,1,8,0:0:0:0:
15,269,100542,1,8,0:0:0:0:
2,311,100609,1,8,0:0:0:0:
15,354,100676,1,8,0:0:0:0:
50,381,100743,1,8,0:0:0:0:
94,384,100810,1,8,0:0:0:0:
132,361,100877,1,8,0:0:0:0:
150,320,100944,6,0,P|190:304|294:344,1,135,12|0,0:0|0:0,0:0:0:0:
372,384,101212,1,0,0:0:0:0:
372,384,101279,1,0,0:0:0:0:
372,384,101346,2,0,B|386:317|386:317|353:210,1,180,8|8,0:0|0:0,0:0:0:0:
199,54,101748,2,0,P|183:95|195:137,1,90,0|8,0:0|0:0,0:0:0:0:
276,325,102016,5,0,0:0:0:0:
338,129,102149,1,8,0:0:0:0:
178,256,102283,1,0,0:0:0:0:
178,256,102350,1,0,0:0:0:0:
178,256,102417,2,0,L|0:231,1,180,8|8,0:0|0:0,0:0:0:0:
133,366,102819,2,0,P|176:377|219:367,1,90,0|8,0:0|0:0,0:0:0:0:
176,104,103087,6,0,L|131:100,1,45
180,204,103221,2,0,L|224:200,1,45,8|0,0:0|0:0,0:0:0:0:
44,116,103355,1,0,0:0:0:0:
44,116,103422,1,0,0:0:0:0:
44,116,103489,2,0,L|47:71,1,45,8|0,0:0|0:0,0:0:0:0:
309,171,103623,2,0,L|312:215,1,45
196,18,103757,2,0,L|240:21,1,45,8|0,0:0|0:0,0:0:0:0:
141,283,103891,1,0,0:0:0:0:
141,283,103957,1,0,0:0:0:0:
141,283,104024,2,0,L|96:286,1,45,8|0,0:0|0:0,0:0:0:0:
312,215,104158,6,0,P|323:172|306:131,1,90,0|8,0:0|0:0,0:0:0:0:
46,71,104426,2,0,P|34:113|51:154,1,90,0|8,0:0|0:0,0:0:0:0:
213,352,104694,1,0,0:0:0:0:
0,240,104828,1,8,0:0:0:0:
245,124,104962,1,8,0:0:0:0:
252,80,105029,1,8,0:0:0:0:
233,39,105096,1,8,0:0:0:0:
195,17,105163,1,8,0:0:0:0:
151,18,105230,6,0,P|114:42|92:137,1,135,12|0,0:0|0:0,0:0:0:0:
247,238,105497,1,0,0:0:0:0:
48,346,105632,1,10,0:0:0:0:
264,376,105766,1,0,0:0:0:0:
149,169,105899,1,10,0:0:0:0:
367,200,106033,1,0,0:0:0:0:
367,200,106100,1,0,0:0:0:0:
367,200,106167,1,10,0:0:0:0:
264,376,106301,6,0,B|273:332|273:332|259:290,1,90,0|10,0:0|0:0,0:0:0:0:
136,84,106569,1,0,0:0:0:0:
304,4,106703,1,10,0:0:0:0:
288,224,106837,1,0,0:0:0:0:
131,4,106971,1,10,0:0:0:0:
147,224,107105,1,0,0:0:0:0:
147,224,107172,1,0,0:0:0:0:
147,224,107239,1,10,0:0:0:0:
400,192,107373,6,0,P|411:149|394:108,1,90,0|10,0:0|0:0,0:0:0:0:
237,354,107640,1,0,0:0:0:0:
163,71,107774,1,10,0:0:0:0:
406,324,107908,1,0,0:0:0:0:
111,236,108042,1,10,0:0:0:0:
462,159,108176,1,0,0:0:0:0:
237,354,108310,1,10,0:0:0:0:
336,38,108444,5,12,0:0:0:0:
306,71,108511,1,8,0:0:0:0:
295,114,108578,1,8,0:0:0:0:
304,157,108645,1,8,0:0:0:0:
336,188,108712,1,8,0:0:0:0:
364,223,108779,1,8,0:0:0:0:
373,265,108846,5,8,0:0:0:0:
373,299,108913,1,8,0:0:0:0:
356,328,108980,1,8,0:0:0:0:
329,348,109047,1,8,0:0:0:0:
296,355,109114,1,8,0:0:0:0:
264,347,109181,1,8,0:0:0:0:
238,326,109248,5,8,0:0:0:0:
223,309,109315,1,8,0:0:0:0:
213,289,109382,1,8,0:0:0:0:
211,267,109449,1,8,0:0:0:0:
215,245,109516,6,0,P|245:186|223:124,1,135,4|0,0:0|0:0,0:0:0:0:
87,40,109783,1,0,0:0:0:0:
87,40,109850,1,0,0:0:0:0:
87,40,109917,2,0,P|69:123|136:177,1,180,8|8,0:0|0:0,0:0:0:0:
336,220,110319,2,0,L|424:206,1,90,0|8,0:0|0:0,0:0:0:0:
512,101,110587,5,0,0:0:0:0:
476,289,110721,1,8,0:0:0:0:
231,182,110855,1,0,0:0:0:0:
231,182,110922,1,0,0:0:0:0:
230,181,110989,2,0,P|231:96|310:65,1,180,8|8,0:0|0:0,0:0:0:0:
335,220,111391,2,0,P|318:260|279:282,1,90,0|8,0:0|0:0,0:0:0:0:
220,364,111658,6,0,P|238:376|260:381,1,45
400,304,111792,2,0,P|381:316|359:321,1,45,8|0,0:0|0:0,0:0:0:0:
236,222,111926,1,0,0:0:0:0:
236,222,111993,1,0,0:0:0:0:
236,222,112060,2,0,P|254:234|276:239,1,45,8|0,0:0|0:0,0:0:0:0:
416,162,112194,2,0,P|397:174|375:179,1,45
228,118,112328,2,0,P|246:130|268:135,1,45,8|0,0:0|0:0,0:0:0:0:
408,58,112462,1,0,0:0:0:0:
408,58,112529,1,0,0:0:0:0:
408,58,112596,2,0,P|389:70|367:75,1,45,8|0,0:0|0:0,0:0:0:0:
153,72,112730,6,0,P|140:114|151:157,1,90,0|8,0:0|0:0,0:0:0:0:
291,284,112998,2,0,P|261:316|218:328,1,90,0|8,0:0|0:0,0:0:0:0:
228,118,113266,5,8,0:0:0:0:
250,116,113332,1,8,0:0:0:0:
272,121,113399,1,8,0:0:0:0:
291,132,113466,1,8,0:0:0:0:
308,148,113533,1,8,0:0:0:0:
319,167,113600,1,8,0:0:0:0:
324,189,113667,1,8,0:0:0:0:
324,211,113734,1,8,0:0:0:0:
317,233,113801,5,12,0:0:0:0:
276,271,113868,1,0,0:0:0:0:
220,272,113935,1,8,0:0:0:0:
177,236,114002,1,0,0:0:0:0:
166,181,114069,1,8,0:0:0:0:
197,134,114136,1,0,0:0:0:0:
250,117,114203,1,8,0:0:0:0:
301,139,114270,1,0,0:0:0:0:
325,189,114337,5,8,0:0:0:0:
367,226,114404,1,0,0:0:0:0:
422,233,114471,1,8,0:0:0:0:
473,210,114538,1,0,0:0:0:0:
501,162,114605,1,8,0:0:0:0:
497,106,114672,1,0,0:0:0:0:
465,60,114739,1,8,0:0:0:0:
413,39,114806,1,0,0:0:0:0:
358,48,114873,5,8,0:0:0:0:
318,87,114940,1,0,0:0:0:0:
310,143,115007,1,8,0:0:0:0:
336,193,115074,1,0,0:0:0:0:
359,244,115141,1,8,0:0:0:0:
348,298,115207,1,0,0:0:0:0:
312,341,115274,1,8,0:0:0:0:
257,351,115341,1,0,0:0:0:0:
206,328,115408,5,8,0:0:0:0:
178,280,115475,1,0,0:0:0:0:
182,224,115542,1,8,0:0:0:0:
216,180,115609,1,0,0:0:0:0:
269,165,115676,1,8,0:0:0:0:
322,182,115743,1,0,0:0:0:0:
358,225,115810,1,8,0:0:0:0:
359,281,115877,1,0,0:0:0:0:
331,329,115944,5,8,0:0:0:0:
277,313,116011,1,0,0:0:0:0:
243,269,116078,1,8,0:0:0:0:
239,213,116145,1,0,0:0:0:0:
269,165,116212,1,8,0:0:0:0:
300,119,116279,1,0,0:0:0:0:
300,63,116346,1,8,0:0:0:0:
267,18,116413,1,0,0:0:0:0:
214,0,116480,5,8,0:0:0:0:
160,14,116547,1,0,0:0:0:0:
125,58,116614,1,8,0:0:0:0:
120,114,116681,1,0,0:0:0:0:
148,162,116748,1,8,0:0:0:0:
200,185,116815,1,0,0:0:0:0:
256,176,116882,1,8,0:0:0:0:
296,137,116949,1,0,0:0:0:0:
306,83,117016,6,0,L|257:55,3,56.25,8|8|8|8,0:0|0:0|0:0|0:0,0:0:0:0:
442,83,117283,2,0,L|491:55,1,56.25,8|8,0:0|0:0,0:0:0:0:
298,183,117417,2,0,L|249:155,3,56.25,8|8|8|8,0:0|0:0|0:0|0:0,0:0:0:0:
441,183,117685,2,0,L|490:155,1,56.25,8|8,0:0|0:0,0:0:0:0:
298,283,117819,2,0,L|249:255,3,56.25,8|8|8|8,0:0|0:0|0:0|0:0,0:0:0:0:
349,361,118087,5,12,0:0:0:0:
298,384,118154,1,0,0:0:0:0:
243,372,118221,1,8,0:0:0:0:
204,331,118288,1,0,0:0:0:0:
200,275,118355,1,8,0:0:0:0:
229,227,118422,1,0,0:0:0:0:
282,210,118489,1,8,0:0:0:0:
336,225,118556,1,0,0:0:0:0:
370,270,118623,5,8,0:0:0:0:
425,265,118690,1,0,0:0:0:0:
471,233,118757,1,8,0:0:0:0:
489,180,118824,1,0,0:0:0:0:
479,125,118891,1,8,0:0:0:0:
442,84,118957,1,0,0:0:0:0:
388,69,119024,1,8,0:0:0:0:
334,84,119091,1,0,0:0:0:0:
298,127,119158,5,8,0:0:0:0:
266,173,119225,1,0,0:0:0:0:
217,199,119292,1,8,0:0:0:0:
161,201,119359,1,0,0:0:0:0:
109,179,119426,1,8,0:0:0:0:
73,136,119493,1,0,0:0:0:0:
79,80,119560,1,8,0:0:0:0:
120,42,119627,1,0,0:0:0:0:
176,36,119694,5,8,0:0:0:0:
222,67,119761,1,0,0:0:0:0:
241,120,119828,1,8,0:0:0:0:
220,172,119895,1,0,0:0:0:0:
172,201,119962,1,8,0:0:0:0:
141,248,120029,1,0,0:0:0:0:
141,304,120096,1,8,0:0:0:0:
173,350,120163,1,0,0:0:0:0:
226,369,120230,5,8,0:0:0:0:
275,342,120297,1,0,0:0:0:0:
331,342,120364,1,8,0:0:0:0:
381,367,120431,1,0,0:0:0:0:
437,369,120498,1,8,0:0:0:0:
486,343,120565,1,0,0:0:0:0:
512,293,120632,1,8,0:0:0:0:
511,237,120699,1,0,0:0:0:0:
482,189,120766,5,8,0:0:0:0:
433,164,120832,1,0,0:0:0:0:
377,168,120899,1,8,0:0:0:0:
331,200,120966,1,0,0:0:0:0:
309,251,121033,1,8,0:0:0:0:
287,302,121100,1,0,0:0:0:0:
241,335,121167,1,8,0:0:0:0:
185,339,121234,1,0,0:0:0:0:
136,314,121301,5,8,0:0:0:0:
99,258,121368,1,0,0:0:0:0:
101,191,121435,1,8,0:0:0:0:
142,138,121502,1,0,0:0:0:0:
207,120,121569,1,8,0:0:0:0:
270,143,121636,1,0,0:0:0:0:
310,197,121703,1,8,0:0:0:0:
306,264,121770,1,0,0:0:0:0:
265,317,121837,5,8,0:0:0:0:
188,336,121904,1,8,0:0:0:0:
118,299,121971,1,8,0:0:0:0:
93,224,122038,1,8,0:0:0:0:
123,151,122105,6,0,L|180:186,1,67.5,8|0,0:0|0:0,0:0:0:0:
298,250,122373,6,0,P|319:198|304:145,1,112.5,4|8,0:0|0:0,0:0:0:0:
171,14,122641,1,0,0:0:0:0:
171,14,122707,1,0,0:0:0:0:
171,14,122774,2,0,L|282:0,1,112.5,8|0,0:0|0:0,0:0:0:0:
495,75,123042,1,8,0:0:0:0:
305,146,123176,1,0,0:0:0:0:
305,146,123243,1,0,0:0:0:0:
305,146,123310,2,0,L|320:200,1,56.25,8|0,0:0|0:0,0:0:0:0:
192,213,123444,6,0,P|171:161|186:108,1,112.5,0|8,0:0|0:0,0:0:0:0:
436,202,123712,1,0,0:0:0:0:
436,202,123779,1,0,0:0:0:0:
436,202,123846,2,0,P|421:255|378:289,1,112.5,8|0,0:0|0:0,0:0:0:0:
204,348,124114,1,8,0:0:0:0:
320,207,124248,2,0,L|332:152,1,56.25
266,48,124382,2,0,L|254:103,1,56.25,8|0,0:0|0:0,0:0:0:0:
125,165,124516,6,0,P|104:113|119:60,1,112.5,0|8,0:0|0:0,0:0:0:0:
334,0,124783,1,0,0:0:0:0:
334,0,124850,1,0,0:0:0:0:
334,0,124917,2,0,L|444:33,1,112.5,8|0,0:0|0:0,0:0:0:0:
299,259,125185,1,8,0:0:0:0:
481,186,125319,1,0,0:0:0:0:
481,186,125386,1,0,0:0:0:0:
481,186,125453,2,0,L|469:241,1,56.25,8|0,0:0|0:0,0:0:0:0:
363,186,125587,6,0,P|314:160|259:168,1,112.5,0|8,0:0|0:0,0:0:0:0:
103,281,125855,2,0,P|48:289|-1:263,1,112.5,0|8,0:0|0:0,0:0:0:0:
171,89,126122,1,0,0:0:0:0:
171,89,126189,1,0,0:0:0:0:
171,89,126257,2,0,L|163:33,1,56.25,8|0,0:0|0:0,0:0:0:0:
315,173,126390,1,0,0:0:0:0:
315,173,126456,1,0,0:0:0:0:
315,173,126524,2,0,L|323:229,1,56.25,8|0,0:0|0:0,0:0:0:0:
196,384,126658,6,0,P|177:331|189:277,1,112.5,4|8,0:0|0:0,0:0:0:0:
402,253,126926,1,0,0:0:0:0:
402,253,126993,1,0,0:0:0:0:
402,253,127060,2,0,P|421:200|409:146,1,112.5,8|0,0:0|0:0,0:0:0:0:
285,0,127328,1,8,0:0:0:0:
175,57,127462,1,0,0:0:0:0:
175,57,127529,1,0,0:0:0:0:
175,57,127596,2,0,L|168:127,1,56.25,8|0,0:0|0:0,0:0:0:0:
330,122,127730,6,0,P|341:176|322:228,1,112.5,0|8,0:0|0:0,0:0:0:0:
80,136,127997,1,0,0:0:0:0:
80,136,128064,1,0,0:0:0:0:
80,136,128132,2,0,P|61:83|73:29,1,112.5,8|0,0:0|0:0,0:0:0:0:
239,184,128399,1,8,0:0:0:0:
175,57,128533,2,0,L|168:1,1,56.25
308,68,128667,2,0,L|301:123,1,56.25,8|0,0:0|0:0,0:0:0:0:
439,194,128801,6,0,B|446:140|446:140|427:85,1,112.5,0|8,0:0|0:0,0:0:0:0:
239,184,129069,1,0,0:0:0:0:
239,184,129136,1,0,0:0:0:0:
239,184,129203,2,0,L|224:295,1,112.5,8|0,0:0|0:0,0:0:0:0:
34,169,129471,1,8,0:0:0:0:
209,40,129605,1,0,0:0:0:0:
209,40,129671,1,0,0:0:0:0:
209,40,129738,1,8,0:0:0:0:
224,295,129874,5,8,0:0:0:0:
261,336,129940,1,8,0:0:0:0:
316,348,130007,1,8,0:0:0:0:
368,328,130074,1,8,0:0:0:0:
400,283,130141,5,8,0:0:0:0:
403,239,130207,1,8,0:0:0:0:
386,197,130274,1,8,0:0:0:0:
351,169,130341,1,8,0:0:0:0:
308,158,130408,5,8,0:0:0:0:
277,168,130474,1,8,0:0:0:0:
244,163,130541,1,8,0:0:0:0:
214,147,130608,1,8,0:0:0:0:
194,116,130676,5,8,0:0:0:0:
187,95,130742,1,8,0:0:0:0:
190,73,130809,1,8,0:0:0:0:
197,52,130877,1,8,0:0:0:0:
210,33,130944,6,0,P|251:69|258:123,1,112.5,4|8,0:0|0:0,0:0:0:0:
53,227,131212,1,0,0:0:0:0:
55,269,131279,1,0,0:0:0:0:
82,302,131346,2,0,P|115:294|134:278,1,56.25,8|0,0:0|0:0,0:0:0:0:
174,160,131480,2,0,P|141:168|122:184,1,56.25
371,302,131614,2,0,P|338:294|319:278,1,56.25,8|0,0:0|0:0,0:0:0:0:
250,234,131748,1,0,0:0:0:0:
252,192,131815,1,0,0:0:0:0:
279,159,131882,2,0,P|312:167|331:183,1,56.25,8|0,0:0|0:0,0:0:0:0:
279,340,132016,6,0,P|226:356|173:341,1,112.5,0|8,0:0|0:0,0:0:0:0:
128,68,132283,1,0,0:0:0:0:
164,47,132350,1,0,0:0:0:0:
206,53,132417,2,0,P|230:66|246:89,1,56.25,8|0,0:0|0:0,0:0:0:0:
192,209,132551,2,0,P|177:187|172:159,1,56.25
384,201,132685,2,0,P|379:228|364:252,1,56.25,8|0,0:0|0:0,0:0:0:0:
339,110,132819,1,0,0:0:0:0:
375,89,132886,1,0,0:0:0:0:
417,95,132953,2,0,P|441:108|457:131,1,56.25,8|0,0:0|0:0,0:0:0:0:
512,273,133087,6,0,L|496:385,1,112.5,0|8,0:0|0:0,0:0:0:0:
279,340,133355,1,0,0:0:0:0:
279,340,133421,1,0,0:0:0:0:
279,340,133489,2,0,P|259:288|279:236,1,112.5,8|0,0:0|0:0,0:0:0:0:
375,89,133756,1,8,0:0:0:0:
170,0,133891,1,0,0:0:0:0:
170,0,133957,1,0,0:0:0:0:
170,0,134024,2,0,L|167:56,1,56.25,8|0,0:0|0:0,0:0:0:0:
233,160,134158,6,0,P|286:148|337:171,1,112.5,0|8,0:0|0:0,0:0:0:0:
204,351,134426,2,0,P|150:363|99:340,1,112.5,0|8,0:0|0:0,0:0:0:0:
33,162,134694,1,0,0:0:0:0:
33,162,134761,1,0,0:0:0:0:
33,162,134828,2,0,L|1:210,1,56.25,8|0,0:0|0:0,0:0:0:0:
201,206,134962,1,0,0:0:0:0:
201,206,135029,1,0,0:0:0:0:
201,206,135096,2,0,L|233:158,1,56.25,8|0,0:0|0:0,0:0:0:0:
412,104,135230,6,0,P|430:155|410:206,1,112.5,4|8,0:0|0:0,0:0:0:0:
202,308,135497,1,0,0:0:0:0:
202,308,135564,1,0,0:0:0:0:
202,308,135632,2,0,P|181:256|201:205,1,112.5,8|0,0:0|0:0,0:0:0:0:
347,77,135899,1,8,0:0:0:0:
197,55,136033,2,0,L|203:0,1,56.25
63,72,136167,2,0,L|69:127,1,56.25,8|0,0:0|0:0,0:0:0:0:
200,205,136301,6,0,P|251:224|302:203,1,112.5,0|8,0:0|0:0,0:0:0:0:
434,111,136569,1,0,0:0:0:0:
434,111,136636,1,0,0:0:0:0:
434,111,136703,1,8,0:0:0:0:
354,355,136837,1,0,0:0:0:0:
250,121,136971,1,8,0:0:0:0:
476,208,137105,1,8,0:0:0:0:
505,161,137171,1,8,0:0:0:0:
508,105,137238,1,8,0:0:0:0:
482,55,137306,1,8,0:0:0:0:
436,24,137373,6,0,P|380:19|330:42,1,112.5,12|8,0:0|0:0,0:0:0:0:
160,236,137641,1,0,0:0:0:0:
160,236,137707,1,0,0:0:0:0:
160,236,137774,1,8,0:0:0:0:
367,157,137908,1,0,0:0:0:0:
148,96,138042,1,8,0:0:0:0:
293,274,138176,1,0,0:0:0:0:
293,274,138243,1,0,0:0:0:0:
293,274,138310,1,8,0:0:0:0:
278,53,138444,5,0,0:0:0:0:
215,299,138577,1,8,0:0:0:0:
398,165,138712,1,0,0:0:0:0:
398,165,138779,1,0,0:0:0:0:
398,165,138846,1,8,0:0:0:0:
148,96,138980,1,0,0:0:0:0:
355,328,139114,1,0,0:0:0:0:
355,328,139181,1,0,0:0:0:0:
355,328,139248,1,8,0:0:0:0:
278,53,139382,1,0,0:0:0:0:
215,299,139516,5,4,0:0:0:0:
191,348,139582,1,0,0:0:0:0:
142,374,139649,1,0,0:0:0:0:
87,367,139716,1,0,0:0:0:0:
47,329,139783,1,8,0:0:0:0:
38,274,139850,1,0,0:0:0:0:
62,224,139917,5,0,0:0:0:0:
112,200,139983,1,0,0:0:0:0:
167,207,140050,1,0,0:0:0:0:
205,248,140117,1,0,0:0:0:0:
213,305,140186,1,8,0:0:0:0:
253,343,140252,1,0,0:0:0:0:
308,354,140319,1,0,0:0:0:0:
360,334,140386,1,0,0:0:0:0:
397,292,140453,1,0,0:0:0:0:
407,237,140520,1,0,0:0:0:0:
387,186,140587,5,0,0:0:0:0:
356,154,140654,1,0,0:0:0:0:
313,144,140721,1,0,0:0:0:0:
271,159,140788,1,0,0:0:0:0:
243,194,140855,1,0,0:0:0:0:
238,239,140922,1,0,0:0:0:0:
257,280,140989,5,0,0:0:0:0:
286,297,141056,1,0,0:0:0:0:
320,296,141123,1,0,0:0:0:0:
347,276,141190,1,0,0:0:0:0:
357,244,141257,1,0,0:0:0:0:
346,212,141324,1,0,0:0:0:0:
318,193,141391,5,0,0:0:0:0:
296,196,141457,1,0,0:0:0:0:
282,214,141524,1,0,0:0:0:0:
287,236,141591,1,0,0:0:0:0:
305,249,141658,5,8,0:0:0:0:
498,144,142070,1,0,0:0:0:0:
425,384,142483,1,0,0:0:0:0:
209,259,142758,6,0,P|195:216|213:158,1,90
322,54,143171,1,0,0:0:0:0:
70,0,143584,1,0,0:0:0:0:
125,221,143859,5,8,0:0:0:0:
334,140,143997,1,8,0:0:0:0:
206,27,144272,1,8,0:0:0:0:
206,27,144410,6,0,B|172:96|228:133|228:133|193:170|193:170|235:247|165:296,1,316.8,12|0,0:0|0:0,0:0:0:0:
22,169,146061,5,0,0:0:0:0:
79,384,146474,1,0,0:0:0:0:
269,274,146887,1,0,0:0:0:0:
125,196,147162,6,0,P|113:153|129:111,1,90
267,27,147575,1,0,0:0:0:0:
172,372,147988,5,8,0:0:0:0:
297,179,148126,1,8,0:0:0:0:
56,222,148263,6,0,P|34:159|54:96,1,135,8|0,0:0|0:0,0:0:0:0:
220,21,148814,6,0,B|202:71|227:111|227:111|212:150|212:150|229:183|229:183|220:222|220:222|237:265|220:311,1,303.750011587143,12|0,0:0|0:0,0:0:0:0:
140,192,150190,5,8,0:0:0:0:
365,72,150328,1,8,0:0:0:0:
219,21,150465,6,0,P|212:65|224:108,1,90,12|0,0:0|0:0,0:0:0:0:
356,196,150878,1,0,0:0:0:0:
219,384,151291,1,0,0:0:0:0:
439,349,151566,6,0,P|446:304|434:261,1,90
343,137,151979,1,0,0:0:0:0:
155,256,152392,1,0,0:0:0:0:
325,323,152667,5,8,0:0:0:0:
171,78,152804,1,8,0:0:0:0:
390,109,153080,1,8,0:0:0:0:
390,109,153217,6,0,B|389:155|353:180|353:180|352:241|352:241|296:208|241:241,1,263.249987949372,12|0,0:0|0:0,0:0:0:0:
137,266,154593,5,8,0:0:0:0:
282,100,154730,1,8,0:0:0:0:
137,266,154869,6,0,P|145:298|169:322,1,67.5000025749208,12|0,0:0|0:0,0:0:0:0:
421,164,155144,2,0,P|413:132|389:108,1,67.5000025749208,8|0,0:0|0:0,0:0:0:0:
184,184,155557,5,8,0:0:0:0:
292,384,155695,1,8,0:0:0:0:
64,248,155970,6,0,P|40:188|64:124,1,135.000005149842,12|0,0:0|0:0,0:0:0:0:
276,100,156383,5,8,0:0:0:0:
64,248,156520,1,8,0:0:0:0:
138,52,156795,5,8,0:0:0:0:
202,296,156933,1,8,0:0:0:0:
138,52,157071,6,0,P|110:71|94:99,1,67.5000025749208,8|0,0:0|0:0,0:0:0:0:
312,216,157484,1,8,0:0:0:0:
312,216,157621,6,0,P|339:197|356:167,2,67.5000025749208,12|0|8,0:0|0:0|0:0,0:0:0:0:
192,256,158034,1,2,0:0:0:0:
192,256,158263,6,0,P|183:235|184:213,1,45.0000017166138,8|0,0:0|0:0,0:0:0:0:
320,92,158447,1,2,0:0:0:0:
224,60,158722,5,8,0:0:0:0:
216,92,158790,1,8,0:0:0:0:
224,124,158859,1,8,0:0:0:0:
336,316,158997,1,8,0:0:0:0:
192,256,159135,1,8,0:0:0:0:
320,92,159272,6,0,P|336:156|308:216,1,135.000005149842,4|2,0:0|0:0,0:0:0:0:
96,288,159688,1,0,0:0:0:0:
96,288,159827,2,0,P|80:223|108:163,1,135.000005149842,10|2,0:0|0:0,0:0:0:0:
320,92,160244,1,0,0:0:0:0:
320,92,160383,6,0,L|450:127,1,135.000005149842,2|2,0:0|0:0,0:0:0:0:
307,216,160799,1,0,0:0:0:0:
207,81,160938,1,10,0:0:0:0:
198,367,161216,1,2,0:0:0:0:
307,216,161494,5,10,0:0:0:0:
96,288,161633,1,8,0:0:0:0:
139,132,161910,1,8,0:0:0:0:
139,132,162049,6,0,P|135:98|151:69,1,67.5000025749208,14|0,0:0|0:0,0:0:0:0:
310,36,162327,1,2,0:0:0:0:
263,220,162466,1,0,0:0:0:0:
263,220,162605,2,0,L|196:228,1,67.5000025749208,2|0,0:0|0:0,0:0:0:0:
43,347,162883,1,2,0:0:0:0:
131,203,163022,1,0,0:0:0:0:
233,336,163160,2,0,L|300:344,1,67.5000025749208,10|0,0:0|0:0,0:0:0:0:
424,200,163438,5,2,0:0:0:0:
376,384,163577,1,0,0:0:0:0:
424,200,163716,6,0,B|412:160|412:160|420:108|420:108|412:68,1,135.000005149842,2|2,0:0|0:0,0:0:0:0:
302,185,164133,1,0,0:0:0:0:
302,185,164272,2,0,L|235:194,1,67.5000025749208,10|0,0:0|0:0,0:0:0:0:
89,129,164549,1,2,0:0:0:0:
152,328,164688,1,0,0:0:0:0:
152,328,164827,6,0,L|144:260,1,67.5000025749208,2|0,0:0|0:0,0:0:0:0:
234,122,165105,1,2,0:0:0:0:
296,328,165244,1,0,0:0:0:0:
296,328,165383,2,0,L|304:260,1,67.5000025749208,10|0,0:0|0:0,0:0:0:0:
199,53,165660,5,2,0:0:0:0:
413,108,165799,1,0,0:0:0:0:
303,260,165938,6,0,P|280:283|247:291,1,67.5000025749208,2|0,0:0|0:0,0:0:0:0:
98,233,166216,2,0,L|90:165,1,67.5000025749208,2|0,0:0|0:0,0:0:0:0:
249,139,166494,1,10,0:0:0:0:
70,67,166633,1,8,0:0:0:0:
252,0,166772,1,2,0:0:0:0:
188,209,166910,1,0,0:0:0:0:
70,67,167049,6,0,P|54:35|55:2,1,67.5000025749208,2|8,0:0|0:0,0:0:0:0:
233,75,167327,2,0,P|249:107|248:140,1,67.5000025749208,2|0,0:0|0:0,0:0:0:0:
144,300,167605,1,10,0:0:0:0:
424,272,167744,1,8,0:0:0:0:
177,124,167883,5,4,0:0:0:0:
457,96,168022,1,0,0:0:0:0:
341,314,168160,6,0,P|304:260|325:198,1,135.000005149842,12|0,0:0|0:0,0:0:0:0:
400,246,168577,1,2,0:0:0:0:
400,245,168716,2,0,P|412:213|411:180,1,67.5000025749208,8|2,0:0|0:0,0:0:0:0:
272,24,168994,1,0,0:0:0:0:
428,56,169133,1,2,0:0:0:0:
204,96,169272,6,0,P|191:127|192:160,1,67.5000025749208,0|2,0:0|0:0,0:0:0:0:
329,244,169549,1,0,0:0:0:0:
172,274,169688,1,2,0:0:0:0:
329,244,169827,2,0,P|330:277|317:308,1,67.5000025749208,8|2,0:0|0:0,0:0:0:0:
172,374,170105,2,0,L|108:350,1,67.5000025749208,0|2,0:0|0:0,0:0:0:0:
52,167,170383,5,10,0:0:0:0:
0,384,170522,1,8,0:0:0:0:
245,175,170799,1,8,0:0:0:0:
245,175,170938,6,0,B|257:219|257:219|245:259|245:259|257:307,1,135.000005149842,6|0,0:0|0:0,0:0:0:0:
108,350,171355,2,0,P|83:288|107:226,1,135.000005149842,2|2,0:0|0:0,0:0:0:0:
338,192,171772,1,0,0:0:0:0:
150,132,171910,1,2,0:0:0:0:
257,311,172049,2,0,L|193:287,1,67.5000025749208,8|2,0:0|0:0,0:0:0:0:
150,132,172327,5,0,0:0:0:0:
360,38,172466,1,2,0:0:0:0:
150,132,172605,6,0,P|149:98|166:69,1,67.5000025749208,0|2,0:0|0:0,0:0:0:0:
333,126,172883,2,0,P|342:158|337:191,1,67.5000025749208,0|2,0:0|0:0,0:0:0:0:
193,287,173160,2,0,P|161:295|129:287,1,67.5000025749208,8|2,0:0|0:0,0:0:0:0:
19,205,173438,1,0,0:0:0:0:
49,375,173577,1,2,0:0:0:0:
161,198,173716,6,0,L|149:131,1,67.5000025749208,0|2,0:0|0:0,0:0:0:0:
293,274,173994,2,0,P|292:307|280:338,1,67.5000025749208,0|2,3:0|3:0,3:0:0:0:
117,351,174272,2,0,P|116:317|128:286,1,67.5000025749208,8|2,3:0|3:0,3:0:0:0:
305,159,174549,5,0,0:0:0:0:
79,192,174688,1,2,0:0:0:0:
207,88,174827,6,0,P|198:55|201:22,1,67.5000025749208,0|2,3:0|3:0,3:0:0:0:
380,120,175105,1,0,0:0:0:0:
380,120,175244,2,0,P|388:152|385:185,1,67.5000025749208,2|8,3:0|3:0,3:0:0:0:
280,384,175522,1,10,0:0:0:0:
454,304,175660,1,0,0:0:0:0:
276,232,175799,1,2,0:0:0:0:
128,372,175938,6,0,P|119:339|122:306,1,67.5000025749208,0|10,3:0|3:0,3:0:0:0:
384,186,176216,2,0,P|393:219|390:252,1,67.5000025749208,0|2,3:0|3:0,3:0:0:0:
149,161,176494,1,8,0:0:0:0:
360,80,176633,1,10,0:0:0:0:
177,23,176772,1,0,0:0:0:0:
284,256,176910,1,0,0:0:0:0:
284,256,177049,6,0,P|290:321|250:374,1,135.000005149842,6|2,0:0|0:0,0:0:0:0:
132,240,177466,1,0,0:0:0:0:
132,240,177605,2,0,P|147:268|176:288,1,67.5000025749208,10|0,0:0|0:0,0:0:0:0:
228,135,177883,2,0,P|212:107|184:87,1,67.5000025749208,2|0,0:0|0:0,0:0:0:0:
175,287,178160,5,2,0:0:0:0:
183,86,178299,1,0,0:0:0:0:
311,270,178438,1,2,0:0:0:0:
319,69,178577,1,0,0:0:0:0:
386,224,178716,2,0,P|400:253|396:286,1,67.5000025749208,10|0,0:0|0:0,0:0:0:0:
234,209,178994,1,2,0:0:0:0:
326,384,179133,1,0,0:0:0:0:
470,242,179272,5,10,0:0:0:0:
228,324,179410,1,8,0:0:0:0:
228,56,179688,1,8,0:0:0:0:
228,56,179827,6,0,P|220:88|228:120,1,67.5000025749208,14|0,0:0|0:0,0:0:0:0:
364,200,180105,2,0,P|372:168|364:136,1,67.5000025749208,2|0,0:0|0:0,0:0:0:0:
228,56,180383,1,2,0:0:0:0:
228,56,180522,2,0,L|164:76,1,67.5000025749208,0|2,0:0|0:0,0:0:0:0:
299,220,180799,1,0,0:0:0:0:
299,220,180938,2,0,L|363:200,1,67.5000025749208,10|0,0:0|0:0,0:0:0:0:
215,159,181216,5,2,0:0:0:0:
306,319,181355,1,0,0:0:0:0:
215,159,181494,6,0,L|227:295,1,135.000005149842,2|2,0:0|0:0,0:0:0:0:
370,267,181910,2,0,L|364:200,1,67.5000025749208,0|10,0:0|0:0,0:0:0:0:
443,333,182188,1,0,0:0:0:0:
442,333,182327,2,0,P|462:305|467:272,1,67.5000025749208,2|0,0:0|0:0,0:0:0:0:
387,139,182605,1,2,0:0:0:0:
387,139,182744,2,0,P|368:166|363:200,1,67.5000025749208,0|2,0:0|0:0,0:0:0:0:
376,348,183022,1,0,0:0:0:0:
376,348,183160,2,0,L|444:332,1,67.5000025749208,10|0,0:0|0:0,0:0:0:0:
298,160,183438,5,2,0:0:0:0:
512,221,183577,1,0,0:0:0:0:
298,160,183716,6,0,L|290:92,1,67.5000025749208,2|0,0:0|0:0,0:0:0:0:
137,55,183994,2,0,L|145:123,1,67.5000025749208,2|0,0:0|0:0,0:0:0:0:
304,282,184272,1,10,0:0:0:0:
130,360,184410,1,8,0:0:0:0:
209,228,184549,2,0,L|217:160,1,67.5000025749208,2|0,0:0|0:0,0:0:0:0:
369,131,184827,1,2,0:0:0:0:
369,131,184966,6,0,P|388:158|393:191,1,67.5000025749208,0|2,0:0|0:0,0:0:0:0:
177,103,185244,1,0,0:0:0:0:
213,305,185383,1,10,0:0:0:0:
369,131,185522,1,8,0:0:0:0:
333,333,185661,1,0,0:0:0:0:
273,119,185799,1,0,0:0:0:0:
420,334,185938,6,0,L|407:377,2,45.0000017166138,4|0|0,0:0|0:0|0:0,0:0:0:0:
319,289,186216,2,0,L|332:332,2,45.0000017166138
432,197,186494,2,0,L|419:240,2,45.0000017166138,8|0|0,0:0|0:0|0:0,0:0:0:0:
331,152,186772,2,0,L|344:195,2,45.0000017166138
439,60,187049,6,0,P|451:89|448:123,1,67.5000025749208,0|2,0:0|0:0,0:0:0:0:
208,163,187327,1,0,0:0:0:0:
439,60,187466,1,2,0:0:0:0:
347,217,187605,1,8,0:0:0:0:
297,2,187744,1,2,0:0:0:0:
347,217,187883,2,0,L|330:151,1,67.5000025749208,0|2,0:0|0:0,0:0:0:0:
145,113,188160,5,8,0:0:0:0:
364,41,188299,1,10,0:0:0:0:
371,339,188577,1,8,0:0:0:0:
371,339,188716,6,0,P|381:276|345:216,1,135.000005149842,12|0,0:0|0:0,0:0:0:0:
196,201,189133,1,2,0:0:0:0:
196,201,189272,2,0,L|232:257,1,67.5000025749208,0|2,0:0|0:0,0:0:0:0:
336,78,189549,2,0,L|300:22,1,67.5000025749208,0|2,0:0|0:0,0:0:0:0:
354,173,189827,2,0,P|385:163|409:141,1,67.5000025749208,8|2,0:0|0:0,0:0:0:0:
196,136,190105,5,0,0:0:0:0:
357,275,190244,1,2,0:0:0:0:
196,136,190383,6,0,P|189:167|196:199,1,67.5000025749208,0|2,0:0|0:0,0:0:0:0:
297,356,190660,1,0,0:0:0:0:
297,356,190799,2,0,L|361:376,1,67.5000025749208,2|8,0:0|0:0,0:0:0:0:
472,272,191077,1,2,0:0:0:0:
472,272,191216,2,0,P|480:240|472:207,1,67.5000025749208,0|2,0:0|0:0,0:0:0:0:
412,86,191494,1,0,0:0:0:0:
288,140,191633,2,0,P|279:172|287:204,1,67.5000025749208,2|0,0:0|0:0,0:0:0:0:
361,376,191910,1,2,0:0:0:0:
361,376,192049,2,0,L|297:356,1,67.5000025749208,8|2,0:0|0:0,0:0:0:0:
152,197,192327,5,0,0:0:0:0:
308,289,192466,1,2,0:0:0:0:
152,197,192605,6,0,L|140:129,1,67.5000025749208,0|2,0:0|0:0,0:0:0:0:
308,289,192883,2,0,L|296:355,1,67.5000025749208,0|2,0:0|0:0,0:0:0:0:
64,244,193160,1,8,0:0:0:0:
250,205,193299,1,10,0:0:0:0:
177,382,193438,1,0,0:0:0:0:
64,244,193577,2,0,L|52:177,1,67.5000025749208,2|0,0:0|0:0,0:0:0:0:
191,67,193855,2,0,L|203:134,1,67.5000025749208,2|0,0:0|0:0,0:0:0:0:
336,288,194133,1,2,0:0:0:0:
336,288,194272,2,0,L|324:221,1,67.5000025749208,8|2,0:0|0:0,0:0:0:0:
384,132,194549,5,0,0:0:0:0:
202,133,194688,1,0,0:0:0:0:
384,132,194827,6,0,L|356:0,1,135.000005149842,4|2,0:0|0:0,0:0:0:0:
189,68,195244,1,0,0:0:0:0:
189,68,195383,2,0,L|203:134,1,67.5000025749208,10|0,0:0|0:0,0:0:0:0:
174,292,195660,1,2,0:0:0:0:
345,190,195799,1,0,0:0:0:0:
189,68,195938,1,2,0:0:0:0:
273,279,196077,1,0,0:0:0:0:
273,279,196216,2,0,B|265:247|281:219|281:219|269:191|269:191|273:147,1,135.000005149842,2|10,0:0|0:0,0:0:0:0:
404,232,196633,1,0,0:0:0:0:
334,88,196772,5,2,0:0:0:0:
360,314,196910,1,0,0:0:0:0:
190,215,197049,6,0,P|160:156|181:94,1,135.000005149842,2|2,0:0|0:0,0:0:0:0:
334,88,197466,1,0,0:0:0:0:
334,88,197605,2,0,L|398:68,1,67.5000025749208,10|0,0:0|0:0,0:0:0:0:
338,240,197883,2,0,L|274:220,1,67.5000025749208,2|0,0:0|0:0,0:0:0:0:
159,163,198160,5,2,0:0:0:0:
381,182,198299,1,0,0:0:0:0:
190,299,198438,1,2,0:0:0:0:
276,92,198577,1,0,0:0:0:0:
326,310,198716,1,10,0:0:0:0:
159,163,198855,1,0,0:0:0:0:
381,182,198994,2,0,P|388:214|381:247,1,67.5000025749208,2|0,0:0|0:0,0:0:0:0:
208,259,199272,5,4,0:0:0:0:
260,114,199409,1,0,0:0:0:0:
307,259,199547,1,0,0:0:0:0:
211,128,199684,1,0,0:0:0:0:
257,273,199822,1,0,0:0:0:0:
309,128,199960,1,0,0:0:0:0:
219,315,200097,1,0,0:0:0:0:
220,71,200235,1,0,0:0:0:0:
297,316,200372,1,0,0:0:0:0:
300,71,200510,5,0,0:0:0:0:
130,237,200648,1,0,0:0:0:0:
375,227,200785,1,0,0:0:0:0:
186,42,200923,5,0,0:0:0:0:
370,301,201060,1,0,0:0:0:0:
122,129,201198,1,0,0:0:0:0:
422,171,201336,1,0,0:0:0:0:
60,188,201473,5,8,0:0:0:0:
474,119,201611,1,8,0:0:0:0:
120,341,201749,1,8,0:0:0:0:
254,5,201886,1,8,0:0:0:0:
389,329,202024,1,8,0:0:0:0:
100,46,202161,1,8,0:0:0:0:
448,240,202299,1,8,0:0:0:0:
60,188,202437,1,8,0:0:0:0:
421,68,202574,1,8,0:0:0:0:
256,384,202712,1,8,0:0:0:0:
254,5,202849,5,8,0:0:0:0:
241,23,202918,1,8,0:0:0:0:
236,45,202987,1,8,0:0:0:0:
237,67,203056,1,8,0:0:0:0:
246,87,203125,5,8,0:0:0:0:
261,117,203194,1,8,0:0:0:0:
265,150,203262,1,8,0:0:0:0:
257,183,203331,1,8,0:0:0:0:
232,209,203400,5,8,0:0:0:0:
198,239,203469,1,8,0:0:0:0:
180,280,203538,1,8,0:0:0:0:
186,324,203606,1,8,0:0:0:0:
212,362,203675,5,4,0:0:0:0:
264,381,203741,1,0,0:0:0:0:
319,371,203808,1,10,0:0:0:0:
357,330,203875,1,0,0:0:0:0:
361,274,203942,1,0,0:0:0:0:
330,228,204009,1,0,0:0:0:0:
297,183,204076,1,10,0:0:0:0:
290,127,204143,1,0,0:0:0:0:
310,75,204210,5,0,0:0:0:0:
353,40,204277,1,0,0:0:0:0:
408,30,204344,1,10,0:0:0:0:
461,47,204411,1,0,0:0:0:0:
499,88,204478,1,0,0:0:0:0:
512,142,204545,1,0,0:0:0:0:
498,196,204612,1,10,0:0:0:0:
459,236,204679,1,0,0:0:0:0:
404,244,204746,6,0,L|367:217,3,45,0|0|10|0,0:0|0:0|0:0|0:0,0:0:0:0:
174,243,205014,2,0,L|211:216,3,45,0|0|10|0,0:0|0:0|0:0|0:0,0:0:0:0:
345,77,205282,2,0,L|382:104,3,45,0|0|10|0,0:0|0:0|0:0|0:0,0:0:0:0:
188,76,205550,2,0,L|151:103,3,45,0|0|10|0,0:0|0:0|0:0|0:0,0:0:0:0:
292,215,205817,6,0,P|250:231|209:216,1,90,0|10,0:0|0:0,0:0:0:0:
63,94,206085,1,0,0:0:0:0:
63,94,206152,1,0,0:0:0:0:
63,94,206219,2,0,P|53:49|75:11,2,90,10|0|10,0:0|0:0|0:0,0:0:0:0:
333,208,206621,5,0,0:0:0:0:
359,242,206688,1,0,0:0:0:0:
369,286,206755,1,0,0:0:0:0:
358,328,206822,1,0,0:0:0:0:
327,362,206889,5,8,0:0:0:0:
504,296,207067,5,4,0:0:0:0:
146,309,207246,5,0,0:0:0:0:
440,72,207425,5,8,0:0:0:0:
327,362,207603,5,4,0:0:0:0:
210,85,207782,5,0,0:0:0:0:
504,296,207960,6,0,L|460:283,3,45,0|0|8|0,0:0|0:0|0:0|0:0,0:0:0:0:
327,362,208228,2,0,L|370:349,3,45,0|0|8|0,0:0|0:0|0:0|0:0,0:0:0:0:
146,309,208496,2,0,L|102:296,3,45,0|0|8|0,0:0|0:0|0:0|0:0,0:0:0:0:
195,384,208764,2,0,L|238:371,3,45,0|0|8|0,0:0|0:0|0:0|0:0,0:0:0:0:
240,262,209031,5,0,0:0:0:0:
274,217,209099,1,0,0:0:0:0:
328,203,209166,1,8,0:0:0:0:
380,223,209233,1,0,0:0:0:0:
411,269,209300,1,0,0:0:0:0:
408,324,209366,1,0,0:0:0:0:
374,368,209433,1,8,0:0:0:0:
320,383,209500,1,0,0:0:0:0:
267,365,209567,1,0,0:0:0:0:
239,317,209634,6,0,L|229:272,1,45,0|8,0:0|0:0,0:0:0:0:
212,96,209768,5,0,0:0:0:0:
232,44,209835,1,0,0:0:0:0:
282,18,209903,1,0,0:0:0:0:
337,26,209969,1,8,0:0:0:0:
378,64,210036,1,0,0:0:0:0:
404,113,210103,6,0,L|394:158,1,45,4|0,0:0|0:0,0:0:0:0:
356,275,210237,5,10,0:0:0:0:
310,307,210304,1,0,0:0:0:0:
254,307,210371,1,0,0:0:0:0:
208,277,210438,1,0,0:0:0:0:
188,225,210505,1,10,0:0:0:0:
149,185,210572,1,0,0:0:0:0:
94,174,210639,5,0,0:0:0:0:
42,195,210706,1,0,0:0:0:0:
10,241,210773,1,10,0:0:0:0:
13,297,210840,1,0,0:0:0:0:
45,343,210907,1,0,0:0:0:0:
97,364,210974,1,0,0:0:0:0:
151,350,211041,1,0,0:0:0:0:
188,308,211108,1,0,0:0:0:0:
196,252,211175,5,8,0:0:0:0:
220,190,211241,1,0,0:0:0:0:
278,157,211308,1,0,0:0:0:0:
345,165,211375,1,0,0:0:0:0:
391,214,211442,1,0,0:0:0:0:
398,281,211509,1,0,0:0:0:0:
360,336,211576,1,0,0:0:0:0:
298,362,211643,1,0,0:0:0:0:
235,339,211710,6,0,L|219:189,1,150,8|0,0:0|0:0,0:0:0:0:
350,105,212246,6,0,L|344:165,2,60,4|0|0,0:0|0:0|0:0,0:0:0:0:
219,189,212514,2,0,L|225:249,2,60
269,60,212782,1,0,0:0:0:0:
327,25,212871,1,0,0:0:0:0:
394,35,212960,1,0,0:0:0:0:
439,87,213050,2,0,P|447:115|442:145,2,60
219,189,213317,5,0,0:0:0:0:
182,246,213406,1,0,0:0:0:0:
188,313,213495,1,0,0:0:0:0:
233,364,213585,2,0,L|288:387,2,60
93,221,213853,5,0,0:0:0:0:
151,186,213942,1,0,0:0:0:0:
219,189,214032,1,0,0:0:0:0:
275,227,214121,1,0,0:0:0:0:
338,251,214210,1,0,0:0:0:0:
405,236,214300,1,0,0:0:0:0:
452,187,214389,6,0,P|463:159|466:129,2,60
322,95,214657,2,0,P|325:65|336:37,2,60
338,251,214925,6,0,L|323:208,1,45
241,306,215058,2,0,L|256:349,1,45
132,384,215192,5,8,0:0:0:0:
111,345,215259,1,8,0:0:0:0:
112,300,215326,1,8,0:0:0:0:
134,261,215393,1,8,0:0:0:0:
172,238,215460,6,0,L|231:232,1,60,8|0,0:0|0:0,0:0:0:0:
322,95,215639,2,0,L|381:88,2,60,4|0|0,0:0|0:0|0:0,0:0:0:0:
289,284,215907,2,0,P|305:259|309:229,1,60,0|8,0:0|0:0,0:0:0:0:
213,121,216085,2,0,L|181:69,2,60,0|4|0,0:0|0:0|0:0,0:0:0:0:
92,204,216353,2,0,L|61:152,1,60
168,362,216532,6,0,B|148:326|168:290|168:290|160:266|160:266|188:226|163:191,1,180,4|0,0:0|0:0,0:0:0:0:
157,176,216866,1,0,0:0:0:0:
157,176,216933,1,8,0:0:0:0:
16,0,217068,1,0,0:0:0:0:
208,29,217202,1,8,0:0:0:0:
61,152,217335,2,0,P|48:110|63:68,1,90,0|8,0:0|0:0,0:0:0:0:
244,188,217603,6,0,B|260:236|236:276|236:276|260:316|244:368,1,180
237,384,217938,1,0,0:0:0:0:
237,384,218004,1,8,0:0:0:0:
140,136,218139,1,0,0:0:0:0:
388,188,218273,1,8,0:0:0:0:
165,317,218407,2,0,P|151:274|166:232,1,90,0|8,0:0|0:0,0:0:0:0:
317,37,218675,6,0,P|331:80|316:122,2,90,0|8|0,0:0|0:0|0:0,0:0:0:0:
165,149,219076,1,8,0:0:0:0:
165,149,219210,2,0,P|150:190|164:232,2,90,0|8|0,0:0|0:0|0:0,0:0:0:0:
407,165,219612,1,8,0:0:0:0:
407,165,219746,2,0,P|422:123|408:81,1,90,0|8,0:0|0:0,0:0:0:0:
245,42,220014,5,8,0:0:0:0:
217,77,220081,1,8,0:0:0:0:
212,122,220148,1,8,0:0:0:0:
231,163,220215,1,8,0:0:0:0:
269,187,220282,5,12,0:0:0:0:
296,222,220348,1,8,0:0:0:0:
303,266,220415,1,8,0:0:0:0:
282,306,220482,1,8,0:0:0:0:
245,331,220549,5,8,0:0:0:0:
217,295,220617,1,8,0:0:0:0:
213,250,220684,1,8,0:0:0:0:
231,209,220751,1,8,0:0:0:0:
269,187,220817,6,0,B|315:162|355:186|355:186|399:213|440:189,1,180,12|0,0:0|0:0,0:0:0:0:
463,181,221152,1,0,0:0:0:0:
463,181,221219,1,10,0:0:0:0:
312,20,221353,2,0,L|292:108,1,90,0|10,0:0|0:0,0:0:0:0:
282,306,221621,1,0,0:0:0:0:
439,189,221754,1,10,0:0:0:0:
168,188,221889,6,0,P|156:148|168:100,1,90,4|10,0:0|0:0,0:0:0:0:
359,156,222156,1,0,0:0:0:0:
359,156,222224,1,0,0:0:0:0:
359,156,222291,2,0,P|369:199|357:241,1,90,10|0,0:0|0:0,0:0:0:0:
216,292,222558,1,10,0:0:0:0:
272,88,222693,2,0,L|292:0,1,90,0|10,0:0|0:0,0:0:0:0:
196,201,222961,6,0,B|180:257|216:293|216:293|246:257|288:265,1,180,4|0,0:0|0:0,0:0:0:0:
313,274,223296,1,0,0:0:0:0:
313,274,223363,1,10,0:0:0:0:
460,338,223497,2,0,P|471:294|459:252,1,90,0|10,0:0|0:0,0:0:0:0:
312,123,223764,5,8,0:0:0:0:
285,345,223898,1,8,0:0:0:0:
164,46,224031,1,12,0:0:0:0:
478,118,224165,1,8,0:0:0:0:
145,180,224299,1,8,0:0:0:0:
459,252,224433,1,12,0:0:0:0:
285,345,224567,1,8,0:0:0:0:
285,345,224634,1,8,0:0:0:0:
285,345,224701,1,8,0:0:0:0:
285,345,224768,1,8,0:0:0:0:
285,345,224835,6,0,B|241:320|241:320|223:328|209:312|209:312|160:310,1,135,8|0,0:0|0:0,0:0:0:0:
79,238,225103,5,4,0:0:0:0:
98,197,225170,1,0,0:0:0:0:
130,166,225237,1,8,0:0:0:0:
171,148,225304,1,0,0:0:0:0:
215,145,225371,1,0,0:0:0:0:
258,157,225438,1,0,0:0:0:0:
294,184,225505,1,8,0:0:0:0:
323,217,225572,1,0,0:0:0:0:
364,234,225639,5,0,0:0:0:0:
409,232,225706,1,0,0:0:0:0:
448,211,225773,1,8,0:0:0:0:
474,174,225840,1,0,0:0:0:0:
481,130,225907,1,0,0:0:0:0:
469,87,225974,1,0,0:0:0:0:
439,54,226041,1,8,0:0:0:0:
397,37,226108,1,0,0:0:0:0:
352,40,226175,5,0,0:0:0:0:
306,70,226241,1,0,0:0:0:0:
282,120,226308,1,8,0:0:0:0:
290,175,226375,1,0,0:0:0:0:
324,219,226442,1,0,0:0:0:0:
345,271,226509,1,0,0:0:0:0:
328,324,226576,1,8,0:0:0:0:
286,361,226643,1,0,0:0:0:0:
231,370,226710,5,0,0:0:0:0:
180,348,226777,1,0,0:0:0:0:
149,301,226844,1,8,0:0:0:0:
152,245,226911,1,0,0:0:0:0:
185,200,226978,1,0,0:0:0:0:
202,147,227045,1,0,0:0:0:0:
181,95,227112,1,8,0:0:0:0:
134,64,227179,1,0,0:0:0:0:
78,71,227246,5,0,0:0:0:0:
33,121,227313,1,0,0:0:0:0:
36,189,227380,1,8,0:0:0:0:
90,230,227447,1,0,0:0:0:0:
157,224,227514,1,0,0:0:0:0:
203,175,227581,1,0,0:0:0:0:
264,148,227648,1,8,0:0:0:0:
330,162,227715,1,0,0:0:0:0:
375,212,227782,5,0,0:0:0:0:
381,279,227849,1,0,0:0:0:0:
347,337,227916,1,8,0:0:0:0:
286,366,227983,1,0,0:0:0:0:
220,351,228050,1,0,0:0:0:0:
176,301,228116,1,0,0:0:0:0:
169,234,228183,1,8,0:0:0:0:
203,175,228250,1,0,0:0:0:0:
264,148,228317,5,8,0:0:0:0:
321,94,228384,1,8,0:0:0:0:
301,18,228451,1,8,0:0:0:0:
224,0,228518,1,8,0:0:0:0:
164,51,228585,5,8,0:0:0:0:
163,67,228652,1,0,0:0:0:0:
164,83,228719,1,0,0:0:0:0:
171,97,228786,1,0,0:0:0:0:
178,111,228853,5,8,0:0:0:0:
161,176,228920,1,8,0:0:0:0:
102,209,228987,1,8,0:0:0:0:
37,194,229054,1,8,0:0:0:0:
0,138,229121,1,8,0:0:0:0:
12,72,229188,1,8,0:0:0:0:
67,33,229255,1,8,0:0:0:0:
134,42,229322,1,8,0:0:0:0:
174,96,229389,6,0,P|177:140|157:180,1,90,12|10,0:0|0:0,0:0:0:0:
48,283,229657,1,0,0:0:0:0:
48,283,229724,1,0,0:0:0:0:
48,283,229791,2,0,L|36:191,1,90,10|0,0:0|0:0,0:0:0:0:
264,227,230058,1,10,0:0:0:0:
101,383,230192,1,0,0:0:0:0:
174,96,230326,1,10,0:0:0:0:
220,374,230460,5,4,0:0:0:0:
87,118,230594,1,10,0:0:0:0:
321,173,230728,1,0,0:0:0:0:
114,43,230862,1,10,0:0:0:0:
264,227,230996,1,0,0:0:0:0:
101,383,231130,2,0,P|92:339|105:296,1,90,10|0,0:0|0:0,0:0:0:0:
123,282,231331,1,0,0:0:0:0:
123,282,231398,1,10,0:0:0:0:
250,153,231532,5,4,0:0:0:0:
58,193,231666,1,10,0:0:0:0:
312,304,231800,1,0,0:0:0:0:
146,133,231933,1,10,0:0:0:0:
168,344,232067,1,0,0:0:0:0:
346,201,232201,1,10,0:0:0:0:
146,133,232335,1,0,0:0:0:0:
146,133,232402,1,0,0:0:0:0:
146,133,232469,1,10,0:0:0:0:
305,384,232603,5,12,0:0:0:0:
267,359,232670,1,8,0:0:0:0:
240,323,232737,1,8,0:0:0:0:
229,280,232804,1,8,0:0:0:0:
234,235,232871,1,8,0:0:0:0:
255,195,232938,1,8,0:0:0:0:
288,165,233005,6,0,P|304:124|287:83,1,90,8|0,0:0|0:0,0:0:0:0:
132,233,233273,5,0,0:0:0:0:
382,192,233407,1,0,0:0:0:0:
219,0,233541,1,0,0:0:0:0:
132,233,233675,5,4,0:0:0:0:
173,249,233741,1,0,0:0:0:0:
217,241,233808,1,10,0:0:0:0:
250,211,233875,1,0,0:0:0:0:
263,169,233942,1,0,0:0:0:0:
252,126,234009,1,0,0:0:0:0:
220,95,234076,1,10,0:0:0:0:
177,85,234143,1,0,0:0:0:0:
134,99,234210,5,0,0:0:0:0:
105,133,234277,1,0,0:0:0:0:
95,177,234344,1,10,0:0:0:0:
116,217,234411,1,0,0:0:0:0:
153,242,234478,1,0,0:0:0:0:
198,245,234545,1,0,0:0:0:0:
238,225,234612,1,10,0:0:0:0:
262,187,234679,1,0,0:0:0:0:
259,142,234746,5,0,0:0:0:0:
284,92,234813,1,0,0:0:0:0:
331,61,234880,1,10,0:0:0:0:
387,65,234947,1,0,0:0:0:0:
436,93,235014,1,0,0:0:0:0:
460,144,235081,1,0,0:0:0:0:
455,200,235148,1,10,0:0:0:0:
421,245,235215,1,0,0:0:0:0:
368,264,235282,5,0,0:0:0:0:
314,248,235349,1,0,0:0:0:0:
272,211,235416,1,10,0:0:0:0:
246,161,235483,1,0,0:0:0:0:
249,105,235550,1,0,0:0:0:0:
271,54,235616,1,0,0:0:0:0:
313,17,235683,1,10,0:0:0:0:
366,0,235750,1,0,0:0:0:0:
422,2,235817,5,0,0:0:0:0:
471,47,235884,1,0,0:0:0:0:
481,113,235951,1,10,0:0:0:0:
446,170,236018,1,0,0:0:0:0:
383,193,236085,1,0,0:0:0:0:
320,171,236152,1,0,0:0:0:0:
284,115,236219,1,10,0:0:0:0:
291,48,236286,1,0,0:0:0:0:
341,3,236353,5,0,0:0:0:0:
390,47,236420,1,0,0:0:0:0:
403,112,236487,1,10,0:0:0:0:
374,172,236554,1,0,0:0:0:0:
316,203,236621,1,0,0:0:0:0:
250,193,236688,1,0,0:0:0:0:
191,161,236755,1,10,0:0:0:0:
126,171,236822,1,0,0:0:0:0:
81,220,236889,5,2,0:0:0:0:
83,204,236956,1,8,0:0:0:0:
86,189,237023,1,8,0:0:0:0:
88,173,237090,1,8,0:0:0:0:
84,158,237157,1,8,0:0:0:0:
79,143,237224,1,8,0:0:0:0:
74,128,237291,1,8,0:0:0:0:
75,113,237358,1,8,0:0:0:0:
77,92,237425,5,8,0:0:0:0:
116,39,237491,1,8,0:0:0:0:
183,39,237558,1,8,0:0:0:0:
223,93,237625,1,8,0:0:0:0:
201,156,237692,6,0,P|137:176|77:144,1,135
116,39,237960,5,4,0:0:0:0:
151,67,238027,1,0,0:0:0:0:
168,108,238094,1,8,0:0:0:0:
161,152,238161,1,0,0:0:0:0:
132,185,238228,1,0,0:0:0:0:
109,223,238295,1,0,0:0:0:0:
112,267,238362,5,8,0:0:0:0:
138,303,238429,1,0,0:0:0:0:
180,318,238496,1,0,0:0:0:0:
223,307,238563,1,0,0:0:0:0:
253,274,238630,1,8,0:0:0:0:
260,230,238697,1,0,0:0:0:0:
242,189,238764,5,0,0:0:0:0:
219,151,238831,1,0,0:0:0:0:
218,106,238898,1,8,0:0:0:0:
243,69,238965,1,0,0:0:0:0:
283,49,239032,6,0,P|298:92|286:134,1,90,0|8,0:0|0:0,0:0:0:0:
179,240,239300,1,0,0:0:0:0:
399,189,239433,1,8,0:0:0:0:
314,384,239567,2,0,B|319:346|319:346|306:324|306:324|311:299|311:299|282:256|308:213,1,180
327,201,239902,1,0,0:0:0:0:
327,201,239970,1,8,0:0:0:0:
206,78,240103,5,0,0:0:0:0:
186,118,240170,1,0,0:0:0:0:
182,162,240237,1,8,0:0:0:0:
196,205,240304,1,0,0:0:0:0:
224,240,240371,1,0,0:0:0:0:
263,261,240438,1,0,0:0:0:0:
307,267,240505,1,8,0:0:0:0:
351,256,240572,1,0,0:0:0:0:
387,229,240639,5,0,0:0:0:0:
396,185,240706,1,0,0:0:0:0:
377,144,240773,1,8,0:0:0:0:
341,118,240840,1,0,0:0:0:0:
297,112,240907,1,0,0:0:0:0:
256,129,240974,1,0,0:0:0:0:
227,163,241041,1,8,0:0:0:0:
219,207,241108,1,0,0:0:0:0:
232,250,241175,5,0,0:0:0:0:
288,288,241242,1,0,0:0:0:0:
353,272,241309,1,8,0:0:0:0:
390,216,241375,1,0,0:0:0:0:
400,150,241442,1,0,0:0:0:0:
461,121,241509,1,0,0:0:0:0:
512,167,241577,1,8,0:0:0:0:
508,234,241643,1,0,0:0:0:0:
444,257,241711,5,0,0:0:0:0:
390,216,241778,1,0,0:0:0:0:
326,195,241845,1,8,0:0:0:0:
262,215,241912,1,0,0:0:0:0:
210,258,241979,1,0,0:0:0:0:
144,247,242046,1,0,0:0:0:0:
108,190,242113,1,8,0:0:0:0:
132,127,242179,1,0,0:0:0:0:
187,86,242247,6,0,L|210:0,2,90,4|8|0,0:0|0:0|0:0,0:0:0:0:
185,112,242582,1,0,0:0:0:0:
185,112,242648,1,8,0:0:0:0:
23,210,242782,6,0,L|0:124,2,90,0|8|0,0:0|0:0|0:0,0:0:0:0:
34,235,243116,1,0,0:0:0:0:
34,235,243183,1,8,0:0:0:0:
186,344,243317,6,0,L|209:258,2,90,0|8|0,0:0|0:0|0:0,0:0:0:0:
184,370,243652,1,0,0:0:0:0:
184,370,243719,1,8,0:0:0:0:
95,280,243853,6,0,P|83:237|98:195,1,90,0|8,0:0|0:0,0:0:0:0:
293,80,244121,1,0,0:0:0:0:
117,0,244255,1,8,0:0:0:0:
244,244,244389,5,0,0:0:0:0:
296,265,244456,1,0,0:0:0:0:
350,252,244523,1,8,0:0:0:0:
388,211,244590,1,0,0:0:0:0:
395,156,244657,1,0,0:0:0:0:
370,106,244724,1,0,0:0:0:0:
321,80,244791,1,8,0:0:0:0:
265,85,244858,1,0,0:0:0:0:
223,122,244925,5,0,0:0:0:0:
199,172,244991,1,0,0:0:0:0:
151,200,245058,1,8,0:0:0:0:
95,195,245125,1,0,0:0:0:0:
52,159,245192,1,0,0:0:0:0:
37,105,245259,1,0,0:0:0:0:
54,52,245326,1,8,0:0:0:0:
100,21,245393,1,0,0:0:0:0:
155,29,245460,5,0,0:0:0:0:
158,319,245594,1,8,0:0:0:0:
298,143,245728,1,0,0:0:0:0:
12,142,245862,1,8,0:0:0:0:
158,319,245996,5,8,0:0:0:0:
191,325,246063,1,8,0:0:0:0:
224,320,246130,1,8,0:0:0:0:
253,303,246197,1,8,0:0:0:0:
274,277,246264,1,8,0:0:0:0:
303,261,246331,1,8,0:0:0:0:
337,258,246398,1,8,0:0:0:0:
369,267,246465,1,8,0:0:0:0:
396,286,246532,5,4,0:0:0:0:
448,267,246599,1,0,0:0:0:0:
484,225,246666,1,8,0:0:0:0:
495,171,246733,1,0,0:0:0:0:
476,118,246800,1,0,0:0:0:0:
434,82,246866,1,0,0:0:0:0:
379,73,246933,1,8,0:0:0:0:
327,92,247000,1,0,0:0:0:0:
291,135,247067,1,0,0:0:0:0:
282,190,247134,1,0,0:0:0:0:
302,242,247201,5,8,0:0:0:0:
308,298,247268,1,0,0:0:0:0:
280,346,247335,1,0,0:0:0:0:
229,368,247402,1,0,0:0:0:0:
175,357,247469,1,8,0:0:0:0:
138,316,247536,1,0,0:0:0:0:
133,261,247603,5,0,0:0:0:0:
163,214,247670,1,0,0:0:0:0:
152,159,247737,1,8,0:0:0:0:
115,118,247804,1,0,0:0:0:0:
99,64,247871,1,0,0:0:0:0:
139,24,247938,1,0,0:0:0:0:
195,29,248005,1,8,0:0:0:0:
229,74,248072,1,0,0:0:0:0:
211,128,248139,5,0,0:0:0:0:
167,163,248206,1,0,0:0:0:0:
154,217,248273,1,8,0:0:0:0:
180,266,248340,1,0,0:0:0:0:
229,293,248407,1,0,0:0:0:0:
285,288,248474,1,0,0:0:0:0:
325,248,248541,1,8,0:0:0:0:
334,193,248608,1,0,0:0:0:0:
316,140,248675,6,0,L|273:150,3,45,0|0|8|0,0:0|0:0|0:0|0:0,0:0:0:0:
424,105,248942,2,0,L|467:115,3,45,0|0|8|0,0:0|0:0|0:0|0:0,0:0:0:0:
329,35,249210,2,0,L|286:45,3,45,0|0|8|0,0:0|0:0|0:0|0:0,0:0:0:0:
437,0,249478,2,0,L|480:10,3,45,0|0|8|0,0:0|0:0|0:0|0:0,0:0:0:0:
424,105,249746,6,0,P|433:133|425:161,2,60
273,207,250014,2,0,P|263:178|271:150,2,60
375,232,250282,5,0,0:0:0:0:
337,288,250371,1,0,0:0:0:0:
273,310,250460,1,0,0:0:0:0:
208,289,250550,1,0,0:0:0:0:
151,252,250639,1,0,0:0:0:0:
83,256,250728,1,0,0:0:0:0:
32,301,250817,6,0,B|39:245|39:245|23:181|23:181|32:124,1,180,4|0,0:0|0:0,0:0:0:0:
41,107,251152,1,0,0:0:0:0:
41,107,251219,1,8,0:0:0:0:
234,95,251353,1,0,0:0:0:0:
68,0,251487,1,8,0:0:0:0:
162,168,251621,2,0,P|170:212|150:252,1,90,0|8,0:0|0:0,0:0:0:0:
34,358,251889,6,0,B|91:376|91:376|157:355|157:355|208:371,1,180
230,384,252224,1,0,0:0:0:0:
230,384,252291,1,8,0:0:0:0:
435,299,252425,1,0,0:0:0:0:
252,203,252558,1,8,0:0:0:0:
311,384,252692,2,0,P|325:342|310:300,1,90,0|8,0:0|0:0,0:0:0:0:
163,198,252960,5,0,0:0:0:0:
186,160,253026,1,0,0:0:0:0:
224,136,253093,1,8,0:0:0:0:
268,132,253160,1,0,0:0:0:0:
309,148,253227,1,0,0:0:0:0:
339,181,253295,1,0,0:0:0:0:
377,203,253361,1,8,0:0:0:0:
422,208,253428,1,0,0:0:0:0:
464,193,253495,5,0,0:0:0:0:
496,162,253562,1,0,0:0:0:0:
512,121,253630,1,8,0:0:0:0:
510,77,253696,1,0,0:0:0:0:
489,37,253763,1,0,0:0:0:0:
453,10,253830,1,0,0:0:0:0:
410,0,253897,1,8,0:0:0:0:
366,9,253965,1,0,0:0:0:0:
331,36,254032,5,8,0:0:0:0:
306,85,254098,1,8,0:0:0:0:
312,141,254165,1,8,0:0:0:0:
345,186,254233,1,8,0:0:0:0:
365,237,254299,1,8,0:0:0:0:
349,291,254366,1,8,0:0:0:0:
302,321,254433,1,8,0:0:0:0:
247,313,254500,1,8,0:0:0:0:
209,273,254567,5,8,0:0:0:0:
177,228,254634,1,8,0:0:0:0:
122,227,254701,1,8,0:0:0:0:
84,268,254768,1,8,0:0:0:0:
99,322,254835,1,8,0:0:0:0:
147,349,254902,1,8,0:0:0:0:
198,326,254969,1,8,0:0:0:0:
209,273,255035,1,8,0:0:0:0:
177,228,255103,6,0,P|263:252|343:216,1,180,12|0,0:0|0:0,0:0:0:0:
468,117,255505,2,0,P|480:159|469:202,1,90,8|0,0:0|0:0,0:0:0:0:
281,85,255773,1,8,0:0:0:0:
281,85,255907,2,0,P|268:42|279:-1,1,90,0|8,0:0|0:0,0:0:0:0:
342,216,256175,6,0,B|298:224|298:224|254:216,1,90,0|8,0:0|0:0,0:0:0:0:
139,98,256442,1,0,0:0:0:0:
139,98,256509,1,0,0:0:0:0:
139,98,256576,2,0,L|130:191,1,90,8|0,0:0|0:0,0:0:0:0:
334,305,256844,1,8,0:0:0:0:
334,305,256978,2,0,L|342:211,1,90,0|8,0:0|0:0,0:0:0:0:
281,85,257246,6,0,B|325:77|325:77|369:85,1,90,0|8,0:0|0:0,0:0:0:0:
483,194,257514,2,0,L|486:244,2,45,0|0|8,0:0|0:0|0:0,0:0:0:0:
264,227,257782,2,0,L|176:243,1,90,0|8,0:0|0:0,0:0:0:0:
302,384,258050,2,0,L|390:368,1,90,0|8,0:0|0:0,0:0:0:0:
483,194,258317,6,0,B|427:174|427:174|367:182|367:182|311:162,1,180
294,155,258652,1,0,0:0:0:0:
294,155,258719,1,8,0:0:0:0:
136,314,258853,1,0,0:0:0:0:
136,314,258920,1,0,0:0:0:0:
136,314,258987,1,8,0:0:0:0:
182,103,259121,1,0,0:0:0:0:
6,32,259255,1,8,0:0:0:0:
145,226,259389,5,4,0:0:0:0:
188,215,259455,1,0,0:0:0:0:
223,187,259522,1,8,0:0:0:0:
246,149,259589,1,0,0:0:0:0:
251,105,259656,1,0,0:0:0:0:
238,62,259723,1,0,0:0:0:0:
209,27,259790,1,8,0:0:0:0:
169,7,259857,1,0,0:0:0:0:
124,4,259925,5,0,0:0:0:0:
124,48,259991,1,0,0:0:0:0:
139,91,260058,1,8,0:0:0:0:
165,127,260125,1,0,0:0:0:0:
202,152,260192,1,0,0:0:0:0:
245,165,260259,1,0,0:0:0:0:
290,164,260326,1,8,0:0:0:0:
332,149,260393,1,0,0:0:0:0:
368,122,260460,5,0,0:0:0:0:
410,136,260526,1,0,0:0:0:0:
439,172,260594,1,8,0:0:0:0:
448,216,260661,1,0,0:0:0:0:
437,259,260727,1,0,0:0:0:0:
407,292,260795,1,0,0:0:0:0:
365,307,260862,1,8,0:0:0:0:
321,300,260929,1,0,0:0:0:0:
284,274,260996,5,0,0:0:0:0:
264,235,261062,1,0,0:0:0:0:
228,207,261130,1,8,0:0:0:0:
184,200,261197,1,0,0:0:0:0:
141,213,261264,5,0,0:0:0:0:
110,246,261331,1,0,0:0:0:0:
65,246,261398,1,8,0:0:0:0:
34,215,261464,1,0,0:0:0:0:
35,170,261531,5,0,0:0:0:0:
90,156,261599,1,0,0:0:0:0:
141,179,261666,1,8,0:0:0:0:
165,231,261734,1,0,0:0:0:0:
193,278,261800,1,0,0:0:0:0:
245,295,261866,1,0,0:0:0:0:
296,274,261933,1,8,0:0:0:0:
322,225,262000,1,0,0:0:0:0:
314,170,262067,5,0,0:0:0:0:
332,118,262134,1,0,0:0:0:0:
378,87,262201,1,8,0:0:0:0:
434,82,262268,1,0,0:0:0:0:
483,110,262335,1,0,0:0:0:0:
509,160,262402,1,0,0:0:0:0:
504,216,262469,1,8,0:0:0:0:
471,261,262536,1,0,0:0:0:0:
419,279,262603,5,12,0:0:0:0:
355,262,262669,1,8,0:0:0:0:
313,210,262736,1,8,0:0:0:0:
318,143,262803,1,8,0:0:0:0:
365,93,262871,6,0,L|408:83,3,45,8|0|0|0,0:0|0:0|0:0|0:0,0:0:0:0:
473,2,263139,5,12,0:0:0:0:
512,69,263206,1,8,0:0:0:0:
492,144,263272,1,8,0:0:0:0:
427,185,263339,1,8,0:0:0:0:
349,168,263407,6,0,L|306:158,3,45,8|0|0|0,0:0|0:0|0:0|0:0,0:0:0:0:
480,363,263675,5,4,0:0:0:0:
326,50,263808,1,10,0:0:0:0:
305,384,263942,1,0,0:0:0:0:
478,157,264076,1,10,0:0:0:0:
206,199,264210,1,0,0:0:0:0:
511,278,264343,1,10,0:0:0:0:
326,50,264478,1,0,0:0:0:0:
239,320,264612,1,10,0:0:0:0:
422,204,264746,6,0,P|430:160|416:118,1,90,0|10,0:0|0:0,0:0:0:0:
172,37,265014,1,0,0:0:0:0:
239,320,265148,1,10,0:0:0:0:
270,4,265282,1,0,0:0:0:0:
387,290,265416,1,10,0:0:0:0:
114,150,265550,1,0,0:0:0:0:
390,42,265683,1,10,0:0:0:0:
322,351,265817,6,0,L|304:262,1,90,0|10,0:0|0:0,0:0:0:0:
103,297,266085,1,0,0:0:0:0:
271,61,266219,1,10,0:0:0:0:
173,323,266353,1,0,0:0:0:0:
200,34,266487,1,10,0:0:0:0:
247,310,266621,1,0,0:0:0:0:
126,47,266755,1,10,0:0:0:0:
304,262,266889,6,0,P|315:220|301:178,1,90,0|10,0:0|0:0,0:0:0:0:
68,94,267157,1,0,0:0:0:0:
221,376,267291,1,10,0:0:0:0:
360,90,267425,1,8,0:0:0:0:
315,58,267491,1,8,0:0:0:0:
259,55,267558,1,8,0:0:0:0:
209,79,267625,1,8,0:0:0:0:
178,126,267692,1,8,0:0:0:0:
176,181,267759,1,8,0:0:0:0:
202,231,267826,1,8,0:0:0:0:
249,261,267893,1,8,0:0:0:0:
304,262,267960,6,0,L|316:169,1,90,12|10,0:0|0:0,0:0:0:0:
352,380,268228,1,0,0:0:0:0:
352,380,268295,1,0,0:0:0:0:
352,380,268362,2,0,L|387:353,1,45,10|0,0:0|0:0,0:0:0:0:
415,242,268496,2,0,L|379:268,1,45
476,326,268630,2,0,L|512:300,1,45,10|0,0:0|0:0,0:0:0:0:
501,185,268764,2,0,L|513:95,1,90,0|10,0:0|0:0,0:0:0:0:
291,85,269032,6,0,P|279:41|291:-3,1,90,0|10,0:0|0:0,0:0:0:0:
417,155,269300,1,0,0:0:0:0:
417,155,269366,1,0,0:0:0:0:
417,155,269433,2,0,P|427:198|415:241,1,90,10|0,0:0|0:0,0:0:0:0:
277,325,269701,1,10,0:0:0:0:
111,177,269835,2,0,P|99:134|109:90,1,90,0|10,0:0|0:0,0:0:0:0:
253,26,270103,5,4,0:0:0:0:
307,39,270170,1,0,0:0:0:0:
348,77,270237,1,0,0:0:0:0:
364,131,270304,1,0,0:0:0:0:
353,185,270371,1,0,0:0:0:0:
316,227,270438,1,0,0:0:0:0:
264,246,270505,1,0,0:0:0:0:
209,236,270572,1,0,0:0:0:0:
165,201,270639,5,0,0:0:0:0:
111,188,270706,1,0,0:0:0:0:
59,207,270773,1,0,0:0:0:0:
28,253,270840,1,0,0:0:0:0:
28,309,270907,1,0,0:0:0:0:
59,355,270974,1,0,0:0:0:0:
111,374,271041,1,0,0:0:0:0:
165,361,271108,1,0,0:0:0:0:
202,319,271175,5,0,0:0:0:0:
213,265,271241,1,0,0:0:0:0:
254,227,271308,1,0,0:0:0:0:
309,223,271375,1,0,0:0:0:0:
357,251,271442,1,0,0:0:0:0:
411,266,271509,1,0,0:0:0:0:
464,247,271576,1,0,0:0:0:0:
498,202,271643,1,0,0:0:0:0:
491,146,271710,5,0,0:0:0:0:
457,102,271777,1,0,0:0:0:0:
404,85,271844,1,0,0:0:0:0:
351,103,271911,1,0,0:0:0:0:
320,149,271978,1,0,0:0:0:0:
273,180,272045,1,0,0:0:0:0:
217,177,272112,1,0,0:0:0:0:
173,142,272179,1,0,0:0:0:0:
164,87,272246,5,12,0:0:0:0:
111,45,272313,1,8,0:0:0:0:
44,53,272380,1,8,0:0:0:0:
0,104,272447,1,8,0:0:0:0:
5,171,272514,1,8,0:0:0:0:
51,220,272581,1,8,0:0:0:0:
118,216,272648,5,8,0:0:0:0:
182,194,272715,1,8,0:0:0:0:
245,219,272782,1,8,0:0:0:0:
276,279,272849,1,8,0:0:0:0:
247,340,272916,1,8,0:0:0:0:
190,375,272983,1,8,0:0:0:0:
124,361,273050,5,8,0:0:0:0:
85,307,273116,1,8,0:0:0:0:
95,241,273183,1,8,0:0:0:0:
145,196,273250,1,8,0:0:0:0:
211,199,273317,5,10,0:0:0:0:
281,235,273384,1,8,0:0:0:0:
356,212,273451,1,8,0:0:0:0:
399,146,273518,1,8,0:0:0:0:
390,68,273585,1,8,0:0:0:0:
334,13,273652,1,8,0:0:0:0:
255,13,273719,1,8,0:0:0:0:
187,53,273786,1,8,0:0:0:0:
173,130,273853,5,8,0:0:0:0:
211,199,273920,1,8,0:0:0:0:
281,235,273987,1,8,0:0:0:0:
356,212,274054,1,8,0:0:0:0:
399,146,274121,5,8,0:0:0:0:
337,98,274188,1,8,0:0:0:0:
259,109,274255,1,8,0:0:0:0:
205,166,274322,1,8,0:0:0:0:
205,245,274389,6,0,P|284:233|317:159,1,168.75,12|0,0:0|0:0,0:0:0:0:
330,1,274656,5,8,0:0:0:0:
378,31,274724,1,0,0:0:0:0:
393,86,274791,1,8,0:0:0:0:
369,137,274858,1,0,0:0:0:0:
317,159,274925,5,8,0:0:0:0:
262,156,274991,1,0,0:0:0:0:
217,190,275058,1,8,0:0:0:0:
205,245,275125,1,0,0:0:0:0:
227,297,275192,1,8,0:0:0:0:
276,323,275259,1,0,0:0:0:0:
330,310,275326,1,8,0:0:0:0:
364,267,275392,1,0,0:0:0:0:
363,210,275460,5,8,0:0:0:0:
343,158,275527,1,0,0:0:0:0:
358,104,275594,1,8,0:0:0:0:
404,73,275661,1,0,0:0:0:0:
460,76,275728,1,8,0:0:0:0:
503,112,275795,1,0,0:0:0:0:
512,167,275862,1,8,0:0:0:0:
487,217,275929,1,0,0:0:0:0:
437,239,275995,5,8,0:0:0:0:
381,227,276063,1,0,0:0:0:0:
343,185,276130,1,8,0:0:0:0:
347,129,276197,1,0,0:0:0:0:
334,75,276264,1,8,0:0:0:0:
293,37,276331,1,0,0:0:0:0:
238,29,276398,1,8,0:0:0:0:
187,52,276465,1,0,0:0:0:0:
159,100,276531,5,8,0:0:0:0:
165,156,276599,1,0,0:0:0:0:
203,197,276666,1,8,0:0:0:0:
258,207,276733,1,0,0:0:0:0:
310,185,276800,1,8,0:0:0:0:
338,137,276866,1,0,0:0:0:0:
328,81,276933,1,8,0:0:0:0:
293,37,277000,1,0,0:0:0:0:
238,29,277066,5,8,0:0:0:0:
187,52,277134,1,0,0:0:0:0:
159,100,277201,1,8,0:0:0:0:
165,156,277268,1,0,0:0:0:0:
170,212,277335,1,8,0:0:0:0:
138,258,277402,1,0,0:0:0:0:
88,284,277469,1,8,0:0:0:0:
34,271,277535,1,0,0:0:0:0:
6,221,277603,6,0,L|59:241,3,56.25,8|8|8|8,0:0|0:0|0:0|0:0,0:0:0:0:
164,147,277871,2,0,L|112:167,1,56.25,8|8,0:0|0:0,0:0:0:0:
214,229,278005,2,0,L|274:205,3,56.25,8|8|8|8,0:0|0:0|0:0|0:0,0:0:0:0:
111,262,278273,2,0,L|51:238,1,56.25,8|8,0:0|0:0,0:0:0:0:
207,325,278407,2,0,L|154:345,3,56.25,8|8|8|8,0:0|0:0|0:0|0:0,0:0:0:0:
327,352,278675,5,12,0:0:0:0:
380,366,278741,1,0,0:0:0:0:
423,330,278808,1,8,0:0:0:0:
411,275,278875,1,0,0:0:0:0:
358,256,278942,1,8,0:0:0:0:
312,287,279009,1,0,0:0:0:0:
267,321,279076,1,8,0:0:0:0:
212,314,279143,1,0,0:0:0:0:
188,263,279210,5,8,0:0:0:0:
133,256,279277,1,0,0:0:0:0:
90,292,279344,1,8,0:0:0:0:
105,346,279411,1,0,0:0:0:0:
158,366,279478,1,8,0:0:0:0:
205,335,279545,1,0,0:0:0:0:
236,289,279612,1,8,0:0:0:0:
225,234,279679,1,0,0:0:0:0:
189,191,279746,5,8,0:0:0:0:
142,161,279813,1,0,0:0:0:0:
122,109,279880,1,8,0:0:0:0:
139,56,279947,1,0,0:0:0:0:
184,24,280014,1,8,0:0:0:0:
240,26,280081,1,0,0:0:0:0:
285,60,280148,1,8,0:0:0:0:
297,115,280215,1,0,0:0:0:0:
274,166,280282,5,8,0:0:0:0:
225,192,280349,1,0,0:0:0:0:
201,242,280416,1,8,0:0:0:0:
212,297,280483,1,0,0:0:0:0:
250,338,280550,1,8,0:0:0:0:
304,351,280616,1,0,0:0:0:0:
357,334,280683,1,8,0:0:0:0:
389,288,280750,1,0,0:0:0:0:
391,232,280817,5,8,0:0:0:0:
362,184,280884,1,0,0:0:0:0:
310,161,280951,1,8,0:0:0:0:
254,168,281018,1,0,0:0:0:0:
211,204,281085,1,8,0:0:0:0:
200,259,281152,1,0,0:0:0:0:
218,312,281219,1,8,0:0:0:0:
263,345,281286,1,0,0:0:0:0:
319,350,281353,5,8,0:0:0:0:
361,313,281420,1,0,0:0:0:0:
371,258,281487,1,8,0:0:0:0:
353,205,281554,1,0,0:0:0:0:
333,153,281621,1,8,0:0:0:0:
343,97,281688,1,0,0:0:0:0:
383,57,281755,1,8,0:0:0:0:
439,49,281822,1,0,0:0:0:0:
491,71,281889,5,8,0:0:0:0:
512,135,281956,1,0,0:0:0:0:
492,200,282023,1,8,0:0:0:0:
431,230,282090,1,0,0:0:0:0:
364,220,282157,1,8,0:0:0:0:
320,170,282224,1,0,0:0:0:0:
264,132,282291,1,8,0:0:0:0:
197,140,282358,1,0,0:0:0:0:
149,188,282425,5,8,0:0:0:0:
158,265,282491,1,8,0:0:0:0:
225,307,282558,1,8,0:0:0:0:
301,287,282625,1,8,0:0:0:0:
327,213,282692,6,0,L|315:141,1,67.5,8|0,0:0|0:0,0:0:0:0:
430,46,282960,6,0,P|449:97|429:148,1,112.5,4|8,0:0|0:0,0:0:0:0:
197,140,283228,1,0,0:0:0:0:
197,140,283295,1,0,0:0:0:0:
197,140,283362,2,0,P|176:88|195:37,1,112.5,8|0,0:0|0:0,0:0:0:0:
374,0,283630,1,8,0:0:0:0:
315,146,283764,1,0,0:0:0:0:
315,146,283831,1,0,0:0:0:0:
315,146,283898,2,0,L|299:214,1,56.25,8|0,0:0|0:0,0:0:0:0:
195,250,284032,6,0,B|184:196|184:196|196:140,1,112.5,0|8,0:0|0:0,0:0:0:0:
106,26,284299,1,0,0:0:0:0:
106,26,284365,1,0,0:0:0:0:
106,26,284433,2,0,P|52:10|-1:26,1,112.5,8|0,0:0|0:0,0:0:0:0:
62,219,284701,1,8,0:0:0:0:
204,84,284835,2,0,L|195:139,1,56.25
300,94,284969,2,0,L|291:38,1,56.25,8|0,0:0|0:0,0:0:0:0:
286,207,285103,6,0,P|339:223|392:207,1,112.5,0|8,0:0|0:0,0:0:0:0:
512,50,285371,1,0,0:0:0:0:
512,50,285438,1,0,0:0:0:0:
512,50,285505,2,0,L|400:64,1,112.5,8|0,0:0|0:0,0:0:0:0:
454,288,285773,1,8,0:0:0:0:
294,151,285907,1,0,0:0:0:0:
294,151,285974,1,0,0:0:0:0:
294,151,286041,2,0,L|283:223,1,56.25,8|0,0:0|0:0,0:0:0:0:
220,294,286175,6,0,P|271:314|327:306,1,112.5,0|8,0:0|0:0,0:0:0:0:
277,76,286442,2,0,P|225:55|169:63,1,112.5,0|8,0:0|0:0,0:0:0:0:
163,221,286709,1,0,0:0:0:0:
163,221,286777,1,0,0:0:0:0:
163,221,286844,2,0,L|151:277,1,56.25,8|0,0:0|0:0,0:0:0:0:
53,193,286978,1,0,0:0:0:0:
53,193,287045,1,0,0:0:0:0:
53,193,287112,2,0,L|63:138,1,56.25,8|0,0:0|0:0,0:0:0:0:
87,357,287246,6,0,P|138:377|194:369,1,112.5,4|8,0:0|0:0,0:0:0:0:
359,274,287514,1,0,0:0:0:0:
359,274,287581,1,0,0:0:0:0:
359,274,287648,2,0,L|336:384,1,112.5,8|0,0:0|0:0,0:0:0:0:
321,163,287915,1,8,0:0:0:0:
183,296,288050,1,0,0:0:0:0:
183,296,288116,1,0,0:0:0:0:
183,296,288183,2,0,L|150:216,1,56.25,8|0,0:0|0:0,0:0:0:0:
75,181,288317,6,0,B|120:147|120:147|175:138,1,112.5,0|8,0:0|0:0,0:0:0:0:
269,372,288584,1,0,0:0:0:0:
269,372,288651,1,0,0:0:0:0:
269,372,288719,2,0,B|324:363|324:363|369:329,1,112.5,8|0,0:0|0:0,0:0:0:0:
400,120,288987,1,8,0:0:0:0:
161,244,289121,2,0,L|142:187,1,56.25
250,121,289255,2,0,L|269:178,1,56.25,8|0,0:0|0:0,0:0:0:0:
400,120,289389,6,0,L|510:143,1,112.5,0|8,0:0|0:0,0:0:0:0:
369,328,289656,1,0,0:0:0:0:
369,328,289723,1,0,0:0:0:0:
369,328,289791,1,8,0:0:0:0:
267,174,289925,1,0,0:0:0:0:
470,257,290058,1,8,0:0:0:0:
312,384,290192,1,0,0:0:0:0:
312,384,290258,1,0,0:0:0:0:
312,384,290325,1,8,0:0:0:0:
113,125,290459,5,8,0:0:0:0:
165,105,290527,1,8,0:0:0:0:
217,125,290594,1,8,0:0:0:0:
242,174,290661,1,8,0:0:0:0:
230,228,290728,5,8,0:0:0:0:
196,256,290794,1,8,0:0:0:0:
153,262,290861,1,8,0:0:0:0:
112,244,290928,1,8,0:0:0:0:
87,207,290996,5,8,0:0:0:0:
85,173,291062,1,8,0:0:0:0:
97,142,291129,1,8,0:0:0:0:
121,118,291196,1,8,0:0:0:0:
152,104,291264,5,8,0:0:0:0:
175,102,291330,1,8,0:0:0:0:
194,90,291397,1,8,0:0:0:0:
206,71,291464,1,8,0:0:0:0:
210,49,291532,6,0,P|156:41|115:78,1,112.5,4|8,0:0|0:0,0:0:0:0:
106,314,291800,1,0,0:0:0:0:
106,314,291866,1,0,0:0:0:0:
106,314,291933,2,0,L|42:338,1,56.25,8|0,0:0|0:0,0:0:0:0:
186,158,292067,1,0,0:0:0:0:
186,158,292133,1,0,0:0:0:0:
186,158,292201,2,0,L|197:90,1,56.25,8|0,0:0|0:0,0:0:0:0:
330,282,292335,1,0,0:0:0:0:
330,282,292401,1,0,0:0:0:0:
330,282,292469,2,0,L|382:325,1,56.25,8|0,0:0|0:0,0:0:0:0:
283,91,292603,6,0,P|256:40|208:14,1,112.5,0|8,0:0|0:0,0:0:0:0:
108,200,292871,1,0,0:0:0:0:
108,200,292937,1,0,0:0:0:0:
108,200,293005,2,0,L|39:194,1,56.25,8|0,0:0|0:0,0:0:0:0:
224,329,293138,1,0,0:0:0:0:
224,329,293206,1,0,0:0:0:0:
224,329,293273,2,0,L|252:391,1,56.25,8|0,0:0|0:0,0:0:0:0:
331,173,293406,1,0,0:0:0:0:
331,173,293474,1,0,0:0:0:0:
331,173,293541,2,0,L|371:117,1,56.25,8|0,0:0|0:0,0:0:0:0:
194,102,293675,6,0,P|178:155|194:208,1,112.5,0|8,0:0|0:0,0:0:0:0:
456,264,293942,1,0,0:0:0:0:
456,264,294009,1,0,0:0:0:0:
456,264,294076,2,0,P|463:290|456:317,1,56.25,8|0,0:0|0:0,0:0:0:0:
331,173,294210,2,0,L|313:119,1,56.25
288,284,294344,2,0,L|305:337,1,56.25,8|0,0:0|0:0,0:0:0:0:
124,264,294478,1,0,0:0:0:0:
124,264,294545,1,0,0:0:0:0:
124,264,294612,2,0,P|116:237|123:210,1,56.25,8|0,0:0|0:0,0:0:0:0:
200,68,294746,5,0,0:0:0:0:
200,68,294813,1,0,0:0:0:0:
200,68,294880,2,0,P|177:83|164:108,1,56.25,8|0,0:0|0:0,0:0:0:0:
305,337,295014,1,0,0:0:0:0:
305,337,295081,1,0,0:0:0:0:
305,337,295148,2,0,P|327:321|340:296,1,56.25,8|0,0:0|0:0,0:0:0:0:
388,196,295281,5,0,0:0:0:0:
388,196,295348,1,0,0:0:0:0:
388,196,295416,2,0,L|376:140,1,56.25,8|0,0:0|0:0,0:0:0:0:
200,68,295549,1,0,0:0:0:0:
200,68,295615,1,0,0:0:0:0:
200,68,295683,2,0,L|212:124,1,56.25,8|0,0:0|0:0,0:0:0:0:
252,248,295817,6,0,B|209:289|209:289|156:299,1,112.5,4|8,0:0|0:0,0:0:0:0:
0,186,296085,1,0,0:0:0:0:
0,186,296152,1,0,0:0:0:0:
0,186,296219,2,0,L|0:73,1,112.5,8|0,0:0|0:0,0:0:0:0:
172,0,296487,1,8,0:0:0:0:
238,159,296621,2,0,L|182:165,1,56.25
256,296,296755,2,0,L|311:302,1,56.25,8|0,0:0|0:0,0:0:0:0:
408,201,296889,6,0,P|424:149|408:93,1,112.5,0|8,0:0|0:0,0:0:0:0:
172,0,297156,1,0,0:0:0:0:
172,0,297223,1,0,0:0:0:0:
172,0,297290,1,8,0:0:0:0:
256,296,297425,1,0,0:0:0:0:
82,150,297557,1,8,0:0:0:0:
327,69,297691,1,0,0:0:0:0:
327,69,297758,1,0,0:0:0:0:
327,69,297825,1,8,0:0:0:0:
256,296,297959,5,12,0:0:0:0:
214,335,298027,1,8,0:0:0:0:
158,342,298094,1,8,0:0:0:0:
109,314,298161,1,8,0:0:0:0:
91,260,298228,1,8,0:0:0:0:
117,210,298295,1,8,0:0:0:0:
167,183,298362,5,8,0:0:0:0:
223,193,298429,1,8,0:0:0:0:
278,186,298495,1,8,0:0:0:0:
311,141,298562,1,8,0:0:0:0:
337,90,298630,1,8,0:0:0:0:
385,62,298697,1,8,0:0:0:0:
440,69,298764,5,8,0:0:0:0:
476,112,298831,1,8,0:0:0:0:
480,168,298898,1,8,0:0:0:0:
443,210,298965,1,8,0:0:0:0:
388,223,299032,5,8,0:0:0:0:
347,207,299099,1,8,0:0:0:0:
320,172,299166,1,8,0:0:0:0:
315,128,299233,1,8,0:0:0:0:
337,90,299300,5,8,0:0:0:0:
335,56,299366,1,8,0:0:0:0:
320,27,299433,1,8,0:0:0:0:
293,6,299500,1,8,0:0:0:0:
260,0,299567,5,8,0:0:0:0:
237,1,299633,1,8,0:0:0:0:
216,12,299700,1,8,0:0:0:0:
199,26,299767,1,8,0:0:0:0:
186,43,299835,6,0,L|223:68,3,45,8|8|8|8,0:0|0:0|0:0|0:0,0:0:0:0:
177,129,300103,6,0,L|184:218,1,90,4|10,0:0|0:0,0:0:0:0:
402,232,300370,1,0,0:0:0:0:
416,189,300437,1,0,0:0:0:0:
400,147,300505,2,0,P|365:118|321:111,1,90,10|0,0:0|0:0,0:0:0:0:
253,219,300772,1,10,0:0:0:0:
239,262,300839,1,0,0:0:0:0:
255,304,300907,2,0,P|290:333|334:340,1,90,0|10,0:0|0:0,0:0:0:0:
482,320,301174,6,0,P|493:277|481:234,1,90,0|10,0:0|0:0,0:0:0:0:
322,110,301441,1,0,0:0:0:0:
346,72,301508,1,0,0:0:0:0:
387,53,301576,2,0,L|476:45,1,90,10|0,0:0|0:0,0:0:0:0:
505,196,301843,1,10,0:0:0:0:
481,234,301910,1,0,0:0:0:0:
440,253,301978,2,0,L|350:260,1,90,0|10,0:0|0:0,0:0:0:0:
200,264,302246,5,0,0:0:0:0:
156,255,302313,1,0,0:0:0:0:
122,227,302380,1,10,0:0:0:0:
106,185,302447,1,0,0:0:0:0:
113,141,302514,1,0,0:0:0:0:
141,106,302581,1,0,0:0:0:0:
181,89,302648,2,0,L|271:82,1,90,10|0,0:0|0:0,0:0:0:0:
415,202,302915,1,10,0:0:0:0:
391,240,302982,1,0,0:0:0:0:
350,259,303049,2,0,L|260:266,1,90,0|10,0:0|0:0,0:0:0:0:
152,239,303317,5,0,0:0:0:0:
173,199,303384,1,0,0:0:0:0:
207,171,303451,1,10,0:0:0:0:
250,158,303518,1,0,0:0:0:0:
294,162,303585,1,0,0:0:0:0:
334,184,303652,1,0,0:0:0:0:
362,218,303719,2,0,P|377:176|370:132,1,90,10|0,0:0|0:0,0:0:0:0:
260,265,303986,1,10,0:0:0:0:
284,303,304053,1,0,0:0:0:0:
325,322,304121,2,0,L|415:329,1,90,0|10,0:0|0:0,0:0:0:0:
452,64,304389,6,0,P|459:108|443:150,1,90,4|10,0:0|0:0,0:0:0:0:
296,206,304656,1,0,0:0:0:0:
251,196,304723,1,0,0:0:0:0:
223,161,304791,2,0,P|215:116|231:74,1,90,10|0,0:0|0:0,0:0:0:0:
379,19,305058,1,10,0:0:0:0:
424,29,305125,1,0,0:0:0:0:
452,64,305192,2,0,P|459:108|443:150,1,90,0|10,0:0|0:0,0:0:0:0:
304,291,305460,6,0,P|288:249|296:205,1,90,0|10,0:0|0:0,0:0:0:0:
331,79,305728,1,0,0:0:0:0:
307,41,305795,1,0,0:0:0:0:
266,22,305862,2,0,L|177:14,1,90,10|0,0:0|0:0,0:0:0:0:
56,123,306130,1,10,0:0:0:0:
80,161,306197,1,0,0:0:0:0:
121,180,306264,2,0,L|210:188,1,90,0|10,0:0|0:0,0:0:0:0:
316,190,306532,5,0,0:0:0:0:
347,223,306599,1,0,0:0:0:0:
352,266,306666,1,10,0:0:0:0:
329,304,306733,1,0,0:0:0:0:
288,320,306800,1,0,0:0:0:0:
245,308,306866,1,0,0:0:0:0:
219,273,306933,2,0,P|203:231|210:187,1,90,10|0,0:0|0:0,0:0:0:0:
251,59,307201,1,10,0:0:0:0:
296,69,307268,1,0,0:0:0:0:
324,104,307335,2,0,P|331:148|315:190,1,90,0|10,0:0|0:0,0:0:0:0:
132,312,307603,5,12,0:0:0:0:
412,268,307737,1,0,0:0:0:0:
184,96,307871,1,4,0:0:0:0:
238,376,308005,1,8,0:0:0:0:
324,104,308139,5,0,0:0:0:0:
64,224,308273,1,0,0:0:0:0:
330,331,308407,1,12,0:0:0:0:
256,55,308541,1,0,0:0:0:0:
132,312,308675,5,4,0:0:0:0:
173,327,308741,1,0,0:0:0:0:
217,320,308808,1,10,0:0:0:0:
252,292,308875,1,0,0:0:0:0:
268,250,308942,1,0,0:0:0:0:
261,206,309009,1,0,0:0:0:0:
233,172,309076,2,0,P|225:127|241:85,1,90,10|0,0:0|0:0,0:0:0:0:
380,16,309344,1,10,0:0:0:0:
425,26,309411,1,0,0:0:0:0:
453,61,309478,2,0,P|460:105|444:147,1,90,0|10,0:0|0:0,0:0:0:0:
187,299,309746,5,0,0:0:0:0:
145,284,309812,1,0,0:0:0:0:
120,247,309879,1,10,0:0:0:0:
121,203,309946,1,0,0:0:0:0:
149,168,310013,1,0,0:0:0:0:
191,157,310080,1,0,0:0:0:0:
233,172,310148,2,0,L|291:240,1,90,10|0,0:0|0:0,0:0:0:0:
204,372,310416,1,10,0:0:0:0:
161,382,310483,1,0,0:0:0:0:
118,367,310550,2,0,L|49:308,1,90,0|10,0:0|0:0,0:0:0:0:
233,172,310817,6,0,P|240:216|224:258,1,90,0|10,0:0|0:0,0:0:0:0:
94,318,311085,1,0,0:0:0:0:
49,308,311152,1,0,0:0:0:0:
21,273,311219,2,0,P|13:228|29:186,1,90,10|0,0:0|0:0,0:0:0:0:
249,99,311487,1,10,0:0:0:0:
286,122,311554,1,0,0:0:0:0:
306,163,311621,2,0,L|314:252,1,90,0|10,0:0|0:0,0:0:0:0:
148,265,311889,6,0,L|141:175,1,90,0|10,0:0|0:0,0:0:0:0:
240,32,312157,1,0,0:0:0:0:
285,42,312224,1,0,0:0:0:0:
313,77,312291,2,0,P|321:122|305:164,1,90,10|0,0:0|0:0,0:0:0:0:
148,265,312558,1,10,0:0:0:0:
103,255,312625,1,0,0:0:0:0:
75,220,312692,2,0,P|67:175|83:133,1,90,0|10,0:0|0:0,0:0:0:0:
272,306,312960,5,4,0:0:0:0:
310,282,313026,1,0,0:0:0:0:
332,243,313093,1,10,0:0:0:0:
330,198,313160,1,0,0:0:0:0:
305,162,313227,1,0,0:0:0:0:
264,144,313294,1,0,0:0:0:0:
220,150,313362,2,0,L|151:207,1,90,10|0,0:0|0:0,0:0:0:0:
117,370,313630,1,10,0:0:0:0:
161,380,313697,1,0,0:0:0:0:
203,364,313764,2,0,L|271:306,1,90,0|10,0:0|0:0,0:0:0:0:
488,108,314032,6,0,P|495:152|479:194,1,90,0|10,0:0|0:0,0:0:0:0:
330,198,314299,1,0,0:0:0:0:
285,188,314366,1,0,0:0:0:0:
257,153,314433,2,0,P|249:108|265:66,1,90,10|0,0:0|0:0,0:0:0:0:
404,180,314701,1,10,0:0:0:0:
402,221,314768,1,0,0:0:0:0:
377,260,314835,2,0,L|303:311,1,90,0|10,0:0|0:0,0:0:0:0:
196,376,315104,5,4,0:0:0:0:
151,377,315170,1,0,0:0:0:0:
110,358,315237,1,10,0:0:0:0:
82,324,315304,1,0,0:0:0:0:
72,280,315371,1,0,0:0:0:0:
82,237,315438,1,0,0:0:0:0:
112,203,315505,2,0,L|185:151,1,90,10|2,0:0|0:0,0:0:0:0:
286,311,315773,5,8,0:0:0:0:
315,277,315839,1,8,0:0:0:0:
329,235,315906,1,8,0:0:0:0:
328,189,315973,1,8,0:0:0:0:
309,149,316040,1,8,0:0:0:0:
277,118,316107,1,8,0:0:0:0:
236,100,316175,5,12,0:0:0:0:
177,281,316308,1,0,0:0:0:0:
366,240,316442,1,0,0:0:0:0:
155,130,316576,1,0,0:0:0:0:
286,311,316710,5,0,0:0:0:0:
341,82,316844,1,0,0:0:0:0:
118,213,316978,1,0,0:0:0:0:
360,315,317112,1,0,0:0:0:0:
236,60,317246,5,0,0:0:0:0:
214,357,317380,1,0,0:0:0:0:
446,190,317514,1,0,0:0:0:0:
140,106,317648,1,0,0:0:0:0:
301,383,317782,5,0,0:0:0:0:
377,64,317916,1,0,0:0:0:0:
71,188,318050,1,0,0:0:0:0:
449,320,318183,1,0,0:0:0:0:
249,30,318317,5,0,0:0:0:0:
145,336,318451,1,0,0:0:0:0:
491,170,318585,1,8,0:0:0:0:
112,53,318719,1,0,0:0:0:0:
301,383,318853,5,8,0:0:0:0:
326,0,318987,1,0,0:0:0:0:
0,193,319121,1,0,0:0:0:0:
494,252,319255,1,0,0:0:0:0:
174,0,319389,5,12,0:0:0:0:
301,383,319523,1,12,0:0:0:0:
