osu file format v14

[General]
AudioFilename: audio.mp3
AudioLeadIn: 0
PreviewTime: 28893
Countdown: 0
SampleSet: None
StackLeniency: 0.7
Mode: 0
LetterboxInBreaks: 0
WidescreenStoryboard: 0

[Editor]
DistanceSpacing: 1
BeatDivisor: 4
GridSize: 8
TimelineZoom: 1.4

[Metadata]
Title:Ashes of the Dawn
TitleUnicode:Ashes of the Dawn
Artist:DragonForce
ArtistUnicode:DragonForce
Creator:pw384
Version:Easy
Source:
Tags:Reaching into Infinity speed power metal Herman Li 384059043
BeatmapID:1744285
BeatmapSetID:786141

[Difficulty]
HPDrainRate:2.3
CircleSize:3
OverallDifficulty:2.7
ApproachRate:3
SliderMultiplier:0.8
SliderTickRate:1

[Events]
//Background and Video events
0,0,"bg2.jpg",0,0
//Break Periods
2,171510,179310
2,227510,233870
//Storyboard Layer 0 (Background)
//Storyboard Layer 1 (Fail)
//Storyboard Layer 2 (Pass)
//Storyboard Layer 3 (Foreground)
//Storyboard Sound Samples

[TimingPoints]
644,333.333333333333,4,3,1,55,1,0
5977,-100,4,3,1,75,0,0
8977,-100,4,3,1,55,0,0
11310,-100,4,3,1,75,0,0
14310,-100,4,3,1,55,0,0
16643,-100,4,3,1,65,0,0
29977,-100,4,3,1,85,0,0
53977,-100,4,3,1,80,0,0
84643,-100,4,3,1,85,0,0
85977,-100,4,3,1,90,0,1
107310,-100,4,3,1,80,0,0
137977,-100,4,3,1,85,0,0
139310,-100,4,3,1,90,0,1
160310,-100,4,3,1,85,0,0
160643,-100,4,3,1,75,0,0
181977,-100,4,3,1,85,0,0
184310,-100,4,3,1,85,0,0
184643,-100,4,3,1,85,0,0
223310,-100,4,2,1,85,0,0
224810,-100,4,2,1,30,0,0
234477,-100,4,3,1,60,0,0
235310,-100,4,3,1,70,0,0
240643,-100,4,3,1,80,0,0
245977,-100,4,3,1,90,0,1
266643,-100,4,3,1,90,0,1
267310,-100,4,3,1,75,0,0
271310,-100,4,3,1,90,0,1
271810,-100,4,3,1,75,0,0

[Colours]
Combo1 : 207,187,118
Combo2 : 170,105,74
Combo3 : 120,89,54

[HitObjects]
4,124,16643,6,0,B|67:75|67:75|224:111,1,240,4|4,0:2|0:0,0:0:0:0:
300,88,17977,2,0,B|316:144|256:192|256:192|196:240|212:296,1,240,4|0,0:0|0:0,0:0:0:0:
288,273,19310,2,0,B|445:309|445:309|508:260,1,240,4|4,0:2|0:0,0:0:0:0:
464,192,20643,2,0,L|384:192,2,80,4|2|4,0:0|0:0|0:0,0:0:0:0:
456,32,21977,6,0,B|336:32|336:32|296:32|256:60|256:108,1,240,4|0,0:2|0:0,0:0:0:0:
211,172,23310,2,0,P|256:258|299:171,1,240,4|4,0:0|0:0,0:0:0:0:
255,104,24643,2,0,B|256:60|216:32|176:32|176:32|56:32,1,240,4|0,0:2|0:0,0:0:0:0:
60,112,25977,2,0,L|144:112,2,80,4|2|4,0:0|0:0|0:0,0:0:0:0:
60,272,27310,6,0,B|300:272|300:272|368:316,1,320,0|4,1:0|1:2,0:0:0:0:
367,315,29977,5,4,0:2:0:0:
367,195,30477,2,0,B|359:116|359:116|295:68,1,160,8|8,0:0|0:0,0:0:0:0:
216,68,31477,2,0,B|152:116|152:116|140:244,1,200,2|8,0:0|0:0,0:0:0:0:
72,276,32643,6,0,P|132:272|200:344,1,160,4|8,0:2|0:0,0:0:0:0:
256,192,33977,1,2,0:0:0:0:
314,338,34643,2,0,L|398:346,1,80,8|0,0:0|0:0,0:0:0:0:
472,332,35310,6,0,P|484:292|468:216,1,120,4|8,0:2|0:0,0:0:0:0:
404,168,36143,2,0,L|412:88,1,80,0|8,0:0|0:0,0:0:0:0:
476,40,36810,2,0,B|428:64|380:40|380:40|332:16|284:40,1,200,2|8,0:0|0:0,0:0:0:0:
216,84,37977,6,0,L|224:204,2,120,4|8|0,0:2|0:0|0:0,0:0:0:0:
140,56,39310,1,8,0:0:0:0:
60,192,39977,2,0,L|76:284,1,80,0|0,1:0|1:0,0:0:0:0:
40,344,40643,6,0,P|92:324|168:336,1,120,4|8,0:2|0:0,0:0:0:0:
216,276,41477,2,0,L|296:276,1,80,0|8,0:0|0:0,0:0:0:0:
357,330,42143,2,0,P|416:323|472:344,1,120,2|0,0:0|0:0,0:0:0:0:
420,192,43310,6,0,L|428:72,2,120,4|8|0,0:2|0:0|0:0,0:0:0:0:
412,272,44643,1,2,0:0:0:0:
256,300,45310,2,0,P|236:292|180:300,1,80,8|0,0:0|0:0,0:0:0:0:
124,360,45977,6,0,L|124:240,1,120,4|8,0:2|0:0,0:0:0:0:
64,188,46810,2,0,P|52:152|64:112,1,80,0|8,0:0|0:0,0:0:0:0:
120,56,47477,2,0,B|168:32|216:56|216:56|264:80|312:56,1,200,2|8,0:0|0:0,0:0:0:0:
368,112,48643,6,0,L|368:272,1,160,0|8,0:0|0:0,0:0:0:0:
228,192,49977,2,0,L|68:192,1,160,0|8,0:0|0:0,0:0:0:0:
36,320,51310,6,0,B|68:344|68:344|148:344|148:344|180:320|180:320|260:320|260:320|292:344|292:344|372:344|372:344|404:320|404:320|484:320,1,480,4|0,0:2|0:0,0:0:0:0:
440,168,53977,6,0,P|388:180|296:132,1,160,4|0,0:2|0:0,0:0:0:0:
256,64,54977,1,0,1:0:0:0:
215,133,55310,2,0,P|149:176|96:176,1,120,0|0,0:0|1:0,0:0:0:0:
24,264,56310,1,0,1:0:0:0:
52,340,56643,6,0,L|172:344,1,120,0|0,0:0|1:0,0:0:0:0:
284,300,57643,1,0,1:0:0:0:
312,224,57976,2,0,L|391:220,1,80,0|0,0:0|1:0,0:0:0:0:
456,172,58643,2,0,P|464:132|456:92,2,80,0|0|4,0:0|1:0|0:2,0:0:0:0:
300,132,59977,6,0,L|221:128,1,80,0|0,0:0|1:0,0:0:0:0:
152,84,60643,2,0,L|73:88,1,80,0|0,0:0|1:0,0:0:0:0:
12,144,61310,2,0,P|4:184|12:224,1,80,0|0,0:0|1:0,0:0:0:0:
56,288,61977,6,0,P|124:280|192:348,1,160,0|0,0:0|1:0,0:0:0:0:
256,192,63310,1,0,0:0:0:0:
323,337,63977,2,0,P|345:304|378:282,1,80,0|0,1:0|1:0,0:0:0:0:
456,260,64643,6,0,L|464:96,1,160,4|0,0:2|0:0,0:0:0:0:
404,44,65643,1,0,1:0:0:0:
328,64,65977,2,0,P|268:72|208:64,1,120,0|0,0:0|1:0,0:0:0:0:
96,32,66977,1,0,1:0:0:0:
48,96,67310,6,0,P|36:148|48:212,1,120,0|0,0:0|1:0,0:0:0:0:
104,320,68310,1,0,1:0:0:0:
180,344,68643,2,0,P|219:348|259:344,1,80,0|0,0:0|1:0,0:0:0:0:
336,320,69310,2,0,P|375:315|415:320,2,80,0|0|4,0:0|1:0|0:2,0:0:0:0:
432,192,70643,6,0,B|420:132|420:132|336:80,1,160,0|4,0:0|0:2,0:0:0:0:
176,80,71977,2,0,B|92:132|92:132|80:192,1,160,0|4,0:0|0:2,0:0:0:0:
104,348,73310,2,0,B|152:308|240:304|208:368|304:368|272:304|360:308|408:348,1,320,0|0,0:0|0:0,0:0:0:0:
392,188,75310,6,0,P|296:135|345:38,1,240,4|0,0:2|1:0,0:0:0:0:
372,112,76643,2,0,B|256:144|256:144|140:112,1,240,0|0,0:0|1:0,0:0:0:0:
72,68,77977,2,0,B|48:144|48:144|72:220,1,160,0|0,0:0|1:0,0:0:0:0:
176,344,79310,1,0,0:0:0:0:
336,344,79977,2,0,L|368:268,1,80,0|0,1:0|1:0,0:0:0:0:
440,300,80643,6,0,P|404:200|296:236,1,240,4|0,0:2|1:0,0:0:0:0:
214,232,81977,2,0,P|111:198|72:300,1,240,0|0,0:0|1:0,0:0:0:0:
145,270,83310,1,0,0:0:0:0:
256,156,83977,2,0,L|368:272,1,160,0|4,1:0|0:2,0:0:0:0:
256,64,85977,5,4,0:2:0:0:
376,60,86477,2,0,P|456:88|492:152,1,160,8|8,0:0|0:0,0:0:0:0:
491,233,87477,2,0,P|450:300|332:312,1,200,2|8,0:0|0:0,0:0:0:0:
280,256,88643,5,4,0:2:0:0:
160,264,89143,1,8,0:0:0:0:
40,272,89643,1,0,0:0:0:0:
16,192,89977,6,0,P|8:144|40:72,1,120,4|8,0:2|0:0,0:0:0:0:
152,40,90977,1,0,0:0:0:0:
196,112,91310,6,0,P|256:120|316:112,1,120,4|8,0:2|0:0,0:0:0:0:
364,176,92143,2,0,L|444:172,1,80,0|8,0:0|0:0,0:0:0:0:
456,252,92810,2,0,L|256:263,1,200,2|8,0:0|0:0,0:0:0:0:
176,268,93977,5,4,0:2:0:0:
78,141,94643,1,4,0:2:0:0:
196,40,95310,2,0,P|256:48|316:40,1,120,4|4,0:2|0:2,0:0:0:0:
456,188,96643,5,4,0:2:0:0:
456,308,97143,2,0,L|296:288,1,160,8|8,0:0|0:0,0:0:0:0:
214,288,98143,2,0,B|56:308|56:308|20:292,1,200,2|8,0:0|0:0,0:0:0:0:
24,208,99310,5,4,0:2:0:0:
32,88,99810,1,8,0:0:0:0:
132,152,100310,1,0,0:0:0:0:
192,100,100643,6,0,L|312:100,1,120,4|8,0:2|0:0,0:0:0:0:
392,8,101643,1,0,0:0:0:0:
464,48,101977,6,0,L|464:168,1,120,4|8,0:2|0:0,0:0:0:0:
416,232,102810,2,0,P|424:268|420:312,1,80,0|8,0:0|0:0,0:0:0:0:
352,352,103477,2,0,B|304:376|256:352|256:352|208:328|160:352,1,200,2|8,0:0|0:0,0:0:0:0:
104,296,104643,5,4,0:2:0:0:
208,176,105310,1,4,0:2:0:0:
136,36,105977,2,0,L|376:36,1,240,4|0,0:2|1:0,0:0:0:0:
420,104,107310,6,0,B|360:156|360:156|334:232,1,160,4|0,0:2|0:0,0:0:0:0:
256,216,108310,1,0,1:0:0:0:
177,232,108643,2,0,B|152:156|152:156|122:131,1,120,0|0,0:0|1:0,0:0:0:0:
28,204,109643,1,0,1:0:0:0:
64,276,109977,6,0,B|88:305|88:305|165:331,1,120,0|0,0:0|1:0,0:0:0:0:
280,288,110977,1,0,1:0:0:0:
347,331,111310,2,0,L|427:319,1,80,0|0,0:0|1:0,0:0:0:0:
476,256,111977,2,0,P|484:220|476:176,2,80,0|0|4,0:0|1:0|0:2,0:0:0:0:
336,180,113310,6,0,P|300:188|256:180,1,80,0|0,0:0|1:0,0:0:0:0:
192,132,113977,2,0,L|112:132,1,80,4|0,0:2|1:0,0:0:0:0:
60,192,114643,2,0,P|52:228|60:272,1,80,0|0,0:0|1:0,0:0:0:0:
112,331,115310,6,0,P|184:302|256:332,1,160,0|0,0:0|1:0,0:0:0:0:
400,264,116643,2,0,L|480:264,2,80,0|0|0,0:0|1:0|0:0,0:0:0:0:
256,192,117977,5,4,0:2:0:0:
116,120,118643,2,0,P|88:208|116:264,1,160,0|4,0:0|0:2,0:0:0:0:
263,349,119977,2,0,P|353:329|388:277,1,160,0|4,0:0|0:2,0:0:0:0:
388,107,121310,2,0,P|340:45|263:34,2,160,0|4|0,0:0|0:2|0:0,0:0:0:0:
256,192,123310,6,0,L|92:192,2,160,0|0|0,0:0|1:0|0:0,0:0:0:0:
372,80,125310,1,0,1:0:0:0:
488,192,125977,1,0,0:0:0:0:
408,332,126643,2,0,B|360:292|272:288|304:352|208:352|240:288|152:292|104:332,1,320,0|0,1:0|1:0,0:0:0:0:
120,188,128643,6,0,P|216:135|167:38,1,240,4|0,0:2|1:0,0:0:0:0:
140,112,129977,2,0,B|256:144|256:144|372:112,1,240,0|0,0:0|1:0,0:0:0:0:
440,68,131310,2,0,B|464:144|464:144|440:220,1,160,0|0,0:0|1:0,0:0:0:0:
336,344,132643,1,0,0:0:0:0:
176,344,133310,2,0,L|144:268,1,80,0|0,0:0|1:0,0:0:0:0:
72,300,133976,6,0,P|108:200|216:236,1,240,4|0,0:2|1:0,0:0:0:0:
298,232,135310,2,0,P|401:198|440:300,1,240,0|0,0:0|1:0,0:0:0:0:
367,270,136643,2,0,B|336:344|336:344|176:344|176:344|145:270,1,320,0|0,0:0|1:0,0:0:0:0:
256,64,139310,5,4,0:2:0:0:
136,60,139810,2,0,P|56:88|20:152,1,160,8|8,0:0|0:0,0:0:0:0:
21,233,140810,2,0,P|62:300|180:312,1,200,2|8,0:0|0:0,0:0:0:0:
232,256,141976,5,4,0:2:0:0:
352,264,142476,1,8,0:0:0:0:
472,272,142976,1,0,0:0:0:0:
496,192,143310,6,0,P|504:144|472:72,1,120,4|8,0:2|0:0,0:0:0:0:
360,40,144310,1,0,0:0:0:0:
316,112,144643,6,0,P|256:120|196:112,1,120,4|8,0:2|0:0,0:0:0:0:
148,176,145476,2,0,L|68:172,1,80,0|8,0:0|0:0,0:0:0:0:
56,252,146143,2,0,L|256:263,1,200,2|8,0:0|0:0,0:0:0:0:
336,268,147310,5,4,0:2:0:0:
434,141,147976,1,4,0:2:0:0:
316,40,148643,2,0,P|256:48|196:40,1,120,4|4,0:2|0:2,0:0:0:0:
56,188,149976,5,4,0:2:0:0:
56,308,150476,2,0,L|216:288,1,160,8|8,0:0|0:0,0:0:0:0:
298,288,151476,2,0,B|456:308|456:308|492:292,1,200,2|8,0:0|0:0,0:0:0:0:
488,208,152643,5,4,0:2:0:0:
480,88,153143,1,8,0:0:0:0:
380,152,153643,1,0,0:0:0:0:
320,100,153976,6,0,L|200:100,1,120,4|8,0:2|0:0,0:0:0:0:
120,8,154976,1,0,0:0:0:0:
48,48,155310,6,0,L|48:168,1,120,4|8,0:2|0:0,0:0:0:0:
96,232,156143,2,0,P|88:268|92:312,1,80,0|8,0:0|0:0,0:0:0:0:
160,352,156810,2,0,B|208:376|256:352|256:352|304:328|352:352,1,200,2|8,0:0|0:0,0:0:0:0:
408,296,157976,5,4,0:2:0:0:
304,176,158643,1,4,0:2:0:0:
376,36,159310,2,0,L|136:36,1,240,4|0,0:2|1:0,0:0:0:0:
56,36,160643,5,4,0:1:0:0:
256,192,160810,12,4,163310,0:1:0:0:
327,328,164643,6,0,P|255:357|183:327,2,160,0|0|4,1:0|1:0|0:1,0:0:0:0:
256,192,166143,12,4,168643,0:1:0:0:
207,311,169977,6,0,P|255:195|304:311,1,320,0|4,1:0|1:0,0:0:0:0:
152,86,181977,6,0,P|256:34|360:86,1,240,4|0,1:0|0:0,0:0:0:0:
399,154,183310,2,0,P|391:270|295:335,1,240,0|0,1:0|0:0,0:0:0:0:
216,335,184643,2,0,P|120:270|112:154,1,240,0|0,1:0|0:0,0:0:0:0:
176,104,185977,2,0,L|336:104,1,160,0|0,1:0|0:0,0:0:0:0:
472,192,187310,5,4,1:0:0:0:
336,280,187977,2,0,L|256:280,1,80,0|0,0:0|1:0,0:0:0:0:
176,280,188643,1,0,0:0:0:0:
40,192,189310,1,0,1:0:0:0:
120,52,189977,6,0,B|200:60|200:60|256:116|256:116|312:60|312:60|392:52,1,320,0|0,1:0|0:0,0:0:0:0:
472,192,191977,2,0,L|432:264,1,80,0|0,1:0|0:0,0:0:0:0:
376,320,192643,6,0,L|136:320,1,240,4|0,1:0|0:0,0:0:0:0:
56,304,193977,2,0,P|20:192|56:80,1,240,0|0,1:0|0:0,0:0:0:0:
136,64,195310,2,0,L|376:64,1,240,0|0,1:0|0:0,0:0:0:0:
440,112,196643,2,0,P|444:152|440:192,2,80,0|0|0,1:0|0:0|0:0,0:0:0:0:
320,208,197977,5,4,1:0:0:0:
256,260,198310,1,0,0:0:0:0:
192,208,198643,1,0,0:0:0:0:
72,112,199310,2,0,P|68:152|72:192,2,80,0|0|0,1:0|0:0|0:0,0:0:0:0:
224,64,200643,6,0,B|344:64|344:64|428:152,1,240,0|0,1:0|0:0,0:0:0:0:
426,233,201977,2,0,B|344:320|344:320|224:320,1,240,0|0,1:0|0:0,0:0:0:0:
156,276,203310,6,0,L|76:276,2,80,4|0|0,1:2|0:0|0:0,0:0:0:0:
132,116,204643,2,0,P|256:60|380:116,1,280,0|0,1:0|1:0,0:0:0:0:
427,223,206310,2,0,P|350:241|296:300,1,160,0|0,0:0|1:0,0:0:0:0:
256,368,207310,1,0,0:0:0:0:
215,298,207643,2,0,P|160:241|84:223,1,160,0|0,1:0|1:0,0:0:0:0:
4,228,208643,6,0,L|24:68,1,160,4|0,1:0|0:0,0:0:0:0:
176,124,209977,1,0,1:0:0:0:
336,124,210643,1,0,1:0:0:0:
488,69,211310,6,0,L|508:228,1,160,0|0,1:0|0:0,0:0:0:0:
352,268,212643,2,0,L|362:347,2,80,0|0|0,1:0|0:0|0:0,0:0:0:0:
204,328,213977,6,0,P|140:316|100:268,1,120,4|0,1:2|0:0,0:0:0:0:
40,232,214810,2,0,L|40:152,1,80,0|0,1:0|0:0,0:0:0:0:
104,106,215477,2,0,P|145:64|204:56,1,120,0|0,1:0|0:0,0:0:0:0:
256,116,216310,1,0,0:0:0:0:
308,55,216643,6,0,P|366:64|407:106,1,120,4|0,1:0|0:0,0:0:0:0:
372,304,217977,2,0,L|452:304,2,80,0|0|0,1:0|0:0|0:0,0:0:0:0:
256,192,219310,6,0,P|212:192|176:204,1,80,0|0,1:0|0:0,0:0:0:0:
120,260,219977,2,0,P|76:260|40:248,1,80
0,180,220643,2,0,L|12:20,2,160,0|0|4,1:0|0:0|1:0,0:0:0:0:
96,312,222643,5,0,1:2:0:0:
256,312,223310,2,0,B|416:312|416:312|416:232,1,240,4|6,0:2|0:2,0:0:0:0:
416,152,224643,1,4,1:1:0:0:
256,192,224810,12,0,227310,0:0:0:0:
216,244,235310,6,0,P|236:76|296:244,1,480,4|2,0:2|0:2,0:0:0:0:
256,312,237643,1,2,0:2:0:0:
176,312,237977,6,0,L|56:312,1,120,4|4,0:2|1:2,0:0:0:0:
52,192,238977,2,0,L|172:192,1,120,4|4,0:2|1:2,0:0:0:0:
256,112,239977,2,0,L|336:112,1,80,4|4,0:2|0:2,0:0:0:0:
416,112,240643,6,0,B|416:232|416:232|296:232|296:232|296:352|296:352|176:352,1,480,4|2,0:2|0:2,0:0:0:0:
172,192,243310,2,0,B|172:112|172:112|92:112|92:112|92:272,1,320,4|4,0:2|1:0,0:0:0:0:
92,272,245977,6,0,P|140:276|212:252,1,120,4|8,0:2|0:0,0:0:0:0:
256,192,246810,2,0,L|336:192,1,80,8|8,0:0|0:0,0:0:0:0:
360,267,247477,2,0,P|414:191|359:115,1,200,8|8,0:0|0:0,0:0:0:0:
316,48,248643,6,0,L|196:48,1,120,4|8,0:2|0:0,0:0:0:0:
116,136,249643,1,0,0:0:0:0:
60,192,249977,2,0,P|40:248|60:304,1,120,4|8,0:2|0:0,0:0:0:0:
176,336,250977,1,0,0:0:0:0:
200,260,251310,6,0,P|256:240|312:260,1,120,4|8,0:2|0:0,0:0:0:0:
336,336,252143,2,0,L|416:336,1,80,8|8,0:0|0:0,0:0:0:0:
480,288,252810,2,0,B|504:240|480:192|480:192|456:144|480:96,1,200,8|8,0:0|0:0,0:0:0:0:
416,48,253977,6,0,L|256:48,1,160,4|8,0:2|0:0,0:0:0:0:
380,148,255310,2,0,L|500:148,1,120,4|4,0:2|0:2,0:0:0:0:
500,268,256310,1,0,1:0:0:0:
420,272,256643,6,0,P|372:276|300:252,1,120,4|8,0:2|0:0,0:0:0:0:
256,192,257476,2,0,L|176:192,1,80,8|8,0:0|0:0,0:0:0:0:
151,267,258143,2,0,P|97:191|152:115,1,200,8|8,0:0|0:0,0:0:0:0:
196,48,259309,6,0,L|316:48,1,120,4|8,0:2|0:0,0:0:0:0:
396,136,260309,1,0,0:0:0:0:
452,192,260643,2,0,P|472:248|452:304,1,120,4|8,0:2|0:0,0:0:0:0:
336,336,261643,1,0,0:0:0:0:
312,260,261977,6,0,P|256:240|200:260,1,120,4|8,0:2|0:0,0:0:0:0:
176,336,262809,2,0,L|96:336,1,80,8|8,0:0|0:0,0:0:0:0:
32,288,263476,2,0,B|8:240|32:192|32:192|56:144|32:96,1,200,8|8,0:0|0:0,0:0:0:0:
96,48,264643,6,0,L|256:48,1,160,4|8,0:2|0:0,0:0:0:0:
416,48,265977,1,4,0:2:0:0:
336,192,266643,2,0,L|176:192,1,160,4|4,0:2|1:2,0:0:0:0:
256,192,267477,12,4,271310,0:2:0:0:
