osu file format v14

[General]
AudioFilename: audio.mp3
AudioLeadIn: 0
PreviewTime: 84351
Countdown: 0
SampleSet: Normal
StackLeniency: 0.7
Mode: 1
LetterboxInBreaks: 0
WidescreenStoryboard: 1

[Editor]
Bookmarks: 181406,224073
DistanceSpacing: 0.3
BeatDivisor: 8
GridSize: 32
TimelineZoom: 2.599999

[Metadata]
Title:Ashes of the Dawn
TitleUnicode:Ashes of the Dawn
Artist:DragonForce
ArtistUnicode:DragonForce
Creator:Nao Tomori
Version:Oni
Source:
Tags:reaching into infinity british english power metal Marc Hudson Sam Totman Herman Li frederic leclerq Vadim Pruzhanov Gee Anzalone rock taiko
BeatmapID:2493155
BeatmapSetID:1155392

[Difficulty]
HPDrainRate:5
CircleSize:5
OverallDifficulty:5.5
ApproachRate:5
SliderMultiplier:1.4
SliderTickRate:1

[Events]
//Background and Video events
0,0,"df bg.jpg",0,0
//Break Periods
2,226922,232689
//Storyboard Layer 0 (Background)
//Storyboard Layer 1 (Fail)
//Storyboard Layer 2 (Pass)
//Storyboard Layer 3 (Foreground)
//Storyboard Layer 4 (Overlay)
//Storyboard Sound Samples

[TimingPoints]
5399,333.333333333333,4,1,0,78,1,0
5399,-100,4,1,0,78,0,0
15050,-89.2857142857143,4,1,0,78,0,0
15133,-90.9090909090909,4,1,0,78,0,0
15217,-92.5925925925926,4,1,0,78,0,0
15300,-94.3396226415094,4,1,0,78,0,0
15383,-96.1538461538461,4,1,0,78,0,0
15467,-98.0392156862745,4,1,0,78,0,0
15550,-100,4,1,0,78,0,0
15633,-102.040816326531,4,1,0,78,0,0
15717,-104.166666666667,4,1,0,78,0,0
15800,-106.382978723404,4,1,0,78,0,0
15883,-108.695652173913,4,1,0,78,0,0
15967,-111.111111111111,4,1,0,78,0,0
16050,-113.636363636364,4,1,0,78,0,0
26717,-112.359550561798,4,1,0,78,0,0
26800,-111.111111111111,4,1,0,78,0,0
26883,-109.89010989011,4,1,0,78,0,0
26967,-108.695652173913,4,1,0,78,0,0
27050,-107.52688172043,4,1,0,78,0,0
27133,-106.382978723404,4,1,0,78,0,0
27217,-105.263157894737,4,1,0,78,0,0
27300,-104.166666666667,4,1,0,78,0,0
27383,-103.092783505155,4,1,0,78,0,0
27467,-102.040816326531,4,1,0,78,0,0
27550,-101.010101010101,4,1,0,78,0,0
27633,-100,4,1,0,78,0,0
27717,-99.009900990099,4,1,0,78,0,0
27800,-98.0392156862745,4,1,0,78,0,0
27883,-97.0873786407767,4,1,0,78,0,0
27967,-96.1538461538461,4,1,0,78,0,0
28050,-95.2380952380952,4,1,0,78,0,0
28383,-100,4,1,0,78,0,0
29390,333.333333333333,4,1,0,78,1,0
29390,-100,4,1,0,78,0,0
51055,-111.111111111111,4,1,0,78,0,0
51555,-125,4,1,0,78,0,0
52055,-142.857142857143,4,1,0,78,0,0
52722,-100,4,1,0,78,0,0
83888,-100,4,1,0,78,0,0
83944,-97.0873786407767,4,1,0,78,0,0
83972,-94.3396226415094,4,1,0,78,0,0
84055,-86.9565217391304,4,1,0,78,0,0
84388,-100,4,1,0,78,0,0
85223,-95.2380952380952,4,1,0,78,0,0
85389,-95.2380952380952,4,1,0,87,0,1
106050,-96.1538461538461,4,1,0,87,0,1
106133,-96.6183574879227,4,1,0,87,0,1
106217,-97.0873786407767,4,1,0,87,0,1
106300,-97.5609756097561,4,1,0,87,0,1
106383,-98.0392156862745,4,1,0,87,0,1
106467,-98.5221674876847,4,1,0,87,0,1
106550,-99.009900990099,4,1,0,87,0,1
106633,-99.502487562189,4,1,0,87,0,1
106723,-100,4,1,0,87,0,0
106883,-100,4,1,0,78,0,0
137217,-100,4,1,0,78,0,0
137272,-97.0873786407767,4,1,0,78,0,0
137328,-94.3396226415094,4,1,0,78,0,0
137383,-86.9565217391304,4,1,0,78,0,0
137550,-101.010101010101,4,1,0,78,0,0
137633,-101.010101010101,4,1,0,78,0,0
137717,-101.010101010101,4,1,0,78,0,0
137800,-101.010101010101,4,1,0,78,0,0
137883,-101.010101010101,4,1,0,78,0,0
137967,-101.010101010101,4,1,0,78,0,0
138050,-101.010101010101,4,1,0,78,0,0
138133,-106.382978723404,4,1,0,78,0,0
138217,-101.010101010101,4,1,0,78,0,0
138300,-100,4,1,0,78,0,0
138383,-99.009900990099,4,1,0,78,0,0
138467,-98.0392156862745,4,1,0,78,0,0
138550,-97.0873786407767,4,1,0,78,0,0
138633,-96.1538461538461,4,1,0,78,0,0
138723,-95.2380952380952,4,1,0,87,0,1
159495,-100,4,1,0,87,0,1
159606,-105.263157894737,4,1,0,87,0,1
159717,-111.111111111111,4,1,0,87,0,1
159828,-117.647058823529,4,1,0,87,0,1
159939,-125,4,1,0,87,0,1
160056,-133.333333333333,4,1,0,90,0,0
160217,-133.333333333333,4,1,0,78,0,0
180050,-130.718954248366,4,1,0,78,0,0
180133,-128.205128205128,4,1,0,78,0,0
180217,-125.786163522013,4,1,0,78,0,0
180300,-123.456790123457,4,1,0,78,0,0
180383,-121.212121212121,4,1,0,78,0,0
180467,-119.047619047619,4,1,0,78,0,0
180550,-116.959064327485,4,1,0,78,0,0
180633,-114.942528735632,4,1,0,78,0,0
180717,-112.359550561798,4,1,0,78,0,0
180800,-109.89010989011,4,1,0,78,0,0
180883,-107.52688172043,4,1,0,78,0,0
180967,-105.263157894737,4,1,0,78,0,0
181050,-103.092783505155,4,1,0,78,0,0
181217,-93.4579439252336,4,1,0,78,0,0
181300,-94.3396226415094,4,1,0,78,0,0
181383,-95.2380952380952,4,1,0,87,0,0
183717,-95.2380952380952,4,1,0,87,0,0
184050,-95.2380952380952,4,1,0,87,0,0
199383,-90.9090909090909,4,1,0,87,0,0
200050,-95.2380952380952,4,1,0,87,0,0
223217,-111.111111111111,4,1,0,80,0,0
223717,-133.333333333333,4,1,0,78,0,0
224050,-142.857142857143,4,1,0,67,0,0
233883,-114.942528735632,4,1,0,78,0,0
234717,-100,4,1,0,78,0,0
243050,-98.0392156862745,4,1,0,78,0,0
243217,-95.2380952380952,4,1,0,78,0,0
243383,-91.743119266055,4,1,0,78,0,0
243550,-87.719298245614,4,1,0,78,0,0
243717,-83.3333333333333,4,1,0,78,0,0
243883,-78.7401574803149,4,1,0,78,0,0
244050,-74.0740740740741,4,1,0,78,0,0
245217,-90.9090909090909,4,1,0,78,0,0
245389,-95.2380952380952,4,1,0,87,0,1
267217,-100,4,1,0,87,0,1
267717,-105.263157894737,4,1,0,87,0,1
268217,-111.111111111111,4,1,0,87,0,1
268883,-114.942528735632,4,1,0,87,0,1
269383,-112.359550561798,4,1,0,87,0,1
269467,-111.731843575419,4,1,0,87,0,1
269550,-111.111111111111,4,1,0,87,0,1
269633,-110.497237569061,4,1,0,87,0,1
269717,-109.89010989011,4,1,0,87,0,1
269800,-109.289617486339,4,1,0,87,0,1
269883,-108.695652173913,4,1,0,87,0,1
269967,-108.108108108108,4,1,0,87,0,1
270050,-107.52688172043,4,1,0,87,0,1
270133,-106.382978723404,4,1,0,87,0,1
270217,-105.263157894737,4,1,0,87,0,1
270300,-104.166666666667,4,1,0,87,0,1
270383,-103.092783505155,4,1,0,87,0,1
270467,-101.010101010101,4,1,0,87,0,1
270550,-99.009900990099,4,1,0,87,0,1
270633,-97.0873786407767,4,1,0,87,0,1
270723,-95.2380952380952,4,1,0,100,0,0

[HitObjects]
226,205,5232,5,0,0:0:0:0:
226,205,5398,1,4,0:0:0:0:
245,195,8065,1,4,0:0:0:0:
245,195,8232,1,4,0:0:0:0:
303,167,10732,1,4,0:0:0:0:
253,188,13398,1,0,0:0:0:0:
253,188,13482,1,0,0:0:0:0:
247,189,13565,1,0,0:0:0:0:
216,179,15065,1,8,0:0:0:0:
216,179,15148,1,8,0:0:0:0:
214,184,15232,1,0,0:0:0:0:
216,179,15315,1,0,0:0:0:0:
214,184,15398,1,8,0:0:0:0:
214,184,15565,1,0,0:0:0:0:
214,184,15732,1,8,0:0:0:0:
216,179,15815,1,8,0:0:0:0:
214,184,15898,1,8,0:0:0:0:
216,179,15982,1,8,0:0:0:0:
214,184,16065,1,4,0:0:0:0:
214,182,16398,1,0,0:0:0:0:
214,182,16565,1,8,0:0:0:0:
214,182,16898,1,0,0:0:0:0:
214,182,17065,1,8,0:0:0:0:
214,182,17231,1,8,0:0:0:0:
214,182,17397,1,0,0:0:0:0:
214,182,17732,1,8,0:0:0:0:
214,182,17898,1,0,0:0:0:0:
214,182,18232,1,0,0:0:0:0:
214,182,18398,1,8,0:0:0:0:
214,182,18565,1,8,0:0:0:0:
214,182,18731,1,0,0:0:0:0:
214,183,19065,1,0,0:0:0:0:
214,183,19232,1,0,0:0:0:0:
214,183,19398,1,8,0:0:0:0:
214,183,19565,1,0,0:0:0:0:
214,183,19732,1,0,0:0:0:0:
214,183,20065,1,8,0:0:0:0:
214,183,20398,1,8,0:0:0:0:
214,183,20565,1,0,0:0:0:0:
214,183,20732,1,8,0:0:0:0:
214,183,20898,1,8,0:0:0:0:
214,183,21065,1,0,0:0:0:0:
214,183,21232,1,0,0:0:0:0:
226,162,21398,1,12,0:0:0:0:
277,179,21732,1,0,0:0:0:0:
269,179,21898,1,8,0:0:0:0:
269,179,22232,1,0,0:0:0:0:
269,179,22397,1,8,0:0:0:0:
269,179,22565,1,8,0:0:0:0:
269,179,22731,1,4,0:0:0:0:
269,179,23065,1,0,0:0:0:0:
269,179,23231,1,8,0:0:0:0:
217,88,23565,1,0,0:0:0:0:
269,179,23732,1,8,0:0:0:0:
236,99,23898,1,8,0:0:0:0:
265,181,24065,1,4,0:0:0:0:
204,158,24398,1,0,0:0:0:0:
204,158,24565,1,8,0:0:0:0:
204,158,24732,1,0,0:0:0:0:
198,152,24898,1,0,0:0:0:0:
198,152,25065,1,8,0:0:0:0:
188,93,25232,1,0,0:0:0:0:
198,152,25398,1,12,0:0:0:0:
198,152,25732,1,0,0:0:0:0:
198,152,25898,1,0,0:0:0:0:
198,152,26065,1,8,0:0:0:0:
198,152,26232,1,8,0:0:0:0:
198,152,26398,1,0,0:0:0:0:
198,152,26565,1,0,0:0:0:0:
198,152,26732,1,8,0:0:0:0:
198,152,26815,1,8,0:0:0:0:
198,152,26898,1,0,0:0:0:0:
198,152,27065,1,0,0:0:0:0:
198,152,27148,1,0,0:0:0:0:
198,152,27232,1,8,0:0:0:0:
198,152,27315,1,8,0:0:0:0:
198,152,27398,1,0,0:0:0:0:
198,152,27565,1,0,0:0:0:0:
198,152,27648,1,0,0:0:0:0:
198,152,27732,1,8,0:0:0:0:
190,63,27815,1,8,0:0:0:0:
198,152,27898,1,8,0:0:0:0:
198,152,28065,1,4,0:0:0:0:
182,176,29390,1,4,0:0:0:0:
182,176,29723,1,0,0:0:0:0:
182,176,29890,1,8,0:0:0:0:
182,176,30056,1,0,0:0:0:0:
190,100,30140,1,0,0:0:0:0:
182,176,30223,1,8,0:0:0:0:
182,176,30389,1,0,0:0:0:0:
182,176,30473,1,0,0:0:0:0:
182,176,30556,1,8,0:0:0:0:
173,132,30723,1,0,0:0:0:0:
173,132,30889,1,8,0:0:0:0:
173,132,30973,1,8,0:0:0:0:
173,132,31056,1,0,0:0:0:0:
172,122,31139,1,0,0:0:0:0:
172,122,31223,1,8,0:0:0:0:
172,122,31389,1,8,0:0:0:0:
172,122,31556,1,0,0:0:0:0:
172,122,31723,1,8,0:0:0:0:
172,122,31806,1,8,0:0:0:0:
172,122,31889,1,0,0:0:0:0:
172,122,31973,1,8,0:0:0:0:
172,122,32056,1,0,0:0:0:0:
172,122,32389,1,0,0:0:0:0:
172,122,32556,1,8,0:0:0:0:
192,140,32723,1,0,0:0:0:0:
192,140,32889,1,8,0:0:0:0:
192,140,33056,1,0,0:0:0:0:
192,140,33139,1,0,0:0:0:0:
192,140,33223,1,8,0:0:0:0:
192,140,33306,1,8,0:0:0:0:
192,140,33389,1,0,0:0:0:0:
192,140,33723,1,0,0:0:0:0:
192,140,33806,1,0,0:0:0:0:
192,140,33889,1,8,0:0:0:0:
192,140,34056,1,0,0:0:0:0:
192,140,34223,1,8,0:0:0:0:
192,140,34389,1,0,0:0:0:0:
192,140,34473,1,0,0:0:0:0:
192,140,34556,1,8,0:0:0:0:
192,140,34723,1,4,0:0:0:0:
192,140,35056,1,0,0:0:0:0:
192,140,35139,1,0,0:0:0:0:
192,140,35223,1,8,0:0:0:0:
192,140,35389,1,0,0:0:0:0:
246,169,35556,1,8,0:0:0:0:
246,169,35723,1,0,0:0:0:0:
246,169,35806,1,0,0:0:0:0:
235,171,35889,1,8,0:0:0:0:
211,165,36056,1,0,0:0:0:0:
211,165,36223,1,8,0:0:0:0:
223,172,36306,1,8,0:0:0:0:
223,172,36389,1,0,0:0:0:0:
223,172,36473,1,0,0:0:0:0:
223,172,36556,1,8,0:0:0:0:
223,172,36723,1,0,0:0:0:0:
223,172,36806,1,0,0:0:0:0:
223,172,36889,1,8,0:0:0:0:
223,172,37056,1,0,0:0:0:0:
223,172,37139,1,0,0:0:0:0:
223,172,37223,1,8,0:0:0:0:
223,172,37306,1,0,0:0:0:0:
223,172,37389,1,8,0:0:0:0:
223,172,37723,1,0,0:0:0:0:
223,172,37806,1,0,0:0:0:0:
221,176,37889,1,8,0:0:0:0:
221,176,38056,1,0,0:0:0:0:
221,176,38223,1,8,0:0:0:0:
221,176,38306,1,8,0:0:0:0:
221,176,38389,1,0,0:0:0:0:
186,116,38473,1,0,0:0:0:0:
221,176,38556,1,8,0:0:0:0:
183,124,38723,1,0,0:0:0:0:
183,124,38806,1,0,0:0:0:0:
183,124,38889,1,0,0:0:0:0:
183,124,38973,1,0,0:0:0:0:
171,88,39056,1,8,0:0:0:0:
171,88,39223,1,0,0:0:0:0:
169,95,39389,1,8,0:0:0:0:
169,95,39473,1,8,0:0:0:0:
169,95,39556,1,0,0:0:0:0:
169,95,39639,1,0,0:0:0:0:
169,95,39723,1,8,0:0:0:0:
169,95,39806,1,8,0:0:0:0:
169,95,39889,1,8,0:0:0:0:
169,95,40056,1,4,0:0:0:0:
176,271,40389,1,0,0:0:0:0:
176,271,40556,1,8,0:0:0:0:
176,271,40639,1,8,0:0:0:0:
176,271,40723,1,0,0:0:0:0:
176,271,40889,1,0,0:0:0:0:
176,271,40973,1,0,0:0:0:0:
176,271,41056,1,8,0:0:0:0:
186,166,41139,1,8,0:0:0:0:
182,155,41223,1,0,0:0:0:0:
168,153,41389,1,8,0:0:0:0:
204,175,41556,1,0,0:0:0:0:
204,175,41639,1,0,0:0:0:0:
196,171,41723,1,8,0:0:0:0:
196,171,41889,1,8,0:0:0:0:
195,172,41973,1,8,0:0:0:0:
196,171,42056,1,0,0:0:0:0:
190,172,42223,1,8,0:0:0:0:
195,172,42306,1,8,0:0:0:0:
190,172,42389,1,8,0:0:0:0:
195,172,42473,1,8,0:0:0:0:
190,172,42556,1,0,0:0:0:0:
195,172,42639,1,0,0:0:0:0:
190,172,42723,1,8,0:0:0:0:
178,133,43056,1,0,0:0:0:0:
178,133,43223,1,8,0:0:0:0:
178,133,43306,1,8,0:0:0:0:
178,133,43389,1,0,0:0:0:0:
155,139,43556,1,0,0:0:0:0:
155,139,43639,1,0,0:0:0:0:
155,139,43723,1,8,0:0:0:0:
155,139,43806,1,0,0:0:0:0:
155,139,43889,1,0,0:0:0:0:
155,139,44056,1,0,0:0:0:0:
155,139,44223,1,8,0:0:0:0:
155,139,44306,1,8,0:0:0:0:
155,139,44389,1,0,0:0:0:0:
189,60,44556,1,8,0:0:0:0:
155,139,44723,1,0,0:0:0:0:
155,139,44806,1,0,0:0:0:0:
259,199,44889,1,0,0:0:0:0:
182,92,44973,1,0,0:0:0:0:
259,199,45056,1,8,0:0:0:0:
259,199,45223,1,0,0:0:0:0:
259,199,45389,1,12,0:0:0:0:
259,199,45556,1,8,0:0:0:0:
259,199,45639,1,8,0:0:0:0:
259,199,45723,1,0,0:0:0:0:
265,189,45889,1,8,0:0:0:0:
265,189,46223,1,0,0:0:0:0:
265,189,46306,1,0,0:0:0:0:
265,189,46389,1,8,0:0:0:0:
265,189,46556,1,8,0:0:0:0:
265,189,46639,1,8,0:0:0:0:
265,189,46723,1,0,0:0:0:0:
321,156,46889,1,8,0:0:0:0:
321,156,46973,1,8,0:0:0:0:
321,156,47056,1,8,0:0:0:0:
321,156,47139,1,8,0:0:0:0:
321,156,47223,1,0,0:0:0:0:
321,156,47306,1,0,0:0:0:0:
321,156,47389,1,0,0:0:0:0:
321,156,47473,1,0,0:0:0:0:
321,156,47556,1,8,0:0:0:0:
321,156,47723,1,8,0:0:0:0:
321,156,47806,1,8,0:0:0:0:
321,156,47889,1,8,0:0:0:0:
321,156,47973,1,8,0:0:0:0:
321,156,48056,1,0,0:0:0:0:
321,156,48389,1,0,0:0:0:0:
321,156,48556,1,8,0:0:0:0:
321,156,48723,1,8,0:0:0:0:
321,156,48806,1,8,0:0:0:0:
321,156,48889,1,0,0:0:0:0:
321,156,48973,1,0,0:0:0:0:
321,156,49056,1,8,0:0:0:0:
321,156,49389,1,8,0:0:0:0:
321,156,49556,1,0,0:0:0:0:
321,156,49723,1,8,0:0:0:0:
321,156,49806,1,8,0:0:0:0:
321,156,49889,1,0,0:0:0:0:
321,156,49973,1,0,0:0:0:0:
321,156,50056,1,8,0:0:0:0:
321,156,50223,1,0,0:0:0:0:
321,156,50306,1,0,0:0:0:0:
321,156,50389,1,8,0:0:0:0:
321,156,50473,1,8,0:0:0:0:
321,156,50556,1,8,0:0:0:0:
321,156,50723,1,4,0:0:0:0:
251,108,51223,1,4,0:0:0:0:
251,108,51723,1,4,0:0:0:0:
251,108,52223,1,4,0:0:0:0:
248,154,52723,1,8,0:0:0:0:
248,154,52889,1,8,0:0:0:0:
256,154,53056,1,8,0:0:0:0:
256,154,53139,1,8,0:0:0:0:
256,154,53223,1,8,0:0:0:0:
256,154,53306,1,8,0:0:0:0:
256,154,53389,1,4,0:0:0:0:
256,154,53723,1,0,0:0:0:0:
256,154,53889,1,8,0:0:0:0:
256,154,54056,1,0,0:0:0:0:
256,154,54223,1,8,0:0:0:0:
256,154,54389,1,0,0:0:0:0:
256,154,54473,1,0,0:0:0:0:
256,154,54556,1,8,0:0:0:0:
256,154,54723,1,0,0:0:0:0:
256,154,54889,1,8,0:0:0:0:
256,154,55223,1,8,0:0:0:0:
256,154,55389,1,0,0:0:0:0:
256,154,55556,1,8,0:0:0:0:
256,154,55639,1,8,0:0:0:0:
256,154,55723,1,0,0:0:0:0:
256,154,55889,1,8,0:0:0:0:
256,154,56056,1,0,0:0:0:0:
256,154,56223,1,8,0:0:0:0:
183,196,56556,1,8,0:0:0:0:
183,196,56723,1,0,0:0:0:0:
183,196,56889,1,8,0:0:0:0:
183,196,57056,1,0,0:0:0:0:
183,196,57139,1,0,0:0:0:0:
183,196,57223,1,8,0:0:0:0:
183,196,57306,1,8,0:0:0:0:
183,196,57389,1,0,0:0:0:0:
183,196,57723,1,0,0:0:0:0:
183,196,57806,1,0,0:0:0:0:
183,196,57889,1,8,0:0:0:0:
183,196,58056,1,0,0:0:0:0:
183,196,58223,1,8,0:0:0:0:
184,94,58389,1,0,0:0:0:0:
184,94,58473,1,0,0:0:0:0:
183,196,58556,1,8,0:0:0:0:
183,196,58723,1,0,0:0:0:0:
183,196,59056,1,0,0:0:0:0:
183,196,59139,1,0,0:0:0:0:
183,196,59223,1,8,0:0:0:0:
262,177,59389,1,0,0:0:0:0:
262,177,59556,1,8,0:0:0:0:
262,177,59723,1,0,0:0:0:0:
262,177,59806,1,0,0:0:0:0:
262,177,59889,1,8,0:0:0:0:
202,54,59973,1,8,0:0:0:0:
262,177,60056,1,0,0:0:0:0:
262,177,60223,1,8,0:0:0:0:
262,177,60389,1,0,0:0:0:0:
262,177,60473,1,0,0:0:0:0:
262,177,60556,1,8,0:0:0:0:
262,177,60723,1,0,0:0:0:0:
262,177,61056,1,0,0:0:0:0:
259,181,61139,1,0,0:0:0:0:
259,181,61223,1,8,0:0:0:0:
259,181,61389,1,0,0:0:0:0:
76,49,61556,1,8,0:0:0:0:
257,190,61889,1,8,0:0:0:0:
257,190,62056,1,0,0:0:0:0:
257,190,62223,1,8,0:0:0:0:
189,98,62389,1,0,0:0:0:0:
189,98,62473,1,0,0:0:0:0:
257,190,62556,1,8,0:0:0:0:
257,190,62723,1,0,0:0:0:0:
257,190,62806,1,0,0:0:0:0:
257,190,62889,1,8,0:0:0:0:
257,190,62973,1,8,0:0:0:0:
257,190,63056,1,0,0:0:0:0:
257,190,63223,1,8,0:0:0:0:
257,190,63389,1,0,0:0:0:0:
257,190,63473,1,0,0:0:0:0:
257,190,63556,1,8,0:0:0:0:
257,190,63723,1,8,0:0:0:0:
257,190,63806,1,8,0:0:0:0:
257,190,63889,1,8,0:0:0:0:
257,190,63973,1,8,0:0:0:0:
257,190,64056,1,4,0:0:0:0:
210,127,64389,1,0,0:0:0:0:
210,127,64473,1,0,0:0:0:0:
210,127,64556,1,8,0:0:0:0:
210,127,64723,1,0,0:0:0:0:
210,127,64889,1,8,0:0:0:0:
210,127,64973,1,8,0:0:0:0:
210,127,65056,1,0,0:0:0:0:
141,113,65139,1,0,0:0:0:0:
210,117,65223,1,8,0:0:0:0:
210,117,65389,1,0,0:0:0:0:
210,117,65723,1,0,0:0:0:0:
210,117,65889,1,8,0:0:0:0:
210,117,65973,1,8,0:0:0:0:
210,117,66056,1,0,0:0:0:0:
210,117,66223,1,8,0:0:0:0:
210,117,66389,1,0,0:0:0:0:
210,117,66473,1,0,0:0:0:0:
210,117,66556,1,8,0:0:0:0:
210,117,66723,1,0,0:0:0:0:
203,116,67056,1,0,0:0:0:0:
203,116,67139,1,0,0:0:0:0:
203,116,67223,1,8,0:0:0:0:
203,116,67389,1,0,0:0:0:0:
203,116,67556,1,8,0:0:0:0:
203,116,67723,1,0,0:0:0:0:
203,116,67806,1,0,0:0:0:0:
203,116,67889,1,8,0:0:0:0:
203,116,67973,1,0,0:0:0:0:
203,116,68056,1,0,0:0:0:0:
200,111,68389,1,8,0:0:0:0:
200,111,68473,1,8,0:0:0:0:
200,111,68556,1,0,0:0:0:0:
200,111,68639,1,0,0:0:0:0:
200,111,68723,1,8,0:0:0:0:
200,111,68889,1,8,0:0:0:0:
200,111,69056,1,0,0:0:0:0:
200,111,69139,1,0,0:0:0:0:
200,111,69223,1,8,0:0:0:0:
211,114,69306,1,8,0:0:0:0:
200,111,69389,1,0,0:0:0:0:
200,179,69723,1,0,0:0:0:0:
191,179,70056,1,8,0:0:0:0:
191,179,70223,1,8,0:0:0:0:
191,179,70306,1,0,0:0:0:0:
191,179,70473,1,0,0:0:0:0:
191,179,70556,1,8,0:0:0:0:
172,115,70723,1,0,0:0:0:0:
163,121,71056,1,0,0:0:0:0:
163,121,71139,1,0,0:0:0:0:
163,121,71223,1,8,0:0:0:0:
132,67,71306,1,8,0:0:0:0:
163,121,71389,1,0,0:0:0:0:
163,121,71556,1,8,0:0:0:0:
163,121,71639,1,0,0:0:0:0:
173,94,71806,1,0,0:0:0:0:
172,99,71889,1,8,0:0:0:0:
206,112,72056,1,0,0:0:0:0:
200,101,72389,1,0,0:0:0:0:
200,101,72473,1,0,0:0:0:0:
200,101,72556,1,8,0:0:0:0:
200,101,72723,1,0,0:0:0:0:
195,82,73056,1,0,0:0:0:0:
195,82,73223,1,8,0:0:0:0:
210,71,73389,1,8,0:0:0:0:
210,71,73473,1,8,0:0:0:0:
210,71,73556,1,0,0:0:0:0:
210,71,73639,1,0,0:0:0:0:
210,71,73723,1,8,0:0:0:0:
210,71,73889,1,8,0:0:0:0:
210,71,73973,1,0,0:0:0:0:
210,71,74056,1,0,0:0:0:0:
210,71,74223,1,0,0:0:0:0:
210,71,74306,1,0,0:0:0:0:
210,71,74389,1,8,0:0:0:0:
210,71,74556,1,8,0:0:0:0:
214,102,74723,1,4,0:0:0:0:
210,203,75056,1,0,0:0:0:0:
210,203,75139,1,0,0:0:0:0:
210,203,75223,1,8,0:0:0:0:
210,203,75389,1,0,0:0:0:0:
210,203,75556,1,8,0:0:0:0:
210,203,75723,1,0,0:0:0:0:
217,203,75806,1,0,0:0:0:0:
224,201,75889,1,0,0:0:0:0:
224,201,75973,1,0,0:0:0:0:
268,177,76056,1,8,0:0:0:0:
268,177,76223,1,8,0:0:0:0:
184,124,76389,1,0,0:0:0:0:
182,131,76556,1,8,0:0:0:0:
182,132,76639,1,8,0:0:0:0:
182,131,76723,1,0,0:0:0:0:
182,131,76889,1,0,0:0:0:0:
131,96,77056,1,8,0:0:0:0:
131,96,77223,1,8,0:0:0:0:
217,44,77306,1,8,0:0:0:0:
124,90,77389,1,0,0:0:0:0:
176,133,77556,1,0,0:0:0:0:
176,133,77723,1,8,0:0:0:0:
172,128,77806,1,0,0:0:0:0:
172,128,77889,1,8,0:0:0:0:
172,128,77973,1,0,0:0:0:0:
172,128,78056,1,8,0:0:0:0:
172,128,78389,1,8,0:0:0:0:
172,128,78473,1,0,0:0:0:0:
172,128,78556,1,8,0:0:0:0:
172,128,78639,1,0,0:0:0:0:
201,71,78723,1,8,0:0:0:0:
196,65,79056,1,0,0:0:0:0:
191,68,79389,1,8,0:0:0:0:
191,68,79556,1,0,0:0:0:0:
188,70,79639,1,0,0:0:0:0:
185,71,79723,1,8,0:0:0:0:
185,71,79889,1,0,0:0:0:0:
184,73,79973,1,0,0:0:0:0:
157,31,80056,1,8,0:0:0:0:
157,31,80139,1,8,0:0:0:0:
157,31,80223,1,0,0:0:0:0:
152,200,80389,1,0,0:0:0:0:
190,86,80556,1,8,0:0:0:0:
190,86,80723,1,0,0:0:0:0:
190,86,80889,1,0,0:0:0:0:
242,99,81056,1,8,0:0:0:0:
242,99,81139,1,8,0:0:0:0:
242,99,81223,1,0,0:0:0:0:
242,99,81306,1,0,0:0:0:0:
242,99,81389,1,8,0:0:0:0:
267,88,81556,1,0,0:0:0:0:
267,88,81723,1,0,0:0:0:0:
267,88,81889,1,8,0:0:0:0:
267,88,81973,1,8,0:0:0:0:
267,88,82056,1,0,0:0:0:0:
190,57,82223,1,0,0:0:0:0:
190,57,82389,1,8,0:0:0:0:
188,64,82473,1,8,0:0:0:0:
188,63,82556,1,8,0:0:0:0:
188,64,82639,1,8,0:0:0:0:
188,63,82723,1,0,0:0:0:0:
188,63,83056,1,0,0:0:0:0:
188,63,83139,1,0,0:0:0:0:
188,63,83223,1,8,0:0:0:0:
188,63,83306,1,0,0:0:0:0:
188,63,83389,1,8,0:0:0:0:
188,63,83723,1,0,0:0:0:0:
200,158,84056,1,12,0:0:0:0:
153,176,85389,1,4,0:0:0:0:
193,191,85723,1,8,0:0:0:0:
193,191,85806,1,0,0:0:0:0:
193,191,85889,1,8,0:0:0:0:
232,106,85973,1,8,0:0:0:0:
232,106,86056,1,0,0:0:0:0:
221,124,86223,1,8,0:0:0:0:
221,124,86306,1,8,0:0:0:0:
221,124,86389,1,0,0:0:0:0:
212,106,86556,1,8,0:0:0:0:
202,158,86723,1,0,0:0:0:0:
231,152,86889,1,8,0:0:0:0:
224,147,87056,1,8,0:0:0:0:
224,147,87223,1,0,0:0:0:0:
224,147,87306,1,0,0:0:0:0:
224,147,87389,1,8,0:0:0:0:
224,147,87473,1,0,0:0:0:0:
224,147,87556,1,8,0:0:0:0:
224,147,87723,1,0,0:0:0:0:
214,143,87806,1,0,0:0:0:0:
214,143,87889,1,8,0:0:0:0:
214,143,88056,1,4,0:0:0:0:
214,143,88389,1,0,0:0:0:0:
214,143,88556,1,8,0:0:0:0:
214,143,88889,1,8,0:0:0:0:
214,143,88973,1,8,0:0:0:0:
216,132,89056,1,0,0:0:0:0:
216,138,89139,1,0,0:0:0:0:
216,132,89223,1,8,0:0:0:0:
216,132,89389,1,4,0:0:0:0:
216,132,89723,1,0,0:0:0:0:
216,132,89889,1,8,0:0:0:0:
135,69,90056,1,8,0:0:0:0:
216,132,90223,1,0,0:0:0:0:
216,132,90389,1,8,0:0:0:0:
291,193,90473,1,8,0:0:0:0:
238,93,90556,1,8,0:0:0:0:
156,68,90639,1,8,0:0:0:0:
267,193,90723,1,4,0:0:0:0:
173,142,91056,1,8,0:0:0:0:
174,142,91139,1,0,0:0:0:0:
173,142,91223,1,8,0:0:0:0:
174,142,91306,1,8,0:0:0:0:
173,142,91389,1,0,0:0:0:0:
173,142,91556,1,8,0:0:0:0:
173,142,91723,1,0,0:0:0:0:
173,142,92056,1,8,0:0:0:0:
173,142,92223,1,0,0:0:0:0:
173,142,92306,1,8,0:0:0:0:
173,142,92389,1,0,0:0:0:0:
177,86,92473,1,0,0:0:0:0:
209,136,92556,1,8,0:0:0:0:
209,136,92723,1,0,0:0:0:0:
209,136,92889,1,8,0:0:0:0:
209,136,92973,1,8,0:0:0:0:
228,112,93056,1,0,0:0:0:0:
220,106,93139,1,0,0:0:0:0:
220,106,93223,1,8,0:0:0:0:
228,99,93389,1,12,0:0:0:0:
225,91,93723,1,8,0:0:0:0:
168,82,93806,1,8,0:0:0:0:
168,82,93889,1,0,0:0:0:0:
168,82,93973,1,0,0:0:0:0:
168,82,94056,1,8,0:0:0:0:
168,82,94223,1,0,0:0:0:0:
168,82,94306,1,0,0:0:0:0:
168,82,94389,1,8,0:0:0:0:
168,82,94473,1,8,0:0:0:0:
168,82,94556,1,0,0:0:0:0:
219,101,94723,1,12,0:0:0:0:
203,92,95056,1,8,0:0:0:0:
203,92,95139,1,8,0:0:0:0:
198,89,95223,1,0,0:0:0:0:
162,216,95306,1,0,0:0:0:0:
198,89,95389,1,8,0:0:0:0:
199,83,95556,1,0,0:0:0:0:
199,83,95639,1,0,0:0:0:0:
199,83,95723,1,8,0:0:0:0:
199,83,95806,1,0,0:0:0:0:
199,83,95889,1,8,0:0:0:0:
194,88,96056,1,4,0:0:0:0:
246,180,96389,1,8,0:0:0:0:
241,175,96473,1,0,0:0:0:0:
240,175,96556,1,8,0:0:0:0:
241,175,96639,1,8,0:0:0:0:
240,175,96723,1,0,0:0:0:0:
240,175,96889,1,8,0:0:0:0:
240,175,97056,1,0,0:0:0:0:
240,175,97139,1,0,0:0:0:0:
240,175,97223,1,8,0:0:0:0:
240,175,97389,1,0,0:0:0:0:
223,175,97556,1,8,0:0:0:0:
223,175,97723,1,8,0:0:0:0:
223,175,97889,1,8,0:0:0:0:
240,119,97973,1,8,0:0:0:0:
240,119,98056,1,0,0:0:0:0:
240,119,98139,1,0,0:0:0:0:
240,119,98223,1,8,0:0:0:0:
233,121,98389,1,0,0:0:0:0:
233,121,98473,1,0,0:0:0:0:
233,121,98555,1,8,0:0:0:0:
225,123,98723,1,12,0:0:0:0:
225,123,99056,1,0,0:0:0:0:
225,123,99223,1,8,0:0:0:0:
225,123,99556,1,0,0:0:0:0:
225,123,99723,1,8,0:0:0:0:
178,132,99806,1,8,0:0:0:0:
225,123,99889,1,0,0:0:0:0:
210,166,100056,1,12,0:0:0:0:
210,166,100389,1,0,0:0:0:0:
210,166,100556,1,8,0:0:0:0:
210,166,100639,1,8,0:0:0:0:
210,166,100723,1,0,0:0:0:0:
210,166,100806,1,0,0:0:0:0:
210,166,100889,1,8,0:0:0:0:
197,161,101056,1,8,0:0:0:0:
197,161,101139,1,8,0:0:0:0:
186,165,101223,1,0,0:0:0:0:
186,165,101389,1,12,0:0:0:0:
186,165,101723,1,8,0:0:0:0:
176,55,101806,1,0,0:0:0:0:
186,165,101889,1,8,0:0:0:0:
186,165,101973,1,8,0:0:0:0:
186,165,102056,1,0,0:0:0:0:
210,165,102223,1,8,0:0:0:0:
210,164,102306,1,8,0:0:0:0:
210,165,102389,1,8,0:0:0:0:
176,107,102473,1,8,0:0:0:0:
174,91,102556,1,0,0:0:0:0:
172,96,102639,1,0,0:0:0:0:
172,96,102723,1,8,0:0:0:0:
179,108,102889,1,0,0:0:0:0:
179,108,103056,1,8,0:0:0:0:
176,102,103223,1,0,0:0:0:0:
176,107,103306,1,0,0:0:0:0:
176,107,103389,1,8,0:0:0:0:
176,107,103556,1,8,0:0:0:0:
176,107,103723,1,8,0:0:0:0:
176,107,103806,1,8,0:0:0:0:
176,107,103888,1,0,0:0:0:0:
176,107,104056,1,12,0:0:0:0:
172,112,104389,1,0,0:0:0:0:
172,112,104556,1,8,0:0:0:0:
167,107,104723,1,8,0:0:0:0:
162,105,104806,1,0,0:0:0:0:
161,102,104889,1,0,0:0:0:0:
162,105,104973,1,0,0:0:0:0:
161,102,105056,1,8,0:0:0:0:
161,102,105223,1,8,0:0:0:0:
161,102,105389,1,4,0:0:0:0:
198,114,105723,1,0,0:0:0:0:
191,108,105889,1,12,0:0:0:0:
203,116,106056,1,0,0:0:0:0:
198,114,106223,1,0,0:0:0:0:
210,102,106306,1,0,0:0:0:0:
191,108,106389,1,8,0:0:0:0:
237,84,106556,1,8,0:0:0:0:
217,87,106723,1,4,0:0:0:0:
231,158,107056,1,0,0:0:0:0:
225,156,107139,1,0,0:0:0:0:
225,155,107223,1,8,0:0:0:0:
225,155,107389,1,0,0:0:0:0:
225,155,107556,1,8,0:0:0:0:
189,141,107723,1,0,0:0:0:0:
189,141,107889,1,8,0:0:0:0:
189,141,108056,1,0,0:0:0:0:
189,141,108389,1,0,0:0:0:0:
189,141,108473,1,0,0:0:0:0:
189,141,108556,1,8,0:0:0:0:
189,141,108723,1,0,0:0:0:0:
189,141,108889,1,8,0:0:0:0:
189,141,108973,1,8,0:0:0:0:
189,141,109056,1,0,0:0:0:0:
189,141,109139,1,0,0:0:0:0:
189,141,109223,1,8,0:0:0:0:
171,147,109389,1,0,0:0:0:0:
167,143,109723,1,0,0:0:0:0:
167,143,109806,1,0,0:0:0:0:
171,147,109889,1,8,0:0:0:0:
171,147,109973,1,0,0:0:0:0:
171,147,110056,1,0,0:0:0:0:
171,147,110223,1,8,0:0:0:0:
171,147,110389,1,0,0:0:0:0:
171,147,110473,1,0,0:0:0:0:
171,147,110556,1,8,0:0:0:0:
171,147,110723,1,0,0:0:0:0:
171,147,110889,1,8,0:0:0:0:
171,147,111056,1,0,0:0:0:0:
171,147,111389,1,0,0:0:0:0:
171,147,111556,1,8,0:0:0:0:
171,147,111723,1,0,0:0:0:0:
171,147,111806,1,0,0:0:0:0:
171,147,111889,1,8,0:0:0:0:
166,122,112056,1,0,0:0:0:0:
162,113,112389,1,0,0:0:0:0:
76,123,112473,1,0,0:0:0:0:
162,113,112556,1,8,0:0:0:0:
162,113,112723,1,0,0:0:0:0:
269,107,112889,1,8,0:0:0:0:
162,113,113056,1,0,0:0:0:0:
162,113,113139,1,0,0:0:0:0:
162,113,113223,1,8,0:0:0:0:
162,113,113389,1,0,0:0:0:0:
162,113,113723,1,0,0:0:0:0:
160,113,113806,1,0,0:0:0:0:
162,113,113889,1,8,0:0:0:0:
162,113,114056,1,0,0:0:0:0:
162,113,114223,1,8,0:0:0:0:
129,93,114306,1,8,0:0:0:0:
162,113,114389,1,0,0:0:0:0:
162,113,114556,1,8,0:0:0:0:
132,123,114723,1,0,0:0:0:0:
244,202,115056,1,0,0:0:0:0:
244,202,115139,1,0,0:0:0:0:
244,202,115223,1,8,0:0:0:0:
238,201,115306,1,8,0:0:0:0:
222,207,115389,1,0,0:0:0:0:
222,207,115723,1,0,0:0:0:0:
222,207,115806,1,0,0:0:0:0:
222,207,115889,1,8,0:0:0:0:
218,202,115973,1,0,0:0:0:0:
218,202,116056,1,8,0:0:0:0:
218,202,116389,1,0,0:0:0:0:
214,204,116473,1,0,0:0:0:0:
218,202,116556,1,8,0:0:0:0:
214,204,116639,1,8,0:0:0:0:
218,202,116723,1,0,0:0:0:0:
218,202,116889,1,8,0:0:0:0:
214,204,116973,1,0,0:0:0:0:
218,202,117056,1,8,0:0:0:0:
146,112,117139,1,8,0:0:0:0:
180,50,117223,1,0,0:0:0:0:
210,207,117389,1,12,0:0:0:0:
172,188,117723,1,0,0:0:0:0:
172,188,117806,1,0,0:0:0:0:
172,188,117889,1,8,0:0:0:0:
172,188,118056,1,0,0:0:0:0:
182,189,118278,1,8,0:0:0:0:
182,189,118501,1,8,0:0:0:0:
141,112,118723,1,0,0:0:0:0:
141,112,119056,1,0,0:0:0:0:
275,123,119139,1,0,0:0:0:0:
141,112,119222,1,8,0:0:0:0:
155,93,119389,1,8,0:0:0:0:
154,103,119612,1,0,0:0:0:0:
151,104,119834,1,0,0:0:0:0:
151,104,120056,1,8,0:0:0:0:
236,190,120389,1,0,0:0:0:0:
233,143,120473,1,0,0:0:0:0:
242,104,120556,1,0,0:0:0:0:
240,108,120639,1,0,0:0:0:0:
236,190,120723,1,8,0:0:0:0:
232,193,120945,1,0,0:0:0:0:
231,195,121167,1,0,0:0:0:0:
220,196,121389,1,8,0:0:0:0:
205,161,121723,1,0,0:0:0:0:
205,161,121806,1,0,0:0:0:0:
205,161,121889,1,8,0:0:0:0:
205,161,121973,1,8,0:0:0:0:
205,161,122056,1,0,0:0:0:0:
205,161,122223,1,8,0:0:0:0:
205,161,122306,1,8,0:0:0:0:
205,161,122389,1,0,0:0:0:0:
197,151,122556,1,0,0:0:0:0:
205,161,122723,1,12,0:0:0:0:
202,129,122945,1,0,0:0:0:0:
202,129,123167,1,0,0:0:0:0:
178,112,123389,1,8,0:0:0:0:
221,104,123612,1,8,0:0:0:0:
179,74,123834,1,0,0:0:0:0:
166,72,124056,1,8,0:0:0:0:
163,78,124389,1,0,0:0:0:0:
161,82,124473,1,0,0:0:0:0:
151,64,124556,1,8,0:0:0:0:
148,72,124723,1,8,0:0:0:0:
181,65,124945,1,0,0:0:0:0:
177,58,125167,1,0,0:0:0:0:
170,61,125389,1,12,0:0:0:0:
178,90,125723,1,0,0:0:0:0:
176,83,125806,1,0,0:0:0:0:
176,83,125889,1,8,0:0:0:0:
176,83,125973,1,8,0:0:0:0:
176,83,126056,1,0,0:0:0:0:
176,83,126223,1,8,0:0:0:0:
176,83,126389,1,0,0:0:0:0:
176,81,126473,1,0,0:0:0:0:
176,83,126556,1,8,0:0:0:0:
176,81,126639,1,0,0:0:0:0:
176,83,126723,1,8,0:0:0:0:
176,83,126889,1,0,0:0:0:0:
176,81,126973,1,0,0:0:0:0:
176,83,127056,1,8,0:0:0:0:
176,83,127223,1,0,0:0:0:0:
172,78,127389,1,8,0:0:0:0:
124,133,127473,1,8,0:0:0:0:
172,78,127556,1,0,0:0:0:0:
132,158,127639,1,0,0:0:0:0:
172,78,127723,1,8,0:0:0:0:
172,78,127889,1,8,0:0:0:0:
172,78,128056,1,4,0:0:0:0:
178,81,128389,1,0,0:0:0:0:
178,81,128556,1,8,0:0:0:0:
173,72,128639,1,8,0:0:0:0:
199,71,128723,1,0,0:0:0:0:
199,71,128889,1,0,0:0:0:0:
280,71,129056,1,8,0:0:0:0:
269,71,129139,1,0,0:0:0:0:
269,71,129223,1,0,0:0:0:0:
269,71,129306,1,0,0:0:0:0:
269,71,129389,1,8,0:0:0:0:
184,83,129723,1,0,0:0:0:0:
184,83,129889,1,8,0:0:0:0:
184,83,129973,1,8,0:0:0:0:
184,83,130056,1,0,0:0:0:0:
184,83,130223,1,0,0:0:0:0:
184,83,130389,1,8,0:0:0:0:
184,83,130473,1,8,0:0:0:0:
184,83,130556,1,8,0:0:0:0:
184,83,130639,1,8,0:0:0:0:
173,89,130723,1,0,0:0:0:0:
173,89,131056,1,8,0:0:0:0:
173,89,131139,1,0,0:0:0:0:
173,89,131223,1,8,0:0:0:0:
173,89,131306,1,0,0:0:0:0:
173,89,131389,1,8,0:0:0:0:
167,88,131723,1,8,0:0:0:0:
166,83,131806,1,0,0:0:0:0:
167,88,131889,1,8,0:0:0:0:
166,83,131973,1,0,0:0:0:0:
167,88,132056,1,8,0:0:0:0:
167,88,132389,1,8,0:0:0:0:
166,83,132473,1,8,0:0:0:0:
164,83,132556,1,0,0:0:0:0:
166,83,132639,1,0,0:0:0:0:
164,83,132723,1,8,0:0:0:0:
133,107,132889,1,0,0:0:0:0:
175,99,133056,1,8,0:0:0:0:
169,94,133223,1,0,0:0:0:0:
172,97,133306,1,0,0:0:0:0:
169,94,133389,1,8,0:0:0:0:
165,90,133723,1,0,0:0:0:0:
165,90,133889,1,8,0:0:0:0:
212,62,133973,1,0,0:0:0:0:
165,90,134055,1,8,0:0:0:0:
165,90,134223,1,0,0:0:0:0:
167,203,134306,1,0,0:0:0:0:
165,90,134389,1,8,0:0:0:0:
165,90,134556,1,0,0:0:0:0:
165,90,134723,1,8,0:0:0:0:
165,90,134889,1,8,0:0:0:0:
165,90,135056,1,0,0:0:0:0:
167,203,135139,1,0,0:0:0:0:
165,90,135223,1,8,0:0:0:0:
150,76,135389,1,8,0:0:0:0:
150,76,135473,1,8,0:0:0:0:
150,76,135556,1,0,0:0:0:0:
150,76,135639,1,0,0:0:0:0:
150,76,135723,1,8,0:0:0:0:
144,78,136056,1,0,0:0:0:0:
145,78,136139,1,0,0:0:0:0:
144,78,136223,1,0,0:0:0:0:
145,78,136306,1,0,0:0:0:0:
136,77,136389,1,8,0:0:0:0:
136,77,136556,1,8,0:0:0:0:
135,77,136639,1,0,0:0:0:0:
136,77,136723,1,8,0:0:0:0:
136,77,137056,1,0,0:0:0:0:
130,78,137389,1,12,0:0:0:0:
199,82,137723,1,0,0:0:0:0:
199,82,137806,1,0,0:0:0:0:
199,82,137889,1,8,0:0:0:0:
193,83,138056,1,0,0:0:0:0:
186,76,138223,1,0,0:0:0:0:
186,76,138306,1,0,0:0:0:0:
186,76,138389,1,8,0:0:0:0:
186,76,138473,1,8,0:0:0:0:
186,76,138556,1,8,0:0:0:0:
186,76,138723,1,4,0:0:0:0:
182,132,139056,1,8,0:0:0:0:
182,132,139139,1,0,0:0:0:0:
182,132,139223,1,8,0:0:0:0:
184,97,139306,1,8,0:0:0:0:
184,97,139389,1,0,0:0:0:0:
212,184,139556,1,8,0:0:0:0:
212,178,139723,1,0,0:0:0:0:
212,178,139806,1,0,0:0:0:0:
221,181,139889,1,8,0:0:0:0:
208,124,140056,1,0,0:0:0:0:
208,124,140223,1,8,0:0:0:0:
208,124,140389,1,8,0:0:0:0:
206,129,140473,1,8,0:0:0:0:
206,129,140556,1,0,0:0:0:0:
200,124,140639,1,0,0:0:0:0:
200,129,140723,1,8,0:0:0:0:
200,129,140889,1,0,0:0:0:0:
200,129,140973,1,0,0:0:0:0:
200,129,141056,1,8,0:0:0:0:
200,129,141139,1,0,0:0:0:0:
200,129,141223,1,8,0:0:0:0:
218,117,141389,1,4,0:0:0:0:
158,117,141723,1,0,0:0:0:0:
152,127,141889,1,8,0:0:0:0:
235,177,142056,1,0,0:0:0:0:
230,177,142139,1,0,0:0:0:0:
225,176,142223,1,8,0:0:0:0:
219,180,142389,1,8,0:0:0:0:
219,179,142473,1,8,0:0:0:0:
219,180,142556,1,0,0:0:0:0:
219,180,142723,1,12,0:0:0:0:
204,179,143056,1,0,0:0:0:0:
204,179,143223,1,8,0:0:0:0:
204,179,143306,1,8,0:0:0:0:
212,158,143389,1,0,0:0:0:0:
208,165,143556,1,8,0:0:0:0:
162,63,143639,1,8,0:0:0:0:
204,171,143722,1,0,0:0:0:0:
156,69,143805,1,0,0:0:0:0:
204,171,143889,1,8,0:0:0:0:
194,174,144056,1,4,0:0:0:0:
185,106,144389,1,8,0:0:0:0:
177,106,144473,1,0,0:0:0:0:
175,122,144556,1,8,0:0:0:0:
161,138,144639,1,8,0:0:0:0:
153,143,144723,1,0,0:0:0:0:
153,143,144889,1,8,0:0:0:0:
171,87,145056,1,0,0:0:0:0:
169,102,145139,1,0,0:0:0:0:
181,96,145223,1,8,0:0:0:0:
197,77,145389,1,0,0:0:0:0:
197,77,145556,1,8,0:0:0:0:
185,83,145723,1,8,0:0:0:0:
188,80,145806,1,8,0:0:0:0:
180,79,145889,1,0,0:0:0:0:
178,76,145973,1,0,0:0:0:0:
180,79,146056,1,8,0:0:0:0:
174,84,146223,1,8,0:0:0:0:
174,84,146389,1,0,0:0:0:0:
174,84,146472,1,0,0:0:0:0:
174,84,146556,1,8,0:0:0:0:
158,98,146723,1,12,0:0:0:0:
206,146,147056,1,0,0:0:0:0:
201,149,147389,1,8,0:0:0:0:
206,144,147555,1,0,0:0:0:0:
236,126,147639,1,0,0:0:0:0:
236,126,147723,1,8,0:0:0:0:
219,123,147806,1,8,0:0:0:0:
219,123,147889,1,0,0:0:0:0:
219,123,148056,1,12,0:0:0:0:
180,116,148223,1,0,0:0:0:0:
180,116,148306,1,0,0:0:0:0:
180,116,148389,1,8,0:0:0:0:
180,116,148473,1,0,0:0:0:0:
180,116,148556,1,8,0:0:0:0:
176,120,148723,1,0,0:0:0:0:
176,120,148889,1,0,0:0:0:0:
176,120,149056,1,8,0:0:0:0:
173,111,149139,1,8,0:0:0:0:
173,111,149223,1,8,0:0:0:0:
173,111,149306,1,8,0:0:0:0:
173,111,149389,1,4,0:0:0:0:
192,150,149723,1,8,0:0:0:0:
247,115,149806,1,0,0:0:0:0:
195,111,149889,1,8,0:0:0:0:
238,72,149973,1,8,0:0:0:0:
195,111,150056,1,0,0:0:0:0:
189,120,150223,1,0,0:0:0:0:
189,120,150388,1,8,0:0:0:0:
176,97,150473,1,8,0:0:0:0:
173,102,150556,1,0,0:0:0:0:
173,102,150722,1,8,0:0:0:0:
173,102,150889,1,0,0:0:0:0:
171,107,151056,1,8,0:0:0:0:
171,107,151139,1,0,0:0:0:0:
171,107,151223,1,8,0:0:0:0:
171,107,151389,1,0,0:0:0:0:
171,107,151556,1,8,0:0:0:0:
171,107,151723,1,8,0:0:0:0:
171,107,151806,1,8,0:0:0:0:
171,107,151889,1,0,0:0:0:0:
171,107,152056,1,12,0:0:0:0:
171,107,152389,1,0,0:0:0:0:
171,107,152556,1,8,0:0:0:0:
171,107,152639,1,8,0:0:0:0:
204,49,152723,1,0,0:0:0:0:
196,53,152806,1,0,0:0:0:0:
192,44,152889,1,8,0:0:0:0:
192,44,153056,1,0,0:0:0:0:
195,53,153139,1,0,0:0:0:0:
185,58,153223,1,0,0:0:0:0:
185,58,153389,1,12,0:0:0:0:
193,121,153723,1,0,0:0:0:0:
183,124,153889,1,8,0:0:0:0:
176,118,153973,1,8,0:0:0:0:
176,118,154056,1,0,0:0:0:0:
176,118,154222,1,0,0:0:0:0:
176,118,154306,1,0,0:0:0:0:
176,118,154389,1,8,0:0:0:0:
176,118,154472,1,0,0:0:0:0:
176,118,154555,1,0,0:0:0:0:
176,118,154722,1,12,0:0:0:0:
221,149,155056,1,8,0:0:0:0:
211,149,155139,1,0,0:0:0:0:
200,129,155223,1,8,0:0:0:0:
200,137,155306,1,8,0:0:0:0:
200,137,155389,1,0,0:0:0:0:
200,137,155556,1,0,0:0:0:0:
195,139,155723,1,8,0:0:0:0:
195,140,155806,1,8,0:0:0:0:
195,139,155889,1,0,0:0:0:0:
195,139,156056,1,8,0:0:0:0:
183,137,156223,1,8,0:0:0:0:
183,137,156389,1,0,0:0:0:0:
183,137,156473,1,0,0:0:0:0:
183,137,156556,1,8,0:0:0:0:
179,141,156639,1,8,0:0:0:0:
179,141,156723,1,0,0:0:0:0:
179,141,156889,1,8,0:0:0:0:
179,141,157055,1,0,0:0:0:0:
179,141,157139,1,0,0:0:0:0:
179,141,157223,1,8,0:0:0:0:
179,141,157389,1,12,0:0:0:0:
179,217,157723,1,0,0:0:0:0:
179,217,157889,1,8,0:0:0:0:
179,217,158056,1,0,0:0:0:0:
179,217,158139,1,0,0:0:0:0:
178,223,158223,1,8,0:0:0:0:
178,223,158306,1,0,0:0:0:0:
178,223,158389,1,8,0:0:0:0:
178,223,158556,1,0,0:0:0:0:
178,223,158639,1,0,0:0:0:0:
171,212,158723,1,8,0:0:0:0:
171,212,158889,1,8,0:0:0:0:
171,212,159056,1,0,0:0:0:0:
84,96,159138,1,0,0:0:0:0:
171,212,159223,1,0,0:0:0:0:
84,96,159305,1,0,0:0:0:0:
171,212,159389,1,8,0:0:0:0:
264,187,159723,1,8,0:0:0:0:
253,193,160056,1,4,0:0:0:0:
267,208,160389,1,0,0:0:0:0:
267,208,160556,1,8,0:0:0:0:
261,208,160723,1,0,0:0:0:0:
247,198,161056,1,8,0:0:0:0:
247,198,161223,1,0,0:0:0:0:
457,80,161389,1,8,0:0:0:0:
349,126,161723,1,0,0:0:0:0:
349,126,161889,1,8,0:0:0:0:
338,126,162223,1,0,0:0:0:0:
338,126,162389,1,8,0:0:0:0:
333,124,162556,1,8,0:0:0:0:
333,124,162723,1,4,0:0:0:0:
333,126,163056,1,8,0:0:0:0:
333,126,163223,1,8,0:0:0:0:
333,126,163389,1,0,0:0:0:0:
333,126,163723,1,8,0:0:0:0:
333,126,164056,1,8,0:0:0:0:
228,206,164389,1,0,0:0:0:0:
228,206,164556,1,0,0:0:0:0:
228,206,164723,1,8,0:0:0:0:
228,206,164889,1,0,0:0:0:0:
227,212,165056,1,8,0:0:0:0:
227,212,165223,1,8,0:0:0:0:
227,212,165389,1,4,0:0:0:0:
231,206,165723,1,8,0:0:0:0:
231,206,165889,1,0,0:0:0:0:
230,205,166223,1,0,0:0:0:0:
230,205,166389,1,8,0:0:0:0:
278,165,166723,1,8,0:0:0:0:
306,140,167056,1,0,0:0:0:0:
306,140,167223,1,8,0:0:0:0:
306,140,167389,1,0,0:0:0:0:
303,145,167723,1,8,0:0:0:0:
306,143,168056,1,12,0:0:0:0:
331,109,168223,1,0,0:0:0:0:
316,114,168389,1,0,0:0:0:0:
259,106,168556,1,8,0:0:0:0:
259,106,168889,1,0,0:0:0:0:
255,111,169056,1,8,0:0:0:0:
255,111,169223,1,8,0:0:0:0:
255,111,169389,1,0,0:0:0:0:
253,122,169723,1,0,0:0:0:0:
253,122,169889,1,8,0:0:0:0:
253,122,170056,1,8,0:0:0:0:
251,117,170389,1,8,0:0:0:0:
246,121,170556,1,0,0:0:0:0:
262,103,170723,1,12,0:0:0:0:
263,133,171056,1,0,0:0:0:0:
263,133,171223,1,8,0:0:0:0:
260,132,171556,1,0,0:0:0:0:
260,132,171723,1,8,0:0:0:0:
260,132,171889,1,8,0:0:0:0:
254,136,172056,1,4,0:0:0:0:
218,113,172389,1,8,0:0:0:0:
218,113,172556,1,0,0:0:0:0:
216,116,172889,1,0,0:0:0:0:
216,116,173056,1,8,0:0:0:0:
202,114,173223,1,0,0:0:0:0:
189,193,173389,1,12,0:0:0:0:
185,202,173723,1,0,0:0:0:0:
185,202,173889,1,8,0:0:0:0:
185,202,174056,1,0,0:0:0:0:
185,207,174389,1,8,0:0:0:0:
185,207,174556,1,0,0:0:0:0:
329,115,174723,1,12,0:0:0:0:
379,89,175056,1,0,0:0:0:0:
325,160,175223,1,8,0:0:0:0:
323,164,175389,1,0,0:0:0:0:
323,164,175723,1,8,0:0:0:0:
323,164,175889,1,8,0:0:0:0:
323,164,176056,1,4,0:0:0:0:
187,105,176389,1,0,0:0:0:0:
169,100,176556,1,8,0:0:0:0:
163,97,176889,1,0,0:0:0:0:
164,88,177056,1,8,0:0:0:0:
164,88,177223,1,0,0:0:0:0:
168,101,177389,1,12,0:0:0:0:
157,106,177723,1,0,0:0:0:0:
157,106,177889,1,8,0:0:0:0:
157,106,178056,1,0,0:0:0:0:
157,106,178389,1,0,0:0:0:0:
157,106,178556,1,0,0:0:0:0:
157,106,178723,1,12,0:0:0:0:
157,106,179056,1,0,0:0:0:0:
157,106,179223,1,8,0:0:0:0:
157,106,179389,1,0,0:0:0:0:
157,106,179556,1,0,0:0:0:0:
157,106,179639,1,0,0:0:0:0:
144,100,179723,1,8,0:0:0:0:
144,100,179889,1,0,0:0:0:0:
144,100,180056,1,8,0:0:0:0:
144,100,180139,1,8,0:0:0:0:
144,100,180223,1,0,0:0:0:0:
144,100,180306,1,0,0:0:0:0:
144,100,180389,1,8,0:0:0:0:
144,100,180556,1,8,0:0:0:0:
144,100,180639,1,8,0:0:0:0:
144,100,180723,1,0,0:0:0:0:
141,104,180889,1,0,0:0:0:0:
141,104,181056,1,8,0:0:0:0:
141,104,181223,1,0,0:0:0:0:
137,107,181306,1,8,0:0:0:0:
137,107,181389,1,8,0:0:0:0:
137,107,181556,1,8,0:0:0:0:
137,107,181723,1,0,0:0:0:0:
137,107,181889,1,8,0:0:0:0:
134,100,181973,1,8,0:0:0:0:
134,100,182056,1,0,0:0:0:0:
134,100,182139,1,0,0:0:0:0:
129,96,182223,1,8,0:0:0:0:
134,100,182389,1,0,0:0:0:0:
134,100,182472,1,8,0:0:0:0:
198,51,182556,1,8,0:0:0:0:
198,51,182639,1,8,0:0:0:0:
198,51,182723,1,0,0:0:0:0:
188,54,183056,1,8,0:0:0:0:
190,126,183223,1,8,0:0:0:0:
104,64,183306,1,8,0:0:0:0:
183,53,183389,1,0,0:0:0:0:
183,53,183556,1,8,0:0:0:0:
183,53,183723,1,0,0:0:0:0:
164,107,183806,1,8,0:0:0:0:
183,53,183889,1,8,0:0:0:0:
301,145,184056,1,0,0:0:0:0:
221,73,184389,1,8,0:0:0:0:
288,133,184556,1,8,0:0:0:0:
211,91,184723,1,0,0:0:0:0:
211,91,184889,1,8,0:0:0:0:
209,95,184973,1,8,0:0:0:0:
209,95,185056,1,0,0:0:0:0:
209,95,185139,1,0,0:0:0:0:
180,85,185223,1,8,0:0:0:0:
203,99,185388,1,0,0:0:0:0:
203,99,185723,1,8,0:0:0:0:
203,99,185806,1,8,0:0:0:0:
202,104,185889,1,0,0:0:0:0:
202,104,186056,1,8,0:0:0:0:
202,104,186223,1,0,0:0:0:0:
201,104,186305,1,0,0:0:0:0:
202,104,186389,1,8,0:0:0:0:
187,62,186473,1,0,0:0:0:0:
187,62,186556,1,8,0:0:0:0:
202,104,186723,1,0,0:0:0:0:
224,160,186888,1,0,0:0:0:0:
164,108,187223,1,8,0:0:0:0:
164,108,187305,1,0,0:0:0:0:
164,108,187389,1,8,0:0:0:0:
158,105,187556,1,8,0:0:0:0:
188,96,187723,1,0,0:0:0:0:
188,96,187889,1,0,0:0:0:0:
188,96,188056,1,8,0:0:0:0:
188,96,188223,1,8,0:0:0:0:
188,96,188388,1,0,0:0:0:0:
176,93,188556,1,0,0:0:0:0:
131,68,188723,1,8,0:0:0:0:
131,68,188806,1,8,0:0:0:0:
131,68,188889,1,0,0:0:0:0:
131,68,188973,1,0,0:0:0:0:
131,68,189056,1,8,0:0:0:0:
147,80,189389,1,8,0:0:0:0:
143,85,189556,1,8,0:0:0:0:
143,85,189723,1,8,0:0:0:0:
143,85,189806,1,0,0:0:0:0:
139,72,189889,1,0,0:0:0:0:
147,80,190056,1,8,0:0:0:0:
143,85,190223,1,8,0:0:0:0:
143,85,190388,1,8,0:0:0:0:
143,85,190473,1,0,0:0:0:0:
139,72,190556,1,0,0:0:0:0:
209,84,190723,1,0,0:0:0:0:
116,17,190889,1,0,0:0:0:0:
204,85,191056,1,8,0:0:0:0:
205,88,191139,1,0,0:0:0:0:
204,85,191223,1,8,0:0:0:0:
204,85,191389,1,0,0:0:0:0:
242,143,191556,1,0,0:0:0:0:
210,64,191723,1,8,0:0:0:0:
179,48,191806,1,0,0:0:0:0:
183,51,191889,1,8,0:0:0:0:
180,55,192056,1,0,0:0:0:0:
180,55,192223,1,8,0:0:0:0:
201,93,192556,1,8,0:0:0:0:
201,93,192639,1,0,0:0:0:0:
201,67,192723,1,8,0:0:0:0:
192,60,192889,1,8,0:0:0:0:
192,60,192972,1,0,0:0:0:0:
192,60,193056,1,8,0:0:0:0:
192,60,193139,1,8,0:0:0:0:
192,60,193222,1,0,0:0:0:0:
188,65,193389,1,0,0:0:0:0:
188,65,193556,1,8,0:0:0:0:
179,109,193889,1,8,0:0:0:0:
174,97,193973,1,0,0:0:0:0:
169,99,194056,1,8,0:0:0:0:
169,99,194223,1,8,0:0:0:0:
169,99,194306,1,8,0:0:0:0:
169,99,194389,1,0,0:0:0:0:
169,99,194472,1,8,0:0:0:0:
169,99,194556,1,0,0:0:0:0:
166,107,194723,1,0,0:0:0:0:
171,108,194889,1,8,0:0:0:0:
215,158,195223,1,8,0:0:0:0:
215,158,195306,1,0,0:0:0:0:
215,158,195389,1,8,0:0:0:0:
215,158,195556,1,0,0:0:0:0:
215,158,195723,1,8,0:0:0:0:
215,158,195806,1,8,0:0:0:0:
215,158,195889,1,8,0:0:0:0:
215,158,195973,1,8,0:0:0:0:
215,158,196056,1,0,0:0:0:0:
215,158,196223,1,0,0:0:0:0:
209,158,196306,1,0,0:0:0:0:
208,158,196389,1,8,0:0:0:0:
209,158,196473,1,8,0:0:0:0:
208,158,196556,1,0,0:0:0:0:
208,158,196723,1,8,0:0:0:0:
205,134,196889,1,0,0:0:0:0:
203,120,197056,1,8,0:0:0:0:
210,112,197389,1,8,0:0:0:0:
200,115,197473,1,8,0:0:0:0:
210,112,197555,1,8,0:0:0:0:
200,115,197639,1,8,0:0:0:0:
200,116,197723,1,0,0:0:0:0:
200,116,197889,1,0,0:0:0:0:
182,79,198056,1,8,0:0:0:0:
182,79,198139,1,8,0:0:0:0:
192,104,198223,1,0,0:0:0:0:
177,52,198306,1,0,0:0:0:0:
176,78,198389,1,8,0:0:0:0:
169,102,198556,1,8,0:0:0:0:
169,108,198723,1,8,0:0:0:0:
231,123,198888,1,0,0:0:0:0:
231,123,198972,1,0,0:0:0:0:
231,123,199056,1,8,0:0:0:0:
177,30,199138,1,8,0:0:0:0:
231,123,199223,1,0,0:0:0:0:
231,123,199389,1,8,0:0:0:0:
226,124,199556,1,8,0:0:0:0:
226,124,199723,1,8,0:0:0:0:
226,124,199806,1,8,0:0:0:0:
226,124,199889,1,0,0:0:0:0:
167,68,200056,1,0,0:0:0:0:
167,68,200139,1,0,0:0:0:0:
166,73,200223,1,8,0:0:0:0:
166,75,200306,1,0,0:0:0:0:
166,73,200389,1,8,0:0:0:0:
160,83,200723,1,0,0:0:0:0:
161,31,200806,1,8,0:0:0:0:
159,88,200889,1,0,0:0:0:0:
159,88,200973,1,0,0:0:0:0:
159,88,201056,1,8,0:0:0:0:
159,88,201223,1,0,0:0:0:0:
159,88,201306,1,0,0:0:0:0:
151,102,201389,1,8,0:0:0:0:
151,102,201473,1,8,0:0:0:0:
151,102,201556,1,8,0:0:0:0:
151,102,201723,1,8,0:0:0:0:
151,102,201806,1,0,0:0:0:0:
151,102,201889,1,0,0:0:0:0:
151,102,201973,1,0,0:0:0:0:
151,102,202056,1,8,0:0:0:0:
151,102,202223,1,0,0:0:0:0:
151,102,202389,1,8,0:0:0:0:
151,108,202556,1,0,0:0:0:0:
148,101,202723,1,8,0:0:0:0:
231,45,202805,1,0,0:0:0:0:
171,122,202889,1,8,0:0:0:0:
171,122,202973,1,8,0:0:0:0:
171,122,203056,1,0,0:0:0:0:
166,118,203223,1,8,0:0:0:0:
201,120,203389,1,0,0:0:0:0:
201,120,203556,1,8,0:0:0:0:
183,111,203723,1,8,0:0:0:0:
176,111,203889,1,0,0:0:0:0:
232,89,204056,1,0,0:0:0:0:
161,41,204389,1,0,0:0:0:0:
161,41,204556,1,8,0:0:0:0:
161,41,204639,1,0,0:0:0:0:
161,41,204723,1,8,0:0:0:0:
158,46,204889,1,0,0:0:0:0:
161,62,205056,1,0,0:0:0:0:
159,68,205139,1,0,0:0:0:0:
157,68,205223,1,8,0:0:0:0:
178,51,205306,1,8,0:0:0:0:
178,51,205389,1,8,0:0:0:0:
159,59,205723,1,0,0:0:0:0:
158,64,205806,1,0,0:0:0:0:
158,67,205889,1,8,0:0:0:0:
158,64,205973,1,0,0:0:0:0:
158,67,206056,1,0,0:0:0:0:
158,67,206223,1,0,0:0:0:0:
152,72,206389,1,8,0:0:0:0:
152,72,206473,1,8,0:0:0:0:
152,72,206556,1,0,0:0:0:0:
152,72,206639,1,0,0:0:0:0:
152,77,206723,1,8,0:0:0:0:
166,48,206889,1,0,0:0:0:0:
165,57,206973,1,0,0:0:0:0:
159,53,207056,1,8,0:0:0:0:
159,53,207223,1,0,0:0:0:0:
159,53,207389,1,8,0:0:0:0:
157,56,207473,1,0,0:0:0:0:
159,53,207556,1,8,0:0:0:0:
159,53,207723,1,0,0:0:0:0:
157,56,207806,1,0,0:0:0:0:
156,59,207889,1,8,0:0:0:0:
157,56,207973,1,8,0:0:0:0:
156,59,208056,1,0,0:0:0:0:
215,113,208223,1,8,0:0:0:0:
198,106,208556,1,8,0:0:0:0:
198,106,208639,1,0,0:0:0:0:
172,57,208723,1,0,0:0:0:0:
172,57,208889,1,8,0:0:0:0:
171,65,209056,1,0,0:0:0:0:
171,65,209139,1,8,0:0:0:0:
171,65,209223,1,0,0:0:0:0:
171,65,209389,1,8,0:0:0:0:
171,65,209473,1,0,0:0:0:0:
171,65,209556,1,0,0:0:0:0:
212,64,209639,1,0,0:0:0:0:
212,64,209723,1,8,0:0:0:0:
174,76,210056,1,0,0:0:0:0:
174,76,210139,1,0,0:0:0:0:
174,76,210223,1,0,0:0:0:0:
174,76,210306,1,0,0:0:0:0:
174,76,210389,1,8,0:0:0:0:
317,245,210723,1,0,0:0:0:0:
317,245,210806,1,0,0:0:0:0:
297,230,210889,1,8,0:0:0:0:
293,240,210973,1,8,0:0:0:0:
293,241,211056,1,0,0:0:0:0:
289,246,211139,1,0,0:0:0:0:
288,249,211223,1,8,0:0:0:0:
288,249,211389,1,8,0:0:0:0:
289,246,211473,1,8,0:0:0:0:
288,249,211556,1,0,0:0:0:0:
289,246,211639,1,0,0:0:0:0:
209,139,211723,1,8,0:0:0:0:
209,133,211889,1,8,0:0:0:0:
209,133,211973,1,8,0:0:0:0:
195,115,212056,1,0,0:0:0:0:
184,115,212223,1,0,0:0:0:0:
184,115,212389,1,8,0:0:0:0:
184,115,212473,1,8,0:0:0:0:
184,115,212556,1,8,0:0:0:0:
184,115,212639,1,8,0:0:0:0:
184,115,212723,1,0,0:0:0:0:
184,115,212889,1,8,0:0:0:0:
184,115,213056,1,0,0:0:0:0:
184,115,213223,1,0,0:0:0:0:
184,115,213306,1,0,0:0:0:0:
184,115,213389,1,8,0:0:0:0:
230,145,213556,1,8,0:0:0:0:
230,145,213723,1,8,0:0:0:0:
230,145,213889,1,0,0:0:0:0:
195,124,214223,1,8,0:0:0:0:
176,121,214389,1,8,0:0:0:0:
176,121,214556,1,0,0:0:0:0:
214,118,214889,1,8,0:0:0:0:
211,112,215056,1,8,0:0:0:0:
211,112,215223,1,0,0:0:0:0:
211,112,215306,1,0,0:0:0:0:
211,112,215389,1,8,0:0:0:0:
211,112,215556,1,8,0:0:0:0:
211,112,215639,1,8,0:0:0:0:
211,112,215723,1,0,0:0:0:0:
205,110,215889,1,0,0:0:0:0:
205,110,216056,1,8,0:0:0:0:
205,110,216389,1,0,0:0:0:0:
205,110,216556,1,8,0:0:0:0:
205,110,216889,1,0,0:0:0:0:
205,110,217056,1,8,0:0:0:0:
205,110,217139,1,8,0:0:0:0:
215,85,217223,1,0,0:0:0:0:
195,61,217389,1,8,0:0:0:0:
161,80,217723,1,8,0:0:0:0:
144,85,217888,1,0,0:0:0:0:
146,88,218056,1,8,0:0:0:0:
150,88,218223,1,8,0:0:0:0:
146,88,218389,1,0,0:0:0:0:
179,95,218723,1,0,0:0:0:0:
176,88,218889,1,8,0:0:0:0:
176,88,219056,1,0,0:0:0:0:
176,88,219223,1,8,0:0:0:0:
212,140,219389,1,0,0:0:0:0:
205,149,219473,1,0,0:0:0:0:
204,150,219556,1,8,0:0:0:0:
205,149,219639,1,8,0:0:0:0:
204,150,219723,1,0,0:0:0:0:
198,150,219889,1,0,0:0:0:0:
198,150,220056,1,8,0:0:0:0:
198,150,220139,1,8,0:0:0:0:
198,150,220223,1,0,0:0:0:0:
198,150,220389,1,0,0:0:0:0:
193,137,220473,1,8,0:0:0:0:
193,137,220556,1,8,0:0:0:0:
187,139,220639,1,8,0:0:0:0:
184,139,220723,1,0,0:0:0:0:
184,139,220889,1,8,0:0:0:0:
176,138,220973,1,8,0:0:0:0:
187,83,221056,1,0,0:0:0:0:
176,80,221223,1,0,0:0:0:0:
176,80,221389,1,8,0:0:0:0:
176,80,221473,1,8,0:0:0:0:
176,80,221556,1,8,0:0:0:0:
176,80,221639,1,8,0:0:0:0:
171,80,221723,1,0,0:0:0:0:
166,79,221889,1,8,0:0:0:0:
166,79,222056,1,0,0:0:0:0:
156,79,222389,1,0,0:0:0:0:
156,79,222473,1,0,0:0:0:0:
152,83,222556,1,0,0:0:0:0:
153,83,222639,1,0,0:0:0:0:
152,83,222723,1,12,0:0:0:0:
157,143,223223,1,4,0:0:0:0:
158,143,223723,1,4,0:0:0:0:
158,143,224056,1,12,0:0:0:0:
256,192,224222,12,0,226722,0:0:0:0:
244,235,233889,5,0,0:0:0:0:
242,229,234056,1,0,0:0:0:0:
242,229,234556,1,0,0:0:0:0:
242,229,234723,1,12,0:0:0:0:
242,229,236056,1,0,0:0:0:0:
242,229,236389,1,8,0:0:0:0:
240,235,236723,1,8,0:0:0:0:
240,235,237056,1,0,0:0:0:0:
183,117,237223,1,0,0:0:0:0:
185,142,237389,1,12,0:0:0:0:
187,167,237723,1,0,0:0:0:0:
269,117,237806,1,8,0:0:0:0:
183,161,237889,1,8,0:0:0:0:
182,160,238223,1,8,0:0:0:0:
182,160,238389,1,0,0:0:0:0:
182,160,238723,1,0,0:0:0:0:
182,160,238806,1,0,0:0:0:0:
182,160,238889,1,8,0:0:0:0:
183,161,239223,1,0,0:0:0:0:
183,161,239389,1,8,0:0:0:0:
183,161,239473,1,8,0:0:0:0:
183,161,239556,1,0,0:0:0:0:
181,154,239723,1,8,0:0:0:0:
183,161,239806,1,8,0:0:0:0:
183,161,239889,1,0,0:0:0:0:
181,154,239973,1,0,0:0:0:0:
181,155,240056,1,8,0:0:0:0:
253,101,240389,1,8,0:0:0:0:
253,101,240556,1,4,0:0:0:0:
253,101,240889,1,8,0:0:0:0:
253,101,241056,1,4,0:0:0:0:
253,101,241389,1,8,0:0:0:0:
253,101,241556,1,0,0:0:0:0:
183,46,241639,1,0,0:0:0:0:
217,112,241723,1,8,0:0:0:0:
217,112,241889,1,0,0:0:0:0:
210,120,242056,1,8,0:0:0:0:
205,121,242139,1,0,0:0:0:0:
238,89,242223,1,0,0:0:0:0:
238,99,242306,1,8,0:0:0:0:
230,112,242389,1,0,0:0:0:0:
199,123,242473,1,0,0:0:0:0:
242,116,242556,1,8,0:0:0:0:
199,123,242723,1,4,0:0:0:0:
222,120,243056,1,0,0:0:0:0:
222,120,243223,1,0,0:0:0:0:
222,120,243389,1,0,0:0:0:0:
222,120,243556,1,0,0:0:0:0:
222,120,243723,1,0,0:0:0:0:
222,120,243889,1,0,0:0:0:0:
222,120,244056,1,12,0:0:0:0:
199,210,245223,1,8,0:0:0:0:
229,215,245389,1,4,0:0:0:0:
297,229,245722,1,8,0:0:0:0:
297,229,245805,1,0,0:0:0:0:
295,234,245888,1,8,0:0:0:0:
295,235,245972,1,8,0:0:0:0:
295,234,246055,1,0,0:0:0:0:
284,240,246222,1,8,0:0:0:0:
284,240,246388,1,0,0:0:0:0:
284,240,246555,1,8,0:0:0:0:
284,245,246888,1,8,0:0:0:0:
284,245,247055,1,8,0:0:0:0:
284,245,247138,1,8,0:0:0:0:
284,245,247222,1,8,0:0:0:0:
284,245,247305,1,8,0:0:0:0:
284,245,247388,1,0,0:0:0:0:
284,245,247555,1,8,0:0:0:0:
284,245,247638,1,0,0:0:0:0:
284,245,247722,1,8,0:0:0:0:
180,21,247806,1,8,0:0:0:0:
284,245,247888,1,0,0:0:0:0:
284,245,248055,1,12,0:0:0:0:
284,245,248222,1,8,0:0:0:0:
193,97,248388,1,0,0:0:0:0:
171,98,248555,1,8,0:0:0:0:
171,98,248638,1,0,0:0:0:0:
171,98,248722,1,0,0:0:0:0:
171,98,248805,1,0,0:0:0:0:
171,98,248889,1,8,0:0:0:0:
209,91,249055,1,8,0:0:0:0:
198,104,249222,1,0,0:0:0:0:
193,106,249388,1,12,0:0:0:0:
188,108,249722,1,8,0:0:0:0:
176,88,249888,1,8,0:0:0:0:
176,88,250055,1,0,0:0:0:0:
176,86,250139,1,0,0:0:0:0:
176,88,250223,1,0,0:0:0:0:
176,88,250306,1,0,0:0:0:0:
176,88,250388,1,8,0:0:0:0:
171,86,250556,1,0,0:0:0:0:
215,102,250723,1,12,0:0:0:0:
207,104,251055,1,8,0:0:0:0:
201,91,251138,1,0,0:0:0:0:
196,107,251222,1,8,0:0:0:0:
237,86,251305,1,8,0:0:0:0:
237,86,251389,1,0,0:0:0:0:
224,89,251555,1,8,0:0:0:0:
224,89,251722,1,0,0:0:0:0:
226,81,251888,1,8,0:0:0:0:
209,99,252222,1,0,0:0:0:0:
209,97,252305,1,0,0:0:0:0:
209,99,252388,1,8,0:0:0:0:
209,97,252472,1,8,0:0:0:0:
209,99,252555,1,0,0:0:0:0:
209,97,252638,1,0,0:0:0:0:
209,99,252722,1,8,0:0:0:0:
209,99,252888,1,8,0:0:0:0:
209,97,252972,1,8,0:0:0:0:
209,99,253055,1,0,0:0:0:0:
209,97,253139,1,0,0:0:0:0:
209,99,253222,1,8,0:0:0:0:
208,66,253388,1,12,0:0:0:0:
202,74,253722,1,0,0:0:0:0:
202,74,253888,1,0,0:0:0:0:
198,77,254055,1,8,0:0:0:0:
198,77,254138,1,8,0:0:0:0:
198,77,254223,1,8,0:0:0:0:
198,77,254305,1,8,0:0:0:0:
198,77,254388,1,0,0:0:0:0:
205,90,254556,1,8,0:0:0:0:
207,93,254722,1,0,0:0:0:0:
207,96,254805,1,0,0:0:0:0:
207,93,254888,1,0,0:0:0:0:
207,96,254972,1,0,0:0:0:0:
207,93,255055,1,8,0:0:0:0:
202,97,255222,1,0,0:0:0:0:
202,93,255305,1,0,0:0:0:0:
202,97,255388,1,8,0:0:0:0:
200,102,255555,1,8,0:0:0:0:
200,101,255638,1,8,0:0:0:0:
200,102,255722,1,0,0:0:0:0:
200,101,255805,1,0,0:0:0:0:
200,102,255889,1,8,0:0:0:0:
192,75,256056,1,4,0:0:0:0:
203,56,256388,1,8,0:0:0:0:
200,69,256472,1,0,0:0:0:0:
200,69,256555,1,8,0:0:0:0:
200,69,256638,1,8,0:0:0:0:
200,69,256722,1,0,0:0:0:0:
191,68,256888,1,8,0:0:0:0:
190,69,256972,1,8,0:0:0:0:
180,65,257055,1,0,0:0:0:0:
180,65,257222,1,8,0:0:0:0:
237,68,257555,1,8,0:0:0:0:
237,68,257723,1,0,0:0:0:0:
239,68,257805,1,0,0:0:0:0:
237,73,257888,1,8,0:0:0:0:
237,73,257972,1,8,0:0:0:0:
237,73,258055,1,0,0:0:0:0:
278,58,258222,1,8,0:0:0:0:
268,67,258305,1,0,0:0:0:0:
263,65,258388,1,8,0:0:0:0:
288,83,258556,1,0,0:0:0:0:
288,83,258722,1,12,0:0:0:0:
284,93,258888,1,8,0:0:0:0:
276,91,259055,1,0,0:0:0:0:
276,91,259138,1,0,0:0:0:0:
276,91,259222,1,8,0:0:0:0:
273,67,259388,1,0,0:0:0:0:
268,67,259556,1,0,0:0:0:0:
268,67,259722,1,8,0:0:0:0:
267,67,259805,1,8,0:0:0:0:
268,67,259888,1,8,0:0:0:0:
268,67,260055,1,4,0:0:0:0:
246,84,260389,1,8,0:0:0:0:
246,84,260555,1,8,0:0:0:0:
246,84,260638,1,8,0:0:0:0:
246,84,260722,1,0,0:0:0:0:
246,84,260888,1,0,0:0:0:0:
246,84,260972,1,0,0:0:0:0:
246,84,261055,1,8,0:0:0:0:
246,84,261139,1,8,0:0:0:0:
246,84,261222,1,0,0:0:0:0:
246,84,261389,1,12,0:0:0:0:
246,84,261722,1,8,0:0:0:0:
246,84,261805,1,0,0:0:0:0:
246,84,261888,1,8,0:0:0:0:
246,84,261972,1,8,0:0:0:0:
225,89,262055,1,0,0:0:0:0:
171,130,262223,1,8,0:0:0:0:
225,89,262388,1,0,0:0:0:0:
224,94,262555,1,8,0:0:0:0:
221,89,262722,1,0,0:0:0:0:
223,92,262805,1,0,0:0:0:0:
221,89,262888,1,8,0:0:0:0:
224,102,263055,1,8,0:0:0:0:
224,102,263138,1,8,0:0:0:0:
224,102,263222,1,8,0:0:0:0:
224,102,263305,1,8,0:0:0:0:
224,102,263388,1,0,0:0:0:0:
224,102,263472,1,0,0:0:0:0:
224,102,263555,1,0,0:0:0:0:
224,102,263638,1,0,0:0:0:0:
221,106,263723,1,8,0:0:0:0:
221,106,263888,1,8,0:0:0:0:
215,89,264055,1,4,0:0:0:0:
216,95,264388,1,8,0:0:0:0:
216,95,264472,1,0,0:0:0:0:
216,95,264555,1,8,0:0:0:0:
211,90,264722,1,0,0:0:0:0:
212,90,264806,1,0,0:0:0:0:
211,90,264889,1,8,0:0:0:0:
212,90,264972,1,8,0:0:0:0:
211,90,265055,1,0,0:0:0:0:
211,90,265222,1,8,0:0:0:0:
222,103,265388,1,8,0:0:0:0:
223,102,265472,1,8,0:0:0:0:
222,103,265555,1,0,0:0:0:0:
223,102,265638,1,0,0:0:0:0:
224,94,265722,1,0,0:0:0:0:
185,49,265806,1,0,0:0:0:0:
195,112,265888,1,8,0:0:0:0:
195,112,265972,1,8,0:0:0:0:
195,112,266056,1,0,0:0:0:0:
187,114,266223,1,0,0:0:0:0:
187,114,266388,1,12,0:0:0:0:
222,148,266722,1,8,0:0:0:0:
222,148,266805,1,8,0:0:0:0:
222,148,266888,1,8,0:0:0:0:
222,148,266972,1,8,0:0:0:0:
222,148,267055,1,0,0:0:0:0:
222,148,267222,1,8,0:0:0:0:
222,148,267306,1,8,0:0:0:0:
222,148,267388,1,0,0:0:0:0:
222,148,267473,1,0,0:0:0:0:
222,148,267555,1,0,0:0:0:0:
314,136,267723,1,0,0:0:0:0:
314,136,267805,1,0,0:0:0:0:
307,140,267889,1,8,0:0:0:0:
305,140,267972,1,0,0:0:0:0:
228,104,268055,1,0,0:0:0:0:
190,102,268222,1,0,0:0:0:0:
189,108,268305,1,8,0:0:0:0:
188,108,268388,1,0,0:0:0:0:
189,108,268472,1,0,0:0:0:0:
188,108,268555,1,8,0:0:0:0:
188,108,268722,1,0,0:0:0:0:
182,110,269055,1,8,0:0:0:0:
182,110,269138,1,0,0:0:0:0:
182,110,269222,1,0,0:0:0:0:
182,110,269388,1,8,0:0:0:0:
182,110,269555,1,8,0:0:0:0:
182,110,269638,1,0,0:0:0:0:
182,110,269722,1,8,0:0:0:0:
182,110,269888,1,0,0:0:0:0:
182,110,269972,1,0,0:0:0:0:
182,110,270055,1,8,0:0:0:0:
179,114,270222,1,8,0:0:0:0:
179,114,270305,1,8,0:0:0:0:
179,114,270388,1,0,0:0:0:0:
173,114,270472,1,8,0:0:0:0:
173,114,270556,1,0,0:0:0:0:
173,114,270723,1,12,0:0:0:0:
