osu file format v14

[General]
AudioFilename: audio.mp3
AudioLeadIn: 0
PreviewTime: 84351
Countdown: 0
SampleSet: Normal
StackLeniency: 0.7
Mode: 1
LetterboxInBreaks: 0
WidescreenStoryboard: 1

[Editor]
Bookmarks: 181406,224073
DistanceSpacing: 1
BeatDivisor: 4
GridSize: 32
TimelineZoom: 2

[Metadata]
Title:Ashes of the Dawn
TitleUnicode:Ashes of the Dawn
Artist:DragonForce
ArtistUnicode:DragonForce
Creator:Nao Tomori
Version:Futsuu
Source:
Tags:reaching into infinity british english power metal Marc Hudson Sam Totman Herman Li frederic leclerq Vadim Pruzhanov Gee Anzalone rock taiko
BeatmapID:2492678
BeatmapSetID:1155392

[Difficulty]
HPDrainRate:7
CircleSize:5
OverallDifficulty:4
ApproachRate:5
SliderMultiplier:1.4
SliderTickRate:1

[Events]
//Background and Video events
0,0,"df bg.jpg",0,0
//Break Periods
2,224256,233523
//Storyboard Layer 0 (Background)
//Storyboard Layer 1 (Fail)
//Storyboard Layer 2 (Pass)
//Storyboard Layer 3 (Foreground)
//Storyboard Layer 4 (Overlay)
//Storyboard Sound Samples

[TimingPoints]
5399,333.333333333333,4,1,0,78,1,0
5399,-100,4,1,0,78,0,0
15060,-89.2857142857143,4,1,0,78,0,0
15143,-90.9090909090909,4,1,0,78,0,0
15227,-92.5925925925926,4,1,0,78,0,0
15310,-94.3396226415094,4,1,0,78,0,0
15393,-96.1538461538461,4,1,0,78,0,0
15477,-98.0392156862745,4,1,0,78,0,0
15560,-100,4,1,0,78,0,0
15643,-102.040816326531,4,1,0,78,0,0
15727,-104.166666666667,4,1,0,78,0,0
15810,-106.382978723404,4,1,0,78,0,0
15893,-108.695652173913,4,1,0,78,0,0
15977,-111.111111111111,4,1,0,78,0,0
16060,-113.636363636364,4,1,0,78,0,0
26727,-112.359550561798,4,1,0,78,0,0
26810,-111.111111111111,4,1,0,78,0,0
26893,-109.89010989011,4,1,0,78,0,0
26977,-108.695652173913,4,1,0,78,0,0
27060,-107.52688172043,4,1,0,78,0,0
27143,-106.382978723404,4,1,0,78,0,0
27227,-105.263157894737,4,1,0,78,0,0
27310,-104.166666666667,4,1,0,78,0,0
27393,-103.092783505155,4,1,0,78,0,0
27477,-102.040816326531,4,1,0,78,0,0
27560,-101.010101010101,4,1,0,78,0,0
27643,-100,4,1,0,78,0,0
27727,-99.009900990099,4,1,0,78,0,0
27810,-98.0392156862745,4,1,0,78,0,0
27893,-97.0873786407767,4,1,0,78,0,0
27977,-96.1538461538461,4,1,0,78,0,0
28060,-95.2380952380952,4,1,0,78,0,0
28393,-100,4,1,0,78,0,0
29390,333.333333333333,4,1,0,78,1,0
29390,-100,4,1,0,78,0,0
51050,-104.166666666667,4,1,0,78,0,0
51550,-108.695652173913,4,1,0,78,0,0
52050,-113.636363636364,4,1,0,78,0,0
52717,-119.047619047619,4,1,0,78,0,0
53222,-100,4,1,0,78,0,0
83883,-100,4,1,0,78,0,0
83939,-97.0873786407767,4,1,0,78,0,0
83967,-94.3396226415094,4,1,0,78,0,0
84050,-91.743119266055,4,1,0,78,0,0
84383,-100,4,1,0,78,0,0
85389,-95.2380952380952,4,1,0,87,0,1
106050,-96.1538461538461,4,1,0,87,0,1
106133,-96.6183574879227,4,1,0,87,0,1
106217,-97.0873786407767,4,1,0,87,0,1
106300,-97.5609756097561,4,1,0,87,0,1
106383,-98.0392156862745,4,1,0,87,0,1
106467,-98.5221674876847,4,1,0,87,0,1
106550,-99.009900990099,4,1,0,87,0,1
106633,-99.502487562189,4,1,0,87,0,1
106723,-100,4,1,0,87,0,0
106883,-100,4,1,0,78,0,0
137217,-100,4,1,0,78,0,0
137272,-97.0873786407767,4,1,0,78,0,0
137328,-94.3396226415094,4,1,0,78,0,0
137383,-91.743119266055,4,1,0,78,0,0
137722,-100,4,1,0,78,0,0
138388,-98.3606563826928,4,1,0,78,0,0
138555,-96.7741935515088,4,1,0,78,0,0
138723,-95.2380952380952,4,1,0,87,0,1
159495,-100,4,1,0,87,0,1
159717,-105.263157894737,4,1,0,87,0,1
160056,-108.695652173913,4,1,0,90,0,0
160217,-121.951219512195,4,1,0,78,0,0
180050,-121.951219512195,4,1,0,78,0,0
180717,-112.359550561798,4,1,0,78,0,0
181050,-103.092783505155,4,1,0,78,0,0
181383,-95.2380952380952,4,1,0,87,0,0
183717,-95.2380952380952,4,1,0,87,0,0
184050,-95.2380952380952,4,1,0,87,0,0
200050,-95.2380952380952,4,1,0,87,0,0
223217,-111.111111111111,4,1,0,80,0,0
223717,-133.333333333333,4,1,0,78,0,0
224050,-142.857142857143,4,1,0,67,0,0
233883,-114.942528735632,4,1,0,78,0,0
234717,-100,4,1,0,78,0,0
243050,-98.0392156862745,4,1,0,78,0,0
243217,-95.2380952380952,4,1,0,78,0,0
243383,-96.1538461538461,4,1,0,78,0,0
243550,-87.719298245614,4,1,0,78,0,0
243717,-94.3396226415094,4,1,0,78,0,0
243883,-93.4579439252336,4,1,0,78,0,0
244050,-92.5925925925926,4,1,0,78,0,0
245217,-90.9090909090909,4,1,0,78,0,0
245389,-95.2380952380952,4,1,0,87,0,1
267217,-100,4,1,0,87,0,1
267717,-105.263157894737,4,1,0,87,0,1
267972,-111.111111111111,4,1,0,87,0,1
268883,-114.942528735632,4,1,0,87,0,1
269383,-112.359550561798,4,1,0,87,0,1
269467,-111.731843575419,4,1,0,87,0,1
269550,-111.111111111111,4,1,0,87,0,1
269633,-110.497237569061,4,1,0,87,0,1
269717,-109.89010989011,4,1,0,87,0,1
269800,-109.289617486339,4,1,0,87,0,1
269883,-108.695652173913,4,1,0,87,0,1
269967,-108.108108108108,4,1,0,87,0,1
270050,-107.52688172043,4,1,0,87,0,1
270133,-106.382978723404,4,1,0,87,0,1
270217,-105.263157894737,4,1,0,87,0,1
270300,-104.166666666667,4,1,0,87,0,1
270383,-103.092783505155,4,1,0,87,0,1
270467,-101.010101010101,4,1,0,87,0,1
270550,-99.009900990099,4,1,0,87,0,1
270633,-97.0873786407767,4,1,0,87,0,1
270723,-95.2380952380952,4,1,0,100,0,0

[HitObjects]
163,176,5232,5,0,0:0:0:0:
163,176,5398,1,4,0:0:0:0:
194,198,8065,1,4,0:0:0:0:
194,198,8232,1,4,0:0:0:0:
225,205,10732,1,4,0:0:0:0:
229,216,13398,1,4,0:0:0:0:
229,216,13565,1,4,0:0:0:0:
212,184,15065,1,8,0:0:0:0:
209,192,15398,1,0,0:0:0:0:
209,192,15565,1,0,0:0:0:0:
230,196,15732,1,8,0:0:0:0:
215,179,15898,1,8,0:0:0:0:
215,179,16065,1,4,0:0:0:0:
215,180,16565,1,0,0:0:0:0:
214,180,17065,1,0,0:0:0:0:
213,180,17398,1,8,0:0:0:0:
210,182,17898,1,0,0:0:0:0:
199,187,18398,1,0,0:0:0:0:
198,187,18732,1,8,0:0:0:0:
286,141,19232,1,0,0:0:0:0:
277,144,19732,1,0,0:0:0:0:
265,147,20065,1,8,0:0:0:0:
263,147,20398,1,0,0:0:0:0:
252,147,20732,1,8,0:0:0:0:
215,140,20898,1,8,0:0:0:0:
252,147,21065,1,0,0:0:0:0:
250,153,21232,1,0,0:0:0:0:
250,153,21398,1,12,0:0:0:0:
211,156,21898,1,0,0:0:0:0:
205,149,22398,1,0,0:0:0:0:
218,123,22732,1,8,0:0:0:0:
243,172,23232,1,0,0:0:0:0:
243,171,23732,1,0,0:0:0:0:
228,162,24065,1,8,0:0:0:0:
227,161,24565,1,0,0:0:0:0:
222,160,25065,1,0,0:0:0:0:
220,159,25398,1,8,0:0:0:0:
219,160,25732,1,0,0:0:0:0:
211,159,26065,1,8,0:0:0:0:
205,155,26232,1,0,0:0:0:0:
204,159,26398,1,8,0:0:0:0:
204,159,26565,1,8,0:0:0:0:
204,159,26732,1,0,0:0:0:0:
198,158,27232,1,8,0:0:0:0:
198,158,27732,1,8,0:0:0:0:
198,158,28065,1,4,0:0:0:0:
228,179,29390,1,4,0:0:0:0:
246,148,29723,1,8,0:0:0:0:
239,153,29889,1,0,0:0:0:0:
170,144,30223,1,0,0:0:0:0:
160,136,30389,1,8,0:0:0:0:
163,145,30723,1,0,0:0:0:0:
203,111,30889,1,0,0:0:0:0:
195,122,31056,1,8,0:0:0:0:
184,116,31389,1,0,0:0:0:0:
184,116,31556,1,8,0:0:0:0:
184,116,31723,1,0,0:0:0:0:
221,137,31889,1,0,0:0:0:0:
181,112,32056,1,8,0:0:0:0:
173,107,32723,1,8,0:0:0:0:
210,118,33056,1,8,0:0:0:0:
210,118,33223,1,8,0:0:0:0:
191,120,33389,1,0,0:0:0:0:
191,121,33723,1,8,0:0:0:0:
189,126,34056,1,0,0:0:0:0:
221,121,34389,1,0,0:0:0:0:
219,118,34723,1,12,0:0:0:0:
216,121,35056,1,8,0:0:0:0:
216,121,35223,1,0,0:0:0:0:
208,144,35556,1,0,0:0:0:0:
195,159,35723,1,8,0:0:0:0:
186,142,36056,1,0,0:0:0:0:
186,142,36223,1,0,0:0:0:0:
186,142,36389,1,8,0:0:0:0:
181,160,36556,1,8,0:0:0:0:
176,164,36723,1,0,0:0:0:0:
176,169,37056,1,8,0:0:0:0:
176,169,37223,1,0,0:0:0:0:
176,169,37389,1,8,0:0:0:0:
164,168,37889,1,8,0:0:0:0:
171,85,38389,1,0,0:0:0:0:
169,138,38556,1,0,0:0:0:0:
169,138,38723,1,8,0:0:0:0:
166,151,39389,1,8,0:0:0:0:
165,154,39723,1,0,0:0:0:0:
165,154,40056,1,12,0:0:0:0:
198,135,40389,1,0,0:0:0:0:
187,143,40556,1,8,0:0:0:0:
184,143,40889,1,8,0:0:0:0:
178,129,41056,1,0,0:0:0:0:
178,129,41389,1,0,0:0:0:0:
178,129,41556,1,0,0:0:0:0:
178,129,41723,1,8,0:0:0:0:
178,129,41889,1,0,0:0:0:0:
169,145,42056,1,8,0:0:0:0:
169,127,42389,1,0,0:0:0:0:
169,127,42556,1,0,0:0:0:0:
169,127,42723,1,8,0:0:0:0:
169,123,43223,1,0,0:0:0:0:
169,123,43723,1,0,0:0:0:0:
169,123,44056,1,8,0:0:0:0:
169,123,44723,1,8,0:0:0:0:
167,126,45056,1,0,0:0:0:0:
167,125,45389,1,12,0:0:0:0:
164,123,45723,1,8,0:0:0:0:
164,123,45889,1,0,0:0:0:0:
164,122,46223,1,0,0:0:0:0:
164,122,46389,1,8,0:0:0:0:
157,131,46723,1,0,0:0:0:0:
157,131,46889,1,0,0:0:0:0:
157,131,47056,1,8,0:0:0:0:
147,132,47389,1,8,0:0:0:0:
147,132,47556,1,0,0:0:0:0:
147,132,47723,1,8,0:0:0:0:
147,132,47889,1,8,0:0:0:0:
179,91,48056,1,0,0:0:0:0:
212,127,48389,1,0,0:0:0:0:
212,127,48556,1,0,0:0:0:0:
207,118,48723,1,8,0:0:0:0:
202,113,49056,1,0,0:0:0:0:
202,113,49223,1,8,0:0:0:0:
189,109,49389,1,0,0:0:0:0:
189,110,49723,1,0,0:0:0:0:
189,110,49889,1,8,0:0:0:0:
189,110,50056,1,8,0:0:0:0:
183,114,50389,1,8,0:0:0:0:
172,116,50723,1,4,0:0:0:0:
172,116,51223,1,4,0:0:0:0:
172,116,51723,1,4,0:0:0:0:
172,116,52223,1,4,0:0:0:0:
166,214,52723,1,0,0:0:0:0:
228,191,53056,1,0,0:0:0:0:
227,187,53389,1,12,0:0:0:0:
230,209,54056,1,0,0:0:0:0:
226,212,54389,1,8,0:0:0:0:
213,216,54723,1,0,0:0:0:0:
213,217,55223,1,0,0:0:0:0:
210,221,55723,1,0,0:0:0:0:
121,111,56056,1,8,0:0:0:0:
167,198,56556,1,0,0:0:0:0:
162,195,57056,1,0,0:0:0:0:
160,192,57389,1,8,0:0:0:0:
160,192,57723,1,8,0:0:0:0:
157,191,58056,1,0,0:0:0:0:
156,191,58389,1,0,0:0:0:0:
149,186,58723,1,8,0:0:0:0:
187,227,59389,1,0,0:0:0:0:
184,224,59723,1,8,0:0:0:0:
177,218,60056,1,0,0:0:0:0:
158,208,60389,1,0,0:0:0:0:
157,207,60723,1,8,0:0:0:0:
157,207,61056,1,8,0:0:0:0:
157,207,61389,1,0,0:0:0:0:
160,208,61889,1,0,0:0:0:0:
162,211,62389,1,8,0:0:0:0:
162,204,62723,1,0,0:0:0:0:
217,207,63389,1,0,0:0:0:0:
230,213,63723,1,0,0:0:0:0:
227,212,64056,1,12,0:0:0:0:
187,139,64723,1,0,0:0:0:0:
190,154,65056,1,8,0:0:0:0:
180,184,65389,1,0,0:0:0:0:
197,222,65889,1,0,0:0:0:0:
197,223,66389,1,0,0:0:0:0:
197,223,66723,1,8,0:0:0:0:
243,193,67223,1,8,0:0:0:0:
225,194,67723,1,8,0:0:0:0:
206,197,68056,1,0,0:0:0:0:
205,196,68389,1,0,0:0:0:0:
201,193,68723,1,8,0:0:0:0:
187,165,69056,1,0,0:0:0:0:
195,206,69389,1,8,0:0:0:0:
233,150,70056,1,0,0:0:0:0:
232,155,70278,1,0,0:0:0:0:
227,160,70501,1,0,0:0:0:0:
227,160,70723,1,8,0:0:0:0:
203,132,71389,1,0,0:0:0:0:
206,133,71612,1,8,0:0:0:0:
206,133,71834,1,8,0:0:0:0:
191,146,72056,1,0,0:0:0:0:
180,161,72723,1,0,0:0:0:0:
171,170,73389,1,8,0:0:0:0:
217,128,73723,1,8,0:0:0:0:
209,161,74056,1,0,0:0:0:0:
208,167,74389,1,0,0:0:0:0:
200,169,74723,1,12,0:0:0:0:
273,155,75223,1,0,0:0:0:0:
281,160,75723,1,8,0:0:0:0:
270,171,76056,1,0,0:0:0:0:
265,177,76556,1,0,0:0:0:0:
259,175,77056,1,0,0:0:0:0:
257,180,77389,1,8,0:0:0:0:
241,196,77723,1,0,0:0:0:0:
241,196,77889,1,0,0:0:0:0:
251,191,78056,1,8,0:0:0:0:
290,196,78389,1,0,0:0:0:0:
287,193,78723,1,8,0:0:0:0:
237,197,79389,1,0,0:0:0:0:
237,198,79723,1,0,0:0:0:0:
235,204,80056,1,8,0:0:0:0:
239,204,80556,1,0,0:0:0:0:
239,204,81056,1,0,0:0:0:0:
239,204,81389,1,8,0:0:0:0:
240,202,81889,1,8,0:0:0:0:
240,203,82389,1,8,0:0:0:0:
238,208,82723,1,0,0:0:0:0:
289,229,83056,1,0,0:0:0:0:
289,229,83223,1,0,0:0:0:0:
289,229,83389,1,8,0:0:0:0:
286,233,83723,1,0,0:0:0:0:
282,238,84056,1,12,0:0:0:0:
221,222,85389,1,4,0:0:0:0:
289,230,85723,1,8,0:0:0:0:
289,230,85889,1,0,0:0:0:0:
283,232,86223,1,0,0:0:0:0:
283,232,86556,1,0,0:0:0:0:
277,230,86889,1,0,0:0:0:0:
277,230,87056,1,8,0:0:0:0:
278,236,87223,1,8,0:0:0:0:
278,236,87389,1,0,0:0:0:0:
278,238,87723,1,0,0:0:0:0:
278,238,87889,1,0,0:0:0:0:
278,238,88056,1,8,0:0:0:0:
278,236,88556,1,0,0:0:0:0:
279,236,89056,1,0,0:0:0:0:
276,235,89389,1,8,0:0:0:0:
276,235,89889,1,0,0:0:0:0:
276,235,90389,1,0,0:0:0:0:
276,233,90723,1,8,0:0:0:0:
226,213,91056,1,8,0:0:0:0:
227,191,91223,1,0,0:0:0:0:
255,189,91556,1,0,0:0:0:0:
255,189,91889,1,0,0:0:0:0:
245,191,92223,1,0,0:0:0:0:
245,191,92389,1,8,0:0:0:0:
245,191,92556,1,8,0:0:0:0:
215,196,92723,1,0,0:0:0:0:
216,196,93056,1,8,0:0:0:0:
213,202,93223,1,0,0:0:0:0:
213,202,93389,1,8,0:0:0:0:
208,198,94056,1,8,0:0:0:0:
208,200,94389,1,8,0:0:0:0:
206,201,94723,1,0,0:0:0:0:
227,142,95556,1,0,0:0:0:0:
227,142,95723,1,8,0:0:0:0:
215,145,95889,1,8,0:0:0:0:
156,175,96056,1,4,0:0:0:0:
237,197,96389,1,8,0:0:0:0:
189,77,96556,1,0,0:0:0:0:
287,170,96889,1,0,0:0:0:0:
260,169,97223,1,0,0:0:0:0:
251,176,97556,1,8,0:0:0:0:
251,176,97723,1,0,0:0:0:0:
237,176,97889,1,0,0:0:0:0:
233,182,98056,1,8,0:0:0:0:
233,182,98223,1,8,0:0:0:0:
222,170,98389,1,0,0:0:0:0:
219,178,98723,1,8,0:0:0:0:
217,179,99223,1,0,0:0:0:0:
218,180,99723,1,0,0:0:0:0:
204,120,100056,1,8,0:0:0:0:
204,129,100556,1,8,0:0:0:0:
197,135,101056,1,0,0:0:0:0:
197,144,101389,1,8,0:0:0:0:
198,147,101723,1,8,0:0:0:0:
198,147,101889,1,0,0:0:0:0:
195,154,102223,1,0,0:0:0:0:
195,154,102556,1,0,0:0:0:0:
199,142,102889,1,8,0:0:0:0:
256,220,103056,1,0,0:0:0:0:
249,217,103223,1,0,0:0:0:0:
241,219,103389,1,8,0:0:0:0:
233,224,103723,1,8,0:0:0:0:
221,208,103889,1,0,0:0:0:0:
211,213,104056,1,8,0:0:0:0:
200,110,104723,1,8,0:0:0:0:
192,132,105056,1,8,0:0:0:0:
166,161,105389,1,4,0:0:0:0:
184,179,105889,1,4,0:0:0:0:
184,180,106389,1,0,0:0:0:0:
177,188,106723,1,12,0:0:0:0:
214,225,107389,1,0,0:0:0:0:
212,224,107723,1,8,0:0:0:0:
202,222,108056,1,0,0:0:0:0:
201,222,108556,1,0,0:0:0:0:
195,222,109056,1,0,0:0:0:0:
189,225,109389,1,8,0:0:0:0:
188,223,109889,1,0,0:0:0:0:
185,223,110389,1,0,0:0:0:0:
186,224,110723,1,8,0:0:0:0:
187,224,111056,1,8,0:0:0:0:
185,223,111389,1,0,0:0:0:0:
184,223,111723,1,0,0:0:0:0:
184,226,112056,1,8,0:0:0:0:
204,201,112723,1,0,0:0:0:0:
203,200,113056,1,8,0:0:0:0:
200,205,113389,1,0,0:0:0:0:
199,211,113723,1,0,0:0:0:0:
199,211,114056,1,8,0:0:0:0:
200,216,114389,1,8,0:0:0:0:
199,219,114723,1,0,0:0:0:0:
199,219,115389,1,8,0:0:0:0:
199,219,116056,1,0,0:0:0:0:
199,219,116389,1,0,0:0:0:0:
199,219,116723,1,8,0:0:0:0:
199,219,116889,1,0,0:0:0:0:
199,219,117056,1,8,0:0:0:0:
199,222,117389,1,4,0:0:0:0:
207,222,118056,1,8,0:0:0:0:
210,214,118278,1,8,0:0:0:0:
211,215,118501,1,8,0:0:0:0:
211,215,118723,1,0,0:0:0:0:
210,160,119389,1,0,0:0:0:0:
210,160,119612,1,0,0:0:0:0:
240,96,119834,1,0,0:0:0:0:
244,112,120056,1,8,0:0:0:0:
270,83,120723,1,8,0:0:0:0:
322,185,120945,1,0,0:0:0:0:
200,139,121167,1,0,0:0:0:0:
269,112,121389,1,8,0:0:0:0:
268,117,121889,1,0,0:0:0:0:
193,133,122723,1,12,0:0:0:0:
236,139,122945,1,0,0:0:0:0:
241,132,123167,1,0,0:0:0:0:
241,132,123389,1,8,0:0:0:0:
241,132,123612,1,0,0:0:0:0:
241,132,123834,1,0,0:0:0:0:
231,139,124056,1,8,0:0:0:0:
245,100,124501,5,0,0:0:0:0:
228,66,124723,1,8,0:0:0:0:
221,75,124945,1,0,0:0:0:0:
220,90,125167,1,0,0:0:0:0:
220,90,125389,1,12,0:0:0:0:
215,104,126056,1,0,0:0:0:0:
208,99,126723,1,8,0:0:0:0:
205,100,127056,1,0,0:0:0:0:
202,100,127389,1,8,0:0:0:0:
196,106,127723,1,8,0:0:0:0:
193,111,128056,1,4,0:0:0:0:
218,156,128556,1,0,0:0:0:0:
223,155,129056,1,8,0:0:0:0:
224,156,129389,1,0,0:0:0:0:
224,156,129889,1,0,0:0:0:0:
221,155,130389,1,8,0:0:0:0:
215,157,130723,1,0,0:0:0:0:
289,120,131056,1,0,0:0:0:0:
289,120,131223,1,0,0:0:0:0:
203,99,131389,1,8,0:0:0:0:
130,279,131723,1,0,0:0:0:0:
238,158,132056,1,8,0:0:0:0:
237,160,132723,1,0,0:0:0:0:
237,159,133056,1,8,0:0:0:0:
237,159,133389,1,0,0:0:0:0:
238,154,133889,1,0,0:0:0:0:
260,164,134389,1,0,0:0:0:0:
258,163,134723,1,8,0:0:0:0:
258,163,135223,1,8,0:0:0:0:
257,163,135723,1,8,0:0:0:0:
252,165,136056,1,0,0:0:0:0:
283,176,136389,1,0,0:0:0:0:
283,176,136556,1,8,0:0:0:0:
279,182,136723,1,8,0:0:0:0:
268,181,137056,1,0,0:0:0:0:
264,179,137389,1,12,0:0:0:0:
257,170,138223,1,0,0:0:0:0:
257,170,138389,1,8,0:0:0:0:
257,170,138556,1,8,0:0:0:0:
251,174,138723,1,4,0:0:0:0:
252,165,139056,1,8,0:0:0:0:
252,165,139223,1,0,0:0:0:0:
251,176,139556,1,0,0:0:0:0:
243,176,139889,1,0,0:0:0:0:
276,162,140223,1,0,0:0:0:0:
276,162,140389,1,8,0:0:0:0:
270,166,140556,1,0,0:0:0:0:
270,166,140723,1,8,0:0:0:0:
200,27,140889,1,8,0:0:0:0:
263,168,141056,1,0,0:0:0:0:
254,160,141389,1,8,0:0:0:0:
254,160,141889,1,0,0:0:0:0:
252,160,142389,1,0,0:0:0:0:
248,160,142723,1,8,0:0:0:0:
248,160,143223,1,0,0:0:0:0:
248,160,143723,1,0,0:0:0:0:
243,161,144056,1,8,0:0:0:0:
243,161,144389,1,8,0:0:0:0:
241,169,144556,1,0,0:0:0:0:
240,168,144889,1,0,0:0:0:0:
240,168,145223,1,0,0:0:0:0:
205,100,145556,1,8,0:0:0:0:
237,171,145723,1,0,0:0:0:0:
172,63,145889,1,0,0:0:0:0:
237,171,146056,1,8,0:0:0:0:
225,173,146223,1,8,0:0:0:0:
225,180,146389,1,0,0:0:0:0:
208,95,146556,1,0,0:0:0:0:
222,151,146723,1,8,0:0:0:0:
234,152,147389,1,8,0:0:0:0:
224,154,147723,1,8,0:0:0:0:
218,161,148056,1,0,0:0:0:0:
218,142,148889,1,0,0:0:0:0:
218,142,149056,1,8,0:0:0:0:
215,149,149223,1,8,0:0:0:0:
197,136,149389,1,4,0:0:0:0:
264,140,149723,1,8,0:0:0:0:
252,136,149889,1,0,0:0:0:0:
229,134,150223,1,0,0:0:0:0:
202,98,150556,1,0,0:0:0:0:
224,146,150889,1,0,0:0:0:0:
224,146,151056,1,8,0:0:0:0:
225,153,151223,1,8,0:0:0:0:
169,85,151389,1,0,0:0:0:0:
169,85,151556,1,0,0:0:0:0:
169,85,151723,1,8,0:0:0:0:
184,84,152056,1,0,0:0:0:0:
198,111,152556,1,0,0:0:0:0:
198,111,153056,1,0,0:0:0:0:
188,112,153389,1,8,0:0:0:0:
188,108,153889,1,8,0:0:0:0:
186,111,154389,1,8,0:0:0:0:
185,113,154723,1,0,0:0:0:0:
188,108,155056,1,8,0:0:0:0:
188,108,155223,1,0,0:0:0:0:
184,114,155556,1,0,0:0:0:0:
184,114,155889,1,0,0:0:0:0:
185,111,156223,1,8,0:0:0:0:
190,113,156389,1,8,0:0:0:0:
225,107,156556,1,0,0:0:0:0:
225,107,156723,1,0,0:0:0:0:
225,107,156889,1,0,0:0:0:0:
225,107,157056,1,8,0:0:0:0:
222,112,157223,1,0,0:0:0:0:
222,112,157389,1,8,0:0:0:0:
203,74,158056,1,8,0:0:0:0:
235,127,158389,1,8,0:0:0:0:
220,134,158723,1,0,0:0:0:0:
209,82,159223,1,0,0:0:0:0:
212,95,159723,1,0,0:0:0:0:
205,104,160056,1,12,0:0:0:0:
233,179,161389,1,8,0:0:0:0:
222,134,162723,5,4,0:0:0:0:
249,150,164056,1,8,0:0:0:0:
270,171,164389,1,0,0:0:0:0:
284,190,164556,1,0,0:0:0:0:
278,195,164723,1,8,0:0:0:0:
264,192,165056,1,8,0:0:0:0:
242,129,165389,5,4,0:0:0:0:
204,164,166723,1,8,0:0:0:0:
200,183,168056,1,4,0:0:0:0:
214,172,169389,1,8,0:0:0:0:
227,182,169723,1,0,0:0:0:0:
227,186,169889,1,8,0:0:0:0:
227,196,170056,1,8,0:0:0:0:
227,196,170389,1,0,0:0:0:0:
221,192,170723,1,12,0:0:0:0:
260,178,172056,1,12,0:0:0:0:
201,195,173389,1,12,0:0:0:0:
193,191,174723,1,12,0:0:0:0:
241,206,175056,1,0,0:0:0:0:
241,206,175223,1,0,0:0:0:0:
228,212,175389,1,8,0:0:0:0:
224,209,175723,1,8,0:0:0:0:
222,209,176056,1,4,0:0:0:0:
215,214,177389,1,4,0:0:0:0:
157,224,178056,1,0,0:0:0:0:
214,212,178723,1,12,0:0:0:0:
302,222,179056,1,0,0:0:0:0:
302,222,179389,1,0,0:0:0:0:
302,223,179723,1,0,0:0:0:0:
187,192,180056,1,12,0:0:0:0:
189,187,180723,1,0,0:0:0:0:
195,216,181056,1,0,0:0:0:0:
192,201,181389,1,8,0:0:0:0:
221,180,181723,1,0,0:0:0:0:
214,187,182056,1,8,0:0:0:0:
199,190,182223,1,8,0:0:0:0:
196,195,182389,1,0,0:0:0:0:
191,202,182723,1,8,0:0:0:0:
191,202,183056,1,0,0:0:0:0:
191,204,183389,1,8,0:0:0:0:
187,214,183556,1,0,0:0:0:0:
187,214,183723,1,8,0:0:0:0:
187,214,183889,1,8,0:0:0:0:
187,214,184056,1,0,0:0:0:0:
190,220,184389,1,0,0:0:0:0:
188,218,184723,1,8,0:0:0:0:
188,223,185056,1,8,0:0:0:0:
185,216,185223,1,8,0:0:0:0:
185,216,185389,1,0,0:0:0:0:
188,223,185723,1,8,0:0:0:0:
193,224,186056,1,0,0:0:0:0:
180,217,186723,1,8,0:0:0:0:
185,231,186889,1,8,0:0:0:0:
212,107,187223,1,8,0:0:0:0:
188,231,187389,1,0,0:0:0:0:
195,52,187556,1,8,0:0:0:0:
172,239,187723,1,0,0:0:0:0:
172,239,187889,1,0,0:0:0:0:
172,239,188056,1,8,0:0:0:0:
172,241,188389,1,0,0:0:0:0:
172,241,188723,1,0,0:0:0:0:
172,246,188889,1,0,0:0:0:0:
172,246,189056,1,8,0:0:0:0:
167,244,189389,1,8,0:0:0:0:
156,239,189556,1,8,0:0:0:0:
156,239,189722,1,8,0:0:0:0:
167,244,190056,1,8,0:0:0:0:
156,239,190223,1,8,0:0:0:0:
156,239,190389,1,8,0:0:0:0:
208,129,190723,1,0,0:0:0:0:
214,166,191389,1,0,0:0:0:0:
189,150,192056,1,0,0:0:0:0:
205,120,192223,1,8,0:0:0:0:
205,120,192389,1,8,0:0:0:0:
200,129,192723,1,0,0:0:0:0:
198,131,193056,1,0,0:0:0:0:
198,131,193223,1,8,0:0:0:0:
198,131,193389,1,0,0:0:0:0:
202,130,193723,1,8,0:0:0:0:
196,123,194056,1,0,0:0:0:0:
195,133,194223,1,0,0:0:0:0:
195,126,194389,1,8,0:0:0:0:
234,123,194723,1,0,0:0:0:0:
236,137,195056,1,8,0:0:0:0:
230,127,195389,1,0,0:0:0:0:
213,134,195556,1,0,0:0:0:0:
205,141,195723,1,8,0:0:0:0:
192,141,196056,1,8,0:0:0:0:
182,114,196223,1,8,0:0:0:0:
192,143,196389,1,0,0:0:0:0:
176,138,196556,1,8,0:0:0:0:
191,144,196723,1,0,0:0:0:0:
190,148,197389,1,8,0:0:0:0:
197,112,197723,1,0,0:0:0:0:
213,153,198056,1,8,0:0:0:0:
258,165,198389,1,0,0:0:0:0:
244,163,198556,1,0,0:0:0:0:
232,150,198723,1,8,0:0:0:0:
231,152,199056,1,0,0:0:0:0:
231,156,199389,1,0,0:0:0:0:
232,165,199556,1,8,0:0:0:0:
232,165,199723,1,8,0:0:0:0:
232,165,199889,1,8,0:0:0:0:
206,155,200056,1,0,0:0:0:0:
246,49,200389,1,8,0:0:0:0:
206,155,200723,1,0,0:0:0:0:
203,161,201056,1,8,0:0:0:0:
200,161,201389,1,0,0:0:0:0:
200,153,201556,1,8,0:0:0:0:
200,153,201723,1,0,0:0:0:0:
193,160,202056,1,0,0:0:0:0:
193,160,202223,1,0,0:0:0:0:
193,166,202389,1,8,0:0:0:0:
193,171,202556,1,0,0:0:0:0:
187,157,202723,1,8,0:0:0:0:
187,157,203389,1,8,0:0:0:0:
187,157,203723,1,8,0:0:0:0:
187,157,204056,1,0,0:0:0:0:
193,107,204389,1,0,0:0:0:0:
171,116,204723,1,8,0:0:0:0:
154,96,204889,1,0,0:0:0:0:
168,122,205056,1,0,0:0:0:0:
150,112,205223,1,8,0:0:0:0:
234,112,205723,1,8,0:0:0:0:
233,112,206056,1,8,0:0:0:0:
216,121,206389,1,0,0:0:0:0:
209,111,206556,1,0,0:0:0:0:
203,112,206723,1,8,0:0:0:0:
203,112,207056,1,0,0:0:0:0:
201,115,207389,1,8,0:0:0:0:
201,115,207723,1,8,0:0:0:0:
252,175,207889,1,8,0:0:0:0:
200,117,208056,1,0,0:0:0:0:
227,140,208723,1,0,0:0:0:0:
222,124,208889,1,8,0:0:0:0:
209,127,209056,1,0,0:0:0:0:
178,73,209223,1,0,0:0:0:0:
201,129,209389,1,8,0:0:0:0:
201,137,209723,1,0,0:0:0:0:
185,101,210056,1,8,0:0:0:0:
184,115,210223,1,0,0:0:0:0:
184,115,210389,1,8,0:0:0:0:
210,129,210723,1,0,0:0:0:0:
248,122,211389,1,8,0:0:0:0:
235,107,211556,1,8,0:0:0:0:
240,117,211723,1,0,0:0:0:0:
201,142,211889,1,0,0:0:0:0:
201,142,212056,1,8,0:0:0:0:
196,129,212389,1,0,0:0:0:0:
195,131,212723,1,0,0:0:0:0:
195,131,212889,1,0,0:0:0:0:
195,131,213056,1,8,0:0:0:0:
195,131,213389,1,0,0:0:0:0:
162,86,213556,1,0,0:0:0:0:
216,128,213723,1,8,0:0:0:0:
216,128,213889,1,0,0:0:0:0:
216,85,214223,1,0,0:0:0:0:
201,95,214389,1,8,0:0:0:0:
184,86,214556,1,0,0:0:0:0:
216,106,214889,1,0,0:0:0:0:
216,106,215056,1,0,0:0:0:0:
185,127,215223,1,8,0:0:0:0:
223,110,215389,1,8,0:0:0:0:
223,110,215723,1,0,0:0:0:0:
223,110,215889,1,8,0:0:0:0:
214,98,216056,1,0,0:0:0:0:
198,29,216556,1,0,0:0:0:0:
216,62,217389,1,8,0:0:0:0:
210,104,217723,1,8,0:0:0:0:
184,89,218056,1,0,0:0:0:0:
180,89,218389,1,8,0:0:0:0:
173,91,218723,1,0,0:0:0:0:
198,154,218889,1,8,0:0:0:0:
198,154,219223,1,8,0:0:0:0:
198,154,219556,1,8,0:0:0:0:
198,153,219889,1,8,0:0:0:0:
213,120,220056,1,0,0:0:0:0:
224,174,220389,1,0,0:0:0:0:
219,181,220556,1,0,0:0:0:0:
211,185,220723,1,8,0:0:0:0:
209,188,221056,1,0,0:0:0:0:
197,185,221223,1,8,0:0:0:0:
197,185,221389,1,0,0:0:0:0:
195,183,221723,1,0,0:0:0:0:
195,184,222056,1,0,0:0:0:0:
195,182,222389,1,0,0:0:0:0:
194,80,222556,1,0,0:0:0:0:
195,181,222723,1,8,0:0:0:0:
194,182,223223,1,0,0:0:0:0:
194,182,223723,1,0,0:0:0:0:
194,182,224056,1,12,0:0:0:0:
185,198,234723,5,12,0:0:0:0:
241,166,236056,1,0,0:0:0:0:
200,192,237389,1,12,0:0:0:0:
200,191,237889,1,12,0:0:0:0:
199,191,238389,1,12,0:0:0:0:
199,191,238889,1,12,0:0:0:0:
199,189,239389,1,0,0:0:0:0:
198,189,239723,1,0,0:0:0:0:
196,190,240056,1,12,0:0:0:0:
243,189,240556,1,0,0:0:0:0:
239,187,241056,1,0,0:0:0:0:
226,190,241556,1,0,0:0:0:0:
222,187,242056,1,8,0:0:0:0:
332,96,242278,1,8,0:0:0:0:
329,101,242501,1,8,0:0:0:0:
324,104,242723,1,4,0:0:0:0:
330,195,243056,1,0,0:0:0:0:
329,196,243389,1,0,0:0:0:0:
328,195,243723,1,0,0:0:0:0:
328,195,243889,1,8,0:0:0:0:
328,195,244056,1,0,0:0:0:0:
246,150,245223,1,8,0:0:0:0:
236,164,245389,1,4,0:0:0:0:
257,143,245723,1,8,0:0:0:0:
257,159,245889,1,0,0:0:0:0:
253,214,246223,1,0,0:0:0:0:
253,214,246556,1,0,0:0:0:0:
248,214,246889,1,0,0:0:0:0:
248,214,247056,1,8,0:0:0:0:
248,214,247223,1,0,0:0:0:0:
248,214,247389,1,8,0:0:0:0:
248,214,247556,1,8,0:0:0:0:
248,214,247723,1,0,0:0:0:0:
246,207,248056,1,8,0:0:0:0:
210,159,248556,1,0,0:0:0:0:
205,166,249056,1,0,0:0:0:0:
201,163,249389,1,8,0:0:0:0:
196,162,249889,1,8,0:0:0:0:
195,177,250389,1,0,0:0:0:0:
195,177,250723,1,8,0:0:0:0:
199,180,251056,1,8,0:0:0:0:
199,180,251223,1,0,0:0:0:0:
206,184,251556,1,0,0:0:0:0:
206,184,251889,1,0,0:0:0:0:
203,185,252223,1,8,0:0:0:0:
203,185,252389,1,0,0:0:0:0:
203,185,252556,1,0,0:0:0:0:
203,185,252723,1,8,0:0:0:0:
187,62,252889,1,8,0:0:0:0:
199,193,253056,1,0,0:0:0:0:
284,138,253223,1,0,0:0:0:0:
199,193,253389,1,8,0:0:0:0:
219,129,254056,1,8,0:0:0:0:
219,138,254389,1,8,0:0:0:0:
245,210,254723,1,0,0:0:0:0:
221,196,255556,1,0,0:0:0:0:
202,188,255723,1,8,0:0:0:0:
200,180,255889,1,8,0:0:0:0:
196,184,256056,1,4,0:0:0:0:
225,163,256389,1,8,0:0:0:0:
219,172,256556,1,0,0:0:0:0:
216,182,256889,1,0,0:0:0:0:
240,114,257223,1,0,0:0:0:0:
232,120,257556,1,0,0:0:0:0:
227,124,257723,1,8,0:0:0:0:
227,124,257889,1,8,0:0:0:0:
222,128,258056,1,0,0:0:0:0:
215,121,258389,1,8,0:0:0:0:
215,127,258556,1,8,0:0:0:0:
215,127,258723,1,0,0:0:0:0:
215,131,259223,1,0,0:0:0:0:
215,132,259723,1,0,0:0:0:0:
215,133,260056,1,8,0:0:0:0:
215,133,260556,1,0,0:0:0:0:
215,133,261056,1,0,0:0:0:0:
214,132,261389,1,8,0:0:0:0:
214,132,261723,1,8,0:0:0:0:
214,132,261889,1,0,0:0:0:0:
220,133,262223,1,0,0:0:0:0:
222,134,262556,1,0,0:0:0:0:
219,131,262889,1,8,0:0:0:0:
226,136,263056,1,8,0:0:0:0:
235,142,263223,1,0,0:0:0:0:
235,142,263389,1,8,0:0:0:0:
236,148,263556,1,8,0:0:0:0:
236,148,263723,1,0,0:0:0:0:
236,148,263889,1,0,0:0:0:0:
236,148,264056,1,8,0:0:0:0:
222,102,264723,1,8,0:0:0:0:
219,108,265056,1,8,0:0:0:0:
211,120,265389,1,0,0:0:0:0:
236,143,266056,1,0,0:0:0:0:
234,142,266389,1,8,0:0:0:0:
230,142,266723,1,12,0:0:0:0:
228,146,267223,1,12,0:0:0:0:
229,146,267723,1,12,0:0:0:0:
230,146,268223,1,12,0:0:0:0:
228,147,268723,1,4,0:0:0:0:
267,189,269389,1,8,0:0:0:0:
251,171,269556,1,8,0:0:0:0:
267,188,269723,1,0,0:0:0:0:
246,165,269889,1,8,0:0:0:0:
166,138,270056,1,0,0:0:0:0:
236,126,270223,1,0,0:0:0:0:
201,106,270389,5,8,0:0:0:0:
195,100,270556,1,0,0:0:0:0:
188,99,270723,1,12,0:0:0:0:
