osu file format v14

[General]
AudioFilename: audio.mp3
AudioLeadIn: 0
PreviewTime: 102600
Countdown: 0
SampleSet: Normal
StackLeniency: 0.7
Mode: 0
LetterboxInBreaks: 0
WidescreenStoryboard: 1

[Editor]
Bookmarks: 26100,45300,54900,74100,83700,102900,124500,134100,153300,162900,182100,201300,210900,225300,239700,249300,254100,258900,273300,285300,294900,304500,314100,333300,354900,371700,381300,402633,423966,432042
DistanceSpacing: 1
BeatDivisor: 4
GridSize: 4
TimelineZoom: 1.1

[Metadata]
Title:Above The Winter Moonlight
TitleUnicode:Above The Winter Moonlight
Artist:DragonForce
ArtistUnicode:DragonForce
Creator:Kayne
Version:Fallen Star
Source:
Tags:sonic firestorm dragon force speed power metal speedmetal powermetal insane legend stream deathstream kiyro
BeatmapID:1126976
BeatmapSetID:531785

[Difficulty]
HPDrainRate:6
CircleSize:4.2
OverallDifficulty:9
ApproachRate:9.4
SliderMultiplier:1.7
SliderTickRate:1

[Events]
//Background and Video events
0,0,"00b4b01c63f5382bc6cf4310cefb67f8.jpg",0,0
//Break Periods
//Storyboard Layer 0 (Background)
//Storyboard Layer 1 (Fail)
//Storyboard Layer 2 (Pass)
//Storyboard Layer 3 (Foreground)
//Storyboard Sound Samples

[TimingPoints]
26100,300,4,1,0,65,1,0
45300,-100,4,1,0,65,0,1
52500,-200,4,1,0,65,0,1
53550,-200,4,2,0,5,0,1
53700,-100,4,1,0,65,0,1
54900,-100,4,1,0,65,0,0
83700,-200,4,1,0,65,0,0
102900,-100,4,1,0,65,0,1
124500,-100,4,2,0,65,0,0
134100,-100,4,1,0,65,0,0
162900,-200,4,1,0,65,0,0
182100,-100,4,1,0,65,0,1
210900,-100,4,2,0,65,0,0
219150,-133.333333333333,4,2,0,65,0,0
225076,-100,4,2,0,5,0,0
225225,-100,4,1,0,65,0,0
239700,-100,4,1,0,65,0,1
239775,-100,4,1,0,65,0,0
258900,-100,4,2,0,65,0,0
273300,-100,4,1,0,65,0,1
273375,-100,4,1,0,65,0,0
314100,-133.333333333333,4,1,0,65,0,0
333300,-100,4,1,0,65,0,1
333375,-100,4,1,0,65,0,0
354675,-100,4,2,0,5,0,0
354825,-100,4,1,0,65,0,0
357300,-100,4,1,0,65,0,1
371400,-100,4,1,0,65,0,0
371700,-100,4,1,0,65,0,1
381300,666.666666666667,4,1,0,65,1,0
431812,923.076923076923,4,1,0,60,1,0
432042,824.742268041237,4,1,0,45,1,0
432866,802.407221664995,4,1,0,45,1,0
433668,885.282183696053,4,1,0,45,1,0
434553,1158.86045388701,4,1,0,45,1,0
435711,1019.54120645709,4,1,0,45,1,0
447945,1200,4,1,0,45,1,0

[Colours]
Combo1 : 255,255,255
Combo2 : 90,210,255

[HitObjects]
60,152,26100,6,0,P|72:104|192:48,1,170
264,88,26550,1,0,0:0:0:0:
360,48,26700,2,0,P|416:60|440:80,1,85
488,196,27000,2,0,L|511:114,1,85
396,188,27300,6,0,L|372:269,1,85
276,300,27600,1,0,0:0:0:0:
184,256,27750,1,0,0:0:0:0:
88,276,27900,1,0,0:0:0:0:
88,276,27975,1,0,0:0:0:0:
88,276,28050,2,0,P|64:212|44:192,1,85
140,144,28350,1,0,0:0:0:0:
220,80,28500,6,0,P|301:85|354:23,1,170
448,64,28950,1,0,0:0:0:0:
480,160,29100,1,0,0:0:0:0:
428,248,29250,1,0,0:0:0:0:
428,248,29325,1,0,0:0:0:0:
428,248,29400,2,0,P|436:320|452:360,1,85
336,244,29700,6,0,P|328:172|312:132,1,85
240,104,30000,1,0,0:0:0:0:
148,140,30150,1,0,0:0:0:0:
148,140,30225,1,0,0:0:0:0:
148,140,30300,2,0,P|124:176|64:200,1,85
240,104,30600,2,0,P|220:65|230:2,1,85
224,200,30900,6,0,P|267:202|324:312,1,170
248,332,31350,2,0,P|292:380|328:384,1,85
412,340,31650,1,0,0:0:0:0:
412,340,31725,1,0,0:0:0:0:
412,340,31800,2,0,P|444:308|484:284,1,85
456,152,32100,6,0,P|424:184|384:208,1,85
296,100,32400,2,0,L|184:148,1,85
128,236,32700,2,0,L|142:115,1,85
96,24,33000,2,0,L|193:96,1,85
296,100,33300,5,0,0:0:0:0:
328,126,33375,1,0,0:0:0:0:
368,140,33450,1,0,0:0:0:0:
411,138,33525,1,0,0:0:0:0:
448,116,33600,2,0,P|484:192|472:224,1,85
416,264,33900,1,0,0:0:0:0:
468,352,34050,1,0,0:0:0:0:
308,356,34200,2,0,L|408:384,1,85
280,272,34500,5,0,0:0:0:0:
250,241,34575,1,0,0:0:0:0:
213,221,34650,1,0,0:0:0:0:
171,214,34725,1,0,0:0:0:0:
129,220,34800,1,0,0:0:0:0:
87,223,34875,1,0,0:0:0:0:
48,207,34950,1,0,0:0:0:0:
19,176,35025,1,0,0:0:0:0:
8,136,35100,6,0,P|32:100|44:96,3,42.5
112,84,35400,2,0,P|127:69|133:49,3,42.5
216,32,35700,6,0,P|288:88|368:80,1,170
460,112,36150,1,0,0:0:0:0:
488,208,36300,1,0,0:0:0:0:
424,288,36450,1,0,0:0:0:0:
424,288,36525,1,0,0:0:0:0:
424,288,36600,2,0,P|364:340|360:368,1,85
488,208,36900,6,0,P|472:130|450:112,1,85
340,36,37200,2,0,L|444:16,1,85
308,120,37500,2,0,L|204:140,1,85
92,60,37800,1,0,0:0:0:0:
76,212,37950,1,0,0:0:0:0:
76,212,38025,1,0,0:0:0:0:
76,212,38100,6,0,P|112:272|72:356,1,170
176,356,38550,2,0,P|236:328|288:336,1,85
352,376,38850,1,0,0:0:0:0:
352,376,38925,1,0,0:0:0:0:
352,376,39000,2,0,P|393:369|429:347,1,85
512,384,39300,5,0,0:0:0:0:
512,384,39450,2,0,L|496:296,1,85
396,204,39750,1,0,0:0:0:0:
396,204,39900,2,0,L|412:292,1,85
296,200,40200,2,0,L|280:112,1,85
152,40,40500,6,0,P|144:120|60:204,1,170
168,268,40950,1,0,0:0:0:0:
168,268,41025,1,0,0:0:0:0:
168,268,41100,2,0,P|232:276|272:296,1,85
328,348,41400,1,0,0:0:0:0:
369,338,41475,1,0,0:0:0:0:
400,310,41550,1,0,0:0:0:0:
415,271,41625,1,0,0:0:0:0:
408,229,41700,6,0,P|404:152|420:124,1,85
284,52,42000,2,0,P|288:129|272:157,1,85
408,229,42300,2,0,P|367:239|325:232,1,85
230,353,42600,2,0,P|270:342|312:349,1,85
156,272,42900,5,0,0:0:0:0:
156,272,42975,1,0,0:0:0:0:
156,272,43050,1,0,0:0:0:0:
204,184,43200,2,0,P|212:140|204:88,1,85
300,56,43500,1,0,0:0:0:0:
396,92,43650,1,0,0:0:0:0:
396,92,43725,1,0,0:0:0:0:
396,92,43800,2,0,L|484:60,1,85
496,160,44100,5,0,0:0:0:0:
456,252,44250,1,0,0:0:0:0:
488,348,44400,2,0,P|440:356|388:388,1,85
264,320,44700,2,0,P|312:312|364:280,1,85
416,160,45000,2,0,P|368:168|316:200,1,85
204,108,45300,6,0,P|252:100|304:68,2,85
124,200,45750,2,0,P|106:245|108:306,1,85
208,344,46050,1,0,0:0:0:0:
324,364,46200,2,0,L|420:380,1,85
404,260,46500,6,0,L|508:244,1,85
512,132,46800,1,0,0:0:0:0:
460,36,46950,1,0,0:0:0:0:
460,36,47025,1,0,0:0:0:0:
460,36,47100,2,0,P|388:16|360:-8,1,85
252,76,47400,2,0,P|324:96|352:120,1,85
492,132,47700,6,0,L|396:200,2,85
472,260,48150,2,0,P|444:336|452:368,1,85
328,376,48450,1,0,0:0:0:0:
328,376,48525,1,0,0:0:0:0:
328,376,48600,2,0,P|276:344|240:336,1,85
144,248,48900,6,0,P|142:309|153:344,1,85
240,216,49200,2,0,P|260:200|292:188,2,42.5
175,112,49500,5,0,0:0:0:0:
435,46,49650,1,0,0:0:0:0:
221,32,49800,5,0,0:0:0:0:
360,236,49950,1,0,0:0:0:0:
468,204,50100,6,0,P|476:276|468:324,1,85
404,384,50400,1,0,0:0:0:0:
360,236,50550,2,0,P|301:278|256:296,1,85
172,270,50850,1,0,0:0:0:0:
60,292,51000,1,0,0:0:0:0:
60,292,51075,1,0,0:0:0:0:
60,292,51150,1,0,0:0:0:0:
0,188,51300,6,0,P|52:128|60:96,1,85
172,104,51600,1,0,0:0:0:0:
280,36,51750,1,0,0:0:0:0:
280,36,51900,2,0,L|396:68,1,85
456,172,52200,2,0,L|340:140,1,85
237,134,52500,6,0,B|181:171|181:171|174:234|174:234|71:267|87:382,1,318.75
44,384,53700,5,0,0:0:0:0:
17,351,53775,1,0,0:0:0:0:
3,311,53850,1,0,0:0:0:0:
3,268,53925,1,0,0:0:0:0:
17,229,54000,1,0,0:0:0:0:
43,195,54075,1,0,0:0:0:0:
79,173,54150,2,0,P|112:164|136:172,1,42.5
204,228,54300,5,0,0:0:0:0:
246,246,54375,1,0,0:0:0:0:
292,245,54450,1,0,0:0:0:0:
334,225,54525,1,0,0:0:0:0:
363,189,54600,1,0,0:0:0:0:
374,143,54675,1,0,0:0:0:0:
365,98,54750,2,0,P|348:72|328:56,1,42.5
236,40,54900,6,0,P|184:80|156:88,1,85
64,100,55200,1,0,0:0:0:0:
64,100,55275,1,0,0:0:0:0:
64,100,55350,1,0,0:0:0:0:
4,184,55500,2,0,P|-4:236|20:292,1,85
156,344,55800,2,0,P|164:292|140:236,1,85
280,120,56100,6,0,P|299:71|349:35,1,85
424,40,56400,1,0,0:0:0:0:
208,160,56550,2,0,L|104:132,1,85
24,120,56850,1,0,0:0:0:0:
0,24,57000,1,0,0:0:0:0:
0,24,57075,1,0,0:0:0:0:
0,24,57150,1,0,0:0:0:0:
36,196,57300,6,0,P|76:264|68:352,1,170
168,328,57750,2,0,P|216:292|272:296,1,85
340,312,58050,1,0,0:0:0:0:
440,324,58200,1,0,0:0:0:0:
479,310,58275,1,0,0:0:0:0:
497,272,58350,1,0,0:0:0:0:
440,152,58500,6,0,P|428:100|440:56,2,85
296,132,58950,1,0,0:0:0:0:
296,132,59025,1,0,0:0:0:0:
296,132,59100,2,0,P|308:184|296:228,2,85
208,80,59550,1,0,0:0:0:0:
68,180,59700,6,0,P|84:236|68:284,1,85
148,336,60000,1,0,0:0:0:0:
244,300,60150,2,0,P|284:316|360:300,1,85
420,272,60450,1,0,0:0:0:0:
392,172,60600,1,0,0:0:0:0:
397,130,60675,1,0,0:0:0:0:
420,94,60750,1,0,0:0:0:0:
252,44,60900,6,0,P|196:76|140:72,2,85
200,160,61350,2,0,P|158:169|124:194,2,85
284,220,61800,1,0,0:0:0:0:
364,284,61950,1,0,0:0:0:0:
405,294,62025,1,0,0:0:0:0:
447,295,62100,6,0,P|448:208|500:136,1,170
408,80,62550,2,0,P|344:64|312:16,1,85
236,76,62850,1,0,0:0:0:0:
236,76,62925,1,0,0:0:0:0:
236,76,63000,2,0,P|201:52|159:48,1,85
76,112,63300,5,0,0:0:0:0:
62,152,63375,1,0,0:0:0:0:
69,193,63450,1,0,0:0:0:0:
93,227,63525,1,0,0:0:0:0:
130,247,63600,1,0,0:0:0:0:
165,271,63675,1,0,0:0:0:0:
185,308,63750,2,0,P|192:336|176:376,1,42.5
292,328,63900,5,0,0:0:0:0:
313,301,63975,1,0,0:0:0:0:
342,285,64050,1,0,0:0:0:0:
376,281,64125,1,0,0:0:0:0:
409,291,64200,1,0,0:0:0:0:
412,265,64275,1,0,0:0:0:0:
416,240,64350,1,0,0:0:0:0:
420,215,64425,1,0,0:0:0:0:
424,190,64500,6,0,P|392:148|384:88,1,85
316,40,64800,2,0,L|232:60,1,85
124,188,65100,2,0,L|208:168,1,85
360,240,65400,1,0,0:0:0:0:
228,344,65550,1,0,0:0:0:0:
228,344,65625,1,0,0:0:0:0:
228,344,65700,6,0,P|160:356|120:348,1,85
52,312,66000,1,0,0:0:0:0:
328,320,66150,2,0,P|396:308|436:316,1,85
508,348,66450,1,0,0:0:0:0:
424,196,66600,1,0,0:0:0:0:
284,140,66750,1,0,0:0:0:0:
284,140,66825,1,0,0:0:0:0:
284,140,66900,6,0,P|204:152|168:144,2,85
200,236,67350,2,0,P|157:236|116:247,2,85
56,192,67800,1,0,0:0:0:0:
56,192,67875,1,0,0:0:0:0:
56,192,67950,1,0,0:0:0:0:
200,236,68100,6,0,P|296:252|376:232,1,170
405,223,68475,1,0,0:0:0:0:
446,233,68550,1,0,0:0:0:0:
512,156,68700,2,0,P|496:112|504:56,1,85
344,24,69000,2,0,P|360:68|352:124,1,85
212,180,69300,6,0,P|172:196|100:200,1,85
28,180,69600,1,0,0:0:0:0:
140,48,69750,2,0,P|180:32|252:28,1,85
324,48,70050,1,0,0:0:0:0:
424,24,70200,1,0,0:0:0:0:
424,24,70275,1,0,0:0:0:0:
424,24,70350,1,0,0:0:0:0:
488,124,70500,6,0,L|480:212,2,85
388,140,70950,2,0,P|328:180|308:184,1,85
220,144,71250,1,0,0:0:0:0:
177,144,71325,1,0,0:0:0:0:
138,159,71400,1,0,0:0:0:0:
64,228,71550,1,0,0:0:0:0:
28,72,71700,6,0,P|80:56|112:28,1,85
192,52,72000,1,0,0:0:0:0:
292,28,72150,1,0,0:0:0:0:
334,27,72225,1,0,0:0:0:0:
373,43,72300,2,0,P|424:64|484:64,1,85
492,164,72600,2,0,P|441:143|381:143,1,85
312,168,72900,5,0,0:0:0:0:
287,190,72975,1,0,0:0:0:0:
274,222,73050,1,0,0:0:0:0:
277,255,73125,1,0,0:0:0:0:
293,284,73200,2,0,P|316:304|352:312,3,42.5
224,340,73500,5,0,0:0:0:0:
177,344,73575,1,0,0:0:0:0:
135,326,73650,1,0,0:0:0:0:
105,291,73725,1,0,0:0:0:0:
95,245,73800,1,0,0:0:0:0:
108,201,73875,1,0,0:0:0:0:
140,168,73950,2,0,P|168:156|212:164,1,42.5
292,184,74100,5,0,0:0:0:0:
404,176,74250,1,0,0:0:0:0:
328,96,74400,1,0,0:0:0:0:
216,104,74550,1,0,0:0:0:0:
484,132,74700,1,0,0:0:0:0:
196,16,74850,1,0,0:0:0:0:
292,184,75000,1,0,0:0:0:0:
364,0,75150,1,0,0:0:0:0:
404,176,75300,6,0,P|428:232|460:276,1,85
264,356,75600,2,0,P|240:300|208:256,1,85
48,184,75900,2,0,P|72:240|104:284,2,85
208,56,76350,1,0,0:0:0:0:
208,56,76425,1,0,0:0:0:0:
208,56,76500,6,0,P|276:72|320:72,1,85
424,20,76800,1,0,0:0:0:0:
408,160,76950,1,0,0:0:0:0:
272,200,77100,2,0,P|224:268|220:304,1,85
52,320,77400,2,0,P|100:252|104:216,1,85
48,144,77700,5,0,0:0:0:0:
40,102,77775,1,0,0:0:0:0:
53,62,77850,1,0,0:0:0:0:
82,32,77925,1,0,0:0:0:0:
122,19,78000,2,0,P|156:24|176:40,1,42.5
248,112,78150,5,0,0:0:0:0:
284,133,78225,1,0,0:0:0:0:
326,135,78300,1,0,0:0:0:0:
364,118,78375,1,0,0:0:0:0:
391,85,78450,2,0,P|404:48|396:36,1,42.5
504,112,78600,5,0,0:0:0:0:
492,143,78675,1,0,0:0:0:0:
480,175,78750,1,0,0:0:0:0:
469,207,78825,1,0,0:0:0:0:
456,240,78900,6,0,B|432:280|432:280|368:320,1,85
200,332,79200,2,0,B|224:292|224:292|288:252,1,85
384,112,79500,2,0,L|304:68,1,85
108,108,79800,2,0,L|188:152,1,85
347,313,80100,5,0,0:0:0:0:
116,276,80250,1,0,0:0:0:0:
324,170,80400,1,0,0:0:0:0:
218,378,80550,1,0,0:0:0:0:
182,148,80700,2,0,P|196:96|232:56,1,85
376,40,81000,2,0,P|362:92|326:132,1,85
424,264,81300,6,0,B|448:304|448:304|512:348,1,85
320,320,81600,1,0,0:0:0:0:
320,320,81675,1,0,0:0:0:0:
320,320,81750,1,0,0:0:0:0:
160,344,81900,2,0,L|64:304,1,85
12,164,82200,2,0,L|108:204,1,85
248,236,82500,5,0,0:0:0:0:
289,239,82575,1,0,0:0:0:0:
329,224,82650,1,0,0:0:0:0:
357,193,82725,1,0,0:0:0:0:
370,153,82800,2,0,P|364:120|360:108,1,42.5
256,68,82950,5,0,0:0:0:0:
229,88,83025,1,0,0:0:0:0:
197,101,83100,2,0,P|176:104|148:100,3,42.5
72,28,83400,5,0,0:0:0:0:
41,68,83475,1,0,0:0:0:0:
30,117,83550,1,0,0:0:0:0:
41,167,83625,1,0,0:0:0:0:
71,208,83700,6,0,P|155:269|179:339,1,170
290,330,84600,1,0,0:0:0:0:
372,252,84900,2,0,B|376:200|376:200|436:168|428:84,1,170
324,108,85800,1,0,0:0:0:0:
244,32,86100,6,0,P|220:68|216:116,1,85
218,140,86500,1,0,0:0:0:0:
220,172,86600,1,0,0:0:0:0:
216,208,86700,2,0,P|188:256|156:276,1,85
80,200,87300,6,0,L|68:156,1,42.5
80,84,87600,2,0,P|94:73|129:72,1,28.3333333333333
140,78,87800,2,0,P|153:72|164:63,1,28.3333333333333
282,58,88200,1,0,0:0:0:0:
310,72,88300,1,0,0:0:0:0:
332,95,88400,1,0,0:0:0:0:
344,124,88500,6,0,P|324:200|364:280,1,170
272,344,89400,1,0,0:0:0:0:
168,300,89700,2,0,P|164:224|100:140,1,170
184,64,90600,1,0,0:0:0:0:
292,36,90900,6,0,P|336:52|396:48,1,85
184,64,91500,2,0,P|164:106|118:146,1,85
72,220,92100,2,0,L|104:304,1,85
133,295,92500,1,0,0:0:0:0:
163,299,92600,1,0,0:0:0:0:
193,310,92700,2,0,P|245:326|289:325,1,85
380,360,93300,6,0,P|392:267|446:215,1,170
400,116,94200,1,0,0:0:0:0:
296,72,94500,2,0,B|240:108|192:92|192:92|152:112|144:152,1,170
48,88,95400,1,0,0:0:0:0:
8,188,95700,6,0,P|20:236|20:288,1,85
48,88,96300,2,0,P|90:62|127:25,1,85
208,104,96900,2,0,L|396:148,1,170
448,224,97800,1,0,0:0:0:0:
352,280,98100,6,0,P|320:340|312:376,2,85
300,180,99000,1,0,0:0:0:0:
204,120,99300,2,0,P|172:60|164:24,2,85
100,164,100200,1,0,0:0:0:0:
40,260,100500,6,0,P|148:296|176:352,1,170
276,296,101400,1,0,0:0:0:0:
392,332,101700,1,0,0:0:0:0:
392,332,101775,1,0,0:0:0:0:
392,332,101850,1,0,0:0:0:0:
468,208,102150,5,0,0:0:0:0:
480,167,102225,1,0,0:0:0:0:
475,125,102300,1,0,0:0:0:0:
454,89,102375,1,0,0:0:0:0:
420,64,102450,1,0,0:0:0:0:
395,84,102525,1,0,0:0:0:0:
367,98,102600,1,0,0:0:0:0:
336,107,102675,1,0,0:0:0:0:
304,110,102750,1,0,0:0:0:0:
273,106,102825,1,0,0:0:0:0:
242,97,102900,6,0,P|188:120|160:224,1,170
88,304,103350,1,0,0:0:0:0:
176,368,103500,2,0,P|252:344|280:348,1,85
364,364,103800,1,0,0:0:0:0:
364,364,103875,1,0,0:0:0:0:
364,364,103950,1,0,0:0:0:0:
396,232,104100,6,0,P|384:168|412:128,2,85
300,148,104550,2,0,P|312:84|284:44,2,85
204,192,105000,1,0,0:0:0:0:
164,204,105075,1,0,0:0:0:0:
122,202,105150,1,0,0:0:0:0:
40,272,105300,6,0,P|117:303|158:375,1,170
256,344,105750,1,0,0:0:0:0:
360,352,105900,2,0,P|402:348|440:330,1,85
400,232,106200,1,0,0:0:0:0:
393,190,106275,1,0,0:0:0:0:
408,150,106350,1,0,0:0:0:0:
364,52,106500,5,0,0:0:0:0:
256,72,106650,1,0,0:0:0:0:
216,184,106800,1,0,0:0:0:0:
216,184,106875,1,0,0:0:0:0:
216,184,106950,1,0,0:0:0:0:
116,232,107100,1,0,0:0:0:0:
158,333,107250,1,0,0:0:0:0:
258,372,107400,1,0,0:0:0:0:
299,382,107475,1,0,0:0:0:0:
339,371,107550,1,0,0:0:0:0:
464,320,107700,6,0,P|456:245|437:205,1,85
398,139,108000,1,0,0:0:0:0:
298,45,108150,2,0,P|225:68|179:60,1,85
118,23,108450,1,0,0:0:0:0:
87,130,108600,2,0,P|75:155|77:193,2,42.5
192,176,108900,6,0,P|232:188|267:211,1,85
376,172,109200,1,0,0:0:0:0:
376,172,109275,1,0,0:0:0:0:
376,172,109350,1,0,0:0:0:0:
376,64,109500,2,0,L|276:48,1,85
184,80,109800,1,0,0:0:0:0:
142,84,109875,1,0,0:0:0:0:
107,107,109950,1,0,0:0:0:0:
56,204,110100,6,0,P|40:248|-8:308,2,85
152,264,110550,1,0,0:0:0:0:
260,236,110700,1,0,0:0:0:0:
368,268,110850,1,0,0:0:0:0:
456,204,111000,1,0,0:0:0:0:
440,164,111075,1,0,0:0:0:0:
445,123,111150,1,0,0:0:0:0:
376,40,111300,6,0,P|324:80|268:92,1,85
204,52,111600,1,0,0:0:0:0:
204,52,111675,1,0,0:0:0:0:
204,52,111750,1,0,0:0:0:0:
112,116,111900,1,0,0:0:0:0:
104,224,112050,1,0,0:0:0:0:
164,320,112200,2,0,P|128:348|96:356,2,42.5
272,284,112500,6,0,P|324:208|396:196,1,170
460,104,112950,1,0,0:0:0:0:
380,32,113100,2,0,P|352:44|272:40,1,85
188,64,113400,1,0,0:0:0:0:
149,80,113475,1,0,0:0:0:0:
127,115,113550,1,0,0:0:0:0:
136,224,113700,6,0,P|140:276|96:332,1,85
36,368,114000,1,0,0:0:0:0:
127,115,114150,2,0,P|148:67|214:39,1,85
284,37,114450,1,0,0:0:0:0:
392,68,114600,2,0,P|416:24|408:4,2,42.5
408,204,114900,6,0,P|396:256|412:312,1,85
304,336,115200,1,0,0:0:0:0:
304,336,115275,1,0,0:0:0:0:
304,336,115350,1,0,0:0:0:0:
204,284,115500,2,0,P|148:292|104:324,1,85
56,216,115800,1,0,0:0:0:0:
73,177,115875,1,0,0:0:0:0:
73,135,115950,1,0,0:0:0:0:
128,40,116100,6,0,P|220:80|316:56,1,170
388,32,116550,1,0,0:0:0:0:
456,116,116700,2,0,L|484:212,1,85
368,184,117000,2,0,L|344:296,1,85
228,328,117300,5,0,0:0:0:0:
92,224,117450,1,0,0:0:0:0:
256,288,117600,1,0,0:0:0:0:
256,288,117675,1,0,0:0:0:0:
256,288,117750,1,0,0:0:0:0:
356,336,117900,2,0,P|410:325|446:293,1,85
444,192,118200,1,0,0:0:0:0:
433,151,118275,1,0,0:0:0:0:
444,110,118350,1,0,0:0:0:0:
360,40,118500,5,0,0:0:0:0:
215,39,118650,1,0,0:0:0:0:
287,165,118800,1,0,0:0:0:0:
287,165,118875,1,0,0:0:0:0:
287,165,118950,1,0,0:0:0:0:
214,290,119100,1,0,0:0:0:0:
144,165,119250,1,0,0:0:0:0:
215,39,119400,1,0,0:0:0:0:
215,39,119475,1,0,0:0:0:0:
215,39,119550,1,0,0:0:0:0:
360,64,119700,6,0,P|401:88|468:92,1,85
480,196,120000,1,0,0:0:0:0:
376,284,120150,2,0,L|260:312,1,85
192,352,120450,1,0,0:0:0:0:
104,288,120600,2,0,P|72:276|48:272,2,42.5
164,196,120900,5,0,0:0:0:0:
205,200,120975,1,0,0:0:0:0:
245,185,121050,1,0,0:0:0:0:
274,155,121125,1,0,0:0:0:0:
288,115,121200,2,0,P|292:103|294:69,1,42.5
369,30,121350,5,0,0:0:0:0:
409,43,121425,1,0,0:0:0:0:
440,71,121500,1,0,0:0:0:0:
456,110,121575,1,0,0:0:0:0:
454,152,121650,2,0,P|446:178|433:199,1,42.5
389,260,121800,5,0,0:0:0:0:
338,266,121875,1,0,0:0:0:0:
293,288,121950,2,0,P|271:306|255:325,1,42.5
176,304,122100,5,0,0:0:0:0:
90,241,122250,1,0,0:0:0:0:
83,134,122400,1,0,0:0:0:0:
144,42,122550,1,0,0:0:0:0:
368,42,122700,5,0,0:0:0:0:
429,134,122850,1,0,0:0:0:0:
422,241,123000,1,0,0:0:0:0:
336,304,123150,1,0,0:0:0:0:
172,174,123300,5,0,0:0:0:0:
77,230,123450,1,0,0:0:0:0:
172,285,123600,1,0,0:0:0:0:
98,159,123750,1,0,0:0:0:0:
101,304,123900,5,0,0:0:0:0:
224,228,124050,1,0,0:0:0:0:
39,232,124200,1,0,0:0:0:0:
195,145,124350,1,0,0:0:0:0:
191,323,124500,5,0,0:0:0:0:
230,337,124575,1,0,0:0:0:0:
273,341,124650,1,0,0:0:0:0:
314,335,124725,1,0,0:0:0:0:
353,318,124800,1,0,0:0:0:0:
387,292,124875,1,0,0:0:0:0:
414,259,124950,2,0,P|432:222|433:204,1,42.5
337,174,125100,5,0,0:0:0:0:
295,167,125175,1,0,0:0:0:0:
259,145,125250,1,0,0:0:0:0:
234,110,125325,1,0,0:0:0:0:
210,76,125400,1,0,0:0:0:0:
173,55,125475,1,0,0:0:0:0:
131,52,125550,2,0,P|92:70|79:91,1,42.5
31,155,125700,5,0,0:0:0:0:
37,196,125775,1,0,0:0:0:0:
57,234,125850,2,0,P|72:255|95:270,3,42.5
160,224,126150,2,0,P|211:232|229:245,1,42.5
267,311,126300,5,0,0:0:0:0:
308,313,126375,1,0,0:0:0:0:
345,293,126450,2,0,P|367:258|369:244,3,42.5
317,198,126750,2,0,P|330:153|343:143,1,42.5
417,101,126900,5,0,0:0:0:0:
385,72,126975,1,0,0:0:0:0:
349,50,127050,1,0,0:0:0:0:
309,36,127125,1,0,0:0:0:0:
267,30,127200,2,0,P|232:38|206:58,1,42.5
219,129,127350,2,0,P|199:136|178:139,1,42.5
91,79,127500,5,0,0:0:0:0:
63,111,127575,1,0,0:0:0:0:
48,150,127650,1,0,0:0:0:0:
47,192,127725,1,0,0:0:0:0:
59,233,127800,2,0,P|77:261|101:282,1,42.5
167,246,127950,2,0,P|180:262|190:280,1,42.5
244,371,128100,5,0,0:0:0:0:
284,384,128175,1,0,0:0:0:0:
326,382,128250,1,0,0:0:0:0:
365,367,128325,1,0,0:0:0:0:
397,339,128400,2,0,P|417:308|422:291,1,42.5
350,245,128550,2,0,P|358:225|371:208,1,42.5
463,150,128700,5,0,0:0:0:0:
409,135,128775,1,0,0:0:0:0:
366,102,128850,1,0,0:0:0:0:
337,55,128925,1,0,0:0:0:0:
332,1,129000,1,0,0:0:0:0:
298,0,129075,1,0,0:0:0:0:
265,5,129150,1,0,0:0:0:0:
238,25,129225,1,0,0:0:0:0:
203,78,129300,5,0,0:0:0:0:
214,118,129375,1,0,0:0:0:0:
212,161,129450,1,0,0:0:0:0:
198,200,129525,1,0,0:0:0:0:
170,233,129600,1,0,0:0:0:0:
161,274,129675,1,0,0:0:0:0:
172,314,129750,1,0,0:0:0:0:
201,345,129825,1,0,0:0:0:0:
241,359,129900,6,0,P|266:360|297:349,1,42.5
307,273,130050,2,0,P|327:268|348:270,1,42.5
437,300,130200,1,0,0:0:0:0:
463,267,130275,1,0,0:0:0:0:
480,228,130350,1,0,0:0:0:0:
486,186,130425,1,0,0:0:0:0:
481,144,130500,6,0,P|469:114|462:101,1,42.5
376,101,130650,2,0,P|367:82|360:62,1,42.5
280,25,130800,1,0,0:0:0:0:
253,59,130875,1,0,0:0:0:0:
218,82,130950,2,0,P|196:92|172:96,1,42.5
100,60,131100,5,0,0:0:0:0:
65,84,131175,1,0,0:0:0:0:
40,118,131250,1,0,0:0:0:0:
28,159,131325,1,0,0:0:0:0:
31,201,131400,1,0,0:0:0:0:
49,240,131475,1,0,0:0:0:0:
78,270,131550,2,0,P|104:288|124:292,1,42.5
184,242,131700,5,0,0:0:0:0:
217,236,131775,1,0,0:0:0:0:
251,237,131850,1,0,0:0:0:0:
284,246,131925,1,0,0:0:0:0:
314,262,132000,1,0,0:0:0:0:
340,283,132075,1,0,0:0:0:0:
372,295,132150,1,0,0:0:0:0:
405,296,132225,1,0,0:0:0:0:
438,286,132300,1,0,0:0:0:0:
465,267,132375,1,0,0:0:0:0:
485,239,132450,1,0,0:0:0:0:
495,207,132525,1,0,0:0:0:0:
495,173,132600,1,0,0:0:0:0:
483,141,132675,1,0,0:0:0:0:
462,115,132750,1,0,0:0:0:0:
434,97,132825,1,0,0:0:0:0:
401,88,132900,5,0,0:0:0:0:
357,121,132975,1,0,0:0:0:0:
303,133,133050,1,0,0:0:0:0:
250,123,133125,1,0,0:0:0:0:
205,92,133200,1,0,0:0:0:0:
151,87,133275,1,0,0:0:0:0:
101,109,133350,1,0,0:0:0:0:
70,154,133425,1,0,0:0:0:0:
65,208,133500,5,0,0:0:0:0:
65,208,134100,6,0,P|96:252|100:296,1,85
184,344,134400,1,0,0:0:0:0:
222,326,134475,1,0,0:0:0:0:
264,330,134550,1,0,0:0:0:0:
364,360,134700,2,0,P|404:328|416:272,1,85
468,208,135000,2,0,P|496:184|524:172,2,42.5
328,144,135300,6,0,B|309:100|309:100|271:54,1,85
189,29,135600,1,0,0:0:0:0:
264,196,135750,2,0,B|282:239|282:239|320:285,1,85
403,311,136050,1,0,0:0:0:0:
460,200,136200,1,0,0:0:0:0:
460,200,136275,1,0,0:0:0:0:
460,200,136350,1,0,0:0:0:0:
340,80,136500,6,0,P|284:60|232:56,1,85
160,112,136800,1,0,0:0:0:0:
143,150,136875,1,0,0:0:0:0:
112,178,136950,1,0,0:0:0:0:
8,224,137100,1,0,0:0:0:0:
88,300,137250,1,0,0:0:0:0:
192,256,137400,2,0,L|292:292,1,85
416,336,137700,5,0,0:0:0:0:
468,244,137850,1,0,0:0:0:0:
416,152,138000,1,0,0:0:0:0:
416,152,138075,1,0,0:0:0:0:
416,152,138150,1,0,0:0:0:0:
468,60,138300,2,0,P|392:40|364:56,1,85
288,88,138600,1,0,0:0:0:0:
254,106,138675,1,0,0:0:0:0:
216,112,138750,1,0,0:0:0:0:
179,106,138825,1,0,0:0:0:0:
145,88,138900,6,0,P|104:140|64:164,1,85
32,240,139200,1,0,0:0:0:0:
197,168,139350,2,0,P|238:116|278:92,1,85
310,16,139650,1,0,0:0:0:0:
408,56,139800,2,0,P|433:56|450:49,2,42.5
328,176,140100,6,0,P|320:236|380:324,1,170
284,372,140550,1,0,0:0:0:0:
184,304,140700,2,0,L|84:336,1,85
36,248,141000,1,0,0:0:0:0:
61,214,141075,1,0,0:0:0:0:
67,172,141150,1,0,0:0:0:0:
176,44,141300,6,0,P|212:80|260:100,1,85
344,64,141600,1,0,0:0:0:0:
344,64,141675,1,0,0:0:0:0:
344,64,141750,1,0,0:0:0:0:
448,52,141900,2,0,L|424:152,1,85
484,224,142200,2,0,L|409:294,1,85
332,360,142500,5,0,0:0:0:0:
312,322,142575,1,0,0:0:0:0:
281,293,142650,2,0,P|260:280|236:272,1,42.5
160,324,142800,5,0,0:0:0:0:
146,284,142875,1,0,0:0:0:0:
152,242,142950,2,0,P|175:211|195:199,1,42.5
280,176,143100,5,0,0:0:0:0:
322,179,143175,1,0,0:0:0:0:
362,167,143250,1,0,0:0:0:0:
395,140,143325,1,0,0:0:0:0:
416,103,143400,1,0,0:0:0:0:
431,134,143475,1,0,0:0:0:0:
446,164,143550,1,0,0:0:0:0:
461,195,143625,1,0,0:0:0:0:
476,225,143700,6,0,P|436:284|444:328,1,85
336,336,144000,1,0,0:0:0:0:
336,336,144075,1,0,0:0:0:0:
336,336,144150,1,0,0:0:0:0:
236,368,144300,2,0,L|200:272,1,85
220,116,144600,2,0,L|256:212,1,85
336,336,144900,5,0,0:0:0:0:
396,248,145050,1,0,0:0:0:0:
352,164,145200,1,0,0:0:0:0:
352,164,145275,1,0,0:0:0:0:
352,164,145350,1,0,0:0:0:0:
408,72,145500,2,0,P|332:60|304:72,1,85
232,112,145800,1,0,0:0:0:0:
190,120,145875,1,0,0:0:0:0:
149,113,145950,1,0,0:0:0:0:
64,240,146100,6,0,P|96:300|96:352,1,85
188,372,146400,1,0,0:0:0:0:
152,208,146550,2,0,P|120:148|120:96,1,85
36,64,146850,1,0,0:0:0:0:
132,16,147000,1,0,0:0:0:0:
132,16,147075,1,0,0:0:0:0:
132,16,147150,1,0,0:0:0:0:
252,56,147300,5,0,0:0:0:0:
294,60,147375,1,0,0:0:0:0:
334,50,147450,1,0,0:0:0:0:
444,80,147600,1,0,0:0:0:0:
430,191,147750,1,0,0:0:0:0:
396,214,147825,1,0,0:0:0:0:
380,256,147900,2,0,B|336:284|336:284|300:344,1,85
152,284,148200,2,0,B|196:256|196:256|232:196,1,85
144,72,148500,5,0,0:0:0:0:
248,12,148650,1,0,0:0:0:0:
356,64,148800,1,0,0:0:0:0:
356,64,148875,1,0,0:0:0:0:
356,64,148950,1,0,0:0:0:0:
468,108,149100,2,0,P|444:152|460:220,1,85
484,292,149400,2,0,P|480:344|464:364,2,42.5
312,304,149700,6,0,L|144:336,1,170
56,280,150150,1,0,0:0:0:0:
136,176,150300,2,0,P|176:184|216:168,1,85
296,104,150600,1,0,0:0:0:0:
337,97,150675,1,0,0:0:0:0:
373,117,150750,1,0,0:0:0:0:
456,216,150900,6,0,B|440:260|440:260|448:308,1,85
348,340,151200,2,0,P|320:360|280:372,2,42.5
264,276,151500,1,0,0:0:0:0:
168,316,151650,1,0,0:0:0:0:
68,284,151800,2,0,B|56:236|56:236|56:184,1,85
108,112,152100,5,0,0:0:0:0:
132,88,152175,1,0,0:0:0:0:
161,71,152250,1,0,0:0:0:0:
193,61,152325,1,0,0:0:0:0:
227,60,152400,2,0,P|252:64|272:76,3,42.5
380,64,152700,5,0,0:0:0:0:
351,95,152775,1,0,0:0:0:0:
331,132,152850,1,0,0:0:0:0:
321,174,152925,1,0,0:0:0:0:
320,216,153000,1,0,0:0:0:0:
334,257,153075,1,0,0:0:0:0:
355,294,153150,2,0,P|379:319|399:331,1,42.5
275,354,153300,5,0,0:0:0:0:
140,308,153450,1,0,0:0:0:0:
260,188,153600,1,0,0:0:0:0:
92,168,153750,1,0,0:0:0:0:
248,288,153900,1,0,0:0:0:0:
316,104,154050,1,0,0:0:0:0:
104,84,154200,1,0,0:0:0:0:
284,196,154350,1,0,0:0:0:0:
452,40,154500,6,0,P|476:96|480:152,1,85
311,275,154800,2,0,P|287:219|283:163,1,85
104,84,155100,2,0,L|16:64,2,85
48,240,155550,1,0,0:0:0:0:
48,240,155625,1,0,0:0:0:0:
48,240,155700,6,0,P|112:272|152:308,1,85
236,368,156000,1,0,0:0:0:0:
360,296,156150,1,0,0:0:0:0:
424,164,156300,2,0,B|412:116|412:116|424:60,1,85
276,40,156600,2,0,B|288:88|288:88|276:144,1,85
136,92,156900,5,0,0:0:0:0:
107,123,156975,1,0,0:0:0:0:
92,162,157050,1,0,0:0:0:0:
92,204,157125,1,0,0:0:0:0:
107,244,157200,2,0,P|128:272|148:284,1,42.5
236,256,157350,5,0,0:0:0:0:
275,240,157425,1,0,0:0:0:0:
317,242,157500,1,0,0:0:0:0:
354,261,157575,1,0,0:0:0:0:
379,295,157650,2,0,P|388:320|392:356,1,42.5
480,280,157800,5,0,0:0:0:0:
469,247,157875,1,0,0:0:0:0:
458,215,157950,1,0,0:0:0:0:
447,183,158025,1,0,0:0:0:0:
436,151,158100,6,0,P|416:112|376:84,1,85
208,108,158400,2,0,P|228:147|268:175,1,85
379,295,158700,2,0,L|259:323,1,85
128,268,159000,2,0,L|248:240,1,85
452,170,159300,5,0,0:0:0:0:
210,91,159450,1,0,0:0:0:0:
360,297,159600,1,0,0:0:0:0:
360,42,159750,1,0,0:0:0:0:
210,248,159900,2,0,P|168:292|144:308,1,85
57,352,160200,1,0,0:0:0:0:
62,251,160350,1,0,0:0:0:0:
108,104,160500,6,0,B|152:80|152:80|220:68,1,85
320,152,160800,2,0,B|276:176|276:176|208:188,1,85
62,251,161100,2,0,L|24:344,1,85
24,172,161400,2,0,L|62:79,1,85
196,36,161700,5,0,0:0:0:0:
229,35,161775,1,0,0:0:0:0:
262,43,161850,1,0,0:0:0:0:
291,61,161925,1,0,0:0:0:0:
315,85,162000,1,0,0:0:0:0:
331,115,162075,1,0,0:0:0:0:
337,148,162150,1,0,0:0:0:0:
335,182,162225,1,0,0:0:0:0:
324,214,162300,5,0,0:0:0:0:
144,344,162600,1,0,0:0:0:0:
124,124,162900,6,0,P|216:92|264:32,1,170
372,56,163800,1,0,0:0:0:0:
480,40,164100,2,0,B|504:104|504:104|460:136|464:204,1,170
392,276,165000,1,0,0:0:0:0:
300,216,165300,6,0,P|248:208|204:216,1,85
187,224,165700,1,0,0:0:0:0:
160,240,165800,1,0,0:0:0:0:
138,262,165900,2,0,P|95:257|59:235,1,85
124,169,166500,6,0,P|116:148|112:117,1,42.5
164,72,166800,1,0,0:0:0:0:
193,80,166900,1,0,0:0:0:0:
224,83,167000,1,0,0:0:0:0:
255,81,167100,1,0,0:0:0:0:
360,42,167400,1,0,0:0:0:0:
448,111,167700,6,0,P|410:157|413:276,1,170
313,323,168600,1,0,0:0:0:0:
211,284,168900,2,0,B|175:259|168:194|168:194|122:179|87:201,1,170
49,98,169800,1,0,0:0:0:0:
151,56,170100,6,0,P|199:53|240:40,1,85
49,98,170700,2,0,P|30:136|4:169,1,85
85,243,171300,2,0,L|118:323,1,85
147,327,171700,1,0,0:0:0:0:
178,324,171800,1,0,0:0:0:0:
207,311,171900,2,0,P|246:309|293:317,1,85
398,350,172500,6,0,B|442:282|442:282|408:243|415:181,1,170
423,89,173400,1,0,0:0:0:0:
320,48,173700,2,0,P|266:82|159:85,1,170
58,124,174600,1,0,0:0:0:0:
25,228,174900,6,0,L|67:310,1,85
58,124,175500,2,0,L|19:48,1,85
127,19,176100,2,0,B|172:26|172:26|224:22,1,85
308,77,176700,1,0,0:0:0:0:
410,34,177000,1,0,0:0:0:0:
496,105,177300,6,0,P|498:156|508:193,2,85
402,164,178200,1,0,0:0:0:0:
286,216,178500,2,0,P|280:264|288:314,2,85
188,267,179400,1,0,0:0:0:0:
77,330,179700,6,0,P|65:214|28:156,1,170
107,81,180600,1,0,0:0:0:0:
214,54,180900,1,0,0:0:0:0:
214,54,180975,1,0,0:0:0:0:
214,54,181050,1,0,0:0:0:0:
358,48,181350,5,0,0:0:0:0:
341,87,181425,1,0,0:0:0:0:
337,129,181500,1,0,0:0:0:0:
345,170,181575,1,0,0:0:0:0:
365,208,181650,1,0,0:0:0:0:
341,229,181725,1,0,0:0:0:0:
313,244,181800,1,0,0:0:0:0:
283,254,181875,1,0,0:0:0:0:
251,257,181950,1,0,0:0:0:0:
220,253,182025,1,0,0:0:0:0:
190,243,182100,6,0,P|187:193|97:114,1,170
177,31,182550,1,0,0:0:0:0:
288,19,182700,2,0,P|373:22|413:17,1,85
484,69,183000,1,0,0:0:0:0:
484,69,183075,1,0,0:0:0:0:
484,69,183150,1,0,0:0:0:0:
401,166,183300,6,0,P|397:237|408:290,1,85
447,351,183600,1,0,0:0:0:0:
293,217,183750,2,0,P|224:236|170:238,1,85
102,213,184050,1,0,0:0:0:0:
54,111,184200,2,0,P|30:69|19:58,2,42.5
165,42,184500,6,0,P|232:64|336:60,1,170
440,45,184950,1,0,0:0:0:0:
401,148,185100,2,0,P|390:210|412:261,1,85
447,328,185400,1,0,0:0:0:0:
411,351,185475,1,0,0:0:0:0:
370,356,185550,1,0,0:0:0:0:
274,302,185700,6,0,L|190:328,1,85
84,352,186000,1,0,0:0:0:0:
84,352,186075,1,0,0:0:0:0:
84,352,186150,1,0,0:0:0:0:
36,252,186300,1,0,0:0:0:0:
105,166,186450,1,0,0:0:0:0:
58,77,186600,1,0,0:0:0:0:
58,77,186675,1,0,0:0:0:0:
58,77,186750,1,0,0:0:0:0:
178,31,186900,6,0,P|252:30|292:13,2,85
277,111,187350,2,0,P|318:103|360:107,2,85
371,24,187800,1,0,0:0:0:0:
371,24,187875,1,0,0:0:0:0:
371,24,187950,1,0,0:0:0:0:
466,109,188100,6,0,L|488:210,1,85
399,263,188400,1,0,0:0:0:0:
364,287,188475,1,0,0:0:0:0:
341,322,188550,1,0,0:0:0:0:
237,359,188700,1,0,0:0:0:0:
130,330,188850,1,0,0:0:0:0:
20,344,189000,2,0,P|12:362|4:398,2,42.5
0,235,189300,6,0,B|50:171|50:171|35:116|71:68,1,170
152,139,189750,1,0,0:0:0:0:
242,82,189900,2,0,P|259:142|239:198,1,85
358,207,190200,1,0,0:0:0:0:
358,207,190275,1,0,0:0:0:0:
358,207,190350,1,0,0:0:0:0:
468,201,190500,6,0,L|504:100,1,85
415,60,190800,1,0,0:0:0:0:
415,60,190875,1,0,0:0:0:0:
415,60,190950,1,0,0:0:0:0:
310,95,191100,1,0,0:0:0:0:
203,68,191250,1,0,0:0:0:0:
95,93,191400,1,0,0:0:0:0:
68,125,191475,1,0,0:0:0:0:
64,167,191550,1,0,0:0:0:0:
155,256,191700,6,0,P|231:277|278:367,1,170
383,318,192150,1,0,0:0:0:0:
485,274,192300,2,0,P|474:228|488:173,1,85
433,90,192600,1,0,0:0:0:0:
433,90,192675,1,0,0:0:0:0:
433,90,192750,1,0,0:0:0:0:
314,47,192900,6,0,P|243:57|206:51,1,85
123,30,193200,1,0,0:0:0:0:
37,125,193350,2,0,P|27:196|33:233,1,85
54,316,193650,1,0,0:0:0:0:
158,357,193800,1,0,0:0:0:0:
158,357,193875,1,0,0:0:0:0:
158,357,193950,1,0,0:0:0:0:
273,303,194100,6,0,L|245:218,2,85
379,341,194550,2,0,P|441:336|487:355,2,85
396,231,195000,1,0,0:0:0:0:
427,203,195075,1,0,0:0:0:0:
450,167,195150,1,0,0:0:0:0:
424,59,195300,6,0,P|355:59|313:39,1,85
240,99,195600,2,0,P|233:119|221:136,2,42.5
154,30,195900,2,0,P|85:36|43:66,1,85
0,128,196200,2,0,L|24:215,1,85
76,327,196500,5,0,0:0:0:0:
216,367,196650,1,0,0:0:0:0:
357,336,196800,1,0,0:0:0:0:
357,336,196875,1,0,0:0:0:0:
357,336,196950,1,0,0:0:0:0:
455,254,197100,2,0,P|463:192|500:157,1,85
384,84,197400,1,0,0:0:0:0:
342,92,197475,1,0,0:0:0:0:
301,83,197550,1,0,0:0:0:0:
184,35,197700,5,0,0:0:0:0:
122,170,197850,1,0,0:0:0:0:
184,305,198000,1,0,0:0:0:0:
184,305,198075,1,0,0:0:0:0:
184,305,198150,1,0,0:0:0:0:
247,170,198300,1,0,0:0:0:0:
384,112,198450,1,0,0:0:0:0:
385,261,198600,1,0,0:0:0:0:
385,261,198675,1,0,0:0:0:0:
385,261,198750,1,0,0:0:0:0:
247,314,198900,6,0,P|203:308|145:325,1,85
62,270,199200,1,0,0:0:0:0:
200,217,199350,2,0,P|244:223|302:206,1,85
385,261,199650,1,0,0:0:0:0:
488,220,199800,2,0,P|503:170|507:161,2,42.5
426,108,200100,5,0,0:0:0:0:
383,108,200175,1,0,0:0:0:0:
342,99,200250,1,0,0:0:0:0:
303,81,200325,1,0,0:0:0:0:
269,56,200400,2,0,P|248:35|241:20,1,42.5
138,36,200550,5,0,0:0:0:0:
104,53,200625,1,0,0:0:0:0:
77,80,200700,1,0,0:0:0:0:
61,114,200775,1,0,0:0:0:0:
56,152,200850,2,0,P|63:187|80:206,1,42.5
174,200,201000,5,0,0:0:0:0:
223,210,201075,1,0,0:0:0:0:
266,237,201150,1,0,0:0:0:0:
296,278,201225,1,0,0:0:0:0:
309,327,201300,6,0,P|384:352|420:340,1,85
508,268,201600,2,0,P|433:243|397:255,1,85
347,124,201900,2,0,P|422:149|458:137,1,85
508,29,202200,1,0,0:0:0:0:
406,154,202350,2,0,P|363:150|327:129,1,85
201,65,202650,5,0,0:0:0:0:
64,165,202800,1,0,0:0:0:0:
219,234,202950,1,0,0:0:0:0:
104,64,203100,1,0,0:0:0:0:
120,249,203250,1,0,0:0:0:0:
272,142,203400,1,0,0:0:0:0:
108,60,203550,1,0,0:0:0:0:
124,244,203700,6,0,P|184:308|192:336,1,85
328,312,204000,2,0,P|268:248|260:220,1,85
272,108,204300,2,0,P|332:172|340:200,1,85
460,100,204600,1,0,0:0:0:0:
312,164,204750,2,0,P|288:129|253:104,1,85
112,72,205050,5,0,0:0:0:0:
28,220,205200,1,0,0:0:0:0:
112,368,205350,1,0,0:0:0:0:
192,220,205500,1,0,0:0:0:0:
386,149,205650,1,0,0:0:0:0:
271,321,205800,1,0,0:0:0:0:
263,114,205950,1,0,0:0:0:0:
390,277,206100,6,0,P|424:328|432:368,1,85
464,208,206400,2,0,P|430:157|422:117,1,85
300,56,206700,2,0,P|334:107|342:147,1,85
412,0,207000,1,0,0:0:0:0:
316,132,207150,2,0,P|301:92|275:58,1,85
132,40,207450,5,0,0:0:0:0:
52,160,207600,2,0,B|76:196|76:196|92:248,1,85
204,320,207900,1,0,0:0:0:0:
320,348,208050,1,0,0:0:0:0:
304,204,208200,1,0,0:0:0:0:
420,176,208350,1,0,0:0:0:0:
468,40,208500,6,0,L|364:68,1,85
240,52,208800,2,0,L|344:24,1,85
420,176,209100,2,0,P|428:232|416:296,1,85
320,348,209400,2,0,P|312:292|324:228,1,85
248,136,209700,5,0,0:0:0:0:
214,117,209775,1,0,0:0:0:0:
177,111,209850,1,0,0:0:0:0:
139,117,209925,1,0,0:0:0:0:
106,135,210000,1,0,0:0:0:0:
80,163,210075,1,0,0:0:0:0:
65,198,210150,1,0,0:0:0:0:
62,236,210225,1,0,0:0:0:0:
72,273,210300,5,0,0:0:0:0:
201,336,210450,1,0,0:0:0:0:
191,192,210600,1,0,0:0:0:0:
68,280,210750,1,0,0:0:0:0:
196,340,210900,6,0,P|264:360|312:348,1,85
376,308,211200,1,0,0:0:0:0:
468,368,211350,2,0,P|480:280|424:212,1,170
336,164,211800,1,0,0:0:0:0:
232,124,211950,6,0,B|164:168|164:168|152:220|96:236,1,170
64,136,212400,1,0,0:0:0:0:
107,232,212550,2,0,P|112:284|80:344,1,85
205,351,212850,1,0,0:0:0:0:
185,242,213000,1,0,0:0:0:0:
100,320,213150,1,0,0:0:0:0:
200,356,213300,6,0,P|276:376|340:360,1,85
388,344,213600,1,0,0:0:0:0:
488,376,213750,2,0,P|472:280|396:236,1,170
308,224,214200,1,0,0:0:0:0:
200,248,214350,6,0,L|140:80,1,170
236,28,214800,1,0,0:0:0:0:
348,32,214950,2,0,B|400:48|420:84|420:84|384:140|412:196,1,170
308,224,215400,2,0,P|328:264|332:324,1,85
245,368,215700,5,0,0:0:0:0:
233,257,215850,1,0,0:0:0:0:
328,308,216000,1,0,0:0:0:0:
240,372,216150,2,0,P|152:348|56:348,1,170
20,248,216600,1,0,0:0:0:0:
68,148,216750,6,0,B|128:132|128:132|152:72|228:56,1,170
228,168,217200,1,0,0:0:0:0:
300,88,217350,2,0,P|336:164|288:256,1,170
271,344,217800,1,0,0:0:0:0:
200,262,217950,1,0,0:0:0:0:
307,240,218100,6,0,P|355:248|435:280,1,85
480,196,218400,1,0,0:0:0:0:
424,100,218550,2,0,L|232:128,1,170
152,84,219000,1,0,0:0:0:0:
60,144,219150,6,0,P|104:188|-32:348,1,318.750012159348
312,300,220500,1,0,0:0:0:0:
256,192,220575,12,0,225150,0:0:0:0:
32,120,225300,6,0,P|104:64|196:84,1,170
128,168,225750,1,0,0:0:0:0:
184,264,225900,2,0,L|356:288,1,170
448,232,226350,1,0,0:0:0:0:
417,117,226500,6,0,P|343:94|307:104,1,85
219,86,226800,2,0,P|236:161|263:187,1,85
290,275,227100,2,0,P|346:222|355:186,1,85
417,117,227400,1,0,0:0:0:0:
219,86,227700,5,0,0:0:0:0:
54,206,228000,2,0,B|50:250|50:250|66:310,2,85
202,354,228600,2,0,B|206:310|206:310|190:250,2,85
314,182,229200,2,0,B|310:226|310:226|326:286,2,85
449,336,229800,1,0,0:0:0:0:
497,138,230100,6,0,B|456:108|443:62|443:62|389:38|341:70,1,170
267,96,230550,1,0,0:0:0:0:
171,51,230700,2,0,P|87:92|74:185,1,170
107,264,231150,1,0,0:0:0:0:
226,258,231300,6,0,L|305:290,1,85
418,326,231600,2,0,L|407:242,1,85
386,125,231900,2,0,L|319:177,1,85
226,258,232200,1,0,0:0:0:0:
27,298,232500,5,0,0:0:0:0:
67,105,232800,1,0,0:0:0:0:
67,105,232950,1,0,0:0:0:0:
67,105,233100,1,0,0:0:0:0:
269,171,233400,1,0,0:0:0:0:
269,171,233550,1,0,0:0:0:0:
269,171,233700,1,0,0:0:0:0:
464,102,234000,1,0,0:0:0:0:
464,102,234150,1,0,0:0:0:0:
464,102,234300,1,0,0:0:0:0:
499,299,234600,1,0,0:0:0:0:
252,56,234900,6,0,P|164:128|160:192,1,170
264,164,235350,1,0,0:0:0:0:
276,272,235500,2,0,P|364:200|368:136,1,170
420,52,235950,1,0,0:0:0:0:
252,56,236100,6,0,P|200:72|168:92,1,85
92,208,236400,2,0,P|144:192|176:172,1,85
308,220,236700,2,0,P|256:236|224:256,1,85
120,348,237000,1,0,0:0:0:0:
328,328,237300,6,0,B|372:328|400:352|400:352|488:324,1,170
500,212,237750,1,0,0:0:0:0:
428,128,237900,2,0,P|368:144|260:112,1,170
172,52,238350,1,0,0:0:0:0:
68,188,238500,6,0,L|120:296,1,85
232,332,238800,2,0,L|180:224,1,85
228,116,239100,2,0,L|280:224,1,85
388,272,239400,1,0,0:0:0:0:
492,82,239700,6,0,P|437:45|381:54,1,85
409,165,240000,2,0,P|404:231|440:275,1,85
503,325,240300,2,0,L|425:376,1,85
304,360,240600,2,0,L|382:309,1,85
210,274,240900,5,0,0:0:0:0:
113,243,241050,1,0,0:0:0:0:
5,112,241200,5,0,0:0:0:0:
102,81,241350,1,0,0:0:0:0:
266,35,241500,5,0,0:0:0:0:
363,86,241650,1,0,0:0:0:0:
269,145,241800,2,0,P|221:162|181:193,1,85
304,360,242100,6,0,B|348:336|348:336|412:325,1,85
507,356,242400,2,0,B|495:323|495:323|495:272,1,85
512,145,242700,2,0,P|477:99|468:42,1,85
346,35,243000,2,0,P|381:81|390:138,1,85
238,178,243300,5,0,0:0:0:0:
238,178,243450,1,0,0:0:0:0:
79,235,243600,5,0,0:0:0:0:
79,235,243750,1,0,0:0:0:0:
228,285,243900,5,0,0:0:0:0:
228,285,244050,1,0,0:0:0:0:
123,357,244200,5,0,0:0:0:0:
123,357,244350,1,0,0:0:0:0:
294,373,244500,6,0,L|387:384,1,85
483,311,244800,2,0,L|390:300,1,85
307,212,245100,1,0,0:0:0:0:
428,176,245250,1,0,0:0:0:0:
398,301,245400,2,0,P|348:332|306:337,1,85
200,372,245700,5,0,0:0:0:0:
101,344,245850,1,0,0:0:0:0:
0,207,246000,5,0,0:0:0:0:
99,179,246150,1,0,0:0:0:0:
221,60,246300,5,0,0:0:0:0:
122,32,246450,1,0,0:0:0:0:
246,205,246600,2,0,P|276:247|326:280,1,85
512,310,246900,6,0,P|482:268|432:235,1,85
473,120,247200,2,0,L|394:151,1,85
319,47,247500,1,0,0:0:0:0:
210,24,247650,1,0,0:0:0:0:
90,68,247800,2,0,P|72:131|52:151,1,85
192,224,248100,5,0,0:0:0:0:
330,377,248250,1,0,0:0:0:0:
308,172,248400,1,0,0:0:0:0:
205,350,248550,1,0,0:0:0:0:
393,266,248700,1,0,0:0:0:0:
189,218,248850,1,0,0:0:0:0:
336,380,249000,1,0,0:0:0:0:
312,168,249150,1,0,0:0:0:0:
200,356,249300,5,0,0:0:0:0:
157,371,249400,1,0,0:0:0:0:
112,375,249500,1,0,0:0:0:0:
68,366,249600,1,0,0:0:0:0:
8,168,249900,5,0,0:0:0:0:
48,148,250000,1,0,0:0:0:0:
95,148,250100,1,0,0:0:0:0:
139,157,250200,1,0,0:0:0:0:
228,92,250350,1,0,0:0:0:0:
324,36,250500,6,0,P|368:36|400:28,3,56.6666666666667
492,204,251100,2,0,P|448:204|416:212,3,56.6666666666667
356,284,251550,1,0,0:0:0:0:
268,352,251700,5,0,0:0:0:0:
224,340,251800,1,0,0:0:0:0:
188,313,251900,1,0,0:0:0:0:
164,275,252000,1,0,0:0:0:0:
96,84,252300,5,0,0:0:0:0:
140,96,252400,1,0,0:0:0:0:
176,123,252500,1,0,0:0:0:0:
200,161,252600,1,0,0:0:0:0:
292,100,252750,1,0,0:0:0:0:
392,48,252900,5,0,0:0:0:0:
410,89,253000,1,0,0:0:0:0:
429,130,253100,1,0,0:0:0:0:
447,172,253200,1,0,0:0:0:0:
340,344,253500,5,0,0:0:0:0:
321,302,253600,1,0,0:0:0:0:
302,261,253700,1,0,0:0:0:0:
284,219,253800,1,0,0:0:0:0:
180,176,253950,1,0,0:0:0:0:
88,252,254100,5,0,0:0:0:0:
68,219,254175,1,0,0:0:0:0:
60,182,254250,1,0,0:0:0:0:
63,144,254325,1,0,0:0:0:0:
79,109,254400,1,0,0:0:0:0:
104,81,254475,1,0,0:0:0:0:
137,62,254550,1,0,0:0:0:0:
175,54,254625,1,0,0:0:0:0:
213,59,254700,1,0,0:0:0:0:
247,75,254775,1,0,0:0:0:0:
274,102,254850,1,0,0:0:0:0:
308,118,254925,1,0,0:0:0:0:
346,123,255025,2,0,P|368:122|393:112,3,42.5
410,81,255300,5,0,0:0:0:0:
443,103,255375,1,0,0:0:0:0:
469,134,255450,1,0,0:0:0:0:
486,170,255525,1,0,0:0:0:0:
494,210,255600,1,0,0:0:0:0:
491,250,255675,1,0,0:0:0:0:
478,288,255750,1,0,0:0:0:0:
455,321,255825,1,0,0:0:0:0:
425,348,255900,1,0,0:0:0:0:
389,365,255975,1,0,0:0:0:0:
350,373,256050,1,0,0:0:0:0:
309,370,256125,1,0,0:0:0:0:
271,358,256200,2,0,P|244:342|230:326,3,42.5
196,323,256500,5,0,0:0:0:0:
193,280,256575,1,0,0:0:0:0:
179,240,256650,1,0,0:0:0:0:
154,206,256725,1,0,0:0:0:0:
120,181,256800,1,0,0:0:0:0:
81,166,256875,1,0,0:0:0:0:
55,133,256950,1,0,0:0:0:0:
50,91,257025,1,0,0:0:0:0:
67,53,257100,1,0,0:0:0:0:
101,28,257175,1,0,0:0:0:0:
143,25,257250,1,0,0:0:0:0:
180,43,257325,1,0,0:0:0:0:
203,78,257400,2,0,P|206:126|195:151,3,42.5
241,166,257700,5,0,0:0:0:0:
286,196,257775,1,0,0:0:0:0:
340,197,257850,1,0,0:0:0:0:
387,169,257925,1,0,0:0:0:0:
410,120,258000,6,0,P|432:87|479:73,1,85
374,21,258300,1,0,0:0:0:0:
262,60,258450,1,0,0:0:0:0:
389,42,258600,1,0,0:0:0:0:
251,43,258750,1,0,0:0:0:0:
120,102,258900,6,0,P|72:168|64:200,1,85
91,280,259200,1,0,0:0:0:0:
183,343,259350,2,0,P|314:287|363:304,1,170
432,240,259800,1,0,0:0:0:0:
451,132,259950,6,0,B|392:90|392:90|342:95|298:66,1,170
198,78,260400,1,0,0:0:0:0:
100,34,260550,2,0,P|92:91|170:183,1,170
262,201,261000,1,0,0:0:0:0:
187,282,261150,1,0,0:0:0:0:
155,177,261300,6,0,L|199:77,1,85
290,53,261600,1,0,0:0:0:0:
395,90,261750,2,0,B|420:171|420:171|395:254,1,170
295,298,262200,1,0,0:0:0:0:
190,332,262350,6,0,P|136:266|38:249,1,170
20,141,262800,1,0,0:0:0:0:
91,56,262950,2,0,B|146:71|180:59|180:59|215:101|283:109,1,170
338,38,263400,2,0,P|382:86|436:112,1,85
408,233,263700,6,0,P|364:185|310:159,1,85
243,211,264000,1,0,0:0:0:0:
152,157,264150,2,0,P|138:225|197:308,1,170
94,356,264600,1,0,0:0:0:0:
30,266,264750,6,0,L|-3:86,1,170
91,37,265200,1,0,0:0:0:0:
189,87,265350,2,0,P|236:97|352:63,1,170
456,32,265800,1,0,0:0:0:0:
429,139,265950,1,0,0:0:0:0:
350,63,266100,6,0,P|312:38|259:26,2,85
429,139,266550,2,0,B|397:173|403:218|403:218|370:260|263:224,1,170
225,193,267000,1,0,0:0:0:0:
124,233,267150,1,0,0:0:0:0:
26,186,267300,6,0,P|11:146|9:98,2,85
124,233,267750,2,0,P|223:253|295:319,1,170
386,315,268200,2,0,L|367:211,1,85
294,152,268500,5,0,0:0:0:0:
401,125,268650,1,0,0:0:0:0:
364,236,268800,1,0,0:0:0:0:
288,156,268950,2,0,P|232:112|124:104,1,170
40,152,269400,1,0,0:0:0:0:
85,252,269550,6,0,B|125:286|168:277|168:277|196:322|259:323,1,170
256,217,270000,1,0,0:0:0:0:
354,262,270150,2,0,P|352:172|261:108,1,170
248,224,270600,1,0,0:0:0:0:
144,268,270750,1,0,0:0:0:0:
48,208,270900,6,0,P|32:160|8:128,2,85
120,120,271350,2,0,L|316:156,1,170
357,64,271800,1,0,0:0:0:0:
441,140,271950,6,0,P|401:212|413:304,1,170
299,311,272400,1,0,0:0:0:0:
171,361,272550,1,0,0:0:0:0:
245,245,272700,1,0,0:0:0:0:
253,382,272850,1,0,0:0:0:0:
166,276,273000,1,0,0:0:0:0:
87,84,273300,5,0,0:0:0:0:
115,65,273375,1,0,0:0:0:0:
146,51,273450,1,0,0:0:0:0:
178,41,273525,1,0,0:0:0:0:
212,36,273600,1,0,0:0:0:0:
246,35,273675,1,0,0:0:0:0:
280,39,273750,1,0,0:0:0:0:
312,48,273825,1,0,0:0:0:0:
344,61,273900,2,0,P|380:84|396:108,3,42.5
376,118,274200,2,0,P|392:131|411:140,3,42.5
451,123,274500,5,0,0:0:0:0:
421,138,274575,1,0,0:0:0:0:
396,162,274650,1,0,0:0:0:0:
379,191,274725,1,0,0:0:0:0:
370,224,274800,1,0,0:0:0:0:
370,257,274875,1,0,0:0:0:0:
379,290,274950,1,0,0:0:0:0:
397,319,275025,1,0,0:0:0:0:
421,342,275100,2,0,P|453:365|478:372,3,42.5
478,339,275400,2,0,P|496:348|512:362,3,42.5
511,275,275700,6,0,P|493:218|495:168,1,85
410,117,276000,1,0,0:0:0:0:
370,14,276150,2,0,P|332:37|264:35,2,85
410,117,276600,1,0,0:0:0:0:
341,203,276750,1,0,0:0:0:0:
385,323,276900,6,0,B|339:319|339:319|265:336,1,85
205,294,277200,1,0,0:0:0:0:
205,294,277275,1,0,0:0:0:0:
205,294,277350,1,0,0:0:0:0:
96,317,277500,1,0,0:0:0:0:
0,263,277650,2,0,B|41:193|41:193|56:76,1,170
163,44,278100,6,0,P|205:105|207:138,1,85
362,175,278400,2,0,P|288:180|258:166,1,85
151,284,278700,2,0,P|182:217|210:198,1,85
281,343,279000,1,0,0:0:0:0:
281,343,279075,1,0,0:0:0:0:
281,343,279150,1,0,0:0:0:0:
418,280,279300,6,0,L|445:191,1,85
398,98,279600,1,0,0:0:0:0:
306,37,279750,2,0,P|266:79|58:91,1,255
42,81,280275,1,0,0:0:0:0:
0,76,280350,1,0,0:0:0:0:
16,204,280500,6,0,P|36:237|22:317,1,85
136,232,280800,2,0,P|178:253|243:261,1,85
303,330,281100,2,0,B|342:275|342:275|401:271|428:203,1,170
426,176,281475,1,0,0:0:0:0:
450,141,281550,1,0,0:0:0:0:
356,69,281700,6,0,P|314:84|240:79,1,85
169,47,282000,1,0,0:0:0:0:
169,47,282075,1,0,0:0:0:0:
169,47,282150,1,0,0:0:0:0:
64,84,282300,1,0,0:0:0:0:
101,187,282450,2,0,P|120:237|100:296,1,85
208,330,282750,5,0,0:0:0:0:
357,359,282900,1,0,0:0:0:0:
306,214,283050,1,0,0:0:0:0:
204,332,283200,5,0,0:0:0:0:
360,360,283350,1,0,0:0:0:0:
308,212,283500,1,0,0:0:0:0:
200,336,283650,5,0,0:0:0:0:
364,364,283800,1,0,0:0:0:0:
312,208,283950,1,0,0:0:0:0:
196,340,284100,5,0,0:0:0:0:
157,356,284175,1,0,0:0:0:0:
114,359,284250,1,0,0:0:0:0:
74,346,284325,1,0,0:0:0:0:
41,320,284400,1,0,0:0:0:0:
100,228,284550,1,0,0:0:0:0:
72,116,284700,5,0,0:0:0:0:
120,131,284775,1,0,0:0:0:0:
171,134,284850,1,0,0:0:0:0:
220,122,284925,1,0,0:0:0:0:
265,97,285000,1,0,0:0:0:0:
301,62,285075,1,0,0:0:0:0:
348,45,285150,1,0,0:0:0:0:
399,50,285225,1,0,0:0:0:0:
442,75,285300,6,0,P|436:135|439:200,1,85
337,238,285600,2,0,P|343:178|340:113,2,85
238,324,286050,2,0,P|238:281|244:239,1,85
140,163,286350,1,0,0:0:0:0:
202,46,286500,6,0,L|304:26,1,85
386,11,286800,1,0,0:0:0:0:
440,144,286950,2,0,P|419:184|406:242,1,85
412,324,287250,1,0,0:0:0:0:
271,358,287400,2,0,B|224:352|224:352|179:357,1,85
56,276,287700,6,0,P|77:232|90:178,1,85
63,90,288000,1,0,0:0:0:0:
63,90,288075,1,0,0:0:0:0:
63,90,288150,1,0,0:0:0:0:
170,57,288300,1,0,0:0:0:0:
270,106,288450,2,0,P|308:86|379:64,1,85
389,65,288675,1,0,0:0:0:0:
429,51,288750,1,0,0:0:0:0:
482,157,288900,6,0,P|481:210|470:258,2,85
356,227,289350,2,0,P|357:280|368:328,2,85
255,136,289800,2,0,B|212:111|212:111|142:104,1,85
91,39,290100,5,0,0:0:0:0:
72,147,290250,1,0,0:0:0:0:
176,107,290400,2,0,P|255:84|286:48,1,85
360,49,290700,1,0,0:0:0:0:
469,53,290850,2,0,L|499:151,1,85
440,232,291150,1,0,0:0:0:0:
345,316,291300,6,0,B|306:299|276:311|276:311|225:278,2,127.5
171,164,291900,2,0,B|210:181|240:169|240:169|291:202,2,127.5
288,74,292500,5,0,0:0:0:0:
329,63,292575,1,0,0:0:0:0:
371,67,292650,1,0,0:0:0:0:
410,84,292725,1,0,0:0:0:0:
441,112,292800,1,0,0:0:0:0:
461,149,292875,1,0,0:0:0:0:
469,191,292950,1,0,0:0:0:0:
463,233,293025,1,0,0:0:0:0:
444,271,293100,6,0,L|409:317,1,42.5
338,255,293250,2,0,L|281:245,1,42.5
272,338,293400,2,0,L|228:351,1,42.5
183,269,293550,2,0,L|144:248,1,42.5
79,318,293700,5,0,0:0:0:0:
49,287,293775,1,0,0:0:0:0:
28,250,293850,1,0,0:0:0:0:
18,209,293925,1,0,0:0:0:0:
19,167,294000,1,0,0:0:0:0:
31,126,294075,1,0,0:0:0:0:
53,91,294150,1,0,0:0:0:0:
85,62,294225,1,0,0:0:0:0:
122,43,294300,2,0,B|194:22|241:80|241:80|303:64|347:130,1,255
469,136,294900,5,0,0:0:0:0:
445,160,294975,1,0,0:0:0:0:
425,188,295050,1,0,0:0:0:0:
412,219,295125,1,0,0:0:0:0:
404,252,295200,1,0,0:0:0:0:
405,286,295275,1,0,0:0:0:0:
395,318,295350,1,0,0:0:0:0:
375,345,295425,1,0,0:0:0:0:
347,365,295500,1,0,0:0:0:0:
315,374,295575,1,0,0:0:0:0:
281,373,295650,1,0,0:0:0:0:
249,360,295725,1,0,0:0:0:0:
223,338,295800,1,0,0:0:0:0:
206,310,295875,1,0,0:0:0:0:
199,276,295950,2,0,P|199:249|215:209,1,42.5
294,197,296100,5,0,0:0:0:0:
302,159,296175,1,0,0:0:0:0:
299,121,296250,1,0,0:0:0:0:
285,86,296325,1,0,0:0:0:0:
262,56,296400,1,0,0:0:0:0:
230,35,296475,1,0,0:0:0:0:
193,24,296550,1,0,0:0:0:0:
155,25,296625,1,0,0:0:0:0:
119,37,296700,1,0,0:0:0:0:
88,59,296775,1,0,0:0:0:0:
65,90,296850,1,0,0:0:0:0:
53,126,296925,1,0,0:0:0:0:
51,164,297000,1,0,0:0:0:0:
60,201,297075,1,0,0:0:0:0:
79,234,297150,2,0,P|102:259|117:266,1,42.5
208,241,297300,5,0,0:0:0:0:
250,239,297375,1,0,0:0:0:0:
291,249,297450,1,0,0:0:0:0:
327,271,297525,1,0,0:0:0:0:
356,302,297600,1,0,0:0:0:0:
375,340,297675,1,0,0:0:0:0:
410,363,297750,1,0,0:0:0:0:
452,365,297825,1,0,0:0:0:0:
489,346,297900,1,0,0:0:0:0:
512,311,297975,1,0,0:0:0:0:
512,269,298050,1,0,0:0:0:0:
494,231,298125,1,0,0:0:0:0:
459,209,298200,1,0,0:0:0:0:
435,174,298275,1,0,0:0:0:0:
427,132,298350,2,0,P|431:109|444:86,1,42.5
358,37,298500,5,0,0:0:0:0:
312,31,298575,1,0,0:0:0:0:
269,48,298650,1,0,0:0:0:0:
239,84,298725,1,0,0:0:0:0:
231,130,298800,1,0,0:0:0:0:
245,174,298875,1,0,0:0:0:0:
278,206,298950,1,0,0:0:0:0:
323,217,299025,1,0,0:0:0:0:
353,252,299100,1,0,0:0:0:0:
358,298,299175,1,0,0:0:0:0:
336,339,299250,1,0,0:0:0:0:
295,360,299325,1,0,0:0:0:0:
250,354,299400,1,0,0:0:0:0:
215,323,299475,1,0,0:0:0:0:
175,299,299550,2,0,P|136:283|119:282,1,42.5
34,289,299700,6,0,P|29:256|42:228,5,42.5
111,182,300150,2,0,P|113:161|107:140,5,42.5
52,54,300600,1,0,0:0:0:0:
91,39,300675,1,0,0:0:0:0:
134,36,300750,1,0,0:0:0:0:
175,43,300825,1,0,0:0:0:0:
213,62,300900,6,0,P|251:97|257:111,1,42.5
227,185,301050,2,0,P|241:200|259:212,1,42.5
349,169,301200,2,0,P|386:203|392:217,1,42.5
474,308,301350,6,0,L|424:334,1,42.5
356,271,301500,2,0,L|281:264,1,42.5
244,355,301650,2,0,L|189:363,1,42.5
144,244,301800,5,0,0:0:0:0:
126,205,301875,1,0,0:0:0:0:
95,177,301950,2,0,P|73:169|46:164,1,42.5
100,45,302100,5,0,0:0:0:0:
143,28,302175,1,0,0:0:0:0:
189,28,302250,1,0,0:0:0:0:
233,43,302325,1,0,0:0:0:0:
269,73,302400,1,0,0:0:0:0:
293,113,302475,1,0,0:0:0:0:
301,159,302550,1,0,0:0:0:0:
292,205,302625,1,0,0:0:0:0:
269,245,302700,2,0,P|258:266|241:284,1,42.5
140,273,302850,2,0,P|150:251|167:233,1,42.5
147,132,303000,2,0,P|136:153|119:171,1,42.5
17,173,303150,2,0,P|27:151|44:133,1,42.5
95,30,303300,5,0,0:0:0:0:
149,22,303375,1,0,0:0:0:0:
200,40,303450,1,0,0:0:0:0:
237,80,303525,1,0,0:0:0:0:
251,133,303600,1,0,0:0:0:0:
238,186,303675,1,0,0:0:0:0:
203,227,303750,1,0,0:0:0:0:
176,335,303900,5,0,0:0:0:0:
234,358,303975,1,0,0:0:0:0:
298,357,304050,1,0,0:0:0:0:
355,331,304125,1,0,0:0:0:0:
398,284,304200,1,0,0:0:0:0:
420,225,304275,1,0,0:0:0:0:
416,162,304350,1,0,0:0:0:0:
387,105,304425,1,0,0:0:0:0:
340,63,304500,6,0,B|265:107|189:52|189:52|149:60|149:60|73:42|31:99|31:99|57:171|11:205,1,425
124,251,305400,1,0,0:0:0:0:
65,345,305550,1,0,0:0:0:0:
132,240,305700,6,0,P|256:224|308:168,1,170
237,103,306150,2,0,P|344:106|388:166,1,170
377,260,306600,2,0,L|451:215,1,85
426,322,306900,6,0,B|336:375|336:375|291:351|238:360,1,170
170,325,307350,2,0,B|162:254|110:220|110:220|103:188|103:188|39:144|42:76|110:1|194:40|204:79|212:109,1,425
307,54,308250,5,0,0:0:0:0:
307,54,308325,1,0,0:0:0:0:
307,54,308400,2,0,P|364:91|410:91,1,85
450,177,308700,1,0,0:0:0:0:
433,292,308850,1,0,0:0:0:0:
433,292,308925,1,0,0:0:0:0:
433,292,309000,2,0,L|343:326,1,85
261,357,309300,6,0,B|249:302|217:271|217:271|163:279|110:226|110:226|117:191|117:191|97:149|43:116|43:116|75:86|77:29,1,425
180,36,310200,1,0,0:0:0:0:
283,73,310350,1,0,0:0:0:0:
390,40,310500,6,0,P|425:100|519:157,1,170
478,322,310950,2,0,P|443:262|349:205,1,170
258,284,311400,2,0,B|209:294|209:294|143:282,1,85
74,332,311700,6,0,P|61:258|41:224,1,85
103,150,312000,1,0,0:0:0:0:
55,50,312150,2,0,B|122:27|122:27|166:50|226:31,1,170
327,53,312600,2,0,B|301:98|301:98|298:157,1,85
205,186,312900,5,0,0:0:0:0:
176,178,312975,1,0,0:0:0:0:
146,179,313050,1,0,0:0:0:0:
118,188,313125,1,0,0:0:0:0:
93,205,313200,1,0,0:0:0:0:
74,227,313275,1,0,0:0:0:0:
61,254,313350,1,0,0:0:0:0:
57,284,313425,1,0,0:0:0:0:
60,313,313500,6,0,L|144:345,1,85
336,292,313800,2,0,L|252:260,1,85
425,176,314100,6,0,P|415:131|448:50,1,127.500004863739
288,73,314700,1,0,0:0:0:0:
138,45,315000,2,0,P|99:74|61:88,1,63.7500024318696
42,151,315300,6,0,P|78:197|97:286,1,127.500004863739
226,341,315900,1,0,0:0:0:0:
366,281,316200,1,0,0:0:0:0:
506,342,316500,6,0,P|494:287|520:213,1,127.500004863739
498,179,316900,1,0,0:0:0:0:
473,145,317000,1,0,0:0:0:0:
439,121,317100,1,0,0:0:0:0:
376,58,317250,2,0,P|377:36|389:19,2,31.8750012159348
289,80,317550,1,0,0:0:0:0:
202,55,317700,6,0,B|166:42|166:42|120:42,2,63.7500024318696
105,170,318300,2,0,P|146:202|167:277,1,127.500004863739
294,352,318900,6,0,L|367:329,1,63.7500024318696
455,356,319200,1,0,0:0:0:0:
490,265,319350,1,0,0:0:0:0:
490,265,319425,1,0,0:0:0:0:
490,265,319500,1,0,0:0:0:0:
436,177,319650,1,0,0:0:0:0:
489,89,319800,2,0,P|457:78|422:49,1,63.7500024318696
332,37,320100,5,0,0:0:0:0:
290,44,320200,1,0,0:0:0:0:
256,68,320300,1,0,0:0:0:0:
236,105,320400,1,0,0:0:0:0:
284,196,320550,1,0,0:0:0:0:
215,271,320700,2,0,P|213:306|219:338,1,63.7500024318696
118,303,321000,2,0,P|93:323|64:337,1,63.7500024318696
29,239,321300,5,0,0:0:0:0:
16,209,321375,1,0,0:0:0:0:
11,178,321450,1,0,0:0:0:0:
15,146,321525,1,0,0:0:0:0:
26,117,321600,1,0,0:0:0:0:
45,91,321675,1,0,0:0:0:0:
70,72,321750,1,0,0:0:0:0:
99,59,321825,1,0,0:0:0:0:
131,55,321900,6,0,P|161:61|170:66,1,31.8750012159348
211,129,322050,2,0,P|226:134|241:135,1,31.8750012159348
295,69,322200,2,0,P|324:74|333:79,1,31.8750012159348
367,148,322350,2,0,P|382:153|397:154,1,31.8750012159348
462,207,322500,5,0,0:0:0:0:
433,221,322575,1,0,0:0:0:0:
411,244,322650,1,0,0:0:0:0:
397,272,322725,1,0,0:0:0:0:
391,304,322800,1,0,0:0:0:0:
361,292,322875,1,0,0:0:0:0:
330,286,322950,1,0,0:0:0:0:
298,285,323025,1,0,0:0:0:0:
267,289,323100,2,0,P|184:304|83:257,1,191.250007295609
50,154,323700,5,0,0:0:0:0:
119,79,323850,1,0,0:0:0:0:
148,176,324000,1,0,0:0:0:0:
44,156,324150,5,0,0:0:0:0:
120,72,324300,1,0,0:0:0:0:
152,180,324450,1,0,0:0:0:0:
88,262,324600,5,0,0:0:0:0:
88,262,324750,1,0,0:0:0:0:
224,248,324900,6,0,P|286:283|303:313,1,63.7500024318696
338,356,325200,1,0,0:0:0:0:
338,356,325275,1,0,0:0:0:0:
338,356,325350,1,0,0:0:0:0:
378,262,325500,2,0,L|408:204,1,63.7500024318696
330,140,325800,2,0,L|300:82,1,63.7500024318696
204,46,326100,6,0,P|156:62|130:79,2,63.7500024318696
152,146,326550,2,0,P|123:160|92:168,2,63.7500024318696
235,208,327000,1,0,0:0:0:0:
183,296,327150,1,0,0:0:0:0:
244,200,327300,6,0,P|284:168|352:156,2,95.6250036478044
188,288,327900,2,0,P|112:320|36:240,1,191.250007295609
28,152,328500,5,0,0:0:0:0:
38,118,328575,1,0,0:0:0:0:
56,88,328650,1,0,0:0:0:0:
81,63,328725,1,0,0:0:0:0:
110,45,328800,1,0,0:0:0:0:
143,33,328875,1,0,0:0:0:0:
178,29,328950,1,0,0:0:0:0:
213,34,329025,1,0,0:0:0:0:
246,46,329100,6,0,P|264:56|280:84,1,31.8750012159348
234,138,329250,2,0,P|217:147|201:175,1,31.8750012159348
265,219,329400,2,0,P|283:228|299:256,1,31.8750012159348
227,290,329550,2,0,P|209:299|193:327,1,31.8750012159348
136,364,329700,5,0,0:0:0:0:
102,352,329775,1,0,0:0:0:0:
73,334,329850,1,0,0:0:0:0:
48,309,329925,1,0,0:0:0:0:
29,280,330000,1,0,0:0:0:0:
18,247,330075,1,0,0:0:0:0:
14,212,330150,1,0,0:0:0:0:
19,177,330225,1,0,0:0:0:0:
31,145,330300,5,0,0:0:0:0:
51,115,330375,1,0,0:0:0:0:
76,92,330450,1,0,0:0:0:0:
107,74,330525,1,0,0:0:0:0:
140,64,330600,2,0,P|177:87|209:97,1,63.7500024318696
280,24,330900,5,0,0:0:0:0:
318,38,330975,1,0,0:0:0:0:
347,67,331050,1,0,0:0:0:0:
361,105,331125,1,0,0:0:0:0:
357,146,331200,1,0,0:0:0:0:
336,182,331275,1,0,0:0:0:0:
301,204,331350,1,0,0:0:0:0:
279,239,331425,1,0,0:0:0:0:
273,279,331500,5,0,0:0:0:0:
283,319,331575,1,0,0:0:0:0:
309,351,331650,1,0,0:0:0:0:
346,370,331725,1,0,0:0:0:0:
387,372,331800,1,0,0:0:0:0:
425,357,331875,1,0,0:0:0:0:
455,328,331950,2,0,P|469:290|468:272,1,31.8750012159348
429,225,332100,5,0,0:0:0:0:
397,189,332175,1,0,0:0:0:0:
382,144,332250,1,0,0:0:0:0:
389,97,332325,1,0,0:0:0:0:
414,57,332400,1,0,0:0:0:0:
288,68,332550,5,0,0:0:0:0:
254,110,332625,1,0,0:0:0:0:
206,135,332700,1,0,0:0:0:0:
153,141,332775,1,0,0:0:0:0:
114,177,332850,1,0,0:0:0:0:
104,229,332925,1,0,0:0:0:0:
126,277,333000,5,0,0:0:0:0:
158,277,333075,1,0,0:0:0:0:
188,288,333150,1,0,0:0:0:0:
212,309,333225,1,0,0:0:0:0:
228,336,333300,6,0,B|300:311|317:249|317:249|387:251|408:178|408:178|434:154|434:154|431:75|493:39,1,425
380,24,334200,1,0,0:0:0:0:
304,104,334350,1,0,0:0:0:0:
211,44,334500,6,0,P|157:61|46:52,1,170
62,160,334950,2,0,P|99:212|115:326,1,170
212,367,335400,2,0,L|298:316,1,85
378,375,335700,2,0,P|386:289|244:224,2,255
475,176,336900,6,0,B|427:126|415:78|415:78|383:57|383:57|350:3|280:6|280:6|268:114|154:94,1,425
87,152,337800,1,0,0:0:0:0:
39,251,337950,1,0,0:0:0:0:
92,347,338100,6,0,P|168:331|206:342,1,85
281,353,338400,1,0,0:0:0:0:
388,318,338550,2,0,L|406:207,1,85
465,141,338850,1,0,0:0:0:0:
401,234,339000,1,0,0:0:0:0:
315,173,339150,2,0,P|272:195|226:204,1,85
141,148,339450,1,0,0:0:0:0:
41,189,339600,5,0,0:0:0:0:
41,189,339675,1,0,0:0:0:0:
41,189,339750,2,0,P|48:218|59:245,1,42.5
160,292,339900,5,0,0:0:0:0:
160,292,339975,1,0,0:0:0:0:
160,292,340050,2,0,P|153:263|142:236,1,42.5
266,290,340200,5,0,0:0:0:0:
266,290,340275,1,0,0:0:0:0:
266,290,340350,2,0,P|273:319|284:346,1,42.5
389,357,340500,5,0,0:0:0:0:
439,359,340575,1,0,0:0:0:0:
481,332,340650,1,0,0:0:0:0:
502,286,340725,1,0,0:0:0:0:
493,237,340800,1,0,0:0:0:0:
457,201,340875,1,0,0:0:0:0:
412,180,340950,1,0,0:0:0:0:
386,136,341025,1,0,0:0:0:0:
390,86,341100,5,0,0:0:0:0:
385,137,341175,1,0,0:0:0:0:
356,178,341250,1,0,0:0:0:0:
310,199,341325,1,0,0:0:0:0:
260,194,341400,1,0,0:0:0:0:
219,165,341475,1,0,0:0:0:0:
170,153,341550,1,0,0:0:0:0:
119,159,341625,1,0,0:0:0:0:
75,184,341700,6,0,P|65:251|39:283,1,85
183,352,342000,2,0,P|193:285|219:253,1,85
328,198,342300,1,0,0:0:0:0:
452,273,342450,1,0,0:0:0:0:
371,138,342600,1,0,0:0:0:0:
397,324,342750,1,0,0:0:0:0:
446,128,342900,6,0,P|458:83|485:51,1,85
364,148,343200,2,0,P|352:193|325:225,1,85
192,168,343500,1,0,0:0:0:0:
288,288,343650,1,0,0:0:0:0:
256,128,343800,1,0,0:0:0:0:
224,312,343950,1,0,0:0:0:0:
324,120,344100,6,0,P|360:80|372:40,1,85
476,22,344400,1,0,0:0:0:0:
510,127,344550,2,0,L|474:218,1,85
478,316,344850,1,0,0:0:0:0:
382,261,345000,1,0,0:0:0:0:
275,287,345150,1,0,0:0:0:0:
189,216,345300,6,0,P|160:201|135:175,1,42.5
178,114,345450,2,0,P|160:101|141:93,1,42.5
55,103,345600,2,0,P|33:168|2:200,1,85
102,331,345900,6,0,L|171:359,1,42.5
195,279,346050,2,0,L|251:275,1,42.5
303,331,346200,2,0,P|356:313|405:324,1,85
498,189,346500,5,0,0:0:0:0:
495,134,346575,1,0,0:0:0:0:
468,86,346650,1,0,0:0:0:0:
422,57,346725,1,0,0:0:0:0:
368,52,346800,1,0,0:0:0:0:
317,74,346875,1,0,0:0:0:0:
283,116,346950,1,0,0:0:0:0:
263,167,347025,1,0,0:0:0:0:
219,200,347100,5,0,0:0:0:0:
165,205,347175,1,0,0:0:0:0:
116,181,347250,1,0,0:0:0:0:
87,134,347325,1,0,0:0:0:0:
87,79,347400,1,0,0:0:0:0:
116,33,347475,1,0,0:0:0:0:
164,8,347550,2,0,P|200:8|228:16,1,42.5
264,100,347700,5,0,0:0:0:0:
295,139,347775,1,0,0:0:0:0:
341,158,347850,1,0,0:0:0:0:
391,152,347925,1,0,0:0:0:0:
432,121,348000,1,0,0:0:0:0:
466,158,348075,1,0,0:0:0:0:
477,207,348150,2,0,P|464:252|452:264,1,42.5
396,328,348300,5,0,0:0:0:0:
350,350,348375,1,0,0:0:0:0:
299,354,348450,2,0,P|272:349|245:328,1,42.5
192,259,348600,5,0,0:0:0:0:
237,236,348675,1,0,0:0:0:0:
288,232,348750,2,0,P|315:237|342:258,1,42.5
394,159,348900,5,0,0:0:0:0:
371,113,348975,1,0,0:0:0:0:
336,76,349050,1,0,0:0:0:0:
293,50,349125,1,0,0:0:0:0:
244,37,349200,1,0,0:0:0:0:
193,39,349275,1,0,0:0:0:0:
145,55,349350,2,0,P|114:73|95:96,1,42.5
34,153,349500,5,0,0:0:0:0:
61,195,349575,1,0,0:0:0:0:
73,245,349650,2,0,P|72:288|65:304,1,42.5
214,323,349800,5,0,0:0:0:0:
186,280,349875,1,0,0:0:0:0:
174,230,349950,2,0,P|175:187|182:171,1,42.5
248,64,350100,5,0,0:0:0:0:
297,41,350175,1,0,0:0:0:0:
352,39,350250,1,0,0:0:0:0:
404,58,350325,1,0,0:0:0:0:
444,96,350400,1,0,0:0:0:0:
466,146,350475,1,0,0:0:0:0:
468,201,350550,1,0,0:0:0:0:
448,252,350625,1,0,0:0:0:0:
412,293,350700,5,0,0:0:0:0:
361,314,350775,1,0,0:0:0:0:
306,311,350850,1,0,0:0:0:0:
258,285,350925,1,0,0:0:0:0:
226,241,351000,1,0,0:0:0:0:
218,187,351075,1,0,0:0:0:0:
184,144,351150,2,0,P|159:129|110:126,1,42.5
245,44,351300,5,0,0:0:0:0:
306,28,351375,1,0,0:0:0:0:
368,37,351450,1,0,0:0:0:0:
422,71,351525,1,0,0:0:0:0:
458,123,351600,2,0,P|474:178|474:196,1,42.5
348,206,351750,5,0,0:0:0:0:
330,266,351825,1,0,0:0:0:0:
353,324,351900,1,0,0:0:0:0:
407,356,351975,1,0,0:0:0:0:
469,348,352050,2,0,P|501:333|516:318,1,42.5
486,190,352200,5,0,0:0:0:0:
458,123,352275,1,0,0:0:0:0:
404,77,352350,1,0,0:0:0:0:
334,61,352425,1,0,0:0:0:0:
264,78,352500,5,0,0:0:0:0:
256,192,352575,12,0,354750,0:0:0:0:
247,260,354900,5,0,0:0:0:0:
247,260,357300,6,0,P|232:232|164:184,1,85
90,153,357600,1,0,0:0:0:0:
222,46,357750,2,0,L|307:39,1,85
417,28,358050,1,0,0:0:0:0:
468,137,358200,1,0,0:0:0:0:
468,137,358275,1,0,0:0:0:0:
468,137,358350,1,0,0:0:0:0:
357,214,358500,6,0,P|344:267|345:325,1,85
244,347,358800,1,0,0:0:0:0:
210,321,358875,1,0,0:0:0:0:
169,312,358950,1,0,0:0:0:0:
94,231,359100,1,0,0:0:0:0:
143,131,359250,1,0,0:0:0:0:
77,42,359400,2,0,P|50:24|27:18,2,42.5
152,140,359700,6,0,P|191:186|320:176,1,170
248,96,360150,1,0,0:0:0:0:
337,32,360300,2,0,B|371:63|371:63|421:79,1,85
429,184,360600,1,0,0:0:0:0:
418,224,360675,1,0,0:0:0:0:
421,267,360750,1,0,0:0:0:0:
332,345,360900,5,0,0:0:0:0:
227,311,361050,1,0,0:0:0:0:
117,329,361200,1,0,0:0:0:0:
117,329,361275,1,0,0:0:0:0:
117,329,361350,1,0,0:0:0:0:
63,233,361500,1,0,0:0:0:0:
114,134,361650,1,0,0:0:0:0:
219,172,361800,1,0,0:0:0:0:
256,190,361875,1,0,0:0:0:0:
298,186,361950,1,0,0:0:0:0:
386,104,362100,6,0,P|415:154|376:278,1,170
459,348,362550,1,0,0:0:0:0:
352,370,362700,2,0,P|296:364|243:367,1,85
161,335,363000,2,0,P|125:349|93:354,2,42.5
140,208,363300,6,0,P|140:149|157:112,2,85
252,147,363750,2,0,P|264:106|261:64,2,85
370,95,364200,1,0,0:0:0:0:
400,124,364275,1,0,0:0:0:0:
435,148,364350,1,0,0:0:0:0:
468,272,364500,6,0,P|424:301|400:340,1,85
301,292,364800,1,0,0:0:0:0:
301,292,364875,1,0,0:0:0:0:
301,292,364950,1,0,0:0:0:0:
197,327,365100,1,0,0:0:0:0:
90,295,365250,1,0,0:0:0:0:
59,187,365400,2,0,P|79:140|107:103,1,85
241,84,365700,6,0,P|221:131|193:168,1,85
249,259,366000,2,0,P|274:279|289:307,2,42.5
352,215,366300,1,0,0:0:0:0:
398,214,366375,1,0,0:0:0:0:
438,190,366450,1,0,0:0:0:0:
462,151,366525,1,0,0:0:0:0:
464,105,366600,1,0,0:0:0:0:
443,63,366675,1,0,0:0:0:0:
405,37,366750,1,0,0:0:0:0:
359,33,366825,1,0,0:0:0:0:
316,51,366900,5,0,0:0:0:0:
159,114,367050,1,0,0:0:0:0:
301,222,367200,1,0,0:0:0:0:
301,222,367275,1,0,0:0:0:0:
301,222,367350,1,0,0:0:0:0:
316,51,367500,2,0,P|374:33|412:43,1,85
475,118,367800,1,0,0:0:0:0:
457,156,367875,1,0,0:0:0:0:
452,198,367950,1,0,0:0:0:0:
498,298,368100,5,0,0:0:0:0:
342,211,368250,1,0,0:0:0:0:
417,373,368400,1,0,0:0:0:0:
417,373,368475,1,0,0:0:0:0:
417,373,368550,1,0,0:0:0:0:
452,198,368700,1,0,0:0:0:0:
322,321,368850,1,0,0:0:0:0:
187,203,369000,1,0,0:0:0:0:
155,175,369075,1,0,0:0:0:0:
114,162,369150,1,0,0:0:0:0:
65,45,369300,6,0,P|136:41|176:21,1,85
257,58,369600,2,0,P|303:51|317:58,2,42.5
314,155,369900,1,0,0:0:0:0:
269,257,370050,1,0,0:0:0:0:
319,356,370200,1,0,0:0:0:0:
319,356,370275,1,0,0:0:0:0:
319,356,370350,1,0,0:0:0:0:
260,248,370500,6,0,P|220:212|176:192,1,85
84,184,370800,1,0,0:0:0:0:
16,92,370950,2,0,L|64:20,2,85
152,40,371400,2,0,B|196:48|196:48|264:32,1,85
376,72,371700,6,0,B|404:132|404:132|372:180|396:244,1,170
292,312,372150,1,0,0:0:0:0:
172,272,372300,1,0,0:0:0:0:
56,320,372450,1,0,0:0:0:0:
4,212,372600,1,0,0:0:0:0:
26,176,372675,1,0,0:0:0:0:
36,134,372750,1,0,0:0:0:0:
148,40,372900,6,0,P|204:56|248:52,1,85
340,39,373200,1,0,0:0:0:0:
464,116,373350,2,0,P|427:161|413:203,1,85
389,293,373650,1,0,0:0:0:0:
269,338,373800,1,0,0:0:0:0:
269,338,373875,1,0,0:0:0:0:
269,338,373950,1,0,0:0:0:0:
139,275,374100,6,0,B|128:226|128:226|90:180,1,85
51,84,374400,1,0,0:0:0:0:
92,76,374475,1,0,0:0:0:0:
126,51,374550,1,0,0:0:0:0:
252,30,374700,2,0,L|232:120,1,85
239,242,375000,1,0,0:0:0:0:
278,227,375075,1,0,0:0:0:0:
320,229,375150,1,0,0:0:0:0:
455,174,375300,5,0,0:0:0:0:
361,86,375450,1,0,0:0:0:0:
233,99,375600,1,0,0:0:0:0:
233,99,375675,1,0,0:0:0:0:
233,99,375750,1,0,0:0:0:0:
278,227,375900,1,0,0:0:0:0:
200,333,376050,1,0,0:0:0:0:
73,367,376200,2,0,P|53:370|24:358,2,42.5
58,222,376500,6,0,P|84:187|94:143,2,85
197,173,376950,2,0,P|207:132|232:98,2,85
330,116,377400,1,0,0:0:0:0:
330,116,377475,1,0,0:0:0:0:
330,116,377550,1,0,0:0:0:0:
455,189,377700,6,0,B|436:233|436:233|429:294,1,85
308,304,378000,1,0,0:0:0:0:
266,298,378075,1,0,0:0:0:0:
224,308,378150,1,0,0:0:0:0:
105,353,378300,2,0,L|72:265,1,85
115,125,378600,2,0,L|148:213,1,85
292,167,378900,5,0,0:0:0:0:
335,183,378975,1,0,0:0:0:0:
381,177,379050,1,0,0:0:0:0:
419,151,379125,1,0,0:0:0:0:
440,109,379200,2,0,P|463:77|501:60,1,42.5
354,28,379350,5,0,0:0:0:0:
315,54,379425,1,0,0:0:0:0:
272,73,379500,1,0,0:0:0:0:
227,82,379575,1,0,0:0:0:0:
180,81,379650,2,0,P|154:79|127:67,1,42.5
49,151,379800,5,0,0:0:0:0:
83,187,379875,1,0,0:0:0:0:
100,235,379950,1,0,0:0:0:0:
95,285,380025,1,0,0:0:0:0:
69,329,380100,5,0,0:0:0:0:
120,361,380175,1,0,0:0:0:0:
177,373,380250,1,0,0:0:0:0:
236,364,380325,1,0,0:0:0:0:
288,336,380400,6,0,P|332:315|361:312,3,42.5
352,217,380700,2,0,P|371:208|389:196,3,42.5
491,189,381000,1,0,0:0:0:0:
491,150,381075,1,0,0:0:0:0:
480,114,381150,1,0,0:0:0:0:
460,81,381225,1,0,0:0:0:0:
432,56,381300,6,0,P|392:84|340:80,1,85
306,64,381800,1,0,0:0:0:0:
264,28,381966,2,0,L|168:72,1,85
75,70,382633,2,0,P|100:120|89:155,1,85
140,167,383133,1,0,0:0:0:0:
180,205,383300,2,0,L|146:304,1,85
250,331,383966,6,0,P|286:307|327:302,1,85
220,253,384633,2,0,P|182:234|156:200,1,85
82,121,385300,2,0,B|119:92|119:92|141:53,1,85
247,35,385966,1,0,0:0:0:0:
351,68,386300,1,0,0:0:0:0:
476,45,386633,6,0,P|463:103|469:149,1,85
435,175,387133,1,0,0:0:0:0:
410,225,387300,2,0,L|331:260,1,85
240,320,387966,2,0,P|214:276|170:249,1,85
186,201,388466,1,0,0:0:0:0:
199,146,388633,2,0,P|166:119|146:82,1,85
46,36,389300,6,0,L|5:121,1,85
83,197,389966,2,0,L|115:283,1,85
26,346,390633,1,0,0:0:0:0:
26,346,391133,1,0,0:0:0:0:
26,346,391633,1,0,0:0:0:0:
26,346,391966,6,0,P|114:338|142:356,1,85
153,304,392466,1,0,0:0:0:0:
191,264,392633,2,0,P|232:268|272:253,1,85
383,242,393300,2,0,L|361:154,1,85
315,131,393800,1,0,0:0:0:0:
287,82,393966,2,0,P|228:94|185:82,1,85
110,32,394633,6,0,P|94:84|122:167,1,127.5
116,209,395300,2,0,L|73:302,1,85
172,344,395966,2,0,B|214:336|214:336|266:346,1,85
347,286,396633,1,0,0:0:0:0:
374,278,396744,1,0,0:0:0:0:
397,263,396855,1,0,0:0:0:0:
416,241,396966,1,0,0:0:0:0:
427,215,397077,1,0,0:0:0:0:
430,187,397188,1,0,0:0:0:0:
425,159,397300,5,0,0:0:0:0:
326,111,397633,1,0,0:0:0:0:
311,115,397716,1,0,0:0:0:0:
297,117,397799,1,0,0:0:0:0:
282,119,397882,1,0,0:0:0:0:
268,120,397966,2,0,P|224:148|184:152,1,85
92,200,398633,6,0,L|76:288,1,85
105,332,399133,1,0,0:0:0:0:
156,354,399300,2,0,P|200:336|252:340,1,85
320,262,399966,5,0,0:0:0:0:
407,194,400300,1,0,0:0:0:0:
402,179,400383,1,0,0:0:0:0:
399,165,400466,1,0,0:0:0:0:
399,150,400549,1,0,0:0:0:0:
400,136,400633,2,0,P|360:104|344:72,1,85
240,40,401300,5,0,0:0:0:0:
227,47,401383,1,0,0:0:0:0:
214,55,401466,1,0,0:0:0:0:
202,63,401549,1,0,0:0:0:0:
189,71,401633,1,0,0:0:0:0:
104,144,401966,2,0,P|88:188|88:236,2,56.6666666666667
157,164,402633,6,0,L|188:268,1,85
228,275,403133,1,0,0:0:0:0:
259,321,403300,2,0,P|314:304|361:323,1,85
424,240,403966,2,0,P|436:189|430:144,1,85
389,123,404466,1,0,0:0:0:0:
345,88,404633,2,0,P|317:89|280:84,1,42.5
258,121,404966,2,0,P|236:119|215:120,1,42.5
171,87,405300,5,0,0:0:0:0:
78,150,405633,1,0,0:0:0:0:
80,164,405716,1,0,0:0:0:0:
81,179,405799,1,0,0:0:0:0:
82,194,405882,1,0,0:0:0:0:
81,209,405966,2,0,P|120:243|141:274,1,85
243,234,406633,5,0,0:0:0:0:
243,234,406800,1,0,0:0:0:0:
348,266,407133,1,0,0:0:0:0:
451,221,407466,1,0,0:0:0:0:
451,221,407633,2,0,P|456:180|460:172,1,42.5
446,125,407966,5,0,0:0:0:0:
361,52,408300,1,0,0:0:0:0:
346,56,408383,1,0,0:0:0:0:
332,59,408466,1,0,0:0:0:0:
317,62,408549,1,0,0:0:0:0:
303,64,408633,2,0,P|254:128|239:138,1,85
172,206,409300,6,0,P|195:249|207:293,1,85
249,318,409800,1,0,0:0:0:0:
288,356,409966,2,0,L|376:332,1,85
443,249,410633,6,0,B|435:206|435:206|445:157,1,85
425,113,411133,1,0,0:0:0:0:
410,108,411216,1,0,0:0:0:0:
396,105,411300,2,0,L|319:89,1,42.5
311,131,411633,2,0,L|269:139,1,42.5
233,96,411966,5,0,0:0:0:0:
204,99,412077,1,0,0:0:0:0:
176,98,412188,1,0,0:0:0:0:
148,92,412299,1,0,0:0:0:0:
122,83,412410,1,0,0:0:0:0:
97,69,412521,1,0,0:0:0:0:
75,52,412633,2,0,P|50:115|36:133,1,85
93,225,413300,6,0,P|102:269|135:317,1,85
168,336,413800,1,0,0:0:0:0:
219,312,413966,2,0,P|259:297|309:301,1,85
354,315,414466,1,0,0:0:0:0:
408,300,414633,2,0,L|434:215,1,85
422,164,415133,1,0,0:0:0:0:
410,154,415216,1,0,0:0:0:0:
400,144,415300,2,0,P|353:143|346:141,1,42.5
318,104,415633,1,0,0:0:0:0:
213,138,415966,6,0,P|166:176|139:186,1,85
115,233,416466,1,0,0:0:0:0:
84,279,416633,2,0,L|189:328,1,85
268,277,417300,1,0,0:0:0:0:
268,277,417466,1,0,0:0:0:0:
324,191,417800,2,0,B|350:151|350:151|392:126,1,85
405,82,418300,1,0,0:0:0:0:
300,44,418633,6,0,P|248:64|203:54,1,85
241,167,419300,2,0,P|218:202|215:244,1,85
279,338,419966,2,0,L|365:307,1,85
420,217,420633,2,0,P|465:201|485:200,2,42.5
334,147,421300,6,0,B|289:152|289:152|226:137,1,85
154,90,421966,1,0,0:0:0:0:
57,145,422300,1,0,0:0:0:0:
15,247,422633,5,0,0:0:0:0:
25,257,422716,1,0,0:0:0:0:
34,269,422799,1,0,0:0:0:0:
42,281,422882,1,0,0:0:0:0:
48,295,422966,1,0,0:0:0:0:
140,357,423300,5,0,0:0:0:0:
153,351,423383,1,0,0:0:0:0:
167,345,423466,1,0,0:0:0:0:
181,340,423549,1,0,0:0:0:0:
195,334,423633,1,0,0:0:0:0:
304,347,423966,6,0,P|337:340|350:340,1,42.5
373,259,424300,2,0,P|389:246|404:230,1,42.5
364,154,424633,2,0,P|367:133|374:113,1,42.5
301,70,424966,2,0,P|296:49|287:29,1,42.5
212,73,425300,2,0,L|161:53,1,42.5
118,122,425633,2,0,L|78:137,1,42.5
28,206,425966,5,0,0:0:0:0:
46,287,426132,1,0,0:0:0:0:
109,341,426299,1,0,0:0:0:0:
193,347,426466,1,0,0:0:0:0:
263,302,426633,6,0,P|270:259|267:248,1,42.5
220,198,426966,2,0,P|220:176|226:156,1,42.5
281,96,427300,2,0,L|321:82,1,42.5
370,147,427633,2,0,L|425:159,1,42.5
459,222,427966,2,0,P|450:257|456:281,1,42.5
372,283,428300,2,0,P|371:304|363:323,1,42.5
294,365,428633,5,0,0:0:0:0:
278,341,428744,1,0,0:0:0:0:
260,319,428855,1,0,0:0:0:0:
238,301,428966,1,0,0:0:0:0:
213,287,429077,1,0,0:0:0:0:
187,276,429188,1,0,0:0:0:0:
160,270,429300,6,0,P|114:286|105:285,1,42.5
90,216,429633,2,0,P|42:203|35:198,1,42.5
71,134,429966,2,0,P|38:98|35:89,1,42.5
102,57,430300,2,0,P|93:9|96:0,1,42.5
169,3,430633,2,0,L|221:18,1,42.5
258,75,430966,2,0,L|317:60,1,42.5
358,14,431300,5,0,0:0:0:0:
428,41,431466,1,0,0:0:0:0:
469,104,431633,1,0,0:0:0:0:
465,179,431812,1,0,0:0:0:0:
418,238,432042,6,0,P|376:269|360:300,1,85
244,236,432866,2,0,P|238:183|223:158,1,74.375
269,38,433668,2,0,L|353:58,1,85
414,162,434553,2,0,P|404:200|406:236,1,74.375
262,325,435711,5,0,0:0:0:0:
256,192,435961,12,0,447945,0:0:0:0:
