osu file format v14

[General]
AudioFilename: audio.mp3
AudioLeadIn: 0
PreviewTime: 75562
Countdown: 0
SampleSet: None
StackLeniency: 0.3
Mode: 0
LetterboxInBreaks: 0
WidescreenStoryboard: 0

[Editor]
DistanceSpacing: 0.8
BeatDivisor: 4
GridSize: 32
TimelineZoom: 2.1

[Metadata]
Title:Tsuioku no Kuroki Makenshi
TitleUnicode:追憶の黒き魔剣士
Artist:Dragon Guardian feat. Suzuki Konomi
ArtistUnicode:Dragon Guardian feat. 鈴木このみ
Creator:knowledgeking
Version:Knight's Memory
Source:
Tags:Deathstream rsi changespeedstream Japanese Pop J-pop ザベストオブドラゴンガーディアンサーガ 勇者アーサー symphonic rpg Faputa
BeatmapID:1771619
BeatmapSetID:847101

[Difficulty]
HPDrainRate:5
CircleSize:4.5
OverallDifficulty:9.5
ApproachRate:9.8
SliderMultiplier:1.79999990463257
SliderTickRate:1

[Events]
//Background and Video events
0,0,"BG.jpg",0,0
//Break Periods
//Storyboard Layer 0 (Background)
//Storyboard Layer 1 (Fail)
//Storyboard Layer 2 (Pass)
//Storyboard Layer 3 (Foreground)
//Storyboard Sound Samples

[TimingPoints]
720,315.789473684211,4,3,1,60,1,0
720,-125,4,3,1,60,0,0
1983,-100,4,3,1,60,0,0
5456,-303.030303030303,4,3,1,60,0,0
5772,-100,4,3,1,60,0,0
10825,-100,4,3,1,70,0,0
20930,-100,4,3,1,60,0,0
31035,-100,4,3,1,50,0,0
66404,-142.857142857143,4,3,1,40,0,0
70193,-100,4,3,1,60,0,0
71772,-100,4,3,1,45,0,0
72088,-100,4,3,1,50,0,0
72404,-100,4,3,1,55,0,0
72720,-100,4,3,1,60,0,0
73035,-100,4,3,1,65,0,0
73351,-100,4,3,1,70,0,0
73667,-100,4,3,1,75,0,0
73983,-100,4,3,1,80,0,0
75562,-100,4,3,1,60,0,0
76509,-83.3333333333333,4,3,2,80,0,1
94193,-125,4,3,1,50,0,0
100509,-125,4,3,1,60,0,0
101772,-125,4,3,1,70,0,0
103035,-125,4,3,1,60,0,0
104298,-125,4,3,1,40,0,0
109351,-125,4,3,1,50,0,0
110614,-125,4,3,1,30,0,0
111877,-125,4,3,1,40,0,0
113141,-125,4,3,1,50,0,0
119456,-100,4,3,1,60,0,0
121983,-100,4,3,1,50,0,0
132088,-125,4,3,1,40,0,0
135877,-100,4,3,1,60,0,0
137456,-100,4,3,1,45,0,0
137772,-100,4,3,1,50,0,0
138088,-100,4,3,1,55,0,0
138404,-100,4,3,1,60,0,0
138720,-100,4,3,1,65,0,0
139035,-100,4,3,1,70,0,0
139351,-100,4,3,1,75,0,0
139667,-100,4,3,1,80,0,0
141246,-100,4,3,1,60,0,0
142193,-83.3333333333333,4,3,2,80,0,1
159877,-100,4,3,1,60,0,0
174720,-166.666666666667,4,3,1,60,0,0
175035,-142.857142857143,4,3,1,50,0,0
176298,-142.857142857143,4,3,1,40,0,0
176772,-142.857142857143,4,3,1,30,0,0
177246,-142.857142857143,4,3,1,20,0,0
177562,-147.058823529412,4,3,1,10,0,0
179022,-126.582278481013,4,3,1,5,0,0
180088,-100,4,3,1,60,0,0
181351,-100,4,3,1,50,0,0
182614,-100,4,3,1,40,0,0
183877,-100,4,3,1,30,0,0
184193,-100,4,3,1,40,0,0
184509,-100,4,3,1,50,0,0
185141,-100,4,3,1,60,0,0
185298,-200,4,3,1,60,0,0
185614,-100,4,3,1,60,0,0
186404,-100,4,3,1,50,0,0
186562,-200,4,3,1,50,0,0
186877,-100,4,3,1,50,0,0
187667,-100,4,3,1,40,0,0
187825,-333.333333333333,4,3,1,40,0,0
188298,-333.333333333333,4,3,1,50,0,0
188930,-100,4,3,1,60,0,0
189009,-100,4,3,1,65,0,0
189088,-100,4,3,1,70,0,0
189167,-100,4,3,1,75,0,0
189246,-100,4,3,1,80,0,0
189325,-100,4,3,1,85,0,0
189404,-100,4,3,1,90,0,0
189483,-100,4,3,1,95,0,0
189562,-100,4,3,1,100,0,0
189720,-100,4,3,1,60,0,0
190193,-125,4,3,1,50,0,0
210404,-100,4,3,1,60,0,0
220509,-125,4,3,1,50,0,0
228088,-100,4,3,1,60,0,0
230614,-66.6666666666667,4,3,1,40,0,0
231877,-66.6666666666667,4,3,1,50,0,0
232509,-66.6666666666667,4,3,1,60,0,0
233141,-90.9090909090909,4,3,1,60,0,0
235667,-83.3333333333333,4,3,2,80,0,1
248298,-100,4,3,2,60,0,0
249877,-83.3333333333333,4,3,2,70,0,0
250193,-76.9230769230769,4,3,2,80,0,0
250509,-71.4285714285714,4,3,2,90,0,0
250825,-66.6666666666667,4,3,2,100,0,1
254930,-76.9230769230769,4,3,2,100,0,1
255877,-66.6666666666667,4,3,2,100,0,1
259351,-76.9230769230769,4,3,2,100,0,1
260298,-83.3333333333333,4,3,2,85,0,0
260930,-125,4,3,2,70,0,0
261562,-100,4,3,2,70,0,0
268509,-125,4,3,2,70,0,0
270404,-100,4,3,2,60,0,0
270720,-100,4,3,2,70,0,0
272298,-90.9090909090909,4,3,2,60,0,0
272772,-90.9090909090909,4,3,2,90,0,0
273246,-90.9090909090909,4,3,2,75,0,0
273562,-100,4,3,1,60,0,0
283667,-100,4,3,1,50,0,0
302614,-100,4,3,1,5,0,0

[Colours]
Combo1 : 233,206,22
Combo2 : 176,134,247
Combo3 : 193,193,193
Combo4 : 6,37,162

[HitObjects]
169,87,720,6,0,B|191:146|145:192|145:192|186:242|186:242|149:288|181:377,1,287.999984741211,6|0,0:0|0:0,0:0:0:0:
60,193,1983,6,0,B|114:221|168:195|168:195|161:247|161:247|213:221|271:248,1,269.999985694885,2|0,0:0|0:0,0:0:0:0:
348,333,2614,2,0,P|381:293|354:165,1,179.999990463257,2|0,0:0|0:0,0:0:0:0:
263,39,3246,6,0,P|224:67|157:61,1,89.9999952316285,2|0,0:0|0:0,0:0:0:0:
54,124,3562,2,0,P|93:152|160:146,1,89.9999952316285,8|0,0:0|0:0,0:0:0:0:
263,209,3877,2,0,P|224:237|157:231,1,89.9999952316285,2|0,0:0|0:0,0:0:0:0:
54,294,4193,2,0,P|93:322|160:316,1,89.9999952316285,8|0,0:0|0:0,0:0:0:0:
263,379,4509,5,2,0:0:0:0:
263,334,4587,1,0,0:0:0:0:
285,295,4666,1,0,0:0:0:0:
323,271,4745,1,0,0:0:0:0:
367,269,4825,2,0,L|437:282,1,44.9999976158143,8|0,0:0|0:0,0:0:0:0:
489,209,4983,5,0,0:0:0:0:
488,164,5061,1,0,0:0:0:0:
466,125,5140,1,2,0:0:0:0:
428,101,5219,1,0,0:0:0:0:
384,99,5298,2,0,L|314:111,1,44.9999976158143
176,32,5456,6,0,L|231:42,1,44.5499975037003,8|0,0:0|0:0,0:0:0:0:
287,48,5772,6,0,B|267:97|267:97|294:140|294:140|264:183|297:239,1,179.999990463257,2|8,0:0|0:0,0:0:0:0:
260,335,6246,1,0,0:0:0:0:
166,268,6404,2,0,P|110:276|86:317,1,89.9999952316285,2|0,0:0|0:0,0:0:0:0:
165,366,6720,1,8,0:0:0:0:
165,366,6877,1,0,0:0:0:0:
91,202,7035,6,0,P|68:156|11:134,1,89.9999952316285,2|0,0:0|0:0,0:0:0:0:
132,66,7351,2,0,P|169:41|187:1,1,89.9999952316285,8|0,0:0|0:0,0:0:0:0:
195,238,7667,2,0,P|172:284|115:306,1,89.9999952316285,2|0,0:0|0:0,0:0:0:0:
305,79,7983,2,0,P|351:102|373:159,1,89.9999952316285,8|0,0:0|0:0,0:0:0:0:
338,280,8298,6,0,P|403:304|460:199,1,179.999990463257,2|8,0:0|0:0,0:0:0:0:
369,134,8772,1,0,0:0:0:0:
338,280,8930,2,0,L|324:397,1,89.9999952316285,2|0,0:0|0:0,0:0:0:0:
231,184,9246,1,8,0:0:0:0:
231,184,9404,1,0,0:0:0:0:
146,298,9562,5,2,0:0:0:0:
144,253,9640,1,0,0:0:0:0:
122,214,9719,1,0,0:0:0:0:
84,191,9798,1,0,0:0:0:0:
40,187,9877,2,0,L|8:222,1,44.9999976158143,8|0,0:0|0:0,0:0:0:0:
79,48,10035,2,0,L|68:-22,1,44.9999976158143
179,152,10193,5,2,0:0:0:0:
221,166,10272,1,0,0:0:0:0:
265,167,10351,2,0,L|327:155,1,44.9999976158143,0|0,0:0|0:0,0:0:0:0:
494,79,10509,5,8,0:0:0:0:
452,93,10588,1,0,0:0:0:0:
408,94,10667,2,0,L|346:82,1,44.9999976158143,0|0,0:0|0:0,0:0:0:0:
179,6,10825,5,2,0:0:0:0:
211,38,10904,1,0,0:0:0:0:
223,81,10983,1,0,0:0:0:0:
211,124,11062,1,0,0:0:0:0:
179,156,11141,1,8,0:0:0:0:
136,168,11220,1,0,0:0:0:0:
92,156,11299,1,0,0:0:0:0:
61,124,11378,1,0,0:0:0:0:
49,81,11456,5,2,0:0:0:0:
88,119,11535,1,0,0:0:0:0:
101,171,11614,1,0,0:0:0:0:
88,224,11693,1,0,0:0:0:0:
57,268,11772,1,8,0:0:0:0:
52,322,11851,1,0,0:0:0:0:
75,371,11930,2,0,L|132:377,1,44.9999976158143,0|0,0:0|0:0,0:0:0:0:
241,352,12088,5,2,0:0:0:0:
285,344,12167,1,0,0:0:0:0:
320,315,12246,1,0,0:0:0:0:
338,274,12325,1,0,0:0:0:0:
336,229,12404,1,8,0:0:0:0:
313,190,12483,1,0,0:0:0:0:
274,167,12562,1,0,0:0:0:0:
229,163,12641,1,0,0:0:0:0:
188,181,12720,5,2,0:0:0:0:
242,181,12798,1,0,0:0:0:0:
290,157,12877,1,0,0:0:0:0:
324,115,12956,1,0,0:0:0:0:
369,85,13035,1,8,0:0:0:0:
423,81,13114,1,0,0:0:0:0:
474,99,13193,2,0,L|488:157,1,44.9999976158143,0|0,0:0|0:0,0:0:0:0:
459,284,13351,5,2,0:0:0:0:
423,244,13429,1,0,0:0:0:0:
373,225,13508,1,0,0:0:0:0:
319,231,13587,1,0,0:0:0:0:
275,262,13666,1,8,0:0:0:0:
249,310,13745,1,0,0:0:0:0:
249,364,13824,5,0,0:0:0:0:
280,325,13904,1,0,0:0:0:0:
290,277,13982,1,2,0:0:0:0:
279,229,14061,1,0,0:0:0:0:
248,190,14140,1,0,0:0:0:0:
203,169,14219,1,0,0:0:0:0:
154,169,14298,5,8,0:0:0:0:
134,179,14377,1,0,0:0:0:0:
112,186,14456,1,0,0:0:0:0:
90,187,14535,1,0,0:0:0:0:
68,184,14614,6,0,L|53:123,3,44.9999976158143,2|0|0|0,0:0|0:0|0:0|0:0,0:0:0:0:
144,12,14930,2,0,L|133:55,3,44.9999976158143,8|0|0|0,0:0|0:0|0:0|0:0,0:0:0:0:
168,289,15246,5,2,0:0:0:0:
179,332,15325,1,0,0:0:0:0:
210,364,15404,2,0,L|291:376,1,44.9999976158143,0|0,0:0|0:0,0:0:0:0:
426,289,15562,5,8,0:0:0:0:
415,246,15641,1,0,0:0:0:0:
384,214,15720,2,0,L|303:202,1,44.9999976158143,0|0,0:0|0:0,0:0:0:0:
168,289,15877,5,2,0:0:0:0:
116,303,15956,1,0,0:0:0:0:
64,289,16035,1,0,0:0:0:0:
26,251,16114,1,0,0:0:0:0:
12,199,16193,1,8,0:0:0:0:
26,147,16272,1,0,0:0:0:0:
64,109,16351,5,0,0:0:0:0:
99,145,16431,1,0,0:0:0:0:
147,158,16510,1,2,0:0:0:0:
195,145,16589,1,0,0:0:0:0:
231,111,16668,1,0,0:0:0:0:
244,63,16747,1,0,0:0:0:0:
231,16,16825,5,8,0:0:0:0:
202,51,16904,1,0,0:0:0:0:
202,96,16983,1,0,0:0:0:0:
231,130,17062,1,0,0:0:0:0:
275,138,17141,5,2,0:0:0:0:
296,99,17219,1,0,0:0:0:0:
333,74,17298,1,0,0:0:0:0:
378,68,17377,1,0,0:0:0:0:
420,84,17456,1,8,0:0:0:0:
450,118,17535,1,0,0:0:0:0:
460,162,17614,5,0,0:0:0:0:
419,190,17693,1,0,0:0:0:0:
396,234,17772,1,2,0:0:0:0:
396,283,17851,1,0,0:0:0:0:
419,327,17930,1,0,0:0:0:0:
460,355,18009,1,0,0:0:0:0:
509,361,18088,5,8,0:0:0:0:
485,313,18167,1,0,0:0:0:0:
439,285,18246,1,0,0:0:0:0:
385,287,18325,1,0,0:0:0:0:
342,318,18404,5,10,0:0:0:0:
307,353,18484,1,0,0:0:0:0:
261,371,18562,1,0,0:0:0:0:
212,366,18641,1,0,0:0:0:0:
169,341,18720,2,0,L|105:349,1,44.9999976158143,8|0,0:0|0:0,0:0:0:0:
15,280,18877,5,0,0:0:0:0:
50,245,18957,1,0,0:0:0:0:
96,227,19035,1,10,0:0:0:0:
145,232,19114,1,0,0:0:0:0:
188,257,19193,2,0,L|252:249,1,44.9999976158143
342,318,19351,5,8,0:0:0:0:
362,263,19430,1,0,0:0:0:0:
350,205,19509,2,0,L|366:136,1,44.9999976158143
378,45,19667,5,10,0:0:0:0:
431,53,19745,1,0,0:0:0:0:
472,88,19824,1,0,0:0:0:0:
487,140,19903,1,0,0:0:0:0:
472,192,19983,5,8,0:0:0:0:
460,194,20061,1,0,0:0:0:0:
449,196,20140,1,0,0:0:0:0:
438,198,20219,1,0,0:0:0:0:
427,200,20298,6,0,P|348:197|323:301,1,179.999990463257,10|0,0:0|0:0,0:0:0:0:
384,381,20930,5,2,0:0:0:0:
315,237,21088,1,0,0:0:0:0:
315,237,21167,1,0,0:0:0:0:
315,237,21246,1,8,0:0:0:0:
422,122,21404,5,0,0:0:0:0:
280,190,21562,1,2,0:0:0:0:
280,190,21641,1,0,0:0:0:0:
280,190,21720,1,0,0:0:0:0:
166,81,21877,5,8,0:0:0:0:
233,224,22035,1,0,0:0:0:0:
125,343,22193,5,2,0:0:0:0:
268,272,22351,1,0,0:0:0:0:
268,272,22430,1,0,0:0:0:0:
268,272,22509,1,8,0:0:0:0:
66,275,22667,5,0,0:0:0:0:
326,339,22825,2,0,P|393:288|480:330,1,179.999990463257,2|8,0:0|0:0,0:0:0:0:
406,381,23298,1,0,0:0:0:0:
374,172,23456,5,2,0:0:0:0:
223,225,23614,1,0,0:0:0:0:
223,225,23693,1,0,0:0:0:0:
223,225,23772,1,8,0:0:0:0:
217,382,23930,5,0,0:0:0:0:
165,233,24088,1,2,0:0:0:0:
165,233,24167,1,0,0:0:0:0:
165,233,24246,1,0,0:0:0:0:
7,229,24403,5,8,0:0:0:0:
156,176,24561,1,0,0:0:0:0:
163,15,24719,5,2,0:0:0:0:
214,167,24877,1,0,0:0:0:0:
214,167,24956,1,0,0:0:0:0:
214,167,25035,1,8,0:0:0:0:
72,117,25193,5,0,0:0:0:0:
305,62,25351,5,2,0:0:0:0:
353,90,25456,5,0,0:0:0:0:
375,145,25561,5,0,0:0:0:0:
353,200,25667,6,0,P|317:266|359:326,1,134.999992847443,8|0,0:0|0:0,0:0:0:0:
396,263,25983,5,14,0:0:0:0:
225,264,27246,5,10,0:0:0:0:
126,334,27720,5,10,0:0:0:0:
56,234,28193,5,10,0:0:0:0:
155,164,28509,6,0,L|143:45,1,89.9999952316285,2|0,0:0|0:0,0:0:0:0:
225,264,28825,2,0,L|215:353,1,89.9999952316285,8|0,0:0|0:0,0:0:0:0:
140,249,29141,2,0,L|50:239,1,89.9999952316285,2|0,0:0|0:0,0:0:0:0:
240,179,29456,2,0,L|359:167,1,89.9999952316285,8|0,0:0|0:0,0:0:0:0:
155,164,29772,5,10,0:0:0:0:
141,112,29851,1,0,0:0:0:0:
155,60,29930,1,0,0:0:0:0:
193,22,30009,1,0,0:0:0:0:
245,8,30088,2,0,L|300:23,1,44.9999976158143,8|0,0:0|0:0,0:0:0:0:
291,131,30246,5,0,0:0:0:0:
329,169,30325,1,0,0:0:0:0:
381,183,30404,1,10,0:0:0:0:
432,169,30483,1,0,0:0:0:0:
471,131,30562,2,0,L|485:75,1,44.9999976158143,0|0,0:0|0:0,0:0:0:0:
441,287,30720,6,0,L|452:330,1,44.9999976158143,8|0,0:0|0:0,0:0:0:0:
285,259,30877,2,0,L|296:215,1,44.9999976158143,0|0,0:0|0:0,0:0:0:0:
382,67,31035,6,0,P|331:64|293:12,1,89.9999952316285,2|0,0:0|0:0,0:0:0:0:
186,21,31351,1,8,0:0:0:0:
92,90,31509,1,0,0:0:0:0:
92,90,31588,1,0,0:0:0:0:
92,90,31667,1,2,0:0:0:0:
176,167,31825,2,0,L|164:293,1,89.9999952316285,0|8,0:0|0:0,0:0:0:0:
83,370,32141,1,0,0:0:0:0:
83,370,32220,1,0,0:0:0:0:
83,370,32298,6,0,L|74:280,1,89.9999952316285,2|0,0:0|0:0,0:0:0:0:
2,150,32614,1,8,0:0:0:0:
103,41,32772,1,0,0:0:0:0:
103,41,32851,1,0,0:0:0:0:
103,41,32930,1,2,0:0:0:0:
237,104,33088,1,0,0:0:0:0:
219,251,33246,2,0,L|226:326,1,44.9999976158143,8|0,0:0|0:0,0:0:0:0:
353,314,33404,1,0,0:0:0:0:
353,314,33483,1,0,0:0:0:0:
353,314,33562,5,2,0:0:0:0:
454,205,33720,1,0,0:0:0:0:
382,75,33877,1,8,0:0:0:0:
386,343,34035,5,0,0:0:0:0:
418,198,34193,1,2,0:0:0:0:
291,121,34350,1,0,0:0:0:0:
429,354,34509,5,8,0:0:0:0:
384,212,34667,1,0,0:0:0:0:
235,209,34825,5,10,0:0:0:0:
472,341,34983,1,8,0:0:0:0:
243,252,35141,5,10,0:0:0:0:
463,297,35298,1,8,0:0:0:0:
270,288,35456,5,10,0:0:0:0:
436,261,35614,1,8,0:0:0:0:
309,309,35772,5,10,0:0:0:0:
397,240,35930,1,8,0:0:0:0:
397,240,36009,1,8,0:0:0:0:
397,240,36088,6,0,L|411:126,1,89.9999952316285,10|0,0:0|0:0,0:0:0:0:
453,111,36325,1,0,0:0:0:0:
453,111,36404,2,0,L|439:-3,1,89.9999952316285,8|0,0:0|0:0,0:0:0:0:
291,80,36720,2,0,L|277:194,1,89.9999952316285,2|0,0:0|0:0,0:0:0:0:
235,209,36956,1,0,0:0:0:0:
235,209,37035,2,0,L|249:323,1,89.9999952316285,8|0,0:0|0:0,0:0:0:0:
170,363,37351,5,2,0:0:0:0:
58,234,37509,1,0,0:0:0:0:
58,234,37588,1,0,0:0:0:0:
58,234,37667,1,8,0:0:0:0:
22,352,37825,5,0,0:0:0:0:
181,210,37983,1,2,0:0:0:0:
234,337,38141,5,0,0:0:0:0:
97,119,38298,1,8,0:0:0:0:
24,224,38456,5,0,0:0:0:0:
223,109,38614,2,0,P|269:131|332:117,1,89.9999952316285,2|0,0:0|0:0,0:0:0:0:
480,173,38930,2,0,P|434:195|371:181,1,89.9999952316285,8|0,0:0|0:0,0:0:0:0:
293,235,39246,5,2,0:0:0:0:
359,360,39404,1,0,0:0:0:0:
498,360,39562,2,0,L|503:245,1,89.9999952316285,8|0,0:0|0:0,0:0:0:0:
480,173,39877,5,10,0:0:0:0:
480,173,39956,1,0,0:0:0:0:
480,173,40035,1,0,0:0:0:0:
306,128,40193,5,8,0:0:0:0:
422,30,40351,1,0,0:0:0:0:
422,30,40430,1,0,0:0:0:0:
422,30,40509,1,10,0:0:0:0:
373,216,40667,1,0,0:0:0:0:
376,238,40745,1,0,0:0:0:0:
379,260,40824,5,8,0:0:0:0:
346,251,40904,1,0,0:0:0:0:
314,260,40983,1,0,0:0:0:0:
290,283,41062,1,0,0:0:0:0:
281,315,41141,5,2,0:0:0:0:
251,348,41219,1,0,0:0:0:0:
209,364,41298,1,0,0:0:0:0:
164,359,41377,1,0,0:0:0:0:
127,333,41456,1,8,0:0:0:0:
106,293,41535,1,0,0:0:0:0:
106,248,41614,1,0,0:0:0:0:
127,208,41693,1,0,0:0:0:0:
164,183,41772,1,2,0:0:0:0:
185,223,41851,1,0,0:0:0:0:
185,268,41930,1,0,0:0:0:0:
164,308,42009,1,0,0:0:0:0:
127,333,42088,6,0,L|60:342,3,44.9999976158143,8|0|0|0,0:0|0:0|0:0|0:0,0:0:0:0:
31,241,42404,5,2,0:0:0:0:
10,201,42482,1,0,0:0:0:0:
10,156,42561,1,0,0:0:0:0:
31,116,42640,1,0,0:0:0:0:
68,91,42719,1,8,0:0:0:0:
113,85,42798,1,0,0:0:0:0:
155,101,42877,1,0,0:0:0:0:
185,135,42956,1,0,0:0:0:0:
195,179,43035,1,2,0:0:0:0:
150,185,43114,1,0,0:0:0:0:
108,169,43193,1,0,0:0:0:0:
78,135,43272,1,0,0:0:0:0:
68,91,43351,6,0,L|79:27,3,44.9999976158143,8|0|0|0,0:0|0:0|0:0|0:0,0:0:0:0:
165,45,43668,5,2,0:0:0:0:
201,18,43747,1,0,0:0:0:0:
246,18,43826,1,0,0:0:0:0:
282,44,43904,1,0,0:0:0:0:
295,87,43983,1,8,0:0:0:0:
282,130,44062,1,0,0:0:0:0:
245,156,44141,5,0,0:0:0:0:
256,112,44220,1,0,0:0:0:0:
294,87,44299,1,2,0:0:0:0:
339,89,44377,1,0,0:0:0:0:
375,116,44456,1,0,0:0:0:0:
389,159,44535,1,0,0:0:0:0:
373,201,44614,5,8,0:0:0:0:
363,180,44693,1,0,0:0:0:0:
360,158,44772,1,0,0:0:0:0:
364,136,44851,1,0,0:0:0:0:
375,116,44930,5,2,0:0:0:0:
414,95,45009,1,0,0:0:0:0:
436,56,45088,2,0,L|444:6,1,44.9999976158143,0|0,0:0|0:0,0:0:0:0:
510,157,45246,5,8,0:0:0:0:
471,178,45325,1,0,0:0:0:0:
449,217,45404,2,0,L|441:267,1,44.9999976158143,0|0,0:0|0:0,0:0:0:0:
442,362,45562,6,0,L|376:349,3,44.9999976158143,2|0|0|0,0:0|0:0|0:0|0:0,0:0:0:0:
245,300,45877,2,0,L|311:287,3,44.9999976158143,8|0|0|0,0:0|0:0|0:0|0:0,0:0:0:0:
404,242,46193,5,2,0:0:0:0:
438,200,46272,1,0,0:0:0:0:
450,147,46350,1,0,0:0:0:0:
438,94,46429,1,0,0:0:0:0:
404,52,46508,1,8,0:0:0:0:
355,29,46587,1,0,0:0:0:0:
301,29,46666,5,0,0:0:0:0:
288,77,46746,1,0,0:0:0:0:
250,109,46825,1,2,0:0:0:0:
201,116,46904,1,0,0:0:0:0:
156,95,46983,1,0,0:0:0:0:
129,54,47062,1,0,0:0:0:0:
129,4,47141,5,8,0:0:0:0:
168,27,47220,1,0,0:0:0:0:
183,69,47299,1,0,0:0:0:0:
168,112,47378,1,0,0:0:0:0:
129,134,47456,6,0,L|64:122,3,44.9999976158143,2|0|0|0,0:0|0:0|0:0|0:0,0:0:0:0:
211,193,47772,2,0,L|276:181,3,44.9999976158143,8|0|0|0,0:0|0:0|0:0|0:0,0:0:0:0:
129,252,48088,2,0,L|64:240,3,44.9999976158143,2|0|0|0,0:0|0:0|0:0|0:0,0:0:0:0:
211,311,48404,2,0,L|276:299,3,44.9999976158143,8|0|0|0,0:0|0:0|0:0|0:0,0:0:0:0:
129,370,48720,5,10,0:0:0:0:
75,370,48798,1,0,0:0:0:0:
31,338,48877,2,0,L|24:252,1,44.9999976158143,0|0,0:0|0:0,0:0:0:0:
109,234,49035,5,8,0:0:0:0:
163,234,49113,1,0,0:0:0:0:
207,266,49193,2,0,L|214:352,1,44.9999976158143,0|0,0:0|0:0,0:0:0:0:
305,349,49351,5,10,0:0:0:0:
348,361,49430,1,0,0:0:0:0:
392,349,49509,1,0,0:0:0:0:
424,318,49588,1,0,0:0:0:0:
435,274,49666,1,8,0:0:0:0:
424,231,49745,1,0,0:0:0:0:
392,199,49824,1,0,0:0:0:0:
348,187,49903,1,0,0:0:0:0:
305,199,49982,5,10,0:0:0:0:
256,206,50062,1,0,0:0:0:0:
212,186,50140,1,0,0:0:0:0:
185,145,50219,1,0,0:0:0:0:
185,95,50298,2,0,L|200:20,1,44.9999976158143,8|0,0:0|0:0,0:0:0:0:
296,154,50456,1,0,0:0:0:0:
300,176,50534,1,0,0:0:0:0:
304,198,50613,5,2,0:0:0:0:
292,242,50693,1,0,0:0:0:0:
257,271,50772,1,0,0:0:0:0:
213,277,50851,1,0,0:0:0:0:
172,259,50929,5,8,0:0:0:0:
193,209,51008,1,0,0:0:0:0:
185,156,51087,1,0,0:0:0:0:
150,114,51166,1,0,0:0:0:0:
97,100,51246,5,2,0:0:0:0:
27,229,51404,2,0,L|-16:246,3,29.9999984105428,0|0|0|8,0:0|0:0|0:0|0:0,0:0:0:0:
172,259,51720,1,0,0:0:0:0:
172,259,51798,1,0,0:0:0:0:
172,259,51877,1,2,0:0:0:0:
98,370,52035,1,0,0:0:0:0:
98,370,52114,1,0,0:0:0:0:
98,370,52193,1,8,0:0:0:0:
27,229,52351,1,0,0:0:0:0:
97,100,52509,5,2,0:0:0:0:
219,117,52667,2,0,L|219:84,2,29.9999984105428,0|0|0,0:0|0:0|0:0,0:0:0:0:
235,142,52825,2,0,P|241:193|277:222,1,89.9999952316285,8|0,0:0|0:0,0:0:0:0:
426,272,53141,2,0,P|378:251|335:268,1,89.9999952316285,2|0,0:0|0:0,0:0:0:0:
217,374,53456,2,0,P|258:343|265:297,1,89.9999952316285,8|0,0:0|0:0,0:0:0:0:
235,142,53772,5,2,0:0:0:0:
352,29,53930,2,0,L|352:-2,3,29.9999984105428,0|0|0|8,0:0|0:0|0:0|0:0,0:0:0:0:
495,105,54246,1,0,0:0:0:0:
495,105,54325,1,0,0:0:0:0:
495,105,54404,1,2,0:0:0:0:
467,265,54562,1,0,0:0:0:0:
467,265,54641,1,0,0:0:0:0:
467,265,54720,1,8,0:0:0:0:
307,288,54877,1,0,0:0:0:0:
235,142,55035,5,2,0:0:0:0:
222,305,55193,2,0,L|249:348,3,29.9999984105428,0|0|0|8,0:0|0:0|0:0|0:0,0:0:0:0:
76,257,55509,1,0,0:0:0:0:
107,115,55667,2,0,L|92:17,1,89.9999952316285,2|0,0:0|0:0,0:0:0:0:
131,3,55904,1,0,0:0:0:0:
131,3,55983,1,8,0:0:0:0:
249,77,56141,1,0,0:0:0:0:
377,9,56298,5,2,0:0:0:0:
480,109,56456,2,0,L|492:137,3,29.9999984105428,0|0|0|8,0:0|0:0|0:0|0:0,0:0:0:0:
417,239,56772,1,0,0:0:0:0:
417,239,56851,1,0,0:0:0:0:
417,239,56930,1,2,0:0:0:0:
275,219,57088,1,0,0:0:0:0:
275,219,57167,1,0,0:0:0:0:
275,219,57246,1,8,0:0:0:0:
249,77,57404,1,0,0:0:0:0:
121,9,57562,5,2,0:0:0:0:
18,109,57720,2,0,L|6:137,3,29.9999984105428,0|0|0|8,0:0|0:0|0:0|0:0,0:0:0:0:
81,239,58036,1,0,0:0:0:0:
81,239,58115,1,0,0:0:0:0:
81,239,58194,1,2,0:0:0:0:
223,219,58352,1,0,0:0:0:0:
223,219,58431,1,0,0:0:0:0:
223,219,58509,1,8,0:0:0:0:
249,77,58668,1,0,0:0:0:0:
361,166,58825,5,10,0:0:0:0:
343,329,58983,2,0,L|338:376,3,29.9999984105428,0|0|0|8,0:0|0:0|0:0|0:0,0:0:0:0:
223,219,59298,1,0,0:0:0:0:
223,219,59377,2,0,L|212:151,1,44.9999976158143,0|10,0:0|0:0,0:0:0:0:
92,298,59614,1,0,0:0:0:0:
92,298,59693,2,0,L|81:366,1,44.9999976158143,0|8,0:0|0:0,0:0:0:0:
91,142,59930,1,0,0:0:0:0:
227,66,60088,6,0,L|251:14,1,44.9999976158143,10|0,0:0|0:0,0:0:0:0:
336,81,60246,2,0,L|381:48,1,44.9999976158143,10|0,0:0|0:0,0:0:0:0:
421,153,60404,2,0,L|477:148,1,44.9999976158143,10|0,0:0|0:0,0:0:0:0:
454,259,60562,2,0,L|505:283,1,44.9999976158143,10|0,0:0|0:0,0:0:0:0:
426,367,60720,5,2,0:0:0:0:
400,346,60798,1,0,0:0:0:0:
368,337,60877,1,0,0:0:0:0:
334,340,60956,1,0,0:0:0:0:
305,357,61036,5,8,0:0:0:0:
285,317,61114,1,0,0:0:0:0:
289,273,61193,1,0,0:0:0:0:
317,238,61272,1,0,0:0:0:0:
358,222,61351,5,2,0:0:0:0:
481,132,61509,2,0,L|516:131,3,29.9999984105428,0|0|0|8,0:0|0:0|0:0|0:0,0:0:0:0:
391,8,61825,1,0,0:0:0:0:
391,8,61904,1,0,0:0:0:0:
391,8,61983,1,2,0:0:0:0:
268,98,62141,1,0,0:0:0:0:
268,98,62220,1,0,0:0:0:0:
268,98,62299,1,8,0:0:0:0:
358,222,62456,1,0,0:0:0:0:
268,346,62614,5,2,0:0:0:0:
145,256,62772,2,0,L|110:257,2,29.9999984105428,0|0|0,0:0|0:0|0:0,0:0:0:0:
171,241,62930,2,0,P|190:192|161:138,1,89.9999952316285,8|0,0:0|0:0,0:0:0:0:
171,7,63246,2,0,P|203:47|265:49,1,89.9999952316285,2|0,0:0|0:0,0:0:0:0:
372,124,63562,2,0,P|320:132|287:184,1,89.9999952316285,8|0,0:0|0:0,0:0:0:0:
171,241,63877,5,2,0:0:0:0:
48,151,64035,2,0,L|13:150,3,29.9999984105428,0|0|0|8,0:0|0:0|0:0|0:0,0:0:0:0:
138,27,64351,1,0,0:0:0:0:
138,27,64430,1,0,0:0:0:0:
138,27,64509,1,2,0:0:0:0:
261,117,64667,1,0,0:0:0:0:
261,117,64746,1,0,0:0:0:0:
261,117,64825,1,8,0:0:0:0:
171,241,64983,1,0,0:0:0:0:
261,365,65141,5,2,0:0:0:0:
384,275,65298,2,0,L|413:275,2,29.9999984105428,0|0|0,0:0|0:0|0:0,0:0:0:0:
356,262,65456,2,0,P|349:211|321:179,1,89.9999952316285,8|0,0:0|0:0,0:0:0:0:
122,243,65772,2,0,P|169:262|211:254,1,89.9999952316285,2|0,0:0|0:0,0:0:0:0:
257,47,66088,2,0,P|216:78|202:118,1,89.9999952316285,8|0,0:0|0:0,0:0:0:0:
356,262,66404,6,0,B|431:226|486:273|486:273|461:205|508:159,1,251.999978958131,2|8,0:0|0:0,0:0:0:0:
468,41,67351,1,0,0:0:0:0:
369,36,67667,5,2,0:0:0:0:
369,36,67746,1,0,0:0:0:0:
369,36,67825,1,0,0:0:0:0:
315,156,67983,1,8,0:0:0:0:
315,156,68062,1,0,0:0:0:0:
315,156,68141,1,0,0:0:0:0:
411,243,68298,2,0,P|412:295|332:347,1,125.999989479065,2|8,0:0|0:0,0:0:0:0:
276,255,68930,6,0,B|175:189|164:250|140:321|50:254,2,251.999978958131,2|8|2,0:0|0:0|0:0,0:0:0:0:
308,261,70272,1,0,0:0:0:0:
333,279,70351,1,0,0:0:0:0:
376,361,70509,6,0,P|416:345|487:377,1,89.9999952316285,8|0,0:0|0:0,0:0:0:0:
487,263,70825,2,0,P|484:211|519:163,1,89.9999952316285,2|0,0:0|0:0,0:0:0:0:
451,10,71141,2,0,P|454:62|419:110,1,89.9999952316285,8|0,0:0|0:0,0:0:0:0:
335,124,71456,1,2,0:0:0:0:
335,124,71772,5,10,0:0:0:0:
132,203,71930,1,8,0:0:0:0:
342,260,72088,1,10,0:0:0:0:
204,90,72246,1,8,0:0:0:0:
217,309,72404,5,10,0:0:0:0:
379,162,72562,1,8,0:0:0:0:
119,145,72720,1,10,0:0:0:0:
318,314,72877,1,8,0:0:0:0:
254,59,73035,5,10,0:0:0:0:
157,304,73193,1,8,0:0:0:0:
409,227,73350,1,10,0:0:0:0:
134,76,73509,1,8,0:0:0:0:
265,361,73667,5,10,0:0:0:0:
325,51,73825,1,8,0:0:0:0:
95,268,73983,5,10,0:0:0:0:
44,255,74062,1,0,0:0:0:0:
17,208,74141,2,0,L|27:140,1,44.9999976158143
89,4,74298,2,0,L|95:48,1,44.9999976158143,8|0,0:0|0:0,0:0:0:0:
141,234,74456,5,0,0:0:0:0:
154,285,74535,1,0,0:0:0:0:
201,312,74614,2,0,L|269:302,1,44.9999976158143,10|0,0:0|0:0,0:0:0:0:
430,235,74772,2,0,L|385:241,1,44.9999976158143
192,247,74930,5,8,0:0:0:0:
141,234,75009,1,0,0:0:0:0:
114,187,75088,2,0,L|124:119,1,44.9999976158143
189,0,75246,2,0,L|195:44,1,44.9999976158143,10|0,0:0|0:0,0:0:0:0:
273,253,75404,1,0,0:0:0:0:
273,253,75483,1,0,0:0:0:0:
273,253,75562,6,0,L|276:208,3,44.9999976158143,8|0|0|0,0:0|0:0|0:0|0:0,0:0:0:0:
339,342,75877,2,0,L|344:400,3,44.9999976158143,2|0|0|0,0:0|0:0|0:0|0:0,0:0:0:0:
410,266,76193,2,0,L|413:221,3,44.9999976158143,8|0|0|0,0:0|0:0|0:0|0:0,0:0:0:0:
479,353,76509,5,4,0:0:0:0:
491,300,76589,1,0,0:0:0:0:
479,248,76668,1,0,0:0:0:0:
443,207,76747,1,0,0:0:0:0:
392,188,76826,1,8,0:0:0:0:
339,195,76904,1,0,0:0:0:0:
294,225,76983,1,0,0:0:0:0:
269,273,77062,1,0,0:0:0:0:
269,327,77141,5,4,0:0:0:0:
318,300,77219,1,0,0:0:0:0:
342,248,77298,1,0,0:0:0:0:
337,192,77377,1,0,0:0:0:0:
301,148,77457,5,8,0:0:0:0:
255,186,77536,1,0,0:0:0:0:
196,191,77615,1,0,0:0:0:0:
142,166,77694,1,0,0:0:0:0:
113,115,77773,5,4,0:0:0:0:
173,132,77852,1,0,0:0:0:0:
218,175,77931,1,0,0:0:0:0:
233,235,78009,1,0,0:0:0:0:
218,296,78088,1,8,0:0:0:0:
173,340,78167,1,0,0:0:0:0:
113,356,78246,1,0,0:0:0:0:
53,340,78325,1,0,0:0:0:0:
12,293,78404,5,4,0:0:0:0:
62,252,78483,1,0,0:0:0:0:
126,244,78562,1,0,0:0:0:0:
187,268,78641,1,0,0:0:0:0:
227,319,78719,1,8,0:0:0:0:
282,353,78798,1,0,0:0:0:0:
347,355,78877,1,0,0:0:0:0:
405,325,78956,1,0,0:0:0:0:
438,270,79035,5,4,0:0:0:0:
372,285,79114,1,0,0:0:0:0:
306,270,79193,1,0,0:0:0:0:
255,225,79272,1,0,0:0:0:0:
231,161,79351,1,8,0:0:0:0:
240,94,79430,1,0,0:0:0:0:
278,38,79509,2,0,L|344:14,1,53.999995491028,0|0,0:0|0:0,0:0:0:0:
436,59,79667,5,4,0:0:0:0:
474,89,79745,1,0,0:0:0:0:
490,135,79824,1,0,0:0:0:0:
477,182,79903,1,0,0:0:0:0:
443,216,79982,1,8,0:0:0:0:
395,225,80061,1,0,0:0:0:0:
350,207,80140,1,0,0:0:0:0:
321,167,80219,1,0,0:0:0:0:
319,118,80298,5,4,0:0:0:0:
366,145,80377,1,0,0:0:0:0:
385,196,80456,1,0,0:0:0:0:
366,246,80535,1,0,0:0:0:0:
319,273,80614,6,0,P|289:272|240:292,3,53.999995491028,8|0|0|0,0:0|0:0|0:0|0:0,0:0:0:0:
113,356,80930,2,0,P|128:330|136:278,3,53.999995491028,4|0|0|0,0:0|0:0|0:0|0:0,0:0:0:0:
144,135,81246,2,0,P|158:161|199:193,3,53.999995491028,8|0|0|0,0:0|0:0|0:0|0:0,0:0:0:0:
319,273,81562,5,4,0:0:0:0:
339,322,81641,1,0,0:0:0:0:
384,352,81719,1,0,0:0:0:0:
438,355,81798,1,0,0:0:0:0:
485,327,81877,1,8,0:0:0:0:
508,279,81956,1,0,0:0:0:0:
503,225,82035,2,0,P|493:193|500:150,1,53.999995491028,0|0,0:0|0:0,0:0:0:0:
485,47,82193,5,4,0:0:0:0:
451,12,82272,1,0,0:0:0:0:
404,0,82351,1,0,0:0:0:0:
357,12,82430,1,0,0:0:0:0:
323,47,82509,1,8,0:0:0:0:
310,94,82588,1,0,0:0:0:0:
323,141,82667,1,0,0:0:0:0:
357,176,82746,1,0,0:0:0:0:
404,188,82825,5,4,0:0:0:0:
388,125,82904,1,0,0:0:0:0:
342,79,82983,1,0,0:0:0:0:
279,63,83062,1,0,0:0:0:0:
216,79,83141,1,8,0:0:0:0:
163,115,83219,1,0,0:0:0:0:
98,121,83298,1,0,0:0:0:0:
40,93,83377,1,0,0:0:0:0:
3,40,83456,5,4,0:0:0:0:
56,66,83535,1,0,0:0:0:0:
83,119,83614,1,0,0:0:0:0:
74,178,83693,1,0,0:0:0:0:
31,219,83772,5,8,0:0:0:0:
31,273,83851,1,0,0:0:0:0:
56,321,83930,1,0,0:0:0:0:
101,352,84009,1,0,0:0:0:0:
154,358,84088,5,4,0:0:0:0:
137,324,84167,1,0,0:0:0:0:
137,286,84246,1,0,0:0:0:0:
152,251,84325,1,0,0:0:0:0:
181,227,84403,1,8,0:0:0:0:
218,219,84482,1,0,0:0:0:0:
255,227,84561,1,0,0:0:0:0:
285,250,84640,1,0,0:0:0:0:
301,284,84719,1,4,0:0:0:0:
307,322,84799,1,0,0:0:0:0:
327,354,84878,1,0,0:0:0:0:
358,376,84957,1,0,0:0:0:0:
395,380,85035,6,0,P|416:357|420:308,3,53.999995491028,8|0|0|0,0:0|0:0|0:0|0:0,0:0:0:0:
423,208,85351,5,4,0:0:0:0:
423,208,85430,1,0,0:0:0:0:
423,208,85509,2,0,L|487:179,1,53.999995491028,0|0,0:0|0:0,0:0:0:0:
260,116,85667,5,8,0:0:0:0:
260,116,85746,1,0,0:0:0:0:
260,116,85825,2,0,L|194:143,1,53.999995491028,0|0,0:0|0:0,0:0:0:0:
298,238,85983,6,0,L|319:288,3,53.999995491028,4|0|0|0,0:0|0:0|0:0|0:0,0:0:0:0:
391,77,86299,2,0,L|369:28,3,53.999995491028,8|0|0|0,0:0|0:0|0:0|0:0,0:0:0:0:
343,159,86614,5,4,0:0:0:0:
304,196,86693,1,0,0:0:0:0:
252,211,86772,1,0,0:0:0:0:
200,196,86851,1,0,0:0:0:0:
162,158,86930,1,8,0:0:0:0:
148,106,87009,1,0,0:0:0:0:
162,54,87088,1,0,0:0:0:0:
201,16,87167,1,0,0:0:0:0:
254,2,87246,5,4,0:0:0:0:
224,51,87326,1,0,0:0:0:0:
175,79,87405,1,0,0:0:0:0:
118,79,87484,1,0,0:0:0:0:
69,51,87563,5,8,0:0:0:0:
22,87,87642,1,0,0:0:0:0:
3,143,87721,1,0,0:0:0:0:
16,201,87798,1,0,0:0:0:0:
58,241,87877,5,4,0:0:0:0:
84,184,87957,1,0,0:0:0:0:
134,148,88036,1,0,0:0:0:0:
196,143,88115,1,0,0:0:0:0:
252,169,88194,1,8,0:0:0:0:
289,219,88273,1,0,0:0:0:0:
292,281,88352,1,0,0:0:0:0:
268,337,88430,1,0,0:0:0:0:
216,372,88509,5,4,0:0:0:0:
233,309,88589,1,0,0:0:0:0:
281,265,88668,1,0,0:0:0:0:
344,249,88747,1,0,0:0:0:0:
405,268,88825,1,8,0:0:0:0:
465,244,88904,1,0,0:0:0:0:
499,189,88983,2,0,L|476:114,1,53.999995491028
450,42,89141,5,4,0:0:0:0:
385,45,89220,1,0,0:0:0:0:
328,77,89299,1,0,0:0:0:0:
284,125,89378,1,0,0:0:0:0:
258,185,89457,1,8,0:0:0:0:
258,250,89536,1,0,0:0:0:0:
282,309,89614,5,0,0:0:0:0:
322,251,89693,1,0,0:0:0:0:
333,182,89772,1,4,0:0:0:0:
316,114,89851,1,0,0:0:0:0:
268,62,89930,1,0,0:0:0:0:
205,30,90009,1,0,0:0:0:0:
135,33,90088,5,8,0:0:0:0:
166,102,90167,1,0,0:0:0:0:
228,146,90246,1,0,0:0:0:0:
303,155,90325,1,0,0:0:0:0:
374,129,90404,5,4,0:0:0:0:
412,110,90482,1,0,0:0:0:0:
455,113,90561,1,0,0:0:0:0:
490,139,90640,1,0,0:0:0:0:
510,178,90720,1,8,0:0:0:0:
504,220,90798,1,0,0:0:0:0:
480,255,90877,5,0,0:0:0:0:
457,212,90956,1,0,0:0:0:0:
413,190,91035,1,4,0:0:0:0:
366,199,91114,1,0,0:0:0:0:
331,233,91193,1,0,0:0:0:0:
325,281,91272,1,0,0:0:0:0:
349,324,91351,6,0,P|383:338|425:341,3,53.999995491028,8|0|0|0,0:0|0:0|0:0|0:0,0:0:0:0:
409,273,91668,5,4,0:0:0:0:
369,236,91747,1,0,0:0:0:0:
316,227,91826,1,0,0:0:0:0:
265,244,91905,1,0,0:0:0:0:
231,286,91983,5,8,0:0:0:0:
189,320,92062,1,0,0:0:0:0:
135,329,92141,1,0,0:0:0:0:
86,309,92221,1,0,0:0:0:0:
52,269,92298,5,4,0:0:0:0:
117,268,92377,1,0,0:0:0:0:
174,238,92456,1,0,0:0:0:0:
207,182,92535,1,0,0:0:0:0:
210,117,92614,1,8,0:0:0:0:
180,60,92693,1,0,0:0:0:0:
125,25,92772,1,0,0:0:0:0:
60,22,92851,1,0,0:0:0:0:
3,54,92930,5,4,0:0:0:0:
45,96,93009,1,0,0:0:0:0:
102,111,93088,1,0,0:0:0:0:
158,93,93167,1,0,0:0:0:0:
195,47,93246,1,8,0:0:0:0:
246,17,93325,1,0,0:0:0:0:
305,19,93404,6,0,L|313:106,3,53.999995491028,0|0|4|0,0:0|0:0|0:0|0:0,0:0:0:0:
377,242,93720,1,0,0:0:0:0:
377,242,93798,1,0,0:0:0:0:
377,242,93877,5,8,0:0:0:0:
310,221,93956,1,0,0:0:0:0:
242,237,94035,1,0,0:0:0:0:
191,285,94114,1,0,0:0:0:0:
170,352,94193,5,14,0:0:0:0:
121,224,94351,1,0,0:0:0:0:
168,97,94509,1,0,0:0:0:0:
140,340,94667,5,14,0:0:0:0:
161,205,94825,1,0,0:0:0:0:
265,119,94983,1,0,0:0:0:0:
120,317,95141,6,0,B|140:266|75:230|75:230|36:167|105:113,1,215.999988555908,14|0,0:0|0:0,0:0:0:0:
128,186,95772,2,0,P|192:209|271:156,2,143.999992370606,8|0|0,0:0|0:0|0:0,0:0:0:0:
342,33,96720,5,14,0:0:0:0:
391,160,96878,1,0,0:0:0:0:
344,287,97036,1,0,0:0:0:0:
372,44,97194,5,14,0:0:0:0:
351,179,97352,1,0,0:0:0:0:
247,265,97510,1,0,0:0:0:0:
392,67,97668,6,0,B|372:147|443:203|443:203|452:251|430:288,1,215.999988555908,14|0,0:0|0:0,0:0:0:0:
373,240,98298,2,0,P|309:258|296:351,2,143.999992370606,0|0|0,0:0|0:0|0:0,0:0:0:0:
209,362,99246,6,0,B|217:292|171:275|170:226|170:226|253:191|218:90,1,287.999984741211,14|0,0:0|0:0,0:0:0:0:
209,362,100193,1,8,0:0:0:0:
223,108,100509,6,0,B|290:80|290:80|332:115|332:115|339:124|346:130|353:124|359:116|359:116|396:82|396:82|494:115,1,287.999984741211,14|0,0:0|0:0,0:0:0:0:
223,108,101456,1,8,0:0:0:0:
468,106,101772,6,0,P|491:241|372:298,1,287.999984741211,14|0,0:0|0:0,0:0:0:0:
468,106,102720,1,8,0:0:0:0:
372,299,103035,5,14,0:0:0:0:
372,299,103114,1,0,0:0:0:0:
372,299,103193,2,0,L|361:230,1,35.9999980926514,0|0,0:0|0:0,0:0:0:0:
350,85,103351,2,0,L|356:119,1,35.9999980926514,8|0,0:0|0:0,0:0:0:0:
393,321,103509,5,14,0:0:0:0:
393,321,103588,1,0,0:0:0:0:
393,321,103667,2,0,L|382:252,1,35.9999980926514,0|0,0:0|0:0,0:0:0:0:
367,65,103825,2,0,L|374:111,1,35.9999980926514,8|0,0:0|0:0,0:0:0:0:
419,347,103983,5,14,0:0:0:0:
419,347,104062,1,0,0:0:0:0:
419,347,104141,2,0,L|408:281,1,35.9999980926514,0|0,0:0|0:0,0:0:0:0:
387,40,104298,5,14,0:0:0:0:
258,119,104456,1,0,0:0:0:0:
114,71,104614,1,0,0:0:0:0:
334,22,104772,5,14,0:0:0:0:
261,154,104930,1,0,0:0:0:0:
113,185,105088,1,0,0:0:0:0:
282,31,105246,6,0,B|313:75|303:125|303:125|346:143|346:143|315:189|333:242,1,215.999988555908,14|0,0:0|0:0,0:0:0:0:
272,279,105877,2,0,P|347:298|404:243,2,143.999992370606,8|0|0,0:0|0:0|0:0,0:0:0:0:
127,349,106825,5,14,0:0:0:0:
123,197,106983,1,0,0:0:0:0:
236,97,107141,1,0,0:0:0:0:
169,312,107299,5,14,0:0:0:0:
91,182,107457,1,0,0:0:0:0:
138,39,107615,1,0,0:0:0:0:
187,262,107772,6,0,B|122:226|69:279|69:279|68:227|25:190,1,215.999988555908,14|0,0:0|0:0,0:0:0:0:
112,170,108404,2,0,P|75:119|-3:123,2,143.999992370606,8|0|0,0:0|0:0|0:0,0:0:0:0:
53,284,109351,6,0,B|89:320|143:316|188:263|188:263|243:259|274:290|275:361,1,287.999984741211,14|0,0:0|0:0,0:0:0:0:
53,284,110298,1,8,0:0:0:0:
273,341,110614,6,0,B|306:281|293:231|242:202|242:202|278:145|278:145|263:63,1,287.999984741211,14|0,0:0|0:0,0:0:0:0:
273,341,111562,1,8,0:0:0:0:
267,86,111877,6,0,B|331:118|376:114|439:77|439:77|437:140|437:140|470:203,1,287.999984741211,14|0,0:0|0:0,0:0:0:0:
267,86,112825,1,8,0:0:0:0:
457,178,113141,5,14,0:0:0:0:
457,178,113220,1,0,0:0:0:0:
457,178,113298,2,0,L|420:178,1,35.9999980926514,0|0,0:0|0:0,0:0:0:0:
246,122,113456,2,0,L|290:121,1,35.9999980926514,8|0,0:0|0:0,0:0:0:0:
483,215,113614,5,14,0:0:0:0:
483,215,113693,1,0,0:0:0:0:
483,215,113772,2,0,L|429:215,1,35.9999980926514,0|0,0:0|0:0,0:0:0:0:
222,153,113930,2,0,L|274:153,1,35.9999980926514,8|0,0:0|0:0,0:0:0:0:
503,256,114088,5,14,0:0:0:0:
503,256,114167,1,0,0:0:0:0:
503,256,114246,2,0,L|441:257,1,35.9999980926514,0|0,0:0|0:0,0:0:0:0:
196,189,114404,6,0,P|204:251|139:298,3,143.999992370606,14|8|8|8,0:0|0:0|0:0|0:0,0:0:0:0:
267,86,115667,5,2,0:0:0:0:
270,121,115745,1,0,0:0:0:0:
274,157,115824,1,0,0:0:0:0:
278,193,115903,1,0,0:0:0:0:
282,229,115982,1,8,0:0:0:0:
194,348,116141,1,0,0:0:0:0:
194,348,116220,1,0,0:0:0:0:
194,348,116298,6,0,L|211:249,1,71.9999961853028,2|0,0:0|0:0,0:0:0:0:
179,238,116535,1,0,0:0:0:0:
179,238,116614,2,0,L|166:167,1,71.9999961853028,8|0,0:0|0:0,0:0:0:0:
194,128,116851,1,0,0:0:0:0:
194,128,116930,1,2,0:0:0:0:
194,128,117246,6,0,P|180:40|104:187,1,431.999977111817,14|8,0:0|0:0,0:0:0:0:
196,252,118509,1,8,0:0:0:0:
114,337,118825,1,8,0:0:0:0:
264,355,119141,1,8,0:0:0:0:
196,252,119456,5,10,0:0:0:0:
225,218,119535,1,0,0:0:0:0:
238,175,119614,1,0,0:0:0:0:
230,131,119693,1,0,0:0:0:0:
205,94,119772,1,8,0:0:0:0:
342,311,119931,5,0,0:0:0:0:
319,272,120009,1,0,0:0:0:0:
282,247,120088,1,10,0:0:0:0:
238,240,120167,1,0,0:0:0:0:
195,253,120246,1,0,0:0:0:0:
443,190,120405,5,8,0:0:0:0:
398,199,120483,1,0,0:0:0:0:
363,227,120562,1,0,0:0:0:0:
343,266,120641,1,0,0:0:0:0:
342,311,120720,1,10,0:0:0:0:
359,56,120877,5,0,0:0:0:0:
353,101,120955,1,0,0:0:0:0:
369,143,121034,1,8,0:0:0:0:
400,174,121113,1,0,0:0:0:0:
442,189,121192,1,0,0:0:0:0:
207,94,121352,5,10,0:0:0:0:
247,113,121430,1,0,0:0:0:0:
292,111,121509,1,0,0:0:0:0:
331,91,121588,1,0,0:0:0:0:
359,56,121667,2,0,P|394:35|456:56,1,89.9999952316285,8|0,0:0|0:0,0:0:0:0:
195,253,121982,5,2,0:0:0:0:
57,206,122141,2,0,L|16:207,3,29.9999984105428,0|0|0|8,0:0|0:0|0:0|0:0,0:0:0:0:
243,227,122456,1,0,0:0:0:0:
243,227,122535,1,0,0:0:0:0:
243,227,122614,1,2,0:0:0:0:
172,111,122772,1,0,0:0:0:0:
172,111,122851,1,0,0:0:0:0:
172,111,122930,1,8,0:0:0:0:
256,6,123088,1,0,0:0:0:0:
382,50,123246,5,2,0:0:0:0:
377,186,123404,2,0,L|360:223,3,29.9999984105428,0|0|0|8,0:0|0:0|0:0|0:0,0:0:0:0:
505,125,123720,1,0,0:0:0:0:
505,125,123798,1,0,0:0:0:0:
505,125,123877,1,2,0:0:0:0:
495,246,124035,1,0,0:0:0:0:
495,246,124113,1,0,0:0:0:0:
495,246,124192,1,8,0:0:0:0:
343,163,124352,1,0,0:0:0:0:
355,307,124509,5,10,0:0:0:0:
210,279,124667,2,0,L|171:287,3,29.9999984105428,0|0|0|8,0:0|0:0|0:0|0:0,0:0:0:0:
80,337,124982,1,0,0:0:0:0:
80,337,125062,2,0,L|69:269,1,44.9999976158143,0|10,0:0|0:0,0:0:0:0:
38,142,125298,1,0,0:0:0:0:
38,142,125377,2,0,L|27:210,1,44.9999976158143,0|8,0:0|0:0,0:0:0:0:
166,194,125614,1,0,0:0:0:0:
231,306,125772,6,0,L|282:264,1,44.9999976158143,10|0,0:0|0:0,0:0:0:0:
360,328,125930,2,0,L|387:267,1,44.9999976158143,8|0,0:0|0:0,0:0:0:0:
460,244,126088,2,0,L|459:177,1,44.9999976158143,10|0,0:0|0:0,0:0:0:0:
458,113,126246,2,0,L|429:53,1,44.9999976158143,8|0,0:0|0:0,0:0:0:0:
357,30,126404,5,2,0:0:0:0:
346,65,126483,1,0,0:0:0:0:
316,86,126562,1,0,0:0:0:0:
280,86,126641,1,0,0:0:0:0:
251,65,126720,5,8,0:0:0:0:
215,45,126798,1,0,0:0:0:0:
176,52,126877,1,0,0:0:0:0:
150,83,126956,1,0,0:0:0:0:
150,124,127035,5,2,0:0:0:0:
238,208,127193,2,0,L|246:243,3,29.9999984105428,0|0|0|8,0:0|0:0|0:0|0:0,0:0:0:0:
124,248,127509,1,0,0:0:0:0:
124,248,127588,1,0,0:0:0:0:
124,248,127667,1,2,0:0:0:0:
134,368,127825,1,0,0:0:0:0:
134,368,127904,1,0,0:0:0:0:
134,368,127983,1,8,0:0:0:0:
255,301,128141,1,0,0:0:0:0:
383,363,128298,5,2,0:0:0:0:
370,231,128456,2,0,L|388:191,2,29.9999984105428,0|0|0,0:0|0:0|0:0,0:0:0:0:
345,212,128614,2,0,P|304:195|252:215,1,89.9999952316285,8|0,0:0|0:0,0:0:0:0:
147,298,128930,2,0,P|182:270|190:215,1,89.9999952316285,2|0,0:0|0:0,0:0:0:0:
171,81,129246,2,0,P|176:125|220:160,1,89.9999952316285,8|0,0:0|0:0,0:0:0:0:
345,212,129561,5,2,0:0:0:0:
426,99,129720,2,0,L|432:48,3,29.9999984105428,0|0|0|8,0:0|0:0|0:0|0:0,0:0:0:0:
465,244,130035,1,0,0:0:0:0:
465,244,130114,1,0,0:0:0:0:
465,244,130193,1,2,0:0:0:0:
340,326,130351,1,0,0:0:0:0:
340,326,130430,1,0,0:0:0:0:
340,326,130509,1,8,0:0:0:0:
223,231,130667,1,0,0:0:0:0:
277,91,130825,5,2,0:0:0:0:
123,122,130983,1,0,0:0:0:0:
123,122,131062,1,0,0:0:0:0:
123,122,131141,2,0,B|108:196|108:196|130:241,1,89.9999952316285,8|0,0:0|0:0,0:0:0:0:
272,223,131456,2,0,B|215:173|215:173|165:169,1,89.9999952316285,2|0,0:0|0:0,0:0:0:0:
111,302,131772,2,0,B|182:277|182:277|210:236,1,89.9999952316285,8|0,0:0|0:0,0:0:0:0:
123,122,132088,6,0,B|200:77|277:112|277:112|304:31|304:31|250:23,1,287.999984741211,2|0,0:0|0:0,0:0:0:0:
353,130,133035,1,0,0:0:0:0:
487,108,133351,5,2,0:0:0:0:
487,108,133430,1,0,0:0:0:0:
487,108,133509,1,0,0:0:0:0:
439,236,133667,1,8,0:0:0:0:
439,236,133746,1,0,0:0:0:0:
439,236,133825,1,0,0:0:0:0:
353,130,133983,2,0,P|298:131|269:231,1,143.999992370606,2|8,0:0|0:0,0:0:0:0:
372,255,134614,6,0,B|316:259|284:292|296:357|296:357|239:375|192:369|157:307,2,287.999984741211,2|8|2,0:0|0:0|0:0,0:0:0:0:
367,219,135956,1,0,0:0:0:0:
377,184,136035,1,0,0:0:0:0:
486,86,136193,6,0,P|445:111|388:96,1,89.9999952316285,8|0,0:0|0:0,0:0:0:0:
328,32,136509,2,0,P|283:35|246:11,1,89.9999952316285,2|0,0:0|0:0,0:0:0:0:
84,81,136825,2,0,P|128:77|165:101,1,89.9999952316285,8|0,0:0|0:0,0:0:0:0:
156,273,137141,1,2,0:0:0:0:
156,273,137456,5,10,0:0:0:0:
282,85,137614,1,8,0:0:0:0:
290,311,137772,1,10,0:0:0:0:
150,132,137930,1,8,0:0:0:0:
369,195,138088,5,10,0:0:0:0:
108,219,138246,1,8,0:0:0:0:
352,100,138404,1,10,0:0:0:0:
224,340,138562,1,8,0:0:0:0:
187,70,138720,5,10,0:0:0:0:
376,267,138877,1,8,0:0:0:0:
85,149,139035,1,10,0:0:0:0:
412,143,139193,1,8,0:0:0:0:
151,339,139351,5,10,0:0:0:0:
247,27,139509,1,8,0:0:0:0:
353,337,139667,5,10,0:0:0:0:
406,350,139746,1,0,0:0:0:0:
460,342,139825,2,0,L|509:353,1,44.9999976158143
393,223,139983,2,0,L|344:234,1,44.9999976158143,8|0,0:0|0:0,0:0:0:0:
203,283,140140,5,0,0:0:0:0:
150,296,140219,1,0,0:0:0:0:
96,288,140298,2,0,L|47:299,1,44.9999976158143,10|0,0:0|0:0,0:0:0:0:
163,169,140456,2,0,L|212:180,1,44.9999976158143
337,115,140614,5,8,0:0:0:0:
390,128,140693,1,0,0:0:0:0:
444,120,140772,2,0,L|493:131,1,44.9999976158143,0|0,0:0|0:0,0:0:0:0:
377,1,140930,2,0,L|328:12,1,44.9999976158143,10|0,0:0|0:0,0:0:0:0:
187,64,141088,1,0,0:0:0:0:
187,64,141167,1,0,0:0:0:0:
187,64,141246,6,0,L|184:109,3,44.9999976158143,8|0|0|0,0:0|0:0|0:0|0:0,0:0:0:0:
159,224,141562,2,0,L|114:221,3,44.9999976158143,2|0|0|0,0:0|0:0|0:0|0:0,0:0:0:0:
0,196,141877,2,0,L|3:151,3,44.9999976158143,8|0|0|0,0:0|0:0|0:0|0:0,0:0:0:0:
27,36,142193,5,4,0:0:0:0:
75,10,142273,1,0,0:0:0:0:
129,8,142352,1,0,0:0:0:0:
178,31,142431,1,0,0:0:0:0:
210,75,142510,1,8,0:0:0:0:
217,128,142589,1,0,0:0:0:0:
201,179,142667,1,0,0:0:0:0:
161,216,142746,1,0,0:0:0:0:
109,230,142825,5,4,0:0:0:0:
125,175,142904,1,0,0:0:0:0:
170,140,142983,1,0,0:0:0:0:
226,132,143062,1,0,0:0:0:0:
277,157,143140,5,8,0:0:0:0:
250,210,143219,1,0,0:0:0:0:
258,269,143298,1,0,0:0:0:0:
295,315,143377,1,0,0:0:0:0:
352,333,143456,5,4,0:0:0:0:
347,271,143535,1,0,0:0:0:0:
313,219,143614,1,0,0:0:0:0:
260,187,143693,1,0,0:0:0:0:
198,183,143772,1,8,0:0:0:0:
141,209,143851,1,0,0:0:0:0:
102,258,143930,1,0,0:0:0:0:
90,319,144009,1,0,0:0:0:0:
111,378,144088,5,4,0:0:0:0:
142,321,144167,1,0,0:0:0:0:
138,256,144246,1,0,0:0:0:0:
99,204,144325,1,0,0:0:0:0:
38,181,144404,1,8,0:0:0:0:
16,120,144483,1,0,0:0:0:0:
32,57,144562,1,0,0:0:0:0:
79,12,144641,1,0,0:0:0:0:
143,1,144720,5,4,0:0:0:0:
146,68,144798,1,0,0:0:0:0:
181,126,144877,1,0,0:0:0:0:
240,159,144956,1,0,0:0:0:0:
308,162,145035,1,8,0:0:0:0:
369,133,145114,1,0,0:0:0:0:
409,79,145193,2,0,L|401:10,1,53.999995491028,0|0,0:0|0:0,0:0:0:0:
266,69,145351,5,4,0:0:0:0:
243,111,145430,1,0,0:0:0:0:
240,159,145509,1,0,0:0:0:0:
259,204,145588,1,0,0:0:0:0:
295,236,145667,1,8,0:0:0:0:
342,250,145746,1,0,0:0:0:0:
390,242,145825,1,0,0:0:0:0:
429,212,145904,1,0,0:0:0:0:
454,171,145983,5,4,0:0:0:0:
401,180,146062,1,0,0:0:0:0:
366,222,146141,1,0,0:0:0:0:
366,276,146220,1,0,0:0:0:0:
401,317,146298,6,0,P|435:324|466:349,3,53.999995491028,8|0|0|0,0:0|0:0|0:0|0:0,0:0:0:0:
203,342,146614,2,0,P|179:367|142:382,3,53.999995491028,4|0|0|0,0:0|0:0|0:0|0:0,0:0:0:0:
280,157,146930,2,0,P|269:124|275:84,3,53.999995491028,8|0|0|0,0:0|0:0|0:0|0:0,0:0:0:0:
401,317,147246,5,4,0:0:0:0:
347,325,147325,1,0,0:0:0:0:
298,302,147404,1,0,0:0:0:0:
269,257,147483,1,0,0:0:0:0:
269,203,147562,1,8,0:0:0:0:
298,157,147641,1,0,0:0:0:0:
347,135,147720,2,0,P|379:147|422:146,1,53.999995491028,0|0,0:0|0:0,0:0:0:0:
512,113,147877,5,4,0:0:0:0:
502,66,147956,1,0,0:0:0:0:
471,28,148035,1,0,0:0:0:0:
427,7,148114,1,0,0:0:0:0:
379,7,148193,1,8,0:0:0:0:
335,28,148272,1,0,0:0:0:0:
305,66,148351,1,0,0:0:0:0:
294,113,148430,1,0,0:0:0:0:
305,161,148510,5,4,0:0:0:0:
358,124,148589,1,0,0:0:0:0:
422,122,148667,1,0,0:0:0:0:
478,154,148746,1,0,0:0:0:0:
506,212,148825,1,8,0:0:0:0:
500,277,148904,1,0,0:0:0:0:
458,326,148983,1,0,0:0:0:0:
397,348,149062,1,0,0:0:0:0:
334,331,149141,5,4,0:0:0:0:
290,292,149219,1,0,0:0:0:0:
231,283,149298,1,0,0:0:0:0:
177,308,149377,1,0,0:0:0:0:
145,358,149456,5,8,0:0:0:0:
194,336,149535,1,0,0:0:0:0:
218,287,149614,1,0,0:0:0:0:
211,234,149693,1,0,0:0:0:0:
174,195,149772,5,4,0:0:0:0:
143,216,149851,1,0,0:0:0:0:
106,223,149930,1,0,0:0:0:0:
69,216,150009,1,0,0:0:0:0:
37,195,150088,1,8,0:0:0:0:
16,163,150167,1,0,0:0:0:0:
9,126,150246,1,0,0:0:0:0:
16,89,150325,1,0,0:0:0:0:
37,58,150404,1,4,0:0:0:0:
69,37,150483,1,0,0:0:0:0:
106,30,150561,1,0,0:0:0:0:
143,37,150640,1,0,0:0:0:0:
174,58,150720,6,0,P|200:68|239:55,3,53.999995491028,8|0|0|0,0:0|0:0|0:0|0:0,0:0:0:0:
391,62,151035,5,4,0:0:0:0:
391,62,151114,1,0,0:0:0:0:
391,62,151193,2,0,L|397:-7,1,53.999995491028,0|0,0:0|0:0,0:0:0:0:
228,156,151351,5,8,0:0:0:0:
228,156,151430,1,0,0:0:0:0:
228,156,151509,2,0,L|218:226,1,53.999995491028,0|0,0:0|0:0,0:0:0:0:
260,24,151667,6,0,L|206:18,3,53.999995491028,4|0|0|0,0:0|0:0|0:0|0:0,0:0:0:0:
353,185,151983,2,0,L|406:191,3,53.999995491028,8|0|0|0,0:0|0:0|0:0|0:0,0:0:0:0:
391,62,152298,5,4,0:0:0:0:
415,110,152377,1,0,0:0:0:0:
413,164,152456,1,0,0:0:0:0:
387,212,152535,1,0,0:0:0:0:
342,241,152614,1,8,0:0:0:0:
288,246,152693,1,0,0:0:0:0:
238,226,152772,1,0,0:0:0:0:
202,185,152851,1,0,0:0:0:0:
190,132,152930,5,4,0:0:0:0:
241,157,153010,1,0,0:0:0:0:
266,207,153088,1,0,0:0:0:0:
260,264,153167,1,0,0:0:0:0:
220,304,153247,5,8,0:0:0:0:
178,262,153326,1,0,0:0:0:0:
119,255,153405,1,0,0:0:0:0:
67,282,153483,1,0,0:0:0:0:
40,335,153562,5,4,0:0:0:0:
99,349,153640,1,0,0:0:0:0:
160,335,153720,1,0,0:0:0:0:
206,295,153798,1,0,0:0:0:0:
230,236,153878,1,8,0:0:0:0:
223,175,153957,1,0,0:0:0:0:
188,124,154036,1,0,0:0:0:0:
172,64,154114,1,0,0:0:0:0:
187,4,154193,5,4,0:0:0:0:
229,54,154273,1,0,0:0:0:0:
240,118,154352,1,0,0:0:0:0:
219,179,154430,1,0,0:0:0:0:
169,220,154509,1,8,0:0:0:0:
105,231,154588,1,0,0:0:0:0:
44,209,154667,2,0,L|35:136,1,53.999995491028,0|0,0:0|0:0,0:0:0:0:
112,44,154825,5,4,0:0:0:0:
172,64,154903,1,0,0:0:0:0:
218,110,154982,1,0,0:0:0:0:
244,169,155061,1,0,0:0:0:0:
246,234,155140,1,8,0:0:0:0:
227,296,155219,1,0,0:0:0:0:
184,344,155298,5,0,0:0:0:0:
165,277,155376,1,0,0:0:0:0:
177,207,155456,1,4,0:0:0:0:
215,149,155534,1,0,0:0:0:0:
275,113,155613,1,0,0:0:0:0:
345,105,155692,1,0,0:0:0:0:
410,132,155771,5,8,0:0:0:0:
356,184,155850,1,0,0:0:0:0:
284,205,155929,1,0,0:0:0:0:
211,188,156008,1,0,0:0:0:0:
153,139,156088,5,4,0:0:0:0:
118,112,156168,1,0,0:0:0:0:
75,106,156247,1,0,0:0:0:0:
35,122,156325,1,0,0:0:0:0:
9,157,156404,1,8,0:0:0:0:
4,200,156483,1,0,0:0:0:0:
20,241,156562,5,0,0:0:0:0:
59,212,156640,1,0,0:0:0:0:
107,208,156719,1,4,0:0:0:0:
152,228,156798,1,0,0:0:0:0:
180,268,156877,1,0,0:0:0:0:
184,316,156956,1,0,0:0:0:0:
164,360,157035,6,0,P|128:380|85:374,3,53.999995491028,8|0|0|0,0:0|0:0|0:0|0:0,0:0:0:0:
94,300,157352,5,4,0:0:0:0:
139,271,157430,1,0,0:0:0:0:
192,262,157509,1,0,0:0:0:0:
244,276,157588,1,0,0:0:0:0:
287,309,157668,5,8,0:0:0:0:
331,340,157747,1,0,0:0:0:0:
384,350,157826,1,0,0:0:0:0:
436,337,157904,1,0,0:0:0:0:
475,300,157982,5,4,0:0:0:0:
410,305,158061,1,0,0:0:0:0:
351,277,158140,1,0,0:0:0:0:
313,224,158219,1,0,0:0:0:0:
306,160,158298,1,8,0:0:0:0:
334,102,158377,1,0,0:0:0:0:
385,63,158456,1,0,0:0:0:0:
449,59,158535,1,0,0:0:0:0:
509,82,158614,5,4,0:0:0:0:
489,138,158693,1,0,0:0:0:0:
437,167,158772,1,0,0:0:0:0:
379,157,158851,1,0,0:0:0:0:
340,112,158930,1,8,0:0:0:0:
318,56,159009,1,0,0:0:0:0:
267,27,159088,6,0,L|182:43,3,53.999995491028,0|0|4|0,0:0|0:0|0:0|0:0,0:0:0:0:
235,233,159404,1,0,0:0:0:0:
235,233,159483,1,0,0:0:0:0:
235,233,159562,5,8,0:0:0:0:
190,285,159640,1,0,0:0:0:0:
121,300,159719,1,0,0:0:0:0:
58,271,159798,1,0,0:0:0:0:
28,210,159877,6,0,P|45:151|36:117,1,89.9999952316285,6|0,0:0|0:0,0:0:0:0:
134,10,160193,2,0,P|117:69|126:103,1,89.9999952316285,8|0,0:0|0:0,0:0:0:0:
165,247,160509,1,2,0:0:0:0:
274,134,160667,1,0,0:0:0:0:
122,95,160825,1,8,0:0:0:0:
122,95,161141,1,2,0:0:0:0:
26,200,161456,5,8,0:0:0:0:
26,200,161614,2,0,P|39:250|16:304,1,89.9999952316285,0|2,0:0|0:0,0:0:0:0:
156,371,161930,1,0,0:0:0:0:
156,371,162088,2,0,P|143:321|166:267,1,89.9999952316285,8|0,0:0|0:0,0:0:0:0:
218,183,162404,6,0,L|323:203,1,89.9999952316285,2|0,0:0|0:0,0:0:0:0:
487,248,162720,2,0,L|382:268,1,89.9999952316285,8|0,0:0|0:0,0:0:0:0:
278,336,163035,1,2,0:0:0:0:
276,197,163193,1,0,0:0:0:0:
398,264,163351,1,8,0:0:0:0:
398,264,163667,5,2,0:0:0:0:
276,197,163825,1,0,0:0:0:0:
278,336,163983,2,0,P|224:324|172:344,1,89.9999952316285,8|0,0:0|0:0,0:0:0:0:
149,350,164220,1,0,0:0:0:0:
149,350,164298,5,2,0:0:0:0:
24,324,164456,1,0,0:0:0:0:
104,218,164614,2,0,L|92:109,1,89.9999952316285,8|0,0:0|0:0,0:0:0:0:
191,8,164930,6,0,L|181:97,1,89.9999952316285,2|0,0:0|0:0,0:0:0:0:
229,225,165246,2,0,P|277:204|335:217,1,89.9999952316285,8|0,0:0|0:0,0:0:0:0:
428,286,165562,1,2,0:0:0:0:
488,162,165720,1,0,0:0:0:0:
398,70,165877,2,0,P|358:104|306:98,1,89.9999952316285,8|0,0:0|0:0,0:0:0:0:
192,59,166193,6,0,L|198:159,1,89.9999952316285,2|0,0:0|0:0,0:0:0:0:
160,242,166509,2,0,P|114:244|63:294,1,89.9999952316285,8|0,0:0|0:0,0:0:0:0:
320,325,166825,2,0,L|314:225,1,89.9999952316285,2|0,0:0|0:0,0:0:0:0:
352,142,167141,2,0,P|398:140|449:90,1,89.9999952316285,8|0,0:0|0:0,0:0:0:0:
192,59,167456,6,0,P|148:80|72:67,1,89.9999952316285,2|0,0:0|0:0,0:0:0:0:
16,179,167772,2,0,P|60:200|136:187,1,89.9999952316285,8|0,0:0|0:0,0:0:0:0:
245,171,168088,1,2,0:0:0:0:
197,312,168246,1,0,0:0:0:0:
342,283,168404,2,0,L|360:387,1,89.9999952316285,8|0,0:0|0:0,0:0:0:0:
480,220,168720,5,10,0:0:0:0:
304,23,168877,1,8,0:0:0:0:
273,327,169035,1,10,0:0:0:0:
365,155,169193,5,8,0:0:0:0:
365,155,169272,1,0,0:0:0:0:
365,155,169351,2,0,L|303:167,1,44.9999976158143,10|0,0:0|0:0,0:0:0:0:
141,75,169509,1,8,0:0:0:0:
141,75,169588,1,0,0:0:0:0:
141,75,169667,5,10,0:0:0:0:
158,121,169745,1,0,0:0:0:0:
153,170,169825,1,8,0:0:0:0:
125,211,169903,1,0,0:0:0:0:
81,234,169983,6,0,L|91:339,1,89.9999952316285,2|0,0:0|0:0,0:0:0:0:
122,372,170220,1,0,0:0:0:0:
122,372,170298,2,0,P|166:354|227:374,1,89.9999952316285,8|0,0:0|0:0,0:0:0:0:
331,364,170614,5,2,0:0:0:0:
314,322,170692,1,0,0:0:0:0:
323,279,170771,1,0,0:0:0:0:
353,246,170850,1,0,0:0:0:0:
396,235,170930,2,0,L|477:255,1,44.9999976158143,8|0,0:0|0:0,0:0:0:0:
509,140,171088,2,0,L|428:159,1,44.9999976158143,0|0,0:0|0:0,0:0:0:0:
376,75,171246,5,2,0:0:0:0:
321,189,171404,1,0,0:0:0:0:
321,189,171483,1,0,0:0:0:0:
321,189,171562,1,8,0:0:0:0:
384,299,171720,5,0,0:0:0:0:
384,299,171798,1,0,0:0:0:0:
384,299,171877,1,2,0:0:0:0:
258,282,172035,1,0,0:0:0:0:
174,377,172193,5,8,0:0:0:0:
174,377,172272,1,0,0:0:0:0:
174,377,172351,1,0,0:0:0:0:
150,251,172509,5,2,0:0:0:0:
35,199,172667,1,0,0:0:0:0:
35,199,172746,1,0,0:0:0:0:
35,199,172825,1,8,0:0:0:0:
146,138,172983,1,0,0:0:0:0:
160,12,173141,5,2,0:0:0:0:
160,12,173220,2,0,L|236:3,1,44.9999976158143
252,100,173456,5,8,0:0:0:0:
252,100,173535,2,0,L|176:91,1,44.9999976158143,0|0,0:0|0:0,0:0:0:0:
376,75,173772,6,0,L|452:66,1,44.9999976158143,2|0,0:0|0:0,0:0:0:0:
321,189,173930,1,0,0:0:0:0:
321,189,174009,1,0,0:0:0:0:
321,189,174088,1,8,0:0:0:0:
146,138,174246,1,0,0:0:0:0:
146,138,174325,1,0,0:0:0:0:
146,138,174405,5,2,0:0:0:0:
137,195,174510,5,0,0:0:0:0:
86,222,174615,5,0,0:0:0:0:
33,198,174720,6,0,L|22:288,1,80.999993236542,8|0,0:0|0:0,0:0:0:0:
42,319,175035,6,0,B|126:383|235:332|235:332|200:292,1,251.999978958131,2|2,0:0|0:0,0:0:0:0:
177,188,175983,1,8,0:0:0:0:
256,113,176298,5,8,0:0:0:0:
361,143,176772,1,8,0:0:0:0:
388,250,177246,1,8,0:0:0:0:
384,350,177562,6,0,B|397:389|448:352|425:279|365:276|365:276|330:346|255:305|255:305|255:305|255:305|178:345|145:275|145:275|82:280|61:353|110:389|125:354,1,566.099973462143,14|0,0:0|0:0,0:0:0:0:
256,363,180088,5,2,0:0:0:0:
360,311,180246,1,0,0:0:0:0:
222,354,180404,1,0,0:0:0:0:
143,246,180562,1,0,0:0:0:0:
290,354,180719,5,8,0:0:0:0:
357,362,180798,1,0,0:0:0:0:
420,338,180877,1,0,0:0:0:0:
465,288,180956,1,0,0:0:0:0:
481,222,181035,1,0,0:0:0:0:
476,199,181114,1,0,0:0:0:0:
472,177,181193,2,0,L|480:109,1,44.9999976158143,0|0,0:0|0:0,0:0:0:0:
256,343,181351,5,2,0:0:0:0:
162,296,181509,1,0,0:0:0:0:
286,334,181667,1,0,0:0:0:0:
357,237,181825,1,0,0:0:0:0:
225,334,181982,5,8,0:0:0:0:
165,342,182061,1,0,0:0:0:0:
108,320,182140,1,0,0:0:0:0:
68,275,182219,1,0,0:0:0:0:
53,216,182298,1,0,0:0:0:0:
58,195,182377,1,0,0:0:0:0:
61,175,182456,2,0,L|53:113,1,44.9999976158143,0|0,0:0|0:0,0:0:0:0:
256,313,182614,5,2,0:0:0:0:
339,271,182772,1,0,0:0:0:0:
228,305,182930,1,0,0:0:0:0:
165,219,183088,1,0,0:0:0:0:
283,305,183245,5,8,0:0:0:0:
336,312,183324,1,0,0:0:0:0:
387,293,183403,1,0,0:0:0:0:
423,253,183482,1,0,0:0:0:0:
436,200,183561,1,0,0:0:0:0:
432,181,183640,1,0,0:0:0:0:
428,164,183719,2,0,L|434:109,1,44.9999976158143,0|0,0:0|0:0,0:0:0:0:
256,273,183877,6,0,L|246:206,1,44.9999976158143,2|0,0:0|0:0,0:0:0:0:
208,70,184035,2,0,L|198:137,1,44.9999976158143,8|0,0:0|0:0,0:0:0:0:
110,200,184193,6,0,L|190:188,1,44.9999976158143,2|0,0:0|0:0,0:0:0:0:
353,142,184351,2,0,L|273:130,1,44.9999976158143,8|0,0:0|0:0,0:0:0:0:
198,29,184509,6,0,L|187:105,1,44.9999976158143,2|0,0:0|0:0,0:0:0:0:
265,313,184667,2,0,L|253:231,1,44.9999976158143,8|0,0:0|0:0,0:0:0:0:
402,131,184825,6,0,L|316:118,1,44.9999976158143,2|0,0:0|0:0,0:0:0:0:
61,211,184983,2,0,L|144:199,1,44.9999976158143,8|0,0:0|0:0,0:0:0:0:
193,0,185141,5,2,0:0:0:0:
277,349,185298,2,0,P|323:337|375:356,1,89.9999952316285
475,378,185772,5,8,0:0:0:0:
482,311,185850,1,0,0:0:0:0:
489,244,185929,1,0,0:0:0:0:
496,177,186008,1,0,0:0:0:0:
503,110,186089,1,0,0:0:0:0:
500,88,186167,1,0,0:0:0:0:
498,65,186246,2,0,L|489:4,1,44.9999976158143
356,144,186404,5,2,0:0:0:0:
235,35,186562,2,0,P|189:47|137:28,1,89.9999952316285
37,6,187036,5,8,0:0:0:0:
30,73,187114,1,0,0:0:0:0:
23,140,187193,1,0,0:0:0:0:
16,207,187272,1,0,0:0:0:0:
9,274,187351,1,0,0:0:0:0:
12,296,187431,1,0,0:0:0:0:
14,319,187510,2,0,L|23:380,1,44.9999976158143
244,327,187667,5,2,0:0:0:0:
100,302,187825,2,0,L|65:313,1,26.999997745514,0|8,0:0|0:0,0:0:0:0:
302,291,188141,1,0,0:0:0:0:
302,291,188298,5,2,0:0:0:0:
41,337,188456,2,0,L|6:325,1,26.999997745514,0|8,0:0|0:0,0:0:0:0:
348,339,188772,1,0,0:0:0:0:
0,286,188930,5,2,0:0:0:0:
45,303,189009,1,2,0:0:0:0:
97,308,189088,1,2,0:0:0:0:
152,289,189167,1,2,0:0:0:0:
199,247,189246,1,2,0:0:0:0:
225,185,189325,1,2,0:0:0:0:
219,113,189404,1,2,0:0:0:0:
176,49,189483,1,2,0:0:0:0:
104,13,189562,6,0,P|52:0|-2:31,1,89.9999952316285,2|0,0:0|0:0,0:0:0:0:
69,115,189877,1,8,0:0:0:0:
8,214,190035,1,0,0:0:0:0:
91,292,190193,6,0,P|163:293|190:358,1,143.999992370606,2|0,0:0|0:0,0:0:0:0:
291,364,190667,1,0,0:0:0:0:
291,364,190825,2,0,L|301:261,1,71.9999961853028,8|0,0:0|0:0,0:0:0:0:
341,182,191141,1,0,0:0:0:0:
406,286,191298,1,0,0:0:0:0:
459,130,191456,6,0,L|448:49,1,71.9999961853028,2|0,0:0|0:0,0:0:0:0:
363,21,191772,2,0,P|324:45|280:33,1,71.9999961853028,8|0,0:0|0:0,0:0:0:0:
222,113,192088,2,0,L|211:194,1,71.9999961853028,2|0,0:0|0:0,0:0:0:0:
126,222,192404,2,0,P|87:198|43:210,1,71.9999961853028,8|0,0:0|0:0,0:0:0:0:
98,328,192720,6,0,P|164:342|203:284,1,143.999992370606,2|0,0:0|0:0,0:0:0:0:
212,184,193193,1,0,0:0:0:0:
212,184,193351,2,0,L|293:176,1,71.9999961853028,8|0,0:0|0:0,0:0:0:0:
408,111,193667,1,0,0:0:0:0:
400,255,193825,1,0,0:0:0:0:
283,176,193983,6,0,L|211:168,1,71.9999961853028,2|0,0:0|0:0,0:0:0:0:
94,94,194298,1,0,0:0:0:0:
102,238,194456,1,0,0:0:0:0:
211,168,194614,2,0,P|258:218|232:311,1,143.999992370606,8|0,0:0|0:0,0:0:0:0:
339,367,195088,1,0,0:0:0:0:
339,367,195246,6,0,P|374:304|459:316,1,143.999992370606,2|0,0:0|0:0,0:0:0:0:
398,182,195720,1,0,0:0:0:0:
487,105,195877,2,0,P|450:91|427:50,1,71.9999961853028,8|0,0:0|0:0,0:0:0:0:
314,32,196193,1,0,0:0:0:0:
281,149,196351,1,0,0:0:0:0:
182,70,196509,6,0,P|137:69|96:33,1,71.9999961853028,2|0,0:0|0:0,0:0:0:0:
59,149,196825,2,0,L|73:236,1,71.9999961853028,8|0,0:0|0:0,0:0:0:0:
157,347,197141,2,0,L|171:260,1,71.9999961853028,2|0,0:0|0:0,0:0:0:0:
213,162,197456,2,0,P|245:146|280:148,1,71.9999961853028,8|0,0:0|0:0,0:0:0:0:
381,221,197772,6,0,P|364:291|441:326,1,143.999992370606
506,241,198246,1,0,0:0:0:0:
381,221,198404,2,0,L|307:165,1,71.9999961853028,8|0,0:0|0:0,0:0:0:0:
306,38,198720,1,0,0:0:0:0:
196,121,198877,1,0,0:0:0:0:
323,177,199035,6,0,P|303:247|218:265,1,143.999992370606,2|0,0:0|0:0,0:0:0:0:
134,223,199509,1,0,0:0:0:0:
79,110,199667,5,8,0:0:0:0:
169,22,199825,1,0,0:0:0:0:
280,81,199983,1,0,0:0:0:0:
259,205,200141,1,0,0:0:0:0:
134,223,200298,6,0,L|143:381,1,143.999992370606,2|0,0:0|0:0,0:0:0:0:
250,325,200772,1,0,0:0:0:0:
250,325,200930,2,0,P|294:318|342:340,1,71.9999961853028,8|0,0:0|0:0,0:0:0:0:
424,369,201246,2,0,L|418:317,1,35.9999980926514,0|0,0:0|0:0,0:0:0:0:
476,206,201404,2,0,L|471:241,1,35.9999980926514,0|0,0:0|0:0,0:0:0:0:
338,225,201562,6,0,P|297:190|235:205,1,107.999994277954,2|0,0:0|0:0,0:0:0:0:
221,267,201877,2,0,P|168:260|129:295,1,107.999994277954,0|0,0:0|0:0,0:0:0:0:
104,366,202193,1,8,0:0:0:0:
26,267,202404,2,0,L|21:209,1,47.9999974568685,0|0,0:0|0:0,0:0:0:0:
81,67,202614,2,0,L|76:114,1,47.9999974568685,0|0,0:0|0:0,0:0:0:0:
145,212,202825,6,0,P|218:234|268:161,1,143.999992370606,2|0,0:0|0:0,0:0:0:0:
253,79,203298,1,0,0:0:0:0:
253,79,203456,2,0,L|338:69,1,71.9999961853028,8|0,0:0|0:0,0:0:0:0:
459,25,203772,2,0,L|456:81,1,35.9999980926514,0|0,0:0|0:0,0:0:0:0:
398,163,203930,2,0,L|399:198,1,35.9999980926514,0|0,0:0|0:0,0:0:0:0:
463,308,204088,6,0,P|418:305|390:328,1,71.9999961853028,2|0,0:0|0:0,0:0:0:0:
307,364,204404,1,8,0:0:0:0:
228,293,204562,2,0,P|218:251|230:199,1,71.9999961853028,0|2,0:0|0:0,0:0:0:0:
147,87,204877,1,0,0:0:0:0:
147,87,204956,1,0,0:0:0:0:
147,87,205035,2,0,P|149:122|140:157,1,71.9999961853028,8|0,0:0|0:0,0:0:0:0:
101,283,205351,6,0,P|155:316|240:277,1,143.999992370606,2|0,0:0|0:0,0:0:0:0:
326,233,205825,1,0,0:0:0:0:
326,233,205983,2,0,L|334:323,1,71.9999961853028,8|0,0:0|0:0,0:0:0:0:
397,143,206298,2,0,L|409:32,1,107.999994277954,0|0,0:0|0:0,0:0:0:0:
330,20,206614,6,0,P|282:45|216:16,1,107.999994277954,2|0,0:0|0:0,0:0:0:0:
163,16,206930,2,0,L|158:65,3,35.9999980926514,8|0|0|0,0:0|0:0|0:0|0:0,0:0:0:0:
99,163,207246,2,0,L|95:127,3,35.9999980926514,2|0|0|0,0:0|0:0|0:0|0:0,0:0:0:0:
212,160,207562,2,0,L|205:241,1,71.9999961853028,8|0,0:0|0:0,0:0:0:0:
169,361,207877,5,2,0:0:0:0:
205,334,207955,1,0,0:0:0:0:
248,323,208034,1,0,0:0:0:0:
293,327,208113,1,0,0:0:0:0:
333,346,208193,2,0,L|390:355,1,35.9999980926514,8|0,0:0|0:0,0:0:0:0:
495,260,208351,5,0,0:0:0:0:
458,233,208429,1,0,0:0:0:0:
415,222,208508,1,2,0:0:0:0:
370,226,208587,1,0,0:0:0:0:
330,245,208667,2,0,L|273:253,1,35.9999980926514,0|0,0:0|0:0,0:0:0:0:
176,226,208825,5,8,0:0:0:0:
195,186,208903,1,0,0:0:0:0:
194,141,208982,1,0,0:0:0:0:
171,103,209061,1,0,0:0:0:0:
133,79,209141,6,0,L|144:-3,1,71.9999961853028,2|0,0:0|0:0,0:0:0:0:
74,176,209456,2,0,L|82:247,1,71.9999961853028,8|0,0:0|0:0,0:0:0:0:
67,351,209772,2,0,P|104:334|157:343,1,71.9999961853028,2|0,0:0|0:0,0:0:0:0:
251,376,210088,1,8,0:0:0:0:
222,241,210246,1,0,0:0:0:0:
339,283,210404,6,0,P|393:290|437:264,1,89.9999952316285,2|0,0:0|0:0,0:0:0:0:
368,198,210720,2,0,L|382:85,1,89.9999952316285,8|0,0:0|0:0,0:0:0:0:
248,248,211035,2,0,L|234:361,1,89.9999952316285,2|0,0:0|0:0,0:0:0:0:
277,163,211351,2,0,P|223:156|179:182,1,89.9999952316285,8|0,0:0|0:0,0:0:0:0:
120,203,211667,5,2,0:0:0:0:
115,229,211825,1,0,0:0:0:0:
50,306,211983,1,8,0:0:0:0:
55,332,212141,1,0,0:0:0:0:
120,203,212298,5,2,0:0:0:0:
165,371,212456,1,0,0:0:0:0:
223,264,212614,1,8,0:0:0:0:
55,332,212772,1,0,0:0:0:0:
278,362,212930,6,0,P|360:360|370:247,1,179.999990463257,2|8,0:0|0:0,0:0:0:0:
341,181,213404,1,0,0:0:0:0:
341,181,213562,2,0,L|354:75,1,89.9999952316285,2|0,0:0|0:0,0:0:0:0:
325,31,213798,2,0,P|281:51|214:31,1,89.9999952316285,2|0,0:0|0:0,0:0:0:0:
181,26,214035,2,0,L|121:41,1,44.9999976158143,2|0,0:0|0:0,0:0:0:0:
31,69,214193,6,0,P|80:118|15:214,1,179.999990463257,2|8,0:0|0:0,0:0:0:0:
16,307,214667,1,0,0:0:0:0:
104,359,214825,5,2,0:0:0:0:
129,340,214904,1,0,0:0:0:0:
161,324,214983,1,0,0:0:0:0:
201,317,215062,1,0,0:0:0:0:
246,322,215141,1,8,0:0:0:0:
290,345,215220,1,0,0:0:0:0:
333,368,215298,1,0,0:0:0:0:
387,369,215377,1,0,0:0:0:0:
442,349,215456,6,0,P|448:304|503:271,1,89.9999952316285,2|0,0:0|0:0,0:0:0:0:
500,180,215772,2,0,L|486:75,1,89.9999952316285,8|0,0:0|0:0,0:0:0:0:
395,18,216088,2,0,P|389:63|334:96,1,89.9999952316285,2|0,0:0|0:0,0:0:0:0:
337,187,216404,2,0,L|351:292,1,89.9999952316285,8|0,0:0|0:0,0:0:0:0:
278,359,216720,5,2,0:0:0:0:
252,351,216877,1,0,0:0:0:0:
189,277,217035,1,8,0:0:0:0:
163,285,217192,1,0,0:0:0:0:
278,359,217351,5,2,0:0:0:0:
259,202,217509,1,0,0:0:0:0:
368,296,217667,1,8,0:0:0:0:
163,285,217825,1,0,0:0:0:0:
154,164,217983,6,0,P|120:123|17:169,1,179.999990463257,2|8,0:0|0:0,0:0:0:0:
51,267,218456,1,0,0:0:0:0:
164,244,218614,2,0,P|208:224|268:230,1,89.9999952316285,2|0,0:0|0:0,0:0:0:0:
276,284,218851,2,0,P|320:284|360:303,1,89.9999952316285,2|0,0:0|0:0,0:0:0:0:
388,363,219088,2,0,L|457:346,1,44.9999976158143,2|0,0:0|0:0,0:0:0:0:
479,250,219246,6,0,P|451:170|359:162,1,179.999990463257,2|8,0:0|0:0,0:0:0:0:
248,224,219720,1,0,0:0:0:0:
319,318,219877,6,0,L|261:340,1,44.9999976158143,2|0,0:0|0:0,0:0:0:0:
138,356,220035,1,0,0:0:0:0:
108,322,220113,1,0,0:0:0:0:
102,278,220192,1,8,0:0:0:0:
122,238,220271,1,0,0:0:0:0:
125,192,220352,1,0,0:0:0:0:
103,153,220431,1,0,0:0:0:0:
64,132,220509,6,0,P|56:60|134:31,1,143.999992370606,2|0,0:0|0:0,0:0:0:0:
183,128,220983,1,0,0:0:0:0:
267,48,221141,1,8,0:0:0:0:
352,138,221351,2,0,L|399:127,1,47.9999974568685,2|0,0:0|0:0,0:0:0:0:
502,212,221562,2,0,L|455:201,1,47.9999974568685,2|0,0:0|0:0,0:0:0:0:
377,262,221772,6,0,L|391:354,1,71.9999961853028,2|0,0:0|0:0,0:0:0:0:
283,194,222088,2,0,L|293:122,1,71.9999961853028
223,292,222404,2,0,P|188:314|138:308,1,71.9999961853028,2|0,0:0|0:0,0:0:0:0:
125,254,222641,2,0,P|89:251|60:230,1,71.9999961853028,2|0,0:0|0:0,0:0:0:0:
27,170,222877,2,0,L|20:115,1,35.9999980926514,2|0,0:0|0:0,0:0:0:0:
54,37,223035,6,0,P|107:80|190:50,1,143.999992370606,2|0,0:0|0:0,0:0:0:0:
253,30,223509,1,0,0:0:0:0:
324,77,223667,1,8,0:0:0:0:
424,31,223877,2,0,L|416:99,1,47.9999974568685,2|0,0:0|0:0,0:0:0:0:
475,212,224088,2,0,L|469:164,1,47.9999974568685,2|0,0:0|0:0,0:0:0:0:
348,167,224298,6,0,P|303:183|254:172,1,71.9999961853028,2|0,0:0|0:0,0:0:0:0:
144,94,224614,2,0,P|189:110|238:99,1,71.9999961853028
183,206,224930,2,0,L|167:296,1,71.9999961853028,2|0,0:0|0:0,0:0:0:0:
140,323,225167,2,0,P|102:311|64:331,1,71.9999961853028,2|0,0:0|0:0,0:0:0:0:
27,350,225404,2,0,L|14:286,1,35.9999980926514,2|0,0:0|0:0,0:0:0:0:
58,189,225562,6,0,P|149:201|130:369,1,287.999984741211,2|8,0:0|0:0,0:0:0:0:
256,325,226404,2,0,L|305:316,1,47.9999974568685,0|0,0:0|0:0,0:0:0:0:
434,279,226614,2,0,L|385:270,1,47.9999974568685,0|0,0:0|0:0,0:0:0:0:
303,216,226825,6,0,B|318:153|285:113|285:113|298:70,1,143.999992370606,2|0,0:0|0:0,0:0:0:0:
212,18,227298,2,0,P|169:64|76:51,1,143.999992370606,2|0,0:0|0:0,0:0:0:0:
75,160,227772,2,0,B|64:203|64:203|82:254,1,71.9999961853028,2|0,0:0|0:0,0:0:0:0:
132,330,228088,5,2,0:0:0:0:
153,354,228167,1,0,0:0:0:0:
185,370,228246,1,0,0:0:0:0:
226,374,228325,1,0,0:0:0:0:
268,359,228404,1,8,0:0:0:0:
303,324,228483,1,0,0:0:0:0:
316,271,228562,1,0,0:0:0:0:
296,216,228641,1,0,0:0:0:0:
245,180,228719,5,2,0:0:0:0:
210,127,228798,1,0,0:0:0:0:
210,68,228877,1,0,0:0:0:0:
241,23,228956,1,0,0:0:0:0:
286,2,229035,1,8,0:0:0:0:
330,2,229114,1,0,0:0:0:0:
366,20,229193,1,0,0:0:0:0:
391,46,229272,1,0,0:0:0:0:
403,75,229352,5,2,0:0:0:0:
399,97,229430,1,0,0:0:0:0:
400,119,229509,1,0,0:0:0:0:
405,141,229588,1,0,0:0:0:0:
416,161,229667,6,0,L|411:235,3,44.9999976158143,8|0|0|0,0:0|0:0|0:0|0:0,0:0:0:0:
349,337,229983,2,0,L|345:292,3,44.9999976158143,2|0|0|0,0:0|0:0|0:0|0:0,0:0:0:0:
282,161,230298,2,0,L|277:235,3,44.9999976158143,8|0|0|0,0:0|0:0|0:0|0:0,0:0:0:0:
215,337,230614,6,0,P|153:320|100:370,1,134.999997997284,2|0,0:0|0:0,0:0:0:0:
210,270,231877,2,0,P|146:280|119:348,1,134.999997997284,2|0,0:0|0:0,0:0:0:0:
173,215,232509,2,0,P|120:251|124:324,1,134.999997997284,2|0,0:0|0:0,0:0:0:0:
113,186,233141,6,0,L|102:298,1,98.9999977760315,2|0,0:0|0:0,0:0:0:0:
230,123,233456,2,0,L|220:24,1,98.9999977760315,8|0,0:0|0:0,0:0:0:0:
140,96,233773,2,0,L|28:85,1,98.9999977760315,2|0,0:0|0:0,0:0:0:0:
203,213,234088,2,0,L|301:203,1,98.9999977760315,8|0,0:0|0:0,0:0:0:0:
113,186,234404,5,2,0:0:0:0:
69,208,234482,1,0,0:0:0:0:
45,251,234561,1,0,0:0:0:0:
50,300,234640,1,0,0:0:0:0:
82,338,234720,6,0,L|150:353,3,49.4999988880158,8|0|0|0,0:0|0:0|0:0|0:0,0:0:0:0:
216,297,235035,2,0,L|284:282,3,49.4999988880158,2|0|0|0,0:0|0:0|0:0|0:0,0:0:0:0:
350,338,235351,2,0,L|418:353,3,49.4999988880158,8|0|0|0,0:0|0:0|0:0|0:0,0:0:0:0:
484,297,235667,5,4,0:0:0:0:
499,245,235746,1,0,0:0:0:0:
484,193,235825,1,0,0:0:0:0:
443,158,235904,1,0,0:0:0:0:
389,150,235983,1,8,0:0:0:0:
340,172,236061,1,0,0:0:0:0:
311,218,236141,2,0,L|303:279,1,53.999995491028,0|0,0:0|0:0,0:0:0:0:
445,303,236298,5,4,0:0:0:0:
467,260,236377,1,0,0:0:0:0:
462,211,236456,1,0,0:0:0:0:
434,171,236535,1,0,0:0:0:0:
390,150,236614,1,8,0:0:0:0:
341,147,236693,1,0,0:0:0:0:
302,119,236772,1,0,0:0:0:0:
281,75,236851,1,0,0:0:0:0:
286,26,236930,5,4,0:0:0:0:
328,76,237010,1,0,0:0:0:0:
335,140,237088,1,0,0:0:0:0:
307,199,237167,1,0,0:0:0:0:
251,231,237246,1,8,0:0:0:0:
186,229,237325,1,0,0:0:0:0:
133,192,237404,1,0,0:0:0:0:
108,133,237483,1,0,0:0:0:0:
119,69,237562,5,4,0:0:0:0:
171,99,237641,1,0,0:0:0:0:
191,155,237720,1,0,0:0:0:0:
171,211,237799,1,0,0:0:0:0:
120,240,237877,5,8,0:0:0:0:
103,291,237956,1,0,0:0:0:0:
120,342,238035,1,0,0:0:0:0:
164,374,238114,1,0,0:0:0:0:
218,374,238193,5,4,0:0:0:0:
252,357,238272,1,0,0:0:0:0:
274,327,238351,1,0,0:0:0:0:
282,290,238430,1,0,0:0:0:0:
274,253,238509,1,8,0:0:0:0:
252,222,238588,1,0,0:0:0:0:
220,203,238666,1,0,0:0:0:0:
182,199,238745,1,0,0:0:0:0:
146,211,238824,1,4,0:0:0:0:
108,210,238904,1,0,0:0:0:0:
74,193,238983,1,0,0:0:0:0:
50,165,239061,1,0,0:0:0:0:
40,128,239141,6,0,P|31:103|-13:84,3,53.999995491028,8|0|0|0,0:0|0:0|0:0|0:0,0:0:0:0:
182,89,239456,5,4,0:0:0:0:
182,89,239535,1,0,0:0:0:0:
182,89,239614,2,0,L|132:110,1,53.999995491028
344,178,239772,5,8,0:0:0:0:
344,178,239851,1,0,0:0:0:0:
344,178,239930,2,0,L|393:156,1,53.999995491028
305,56,240088,6,0,L|282:5,3,53.999995491028,4|0|0|0,0:0|0:0|0:0|0:0,0:0:0:0:
212,219,240404,2,0,L|233:268,3,53.999995491028,8|0|0|0,0:0|0:0|0:0|0:0,0:0:0:0:
182,89,240720,5,4,0:0:0:0:
128,98,240799,1,0,0:0:0:0:
87,133,240878,1,0,0:0:0:0:
68,183,240957,1,0,0:0:0:0:
78,236,241035,1,8,0:0:0:0:
112,277,241114,1,0,0:0:0:0:
163,295,241193,1,0,0:0:0:0:
216,286,241272,1,0,0:0:0:0:
259,252,241352,5,4,0:0:0:0:
273,197,241431,1,0,0:0:0:0:
319,165,241510,1,0,0:0:0:0:
376,169,241589,1,0,0:0:0:0:
415,209,241667,5,8,0:0:0:0:
364,238,241746,1,0,0:0:0:0:
305,234,241825,1,0,0:0:0:0:
261,194,241904,1,0,0:0:0:0:
250,136,241983,5,4,0:0:0:0:
208,90,242061,1,0,0:0:0:0:
149,72,242140,1,0,0:0:0:0:
88,82,242219,1,0,0:0:0:0:
39,119,242298,1,8,0:0:0:0:
10,174,242377,1,0,0:0:0:0:
14,236,242456,1,0,0:0:0:0:
44,290,242535,1,0,0:0:0:0:
97,323,242614,5,4,0:0:0:0:
140,275,242693,1,0,0:0:0:0:
204,270,242772,1,0,0:0:0:0:
257,307,242851,1,0,0:0:0:0:
295,360,242930,1,8,0:0:0:0:
358,376,243009,1,0,0:0:0:0:
417,349,243088,2,0,P|424:318|452:288,1,53.999995491028
487,177,243246,5,4,0:0:0:0:
433,143,243324,1,0,0:0:0:0:
368,138,243403,1,0,0:0:0:0:
306,156,243482,1,0,0:0:0:0:
255,196,243561,1,8,0:0:0:0:
220,250,243640,1,0,0:0:0:0:
210,314,243719,5,0,0:0:0:0:
274,286,243797,1,0,0:0:0:0:
320,231,243877,1,4,0:0:0:0:
340,165,243955,1,0,0:0:0:0:
329,96,244034,1,0,0:0:0:0:
290,37,244113,1,0,0:0:0:0:
227,6,244192,5,8,0:0:0:0:
221,81,244271,1,0,0:0:0:0:
253,149,244350,1,0,0:0:0:0:
313,194,244429,1,0,0:0:0:0:
388,207,244509,5,4,0:0:0:0:
365,171,244589,1,0,0:0:0:0:
326,152,244667,1,0,0:0:0:0:
283,157,244746,1,0,0:0:0:0:
249,184,244825,1,8,0:0:0:0:
237,226,244904,1,0,0:0:0:0:
248,267,244983,5,0,0:0:0:0:
218,305,245061,1,0,0:0:0:0:
173,322,245140,1,4,0:0:0:0:
125,313,245219,1,0,0:0:0:0:
87,282,245298,1,0,0:0:0:0:
70,236,245377,1,0,0:0:0:0:
80,189,245456,6,0,L|64:130,3,53.999995491028,8|0|0|0,0:0|0:0|0:0|0:0,0:0:0:0:
82,38,245772,5,4,0:0:0:0:
131,18,245850,1,0,0:0:0:0:
184,27,245929,1,0,0:0:0:0:
223,64,246008,1,0,0:0:0:0:
255,108,246088,5,8,0:0:0:0:
305,128,246167,1,0,0:0:0:0:
358,119,246246,1,0,0:0:0:0:
398,84,246324,1,0,0:0:0:0:
413,32,246404,5,4,0:0:0:0:
352,9,246483,1,0,0:0:0:0:
288,17,246562,1,0,0:0:0:0:
234,54,246641,1,0,0:0:0:0:
204,111,246720,1,8,0:0:0:0:
204,176,246799,1,0,0:0:0:0:
234,233,246877,1,0,0:0:0:0:
288,270,246956,1,0,0:0:0:0:
352,278,247035,5,4,0:0:0:0:
317,229,247114,1,0,0:0:0:0:
313,170,247193,1,0,0:0:0:0:
341,118,247272,1,0,0:0:0:0:
394,90,247351,1,8,0:0:0:0:
453,95,247430,1,0,0:0:0:0:
500,131,247509,6,0,L|494:215,3,53.999995491028,0|0|4|0,0:0|0:0|0:0|0:0,0:0:0:0:
481,307,247825,1,0,0:0:0:0:
481,307,247904,1,0,0:0:0:0:
481,307,247983,5,8,0:0:0:0:
424,266,248062,1,0,0:0:0:0:
354,266,248141,1,0,0:0:0:0:
298,306,248219,1,0,0:0:0:0:
276,373,248298,5,4,0:0:0:0:
218,380,248376,1,0,0:0:0:0:
166,351,248455,1,0,0:0:0:0:
141,297,248534,1,0,0:0:0:0:
151,238,248614,2,0,P|157:210|178:181,1,44.9999976158143,8|0,0:0|0:0,0:0:0:0:
253,100,248772,5,0,0:0:0:0:
287,147,248850,1,0,0:0:0:0:
288,206,248929,1,4,0:0:0:0:
254,253,249008,1,0,0:0:0:0:
198,275,249088,2,0,P|169:282|135:276,1,44.9999976158143,0|0,0:0|0:0,0:0:0:0:
28,257,249246,5,8,0:0:0:0:
50,203,249324,1,0,0:0:0:0:
101,173,249403,1,0,0:0:0:0:
160,178,249482,1,0,0:0:0:0:
207,216,249562,2,0,P|228:235|238:268,3,44.9999976158143,4|0|0|0,0:0|0:0|0:0|0:0,0:0:0:0:
276,373,249877,6,0,P|308:376|363:351,3,53.999995491028,8|0|0|0,0:0|0:0|0:0|0:0,0:0:0:0:
512,241,250193,2,0,P|496:210|460:186,3,58.4999942226413,4|0|0|0,0:0|0:0|0:0|0:0,0:0:0:0:
280,103,250509,2,0,P|261:130|258:182,3,62.9999947395327,8|0|0|0,0:0|0:0|0:0|0:0,0:0:0:0:
276,372,250825,5,4,0:0:0:0:
309,312,250904,1,0,0:0:0:0:
304,245,250983,1,0,0:0:0:0:
266,189,251062,1,0,0:0:0:0:
203,164,251141,1,8,0:0:0:0:
138,177,251220,1,0,0:0:0:0:
88,222,251298,1,0,0:0:0:0:
72,288,251377,1,0,0:0:0:0:
94,351,251456,5,4,0:0:0:0:
156,318,251535,1,0,0:0:0:0:
181,252,251614,1,0,0:0:0:0:
157,185,251693,1,0,0:0:0:0:
95,149,251772,5,8,0:0:0:0:
90,75,251851,1,0,0:0:0:0:
139,20,251930,1,0,0:0:0:0:
211,4,252009,1,0,0:0:0:0:
275,42,252088,5,4,0:0:0:0:
282,119,252167,1,0,0:0:0:0:
337,174,252246,1,0,0:0:0:0:
414,183,252325,1,0,0:0:0:0:
482,147,252404,1,8,0:0:0:0:
469,70,252483,1,0,0:0:0:0:
392,59,252562,1,0,0:0:0:0:
359,129,252641,1,0,0:0:0:0:
414,183,252719,5,4,0:0:0:0:
434,262,252798,1,0,0:0:0:0:
407,339,252877,1,0,0:0:0:0:
339,384,252956,1,0,0:0:0:0:
257,381,253035,1,8,0:0:0:0:
193,331,253114,1,0,0:0:0:0:
171,253,253193,2,0,L|184:181,1,67.499998998642
254,25,253351,5,4,0:0:0:0:
327,67,253430,1,0,0:0:0:0:
356,146,253509,1,0,0:0:0:0:
327,226,253588,1,0,0:0:0:0:
254,267,253667,1,8,0:0:0:0:
171,253,253746,1,0,0:0:0:0:
116,188,253825,2,0,L|104:121,1,67.499998998642
254,25,253983,5,4,0:0:0:0:
314,14,254062,1,0,0:0:0:0:
370,38,254141,1,0,0:0:0:0:
404,88,254220,1,0,0:0:0:0:
405,149,254298,1,8,0:0:0:0:
385,206,254377,1,0,0:0:0:0:
400,265,254456,1,0,0:0:0:0:
444,306,254535,1,0,0:0:0:0:
504,317,254614,5,4,0:0:0:0:
471,257,254693,1,0,0:0:0:0:
409,228,254772,1,0,0:0:0:0:
343,241,254851,1,0,0:0:0:0:
297,290,254930,6,0,L|292:352,3,58.4999942226413,8|0|0|0,0:0|0:0|0:0|0:0,0:0:0:0:
135,301,255246,2,0,L|72:296,3,58.4999942226413,4|0|0|0,0:0|0:0|0:0|0:0,0:0:0:0:
123,138,255562,2,0,L|127:75,3,58.4999942226413,8|0|0|0,0:0|0:0|0:0|0:0,0:0:0:0:
286,127,255877,5,4,0:0:0:0:
328,181,255956,1,0,0:0:0:0:
394,195,256035,1,0,0:0:0:0:
455,166,256114,1,0,0:0:0:0:
481,103,256193,1,8,0:0:0:0:
461,39,256272,1,0,0:0:0:0:
404,2,256351,2,0,L|326:16,1,67.499998998642
223,82,256509,5,4,0:0:0:0:
218,143,256588,1,0,0:0:0:0:
178,188,256667,1,0,0:0:0:0:
121,210,256746,1,0,0:0:0:0:
61,197,256825,1,8,0:0:0:0:
19,153,256904,1,0,0:0:0:0:
7,93,256983,1,0,0:0:0:0:
31,37,257062,1,0,0:0:0:0:
80,1,257141,5,4,0:0:0:0:
159,20,257220,1,0,0:0:0:0:
213,81,257299,1,0,0:0:0:0:
220,162,257378,1,0,0:0:0:0:
176,231,257457,1,8,0:0:0:0:
186,312,257535,1,0,0:0:0:0:
243,370,257614,1,0,0:0:0:0:
323,384,257693,1,0,0:0:0:0:
397,349,257772,5,4,0:0:0:0:
423,279,257851,1,0,0:0:0:0:
398,209,257930,1,0,0:0:0:0:
335,170,258009,1,0,0:0:0:0:
262,181,258088,5,8,0:0:0:0:
205,217,258167,1,0,0:0:0:0:
137,214,258246,1,0,0:0:0:0:
85,172,258325,1,0,0:0:0:0:
66,108,258404,5,4,0:0:0:0:
108,88,258483,1,0,0:0:0:0:
155,88,258562,1,0,0:0:0:0:
198,108,258641,1,0,0:0:0:0:
228,145,258720,1,8,0:0:0:0:
238,191,258799,1,0,0:0:0:0:
228,238,258878,1,0,0:0:0:0:
198,274,258956,1,0,0:0:0:0:
155,295,259035,1,4,0:0:0:0:
108,295,259114,1,0,0:0:0:0:
66,274,259193,1,0,0:0:0:0:
36,238,259272,1,0,0:0:0:0:
26,191,259351,6,0,L|35:97,3,58.4999942226413,8|0|0|0,0:0|0:0|0:0|0:0,0:0:0:0:
132,22,259667,5,4,0:0:0:0:
132,22,259746,1,0,0:0:0:0:
132,22,259825,2,0,L|137:80,1,58.4999942226413
198,274,259983,5,8,0:0:0:0:
198,274,260062,1,0,0:0:0:0:
198,274,260141,2,0,L|203:215,1,58.4999942226413
252,88,260298,5,4,0:0:0:0:
298,32,260404,5,0,0:0:0:0:
369,20,260509,5,0,0:0:0:0:
431,56,260614,5,8,0:0:0:0:
456,124,260720,5,0,0:0:0:0:
432,192,260825,5,0,0:0:0:0:
370,228,260930,6,0,P|290:220|258:346,1,215.999988555908,4|0,0:0|0:0,0:0:0:0:
365,382,261562,2,0,P|376:329|352:274,1,89.9999952316285,8|0,0:0|0:0,0:0:0:0:
269,198,261877,2,0,P|258:145|282:90,1,89.9999952316285
461,2,262193,6,0,P|422:135|526:127,1,269.999985694885,4|0,0:0|0:0,0:0:0:0:
401,99,262825,2,0,P|289:72|279:207,1,269.999985694885,8|0,0:0|0:0,0:0:0:0:
235,272,263456,6,0,P|157:288|109:199,1,179.999990463257,4|0,0:0|0:0,0:0:0:0:
172,131,263930,1,0,0:0:0:0:
172,131,264088,2,0,P|165:49|72:40,1,179.999990463257,8|0,0:0|0:0,0:0:0:0:
39,200,264720,6,0,P|112:208|166:92,1,179.999990463257,4|0,0:0|0:0,0:0:0:0:
217,46,265193,1,0,0:0:0:0:
217,46,265351,2,0,P|294:40|353:154,1,179.999990463257,8|0,0:0|0:0,0:0:0:0:
353,318,265983,5,4,0:0:0:0:
454,221,266456,1,0,0:0:0:0:
454,221,266614,2,0,L|440:29,1,179.999990463257,8|0,0:0|0:0,0:0:0:0:
291,114,267246,6,0,P|214:120|155:6,1,179.999990463257,4|0,0:0|0:0,0:0:0:0:
292,42,267720,1,0,0:0:0:0:
292,42,267877,2,0,P|362:94|309:186,1,179.999990463257,8|0,0:0|0:0,0:0:0:0:
287,271,268509,6,0,B|160:340|139:210|7:281,2,287.999984741211,4|8|4,0:0|0:0|0:0,0:0:0:0:
418,202,270404,6,0,P|386:168|324:172,1,89.9999952316285,8|0,0:0|0:0,0:0:0:0:
94,202,270720,2,0,P|126:168|188:172,1,89.9999952316285,0|0,0:0|0:0,0:0:0:0:
253,26,271035,5,4,0:0:0:0:
126,152,271351,1,8,0:0:0:0:
253,279,271667,1,4,0:0:0:0:
379,152,271983,1,8,0:0:0:0:
253,26,272298,5,4,0:0:0:0:
267,73,272376,1,0,0:0:0:0:
258,122,272455,1,0,0:0:0:0:
228,161,272534,1,0,0:0:0:0:
183,182,272613,1,8,0:0:0:0:
134,182,272692,1,0,0:0:0:0:
90,159,272771,5,0,0:0:0:0:
151,118,272851,1,0,0:0:0:0:
225,118,272930,1,4,0:0:0:0:
289,156,273009,1,0,0:0:0:0:
323,222,273088,1,0,0:0:0:0:
317,296,273167,1,0,0:0:0:0:
272,356,273245,5,8,0:0:0:0:
308,306,273324,1,0,0:0:0:0:
366,284,273403,1,0,0:0:0:0:
426,299,273482,1,0,0:0:0:0:
469,344,273562,5,2,0:0:0:0:
424,339,273641,1,0,0:0:0:0:
387,313,273720,1,8,0:0:0:0:
366,273,273799,1,0,0:0:0:0:
366,228,273878,1,2,0:0:0:0:
387,188,273957,1,0,0:0:0:0:
424,163,274036,1,8,0:0:0:0:
469,157,274115,1,0,0:0:0:0:
511,173,274193,5,2,0:0:0:0:
470,208,274272,1,0,0:0:0:0:
416,216,274351,1,8,0:0:0:0:
367,193,274430,1,0,0:0:0:0:
338,148,274509,1,2,0:0:0:0:
326,95,274588,1,0,0:0:0:0:
287,57,274667,2,0,L|217:64,1,44.9999976158143,8|0,0:0|0:0,0:0:0:0:
119,48,274825,5,2,0:0:0:0:
78,67,274904,1,0,0:0:0:0:
53,103,274982,1,8,0:0:0:0:
49,148,275061,1,0,0:0:0:0:
68,189,275140,1,2,0:0:0:0:
104,215,275219,1,0,0:0:0:0:
149,219,275298,1,8,0:0:0:0:
190,201,275377,1,0,0:0:0:0:
215,163,275456,5,2,0:0:0:0:
269,171,275535,1,0,0:0:0:0:
310,206,275614,1,8,0:0:0:0:
325,258,275693,1,0,0:0:0:0:
310,310,275772,1,2,0:0:0:0:
269,345,275851,1,0,0:0:0:0:
215,353,275930,2,0,L|150:337,1,44.9999976158143,8|0,0:0|0:0,0:0:0:0:
104,215,276089,5,2,0:0:0:0:
91,167,276168,1,0,0:0:0:0:
104,119,276247,1,8,0:0:0:0:
139,84,276326,1,0,0:0:0:0:
187,71,276405,1,2,0:0:0:0:
234,84,276483,1,0,0:0:0:0:
269,119,276562,5,8,0:0:0:0:
237,151,276641,1,0,0:0:0:0:
225,194,276720,1,2,0:0:0:0:
237,238,276799,1,0,0:0:0:0:
269,269,276878,1,8,0:0:0:0:
312,281,276957,1,0,0:0:0:0:
356,269,277035,5,2,0:0:0:0:
344,230,277114,1,0,0:0:0:0:
356,191,277193,1,8,0:0:0:0:
389,168,277272,1,0,0:0:0:0:
430,168,277351,6,0,L|500:181,3,44.9999976158143,2|0|8|0,0:0|0:0|0:0|0:0,0:0:0:0:
379,57,277667,2,0,L|334:65,3,44.9999976158143,2|0|8|0,0:0|0:0|0:0|0:0,0:0:0:0:
250,139,277983,5,2,0:0:0:0:
281,169,278061,1,0,0:0:0:0:
289,214,278140,1,8,0:0:0:0:
270,255,278219,1,0,0:0:0:0:
231,277,278298,5,2,0:0:0:0:
192,254,278377,1,0,0:0:0:0:
148,260,278456,1,8,0:0:0:0:
113,289,278535,1,0,0:0:0:0:
104,332,278614,5,2,0:0:0:0:
148,326,278693,1,0,0:0:0:0:
183,297,278772,1,8,0:0:0:0:
195,253,278851,1,0,0:0:0:0:
183,210,278930,1,2,0:0:0:0:
148,181,279009,1,0,0:0:0:0:
104,174,279088,5,8,0:0:0:0:
77,132,279168,1,0,0:0:0:0:
77,82,279247,1,2,0:0:0:0:
104,41,279326,1,0,0:0:0:0:
149,20,279405,1,8,0:0:0:0:
198,27,279483,1,0,0:0:0:0:
236,59,279562,5,2,0:0:0:0:
259,108,279641,1,0,0:0:0:0:
307,132,279719,1,8,0:0:0:0:
359,118,279798,1,0,0:0:0:0:
389,73,279877,6,0,L|381:10,3,44.9999976158143,2|0|8|0,0:0|0:0|0:0|0:0,0:0:0:0:
477,137,280193,2,0,L|471:181,3,44.9999976158143,2|0|8|0,0:0|0:0|0:0|0:0,0:0:0:0:
452,296,280509,5,2,0:0:0:0:
413,267,280587,1,0,0:0:0:0:
364,260,280666,1,8,0:0:0:0:
316,274,280745,1,0,0:0:0:0:
280,309,280825,5,2,0:0:0:0:
236,332,280904,1,0,0:0:0:0:
186,333,280983,1,8,0:0:0:0:
140,315,281062,1,0,0:0:0:0:
110,276,281141,5,2,0:0:0:0:
142,244,281220,1,0,0:0:0:0:
153,201,281298,1,8,0:0:0:0:
141,157,281378,1,0,0:0:0:0:
108,126,281457,1,2,0:0:0:0:
65,112,281536,1,0,0:0:0:0:
21,124,281615,5,8,0:0:0:0:
52,156,281693,1,0,0:0:0:0:
96,168,281772,1,2,0:0:0:0:
139,156,281851,1,0,0:0:0:0:
171,124,281930,1,8,0:0:0:0:
182,81,282009,1,0,0:0:0:0:
171,37,282088,6,0,L|129:11,3,44.9999976158143,2|0|8|0,0:0|0:0|0:0|0:0,0:0:0:0:
96,82,282404,5,2,0:0:0:0:
62,112,282483,1,0,0:0:0:0:
52,156,282561,1,8,0:0:0:0:
70,197,282640,1,0,0:0:0:0:
108,221,282719,1,2,0:0:0:0:
153,217,282798,1,0,0:0:0:0:
188,188,282877,1,8,0:0:0:0:
197,144,282956,1,0,0:0:0:0:
179,102,283036,5,2,0:0:0:0:
190,59,283114,1,0,0:0:0:0:
225,31,283193,1,8,0:0:0:0:
270,32,283272,1,0,0:0:0:0:
309,56,283352,5,2,0:0:0:0:
313,100,283431,1,0,0:0:0:0:
344,131,283510,1,8,0:0:0:0:
388,136,283588,1,0,0:0:0:0:
441,112,283667,5,2,0:0:0:0:
509,234,283825,1,8,0:0:0:0:
414,337,283983,1,2,0:0:0:0:
414,337,284062,1,0,0:0:0:0:
414,337,284141,1,8,0:0:0:0:
287,278,284298,1,2,0:0:0:0:
304,139,284456,1,8,0:0:0:0:
304,139,284535,2,0,L|292:74,1,44.9999976158143,0|2,0:0|0:0,0:0:0:0:
196,9,284693,1,0,0:0:0:0:
196,9,284772,2,0,L|184:74,1,44.9999976158143,8|0,0:0|0:0,0:0:0:0:
185,184,284930,5,2,0:0:0:0:
160,331,285088,1,8,0:0:0:0:
13,306,285246,1,2,0:0:0:0:
13,306,285325,1,0,0:0:0:0:
13,306,285404,1,8,0:0:0:0:
38,159,285562,5,2,0:0:0:0:
38,159,285641,1,0,0:0:0:0:
38,159,285720,2,0,L|108:150,1,44.9999976158143,8|0,0:0|0:0,0:0:0:0:
61,44,285877,1,2,0:0:0:0:
61,44,285956,1,0,0:0:0:0:
61,44,286035,2,0,L|-9:35,1,44.9999976158143,8|0,0:0|0:0,0:0:0:0:
184,125,286193,5,2,0:0:0:0:
139,257,286351,1,8,0:0:0:0:
251,342,286509,1,2,0:0:0:0:
251,342,286588,1,0,0:0:0:0:
251,342,286667,1,8,0:0:0:0:
364,260,286825,1,2,0:0:0:0:
323,127,286983,1,8,0:0:0:0:
323,127,287062,2,0,L|329:67,1,44.9999976158143,0|2,0:0|0:0,0:0:0:0:
184,125,287220,1,0,0:0:0:0:
184,125,287298,2,0,L|188:169,1,44.9999976158143,8|0,0:0|0:0,0:0:0:0:
167,315,287456,5,2,0:0:0:0:
167,315,287535,1,0,0:0:0:0:
167,315,287614,1,8,0:0:0:0:
350,256,287772,1,2,0:0:0:0:
350,256,287851,1,0,0:0:0:0:
350,256,287930,1,8,0:0:0:0:
115,267,288088,5,2,0:0:0:0:
115,267,288167,1,0,0:0:0:0:
115,267,288246,1,8,0:0:0:0:
401,303,288404,1,2,0:0:0:0:
401,303,288483,1,0,0:0:0:0:
401,303,288562,1,8,0:0:0:0:
360,174,288720,5,2,0:0:0:0:
434,62,288877,1,8,0:0:0:0:
476,190,289035,1,2,0:0:0:0:
476,190,289114,1,0,0:0:0:0:
476,190,289193,1,8,0:0:0:0:
401,303,289351,1,2,0:0:0:0:
266,316,289509,1,8,0:0:0:0:
266,316,289588,2,0,L|254:369,1,44.9999976158143,0|2,0:0|0:0,0:0:0:0:
165,226,289746,1,0,0:0:0:0:
165,226,289825,2,0,L|177:174,1,44.9999976158143,8|0,0:0|0:0,0:0:0:0:
139,359,289983,5,2,0:0:0:0:
37,270,290141,1,8,0:0:0:0:
237,249,290298,1,2,0:0:0:0:
237,249,290377,1,0,0:0:0:0:
237,249,290456,2,0,L|308:266,1,44.9999976158143,8|0,0:0|0:0,0:0:0:0:
84,151,290614,5,2,0:0:0:0:
84,151,290693,1,0,0:0:0:0:
84,151,290772,2,0,L|13:168,1,44.9999976158143,8|0,0:0|0:0,0:0:0:0:
292,99,290930,1,2,0:0:0:0:
292,99,291009,1,0,0:0:0:0:
292,99,291088,2,0,L|363:116,1,44.9999976158143,8|0,0:0|0:0,0:0:0:0:
427,33,291246,5,10,0:0:0:0:
468,62,291325,1,0,0:0:0:0:
483,109,291404,1,0,0:0:0:0:
468,157,291483,1,0,0:0:0:0:
427,186,291562,2,0,L|417:253,1,44.9999976158143,8|0,0:0|0:0,0:0:0:0:
356,340,291720,5,0,0:0:0:0:
315,311,291799,1,0,0:0:0:0:
300,264,291878,1,10,0:0:0:0:
315,216,291957,1,0,0:0:0:0:
356,187,292036,2,0,L|366:120,1,44.9999976158143,0|0,0:0|0:0,0:0:0:0:
427,33,292193,5,8,0:0:0:0:
389,78,292272,1,0,0:0:0:0:
333,93,292351,1,0,0:0:0:0:
277,71,292430,1,0,0:0:0:0:
246,23,292510,5,10,0:0:0:0:
208,8,292589,1,0,0:0:0:0:
168,13,292668,1,0,0:0:0:0:
134,36,292747,1,0,0:0:0:0:
115,72,292826,1,8,0:0:0:0:
115,112,292905,1,0,0:0:0:0:
134,148,292984,1,0,0:0:0:0:
168,171,293062,1,0,0:0:0:0:
208,176,293141,6,0,P|269:144|333:226,1,179.999990463257,2|0,0:0|0:0,0:0:0:0:
307,334,293614,1,0,0:0:0:0:
181,302,293772,5,2,0:0:0:0:
64,356,293930,1,0,0:0:0:0:
64,356,294009,1,0,0:0:0:0:
64,356,294088,1,8,0:0:0:0:
33,216,294246,5,0,0:0:0:0:
160,157,294404,1,2,0:0:0:0:
160,157,294483,1,0,0:0:0:0:
160,157,294562,1,0,0:0:0:0:
181,302,294720,5,8,0:0:0:0:
338,234,294877,1,0,0:0:0:0:
117,239,295035,5,2,0:0:0:0:
401,296,295192,1,0,0:0:0:0:
401,296,295272,1,0,0:0:0:0:
401,296,295351,1,8,0:0:0:0:
297,363,295509,5,0,0:0:0:0:
332,182,295667,2,0,P|339:110|290:54,1,134.999992847443,2|0,0:0|0:0,0:0:0:0:
259,51,295983,2,0,P|208:67|161:45,1,89.9999952316285,8|0,0:0|0:0,0:0:0:0:
55,49,296298,5,2,0:0:0:0:
39,184,296456,1,0,0:0:0:0:
39,184,296535,1,0,0:0:0:0:
39,184,296614,1,8,0:0:0:0:
132,295,296772,5,0,0:0:0:0:
212,175,296930,1,2,0:0:0:0:
212,175,297009,1,0,0:0:0:0:
212,175,297088,1,0,0:0:0:0:
339,238,297246,5,8,0:0:0:0:
261,353,297404,1,0,0:0:0:0:
132,295,297562,5,2,0:0:0:0:
339,238,297720,1,0,0:0:0:0:
339,238,297798,1,0,0:0:0:0:
339,238,297877,1,8,0:0:0:0:
261,353,298035,1,0,0:0:0:0:
212,175,298193,5,2,0:0:0:0:
270,169,298298,5,0,0:0:0:0:
310,127,298403,5,0,0:0:0:0:
312,68,298509,6,0,P|366:36|451:79,1,134.999992847443
379,113,298825,5,10,0:0:0:0:
349,328,300088,5,10,0:0:0:0:
138,365,300562,5,10,0:0:0:0:
35,173,301035,5,10,0:0:0:0:
186,19,301351,5,10,0:0:0:0:
256,192,301430,12,0,302614,0:0:0:0:
