osu file format v14

[General]
AudioFilename: audio.mp3
AudioLeadIn: 0
PreviewTime: 58610
Countdown: 0
SampleSet: Drum
StackLeniency: 0.3
Mode: 0
LetterboxInBreaks: 0
WidescreenStoryboard: 1

[Editor]
Bookmarks: 74508,162108,169308
DistanceSpacing: 2
BeatDivisor: 4
GridSize: 8
TimelineZoom: 4.599998

[Metadata]
Title:Unmei no Megami
TitleUnicode:運命の女神
Artist:Dragon Guardian
ArtistUnicode:Dragon Guardian
Creator:RafuNa
Version:no intro
Source:
Tags:Dragon Guardian
BeatmapID:4538017
BeatmapSetID:2153655

[Difficulty]
HPDrainRate:4
CircleSize:4.2
OverallDifficulty:9.2
ApproachRate:10
SliderMultiplier:1.66
SliderTickRate:1

[Events]
//Background and Video events
0,0,"bg.jpg",0,0
//Break Periods
2,88508,101958
//Storyboard Layer 0 (Background)
//Storyboard Layer 1 (Fail)
//Storyboard Layer 2 (Pass)
//Storyboard Layer 3 (Foreground)
//Storyboard Layer 4 (Overlay)
//Storyboard Sound Samples

[TimingPoints]
108,300,4,3,1,55,1,0
1608,-111.111111111111,4,3,1,55,0,0
58608,-76.9230769230769,4,3,1,55,0,1
60108,-76.9230769230769,4,3,1,55,0,1
69108,-71.4285714285714,4,3,1,55,0,1
71508,-66.6666666666667,4,3,1,55,0,1
72108,-76.9230769230769,4,3,1,55,0,1
73008,-58.8235294117647,4,3,1,55,0,1
75408,-76.9230769230769,4,3,1,55,0,1
78708,-66.6666666666667,4,3,1,60,0,1
79008,-66.6666666666667,4,3,1,65,0,1
79308,-76.9230769230769,4,3,1,55,0,1
82308,-76.9230769230769,4,3,1,55,0,1
82608,-76.9230769230769,4,3,1,60,0,1
82908,-76.9230769230769,4,3,1,65,0,1
86208,-62.5,4,3,1,55,0,1
86508,-62.5,4,3,28,55,0,1
88308,-58.8235294117647,4,3,28,55,0,0
102708,-76.9230769230769,4,3,1,55,0,0
106308,-125,4,3,1,55,0,0
107208,-66.6666666666667,4,3,1,55,0,0
108108,-71.4285714285714,4,3,1,55,0,0
109908,-90.9090909090909,4,3,1,55,0,0
110508,-100,4,3,1,55,0,0
110808,-83.3333333333333,4,3,1,55,0,0
111108,-66.6666666666667,4,3,1,55,0,0
111408,-62.5,4,3,1,55,0,0
111708,-76.9230769230769,4,3,1,55,0,0
115308,-80.6451612903226,4,3,1,55,0,0
116133,-80.6451612903226,4,3,1,5,0,0
116208,-90.9090909090909,4,3,1,55,0,0
117033,-90.9090909090909,4,3,1,5,0,0
117108,-83.3333333333333,4,3,1,55,0,0
118008,-83.3333333333333,4,3,1,55,0,0
132408,-83.3333333333333,4,3,1,55,0,1
146808,-71.4285714285714,4,3,1,55,0,1
160308,-71.4285714285714,4,3,28,55,0,1
161208,-83.3333333333333,4,3,28,55,0,0

[HitObjects]
151,105,58608,5,0,0:0:0:0:
202,82,58683,1,0,0:0:0:0:
249,111,58758,1,8,0:0:0:0:
300,134,58833,1,0,0:0:0:0:
347,105,58908,1,0,0:0:0:0:
406,96,58983,1,0,0:0:0:0:
460,120,59058,1,0,0:0:0:0:
494,169,59133,1,0,0:0:0:0:
495,228,59208,1,8,0:0:0:0:
440,203,59283,1,8,0:0:0:0:
380,207,59358,1,8,0:0:0:0:
329,238,59433,1,8,0:0:0:0:
298,289,59508,5,12,0:0:0:0:
248,304,59583,1,0,0:0:0:0:
196,293,59658,1,0,0:0:0:0:
155,260,59733,1,0,0:0:0:0:
135,211,59808,1,0,0:0:0:0:
150,161,59883,1,0,0:0:0:0:
140,109,59958,1,0,0:0:0:0:
105,69,60033,1,0,0:0:0:0:
60,41,60108,2,0,P|46:74|33:107,1,53.9499975303651,8|0,0:0|0:0,0:0:0:0:
37,233,60258,2,0,P|52:201|68:171,1,53.9499975303651,8|0,0:0|0:0,0:0:0:0:
228,111,60408,6,0,P|234:87|236:52,3,53.9499975303651,8|0|0|0,0:0|0:0|0:0|0:0,0:0:0:0:
235,222,60708,2,0,P|228:245|227:281,3,53.9499975303651,8|0|0|0,0:0|0:0|0:0|0:0,0:0:0:0:
303,159,61008,5,12,0:0:0:0:
315,129,61083,1,0,0:0:0:0:
339,99,61158,1,0,0:0:0:0:
377,79,61233,1,0,0:0:0:0:
425,76,61308,1,12,0:0:0:0:
438,128,61383,1,0,0:0:0:0:
428,181,61458,1,0,0:0:0:0:
398,226,61533,1,0,0:0:0:0:
353,256,61608,1,0,0:0:0:0:
300,266,61683,1,0,0:0:0:0:
246,256,61758,1,0,0:0:0:0:
201,224,61833,1,0,0:0:0:0:
173,177,61908,6,0,P|164:145|167:110,1,53.9499975303651,8|0,0:0|0:0,0:0:0:0:
299,46,62058,2,0,P|308:78|305:113,1,53.9499975303651
305,217,62208,1,12,0:0:0:0:
304,249,62283,1,0,0:0:0:0:
292,285,62358,1,0,0:0:0:0:
268,320,62433,1,0,0:0:0:0:
228,348,62508,1,0,0:0:0:0:
183,308,62583,1,0,0:0:0:0:
154,256,62658,1,0,0:0:0:0:
147,197,62733,1,0,0:0:0:0:
161,139,62808,5,0,0:0:0:0:
101,145,62883,1,0,0:0:0:0:
51,177,62958,1,0,0:0:0:0:
23,229,63033,1,0,0:0:0:0:
21,288,63108,6,0,P|24:324|32:355,3,53.9499975303651,12|0|0|0,0:0|0:0|0:0|0:0,0:0:0:0:
167,192,63408,2,0,P|164:156|156:125,3,53.9499975303651
137,282,63708,6,0,P|127:317|139:366,1,53.9499975303651,8|0,0:0|0:0,0:0:0:0:
243,332,63858,2,0,P|253:367|241:416,1,53.9499975303651,8|0,0:0|0:0,0:0:0:0:
294,384,64008,1,8,0:0:0:0:
309,361,64083,1,0,0:0:0:0:
327,334,64158,1,0,0:0:0:0:
350,304,64233,1,0,0:0:0:0:
375,269,64308,5,8,0:0:0:0:
335,240,64383,1,0,0:0:0:0:
290,210,64458,1,0,0:0:0:0:
241,175,64533,1,0,0:0:0:0:
187,138,64608,5,12,0:0:0:0:
240,101,64683,1,0,0:0:0:0:
303,87,64758,1,0,0:0:0:0:
366,101,64833,1,0,0:0:0:0:
419,137,64908,5,12,0:0:0:0:
415,201,64983,1,0,0:0:0:0:
385,258,65058,1,0,0:0:0:0:
334,299,65133,1,0,0:0:0:0:
270,312,65208,5,0,0:0:0:0:
239,274,65283,1,0,0:0:0:0:
191,265,65358,1,0,0:0:0:0:
148,241,65433,1,0,0:0:0:0:
117,203,65508,2,0,P|113:171|111:129,1,53.9499975303651,8|0,0:0|0:0,0:0:0:0:
234,3,65658,2,0,P|238:35|240:77,1,53.9499975303651,8|0,0:0|0:0,0:0:0:0:
244,148,65808,5,12,0:0:0:0:
244,148,65883,1,0,0:0:0:0:
244,148,65958,1,0,0:0:0:0:
244,148,66033,1,0,0:0:0:0:
244,148,66108,5,0,0:0:0:0:
231,200,66183,1,0,0:0:0:0:
255,248,66258,1,0,0:0:0:0:
304,271,66333,1,0,0:0:0:0:
356,256,66408,1,0,0:0:0:0:
385,211,66483,1,0,0:0:0:0:
380,157,66558,1,0,0:0:0:0:
342,119,66633,1,0,0:0:0:0:
288,116,66708,5,12,0:0:0:0:
288,116,66783,1,0,0:0:0:0:
288,116,66858,1,0,0:0:0:0:
288,116,66933,1,0,0:0:0:0:
288,116,67008,5,0,0:0:0:0:
318,94,67083,1,0,0:0:0:0:
358,79,67158,1,0,0:0:0:0:
406,83,67233,1,0,0:0:0:0:
452,109,67308,1,8,0:0:0:0:
483,153,67383,1,0,0:0:0:0:
490,206,67458,1,0,0:0:0:0:
472,257,67533,1,0,0:0:0:0:
433,294,67608,5,8,0:0:0:0:
418,301,67683,1,0,0:0:0:0:
403,308,67758,1,0,0:0:0:0:
388,315,67833,1,0,0:0:0:0:
374,324,67908,1,8,0:0:0:0:
347,319,67983,1,0,0:0:0:0:
332,326,68058,1,0,0:0:0:0:
317,333,68133,1,0,0:0:0:0:
300,340,68208,2,0,P|283:313|271:288,1,53.9499975303651,12|0,0:0|0:0,0:0:0:0:
253,131,68358,2,0,P|270:158|282:183,1,53.9499975303651
382,195,68508,5,12,0:0:0:0:
382,195,68583,1,0,0:0:0:0:
382,195,68658,1,0,0:0:0:0:
382,195,68733,1,0,0:0:0:0:
382,195,68808,5,8,0:0:0:0:
385,151,68883,1,0,0:0:0:0:
343,110,68958,1,0,0:0:0:0:
285,94,69033,1,0,0:0:0:0:
228,110,69108,2,0,P|202:147|179:182,1,58.0999982269288
182,330,69258,2,0,P|207:292|231:258,1,58.0999982269288,8|0,0:0|0:0,0:0:0:0:
267,210,69408,5,12,0:0:0:0:
267,210,69483,1,0,0:0:0:0:
267,210,69558,1,0,0:0:0:0:
267,210,69633,1,0,0:0:0:0:
247,245,69708,5,0,0:0:0:0:
244,289,69783,1,0,0:0:0:0:
286,330,69858,1,0,0:0:0:0:
344,346,69933,1,0,0:0:0:0:
401,330,70008,2,0,P|427:293|450:258,1,58.0999982269288
447,110,70158,2,0,P|422:148|398:182,1,58.0999982269288
345,253,70308,5,12,0:0:0:0:
349,212,70383,1,0,0:0:0:0:
325,178,70458,1,0,0:0:0:0:
331,137,70533,1,0,0:0:0:0:
356,105,70608,5,0,0:0:0:0:
312,87,70683,1,0,0:0:0:0:
259,87,70758,1,0,0:0:0:0:
207,114,70833,1,0,0:0:0:0:
171,167,70908,6,0,P|165:201|158:238,3,58.0999982269288,8|0|0|0,0:0|0:0|0:0|0:0,0:0:0:0:
51,57,71208,2,0,P|56:22|62:-14,3,58.0999982269288,12|0|0|0,0:0|0:0|0:0|0:0,0:0:0:0:
81,225,71508,6,0,B|75:255|75:255|19:311,3,62.2500023746491,8|0|0|0,0:0|0:0|0:0|0:0,0:0:0:0:
114,114,71808,2,0,B|119:83|119:83|179:31,3,62.2500023746491,12|0|0|0,0:0|0:0|0:0|0:0,0:0:0:0:
216,136,72108,5,12,0:0:0:0:
266,121,72183,1,0,0:0:0:0:
318,132,72258,1,0,0:0:0:0:
359,165,72333,1,0,0:0:0:0:
379,214,72408,1,0,0:0:0:0:
364,264,72483,1,0,0:0:0:0:
374,316,72558,1,0,0:0:0:0:
409,356,72633,1,0,0:0:0:0:
454,384,72708,6,0,P|468:351|481:318,1,53.9499975303651,8|0,0:0|0:0,0:0:0:0:
444,169,72858,2,0,P|430:202|417:235,1,53.9499975303651
246,289,73008,2,0,P|260:256|288:222,1,70.5500013456345,12|0,0:0|0:0,0:0:0:0:
320,177,73158,2,0,B|308:142|308:142|309:136|309:136|298:102,1,70.5500013456345
285,41,73308,5,8,0:0:0:0:
215,54,73383,1,0,0:0:0:0:
160,98,73458,1,8,0:0:0:0:
131,162,73533,1,0,0:0:0:0:
137,232,73608,1,8,0:0:0:0:
103,178,73683,1,8,0:0:0:0:
68,124,73758,1,8,0:0:0:0:
29,73,73833,1,8,0:0:0:0:
2,15,73908,5,12,0:0:0:0:
50,27,73983,1,0,0:0:0:0:
74,71,74058,1,0,0:0:0:0:
59,118,74133,1,0,0:0:0:0:
47,166,74208,5,0,0:0:0:0:
59,214,74283,1,0,0:0:0:0:
103,238,74358,1,0,0:0:0:0:
150,223,74433,1,0,0:0:0:0:
196,205,74508,5,8,0:0:0:0:
250,189,74583,1,0,0:0:0:0:
288,220,74658,1,0,0:0:0:0:
276,260,74733,1,0,0:0:0:0:
240,263,74808,1,8,0:0:0:0:
218,235,74883,1,0,0:0:0:0:
197,198,74958,1,0,0:0:0:0:
194,148,75033,1,0,0:0:0:0:
209,93,75108,1,8,0:0:0:0:
246,51,75183,1,0,0:0:0:0:
295,24,75258,1,0,0:0:0:0:
350,16,75333,1,0,0:0:0:0:
403,35,75408,2,0,P|430:53|466:98,3,53.9499975303651,12|0|0|0,0:0|0:0|0:0|0:0,0:0:0:0:
392,140,75708,5,12,0:0:0:0:
394,193,75783,1,0,0:0:0:0:
394,246,75858,1,0,0:0:0:0:
394,299,75933,1,0,0:0:0:0:
392,355,76008,5,0,0:0:0:0:
355,332,76083,1,0,0:0:0:0:
315,314,76158,1,0,0:0:0:0:
273,303,76233,1,0,0:0:0:0:
230,298,76308,1,8,0:0:0:0:
186,299,76383,1,0,0:0:0:0:
143,307,76458,1,0,0:0:0:0:
102,322,76533,1,0,0:0:0:0:
64,343,76608,5,12,0:0:0:0:
32,306,76683,1,0,0:0:0:0:
19,253,76758,1,0,0:0:0:0:
34,195,76833,1,0,0:0:0:0:
80,150,76908,1,0,0:0:0:0:
142,134,76983,1,0,0:0:0:0:
203,153,77058,1,0,0:0:0:0:
245,201,77133,1,0,0:0:0:0:
253,263,77208,1,0,0:0:0:0:
304,301,77283,1,0,0:0:0:0:
368,305,77358,1,0,0:0:0:0:
425,275,77433,1,0,0:0:0:0:
460,220,77508,5,12,0:0:0:0:
396,190,77583,1,0,0:0:0:0:
326,197,77658,1,0,0:0:0:0:
269,238,77733,1,0,0:0:0:0:
240,302,77808,1,0,0:0:0:0:
177,332,77883,1,0,0:0:0:0:
107,326,77958,1,0,0:0:0:0:
49,285,78033,1,0,0:0:0:0:
20,220,78108,2,0,P|16:187|32:154,1,53.9499975303651,8|0,0:0|0:0,0:0:0:0:
92,52,78258,2,0,P|92:87|89:132,1,53.9499975303651
140,233,78408,2,0,P|170:215|207:190,3,53.9499975303651,12|0|0|0,0:0|0:0|0:0|0:0,0:0:0:0:
257,102,78708,2,0,P|239:69|225:35,3,62.2500023746491,12|0|0|0,0:0|0:0|0:0|0:0,0:0:0:0:
335,232,79008,2,0,P|353:265|367:299,3,62.2500023746491,12|0|0|0,0:0|0:0|0:0|0:0,0:0:0:0:
352,136,79308,5,12,0:0:0:0:
405,143,79383,1,0,0:0:0:0:
449,174,79458,1,0,0:0:0:0:
473,221,79533,1,0,0:0:0:0:
474,274,79608,1,0,0:0:0:0:
449,322,79683,1,0,0:0:0:0:
405,354,79758,1,0,0:0:0:0:
351,362,79833,1,0,0:0:0:0:
300,342,79908,5,8,0:0:0:0:
255,302,79983,1,0,0:0:0:0:
197,272,80058,1,0,0:0:0:0:
128,256,80133,1,0,0:0:0:0:
52,258,80208,1,12,0:0:0:0:
41,188,80283,1,0,0:0:0:0:
78,128,80358,1,0,0:0:0:0:
144,105,80433,1,0,0:0:0:0:
209,128,80508,1,0,0:0:0:0:
262,173,80583,1,0,0:0:0:0:
332,174,80658,1,0,0:0:0:0:
387,130,80733,1,0,0:0:0:0:
401,61,80808,6,0,P|389:29|360:3,1,53.9499975303651
298,84,80958,2,0,P|297:129|300:172,1,53.9499975303651
298,247,81108,5,12,0:0:0:0:
298,268,81183,1,0,0:0:0:0:
298,289,81258,1,0,0:0:0:0:
298,310,81333,1,0,0:0:0:0:
298,331,81408,5,0,0:0:0:0:
327,343,81483,1,0,0:0:0:0:
364,341,81558,1,0,0:0:0:0:
403,323,81633,1,0,0:0:0:0:
433,284,81708,1,8,0:0:0:0:
440,230,81783,1,0,0:0:0:0:
415,175,81858,1,0,0:0:0:0:
357,146,81933,1,0,0:0:0:0:
288,160,82008,1,8,0:0:0:0:
218,167,82083,1,0,0:0:0:0:
167,118,82158,1,0,0:0:0:0:
173,48,82233,1,0,0:0:0:0:
228,5,82308,6,0,P|231:46|231:79,3,53.9499975303651,12|0|0|0,0:0|0:0|0:0|0:0,0:0:0:0:
218,167,82608,2,0,P|214:208|215:241,3,53.9499975303651,12|0|0|0,0:0|0:0|0:0|0:0,0:0:0:0:
104,217,82908,5,12,0:0:0:0:
82,240,82983,1,0,0:0:0:0:
72,275,83058,1,0,0:0:0:0:
75,318,83133,1,0,0:0:0:0:
101,359,83208,1,8,0:0:0:0:
150,384,83283,1,0,0:0:0:0:
210,380,83358,1,0,0:0:0:0:
257,335,83433,1,0,0:0:0:0:
268,266,83508,1,0,0:0:0:0:
285,197,83583,1,0,0:0:0:0:
348,166,83658,1,8,0:0:0:0:
412,196,83733,1,0,0:0:0:0:
434,262,83808,6,0,P|394:250|363:239,3,53.9499975303651,12|0|0|0,0:0|0:0|0:0|0:0,0:0:0:0:
290,303,84108,2,0,P|250:314|219:325,3,53.9499975303651
203,214,84408,2,0,P|191:174|180:143,3,53.9499975303651
40,57,84708,1,12,0:0:0:0:
77,49,84783,1,0,0:0:0:0:
118,59,84858,1,0,0:0:0:0:
155,89,84933,1,0,0:0:0:0:
174,139,85008,1,8,0:0:0:0:
163,191,85083,1,0,0:0:0:0:
127,231,85158,1,0,0:0:0:0:
74,243,85233,1,0,0:0:0:0:
20,235,85308,2,0,P|19:192|32:162,3,53.9499975303651,8|0|0|0,0:0|0:0|0:0|0:0,0:0:0:0:
89,331,85608,5,12,0:0:0:0:
152,318,85683,1,0,0:0:0:0:
216,311,85758,1,0,0:0:0:0:
280,312,85833,1,0,0:0:0:0:
344,320,85908,2,0,P|380:328|435:352,3,53.9499975303651,8|0|0|0,0:0|0:0|0:0|0:0,0:0:0:0:
480,269,86208,6,0,P|470:221|454:187,1,66.4,8|0,0:0|0:0,0:0:0:0:
357,198,86358,2,0,P|347:150|332:117,1,66.4
269,53,86508,1,12,0:0:0:0:
201,25,86583,1,0,0:0:0:0:
130,44,86658,1,0,0:0:0:0:
81,98,86733,1,0,0:0:0:0:
74,170,86808,1,12,0:0:0:0:
108,234,86883,1,0,0:0:0:0:
173,267,86958,1,0,0:0:0:0:
245,258,87033,1,0,0:0:0:0:
299,209,87108,5,12,0:0:0:0:
360,183,87183,1,0,0:0:0:0:
419,189,87258,1,0,0:0:0:0:
462,218,87333,1,0,0:0:0:0:
488,256,87408,1,12,0:0:0:0:
454,297,87483,1,0,0:0:0:0:
399,320,87558,1,0,0:0:0:0:
332,313,87633,1,0,0:0:0:0:
275,266,87708,5,12,0:0:0:0:
259,194,87783,1,0,0:0:0:0:
284,125,87858,1,0,0:0:0:0:
345,85,87933,1,0,0:0:0:0:
418,86,88008,1,12,0:0:0:0:
407,164,88083,1,0,0:0:0:0:
361,229,88158,1,0,0:0:0:0:
288,262,88233,1,0,0:0:0:0:
203,259,88308,1,12,0:0:0:0:
258,193,102408,5,8,0:0:0:0:
369,105,102558,1,0,0:0:0:0:
419,259,102708,2,8,P|335:312|229:375,1,215.79999012146,8|0,0:0|0:0,0:0:0:0:
71,229,103308,5,8,0:0:0:0:
150,119,103608,2,8,P|187:270|164:326,1,215.79999012146,8|0,0:0|0:0,0:0:0:0:
381,48,104208,1,8,0:0:0:0:
359,262,104508,2,0,B|393:201|393:201|396:150|396:150|437:132|437:132|489:83,1,215.79999012146,8|0,0:0|0:0,0:0:0:0:
482,205,104958,1,0,0:0:0:0:
482,205,105108,1,8,0:0:0:0:
193,104,105408,6,0,B|150:140|225:202|288:242|272:289,1,215.79999012146,8|0,0:0|0:0,0:0:0:0:
200,351,105858,1,0,0:0:0:0:
275,126,106008,1,8,0:0:0:0:
52,209,106158,1,8,0:0:0:0:
58,240,106233,1,0,0:0:0:0:
71,269,106308,6,0,B|97:303|97:303|135:329,1,66.4,8|0,0:0|0:0,0:0:0:0:
194,226,106608,6,0,B|228:200|228:200|254:162,1,66.4,8|0,0:0|0:0,0:0:0:0:
134,127,106908,6,0,B|108:93|108:93|70:67,1,66.4,8|0,0:0|0:0,0:0:0:0:
350,267,107208,6,0,B|380:281|380:281|426:197,1,124.500004749298,8|0,0:0|0:0,0:0:0:0:
231,82,107508,6,0,B|201:68|201:68|157:152,1,124.500004749298,8|0,0:0|0:0,0:0:0:0:
342,17,107808,6,0,P|414:57|443:129,1,124.500004749298,8|0,0:0|0:0,0:0:0:0:
498,189,108108,6,0,B|500:251|500:251|497:259|497:259|501:341,1,116.199996453858,8|0,0:0|0:0,0:0:0:0:
346,337,108408,5,8,0:0:0:0:
239,291,108558,1,0,0:0:0:0:
341,236,108708,2,0,B|335:204|299:187|292:190|258:170|261:124,1,116.199996453858,8|0,0:0|0:0,0:0:0:0:
207,50,109008,1,8,0:0:0:0:
64,203,109158,1,0,0:0:0:0:
261,202,109308,2,8,P|200:232|144:289,2,116.199996453858
274,319,109758,5,8,0:0:0:0:
307,359,109833,1,0,0:0:0:0:
346,348,109908,2,0,B|409:387|387:329|460:388,1,91.300002786255,8|0,0:0|0:0,0:0:0:0:
511,378,110208,1,8,0:0:0:0:
511,378,110358,1,0,0:0:0:0:
383,246,110508,6,0,B|395:220|395:220|468:165,1,83,8|0,0:0|0:0,0:0:0:0:
498,120,110808,6,0,P|454:62|404:49,1,99.5999969604493,8|0,0:0|0:0,0:0:0:0:
287,10,111108,6,0,B|293:51|293:51|283:89|283:89|290:144,1,124.500004749298,8|0,0:0|0:0,0:0:0:0:
261,221,111408,6,0,B|240:250|246:291|246:291|206:255|160:279,1,132.8,8|0,0:0|0:0,0:0:0:0:
184,356,111708,2,0,B|214:317|170:258|170:258|131:205|173:160,1,215.79999012146,8|0,0:0|0:0,0:0:0:0:
231,98,112158,1,0,0:0:0:0:
312,237,112308,1,8,0:0:0:0:
102,316,112458,1,8,0:0:0:0:
82,307,112533,1,0,0:0:0:0:
62,299,112608,1,8,0:0:0:0:
155,208,112908,5,8,0:0:0:0:
296,284,113058,1,0,0:0:0:0:
368,71,113208,1,8,0:0:0:0:
270,171,113358,1,0,0:0:0:0:
270,171,113508,5,8,0:0:0:0:
143,89,113808,1,8,0:0:0:0:
155,239,114108,1,8,0:0:0:0:
337,123,114408,5,8,0:0:0:0:
238,315,114708,1,8,0:0:0:0:
449,274,115008,1,8,0:0:0:0:
283,67,115308,6,0,B|310:11|190:-16|109:40|75:106|143:253|217:233|300:175|300:107|244:58|370:24|418:61|456:103,1,566.059977542787,8|0,0:0|0:0,0:0:0:0:
447,164,116208,2,0,B|453:213|507:312|507:312|377:202|359:354|287:363|287:363|279:324|236:301,1,502.150015324402,8|0,0:0|0:0,0:0:0:0:
90,307,117108,2,0,B|55:359|108:404|108:404|126:348|189:329,1,199.199993920899,8|0,0:0|0:0,0:0:0:0:
260,223,117558,1,8,0:0:0:0:
332,305,117708,1,8,0:0:0:0:
62,172,117858,1,8,0:0:0:0:
163,63,118008,6,0,P|168:91|175:121,1,33.1999989868164,10|0,0:0|0:0,0:0:0:0:
292,180,118308,6,0,P|298:209|304:238,1,33.1999989868164,10|0,0:0|0:0,0:0:0:0:
430,284,118608,6,0,P|435:312|442:342,1,33.1999989868164,10|0,0:0|0:0,0:0:0:0:
295,367,118908,5,8,0:0:0:0:
170,238,119058,1,0,0:0:0:0:
337,175,119208,2,8,P|409:133|441:143,2,99.5999969604493
411,230,119658,1,0,0:0:0:0:
167,143,119808,6,0,B|167:121|167:121|186:102,1,33.1999989868164,10|0,0:0|0:0,0:0:0:0:
298,53,120108,6,0,B|298:31|298:31|282:9,1,33.1999989868164,10|0,0:0|0:0,0:0:0:0:
96,317,120708,2,8,P|69:280|66:223,2,99.5999969604493
162,244,121158,1,0,0:0:0:0:
22,131,121308,1,8,0:0:0:0:
211,70,121458,1,0,0:0:0:0:
134,124,121608,6,0,P|139:152|146:182,1,33.1999989868164,10|0,0:0|0:0,0:0:0:0:
263,241,121908,6,0,P|269:270|275:299,1,33.1999989868164,10|0,0:0|0:0,0:0:0:0:
401,345,122208,6,0,P|406:373|413:403,1,33.1999989868164,10|0,0:0|0:0,0:0:0:0:
459,133,122508,2,8,P|464:79|480:22,2,99.5999969604493
401,229,122958,1,0,0:0:0:0:
401,229,123108,1,8,0:0:0:0:
212,384,123408,6,0,P|206:355|200:326,1,33.1999989868164,10|0,0:0|0:0,0:0:0:0:
74,280,123708,6,0,P|69:252|62:222,1,33.1999989868164,10|0,0:0|0:0,0:0:0:0:
234,105,124308,2,8,P|266:71|331:42,2,99.5999969604493
148,209,124758,1,0,0:0:0:0:
352,131,124908,1,8,0:0:0:0:
295,342,125058,1,0,0:0:0:0:
63,110,125208,6,0,L|101:75,1,33.1999989868164,10|0,0:0|0:0,0:0:0:0:
276,222,125508,6,0,L|238:187,1,33.1999989868164,10|0,0:0|0:0,0:0:0:0:
66,340,125808,6,0,L|104:305,1,33.1999989868164,10|0,0:0|0:0,0:0:0:0:
336,49,126108,2,8,L|258:150,2,99.5999969604493
399,160,126558,1,0,0:0:0:0:
399,160,126708,1,8,0:0:0:0:
130,357,127008,6,0,B|123:347|123:347|123:325,1,33.1999989868164,10|0,0:0|0:0,0:0:0:0:
247,265,127308,6,0,B|254:257|254:257|254:235,1,33.1999989868164,10|0,0:0|0:0,0:0:0:0:
52,26,127908,2,8,B|8:57|-13:106,2,99.5999969604493
2,208,128358,1,0,0:0:0:0:
172,290,128508,1,8,0:0:0:0:
102,135,128658,1,0,0:0:0:0:
279,78,128808,6,0,B|279:56|279:56|298:37,1,33.1999989868164,10|0,0:0|0:0,0:0:0:0:
434,156,129108,6,0,B|434:178|434:178|418:200,1,33.1999989868164,10|0,0:0|0:0,0:0:0:0:
260,261,129408,6,0,B|260:283|260:283|276:305,1,33.1999989868164,10|0,0:0|0:0,0:0:0:0:
38,343,129708,2,8,P|52:293|114:257,2,99.5999969604493
134,348,130158,1,0,0:0:0:0:
134,348,130308,1,8,0:0:0:0:
216,240,130608,6,0,L|200:199,1,33.1999989868164,10|0,0:0|0:0,0:0:0:0:
278,142,130908,6,0,L|228:136,1,33.1999989868164,10|0,0:0|0:0,0:0:0:0:
62,213,131508,6,0,L|78:172,1,33.1999989868164,10|0,0:0|0:0,0:0:0:0:
0,115,131808,6,0,L|50:109,1,33.1999989868164,10|0,0:0|0:0,0:0:0:0:
36,13,132108,6,0,L|77:44,1,33.1999989868164,10|0,0:0|0:0,0:0:0:0:
169,96,132408,5,0,0:0:0:0:
210,68,132483,1,0,0:0:0:0:
253,57,132558,1,8,0:0:0:0:
292,62,132633,1,0,0:0:0:0:
323,77,132708,1,0,0:0:0:0:
348,100,132783,1,0,0:0:0:0:
366,129,132858,1,0,0:0:0:0:
373,162,132933,1,0,0:0:0:0:
371,196,133008,1,8,0:0:0:0:
346,227,133083,1,8,0:0:0:0:
337,270,133158,1,8,0:0:0:0:
353,317,133233,1,8,0:0:0:0:
396,349,133308,5,12,0:0:0:0:
411,291,133383,1,0,0:0:0:0:
397,232,133458,1,0,0:0:0:0:
357,187,133533,1,0,0:0:0:0:
301,165,133608,1,0,0:0:0:0:
241,174,133683,1,0,0:0:0:0:
192,208,133758,1,0,0:0:0:0:
161,259,133833,1,0,0:0:0:0:
158,318,133908,6,0,L|221:293,1,49.7999984802247,8|0,0:0|0:0,0:0:0:0:
301,165,134058,2,0,L|239:117,1,49.7999984802247,8|0,0:0|0:0,0:0:0:0:
94,109,134208,2,0,L|111:34,3,49.7999984802247,8|0|0|0,0:0|0:0|0:0|0:0,0:0:0:0:
16,200,134508,2,0,L|33:275,3,49.7999984802247,8|0|0|0,0:0|0:0|0:0|0:0,0:0:0:0:
242,273,134808,5,12,0:0:0:0:
230,243,134883,1,0,0:0:0:0:
206,213,134958,1,0,0:0:0:0:
168,193,135033,1,0,0:0:0:0:
120,190,135108,1,12,0:0:0:0:
107,242,135183,1,0,0:0:0:0:
117,295,135258,1,0,0:0:0:0:
147,340,135333,1,0,0:0:0:0:
192,370,135408,1,0,0:0:0:0:
245,380,135483,1,0,0:0:0:0:
299,370,135558,1,0,0:0:0:0:
344,338,135633,1,0,0:0:0:0:
372,291,135708,6,0,P|381:259|378:224,1,53.9499975303651
246,160,135858,2,0,P|237:192|240:227,1,53.9499975303651
443,355,136008,5,12,0:0:0:0:
457,317,136083,1,0,0:0:0:0:
454,272,136158,1,0,0:0:0:0:
430,228,136233,1,0,0:0:0:0:
384,197,136308,1,0,0:0:0:0:
324,192,136383,1,0,0:0:0:0:
271,219,136458,1,0,0:0:0:0:
240,270,136533,1,0,0:0:0:0:
232,329,136608,2,0,L|175:314,1,49.7999984802247
52,223,136758,2,0,L|121:182,1,49.7999984802247
170,90,136908,5,12,0:0:0:0:
189,60,136983,1,0,0:0:0:0:
222,39,137058,1,0,0:0:0:0:
266,36,137133,1,0,0:0:0:0:
309,59,137208,1,0,0:0:0:0:
333,102,137283,1,0,0:0:0:0:
328,151,137358,1,0,0:0:0:0:
297,190,137433,1,0,0:0:0:0:
248,201,137508,5,8,0:0:0:0:
202,231,137583,1,0,0:0:0:0:
185,288,137658,1,8,0:0:0:0:
213,346,137733,1,0,0:0:0:0:
279,367,137808,6,0,P|312:355|335:332,3,49.7999984802247,12|0|0|0,0:0|0:0|0:0|0:0,0:0:0:0:
433,235,138108,2,0,P|421:202|398:179,3,49.7999984802247,12|0|0|0,0:0|0:0|0:0|0:0,0:0:0:0:
264,143,138408,2,0,P|231:155|208:178,3,49.7999984802247,12|0|0|0,0:0|0:0|0:0|0:0,0:0:0:0:
125,286,138708,1,12,0:0:0:0:
65,279,138783,1,0,0:0:0:0:
22,237,138858,1,0,0:0:0:0:
16,177,138933,1,0,0:0:0:0:
48,127,139008,1,0,0:0:0:0:
105,110,139083,1,0,0:0:0:0:
160,130,139158,1,0,0:0:0:0:
190,181,139233,1,0,0:0:0:0:
181,240,139308,5,8,0:0:0:0:
163,297,139383,1,0,0:0:0:0:
184,352,139458,1,0,0:0:0:0:
235,381,139533,1,0,0:0:0:0:
294,373,139608,1,12,0:0:0:0:
334,329,139683,1,0,0:0:0:0:
338,269,139758,1,0,0:0:0:0:
301,221,139833,1,0,0:0:0:0:
243,205,139908,1,0,0:0:0:0:
205,146,139983,1,0,0:0:0:0:
216,77,140058,1,0,0:0:0:0:
267,29,140133,1,0,0:0:0:0:
336,26,140208,6,0,P|368:40|390:69,1,49.7999984802247
388,174,140358,2,0,P|420:160|442:131,1,49.7999984802247
507,21,140508,5,12,0:0:0:0:
462,43,140583,1,0,0:0:0:0:
417,64,140658,1,0,0:0:0:0:
372,85,140733,1,0,0:0:0:0:
327,107,140808,1,0,0:0:0:0:
282,129,140883,1,0,0:0:0:0:
237,150,140958,1,0,0:0:0:0:
192,170,141033,1,0,0:0:0:0:
145,188,141108,2,0,L|75:218,3,49.7999984802247,8|0|0|0,0:0|0:0|0:0|0:0,0:0:0:0:
14,362,141408,5,12,0:0:0:0:
83,369,141483,1,0,0:0:0:0:
139,328,141558,1,0,0:0:0:0:
151,259,141633,1,0,0:0:0:0:
111,201,141708,2,0,P|87:187|46:186,3,49.7999984802247,12|0|0|0,0:0|0:0|0:0|0:0,0:0:0:0:
204,67,142008,2,0,P|227:57|278:57,3,49.7999984802247,12|0|0|0,0:0|0:0|0:0|0:0,0:0:0:0:
380,17,142308,5,12,0:0:0:0:
433,26,142383,1,0,0:0:0:0:
475,67,142458,1,0,0:0:0:0:
488,130,142533,1,0,0:0:0:0:
455,191,142608,1,0,0:0:0:0:
389,215,142683,1,0,0:0:0:0:
323,190,142758,1,0,0:0:0:0:
291,127,142833,1,0,0:0:0:0:
303,58,142908,5,8,0:0:0:0:
372,58,142983,1,0,0:0:0:0:
430,96,143058,1,0,0:0:0:0:
456,160,143133,1,0,0:0:0:0:
444,228,143208,1,12,0:0:0:0:
401,276,143283,1,0,0:0:0:0:
405,335,143358,1,0,0:0:0:0:
443,373,143433,1,0,0:0:0:0:
497,379,143508,1,0,0:0:0:0:
491,329,143583,1,0,0:0:0:0:
472,277,143658,1,0,0:0:0:0:
441,225,143733,1,0,0:0:0:0:
392,181,143808,2,0,P|373:166|321:150,3,49.7999984802247,8|0|0|0,0:0|0:0|0:0|0:0,0:0:0:0:
318,43,144108,5,12,0:0:0:0:
252,21,144183,1,0,0:0:0:0:
185,39,144258,1,0,0:0:0:0:
140,92,144333,1,0,0:0:0:0:
131,161,144408,1,0,0:0:0:0:
157,220,144483,1,0,0:0:0:0:
135,274,144558,1,0,0:0:0:0:
87,299,144633,1,0,0:0:0:0:
34,288,144708,1,8,0:0:0:0:
11,243,144783,1,0,0:0:0:0:
25,200,144858,1,0,0:0:0:0:
60,182,144933,1,0,0:0:0:0:
92,193,145008,6,0,P|98:212|77:239,3,49.7999984802247,12|0|0|0,0:0|0:0|0:0|0:0,0:0:0:0:
51,61,145308,6,0,P|31:46|7:52,3,49.7999984802247,12|0|0|0,0:0|0:0|0:0|0:0,0:0:0:0:
194,98,145608,6,0,P|213:92|240:113,3,49.7999984802247,12|0|0|0,0:0|0:0|0:0|0:0,0:0:0:0:
315,253,145908,1,12,0:0:0:0:
331,216,145983,1,0,0:0:0:0:
366,189,146058,1,0,0:0:0:0:
415,180,146133,1,0,0:0:0:0:
465,200,146208,1,0,0:0:0:0:
496,244,146283,1,0,0:0:0:0:
498,298,146358,1,0,0:0:0:0:
469,345,146433,1,0,0:0:0:0:
418,367,146508,2,0,P|389:344|355:325,3,49.7999984802247,12|0|0|0,0:0|0:0|0:0|0:0,0:0:0:0:
246,289,146808,2,0,P|260:256|284:225,1,58.0999982269288,12|0,0:0|0:0,0:0:0:0:
320,177,146958,2,0,B|308:142|308:142|309:136|309:136|296:101,1,58.0999982269288
285,41,147108,5,8,0:0:0:0:
215,54,147183,1,0,0:0:0:0:
160,98,147258,1,8,0:0:0:0:
131,162,147333,1,0,0:0:0:0:
137,232,147408,1,8,0:0:0:0:
103,178,147483,1,8,0:0:0:0:
68,124,147558,1,8,0:0:0:0:
29,73,147633,1,8,0:0:0:0:
2,15,147708,5,12,0:0:0:0:
50,27,147783,1,0,0:0:0:0:
74,71,147858,1,0,0:0:0:0:
59,118,147933,1,0,0:0:0:0:
47,166,148008,5,0,0:0:0:0:
59,214,148083,1,0,0:0:0:0:
103,238,148158,1,0,0:0:0:0:
150,223,148233,1,0,0:0:0:0:
176,184,148308,2,0,P|204:162|234:159,3,58.0999982269288,8|0|0|0,0:0|0:0|0:0|0:0,0:0:0:0:
349,49,148608,5,8,0:0:0:0:
403,29,148683,1,0,0:0:0:0:
458,45,148758,1,0,0:0:0:0:
491,92,148833,1,0,0:0:0:0:
490,150,148908,1,8,0:0:0:0:
453,195,148983,1,0,0:0:0:0:
396,206,149058,1,0,0:0:0:0:
343,181,149133,1,0,0:0:0:0:
316,129,149208,2,0,P|285:117|256:125,3,58.0999982269288,12|0|0|0,0:0|0:0|0:0|0:0,0:0:0:0:
134,148,149508,5,12,0:0:0:0:
93,151,149583,1,0,0:0:0:0:
52,174,149658,1,0,0:0:0:0:
22,217,149733,1,0,0:0:0:0:
17,274,149808,1,0,0:0:0:0:
40,327,149883,1,0,0:0:0:0:
89,357,149958,1,0,0:0:0:0:
146,361,150033,1,0,0:0:0:0:
197,333,150108,2,0,P|212:315|228:270,3,58.0999982269288
418,209,150408,5,12,0:0:0:0:
450,172,150483,1,0,0:0:0:0:
463,119,150558,1,0,0:0:0:0:
448,61,150633,1,0,0:0:0:0:
402,16,150708,1,0,0:0:0:0:
340,0,150783,1,0,0:0:0:0:
279,19,150858,1,0,0:0:0:0:
237,67,150933,1,0,0:0:0:0:
229,129,151008,1,0,0:0:0:0:
178,167,151083,1,0,0:0:0:0:
114,171,151158,1,0,0:0:0:0:
57,141,151233,1,0,0:0:0:0:
22,86,151308,5,12,0:0:0:0:
86,56,151383,1,0,0:0:0:0:
156,63,151458,1,0,0:0:0:0:
213,104,151533,1,0,0:0:0:0:
242,168,151608,1,8,0:0:0:0:
216,227,151683,1,0,0:0:0:0:
238,281,151758,1,0,0:0:0:0:
286,306,151833,1,0,0:0:0:0:
339,295,151908,1,8,0:0:0:0:
362,250,151983,1,0,0:0:0:0:
348,207,152058,1,0,0:0:0:0:
313,189,152133,1,0,0:0:0:0:
281,200,152208,6,0,P|282:236|309:253,3,58.0999982269288,12|0|0|0,0:0|0:0|0:0|0:0,0:0:0:0:
380,142,152508,6,0,P|411:159|439:144,3,58.0999982269288,12|0|0|0,0:0|0:0|0:0|0:0,0:0:0:0:
351,42,152808,6,0,P|381:23|382:-9,3,58.0999982269288,12|0|0|0,0:0|0:0|0:0|0:0,0:0:0:0:
137,98,153108,1,12,0:0:0:0:
130,46,153183,1,0,0:0:0:0:
88,13,153258,1,0,0:0:0:0:
35,17,153333,1,0,0:0:0:0:
1,56,153408,1,0,0:0:0:0:
1,108,153483,1,0,0:0:0:0:
37,145,153558,1,0,0:0:0:0:
88,151,153633,1,0,0:0:0:0:
127,115,153708,2,0,L|175:162,1,58.0999982269288,12|0,0:0|0:0,0:0:0:0:
151,299,153858,2,0,L|101:248,1,58.0999982269288,8|0,0:0|0:0,0:0:0:0:
0,330,154008,2,0,L|47:400,3,58.0999982269288,12|0|0|0,0:0|0:0|0:0|0:0,0:0:0:0:
52,258,154308,1,0,0:0:0:0:
41,188,154383,1,0,0:0:0:0:
78,128,154458,1,0,0:0:0:0:
144,105,154533,1,0,0:0:0:0:
209,128,154608,1,0,0:0:0:0:
262,173,154683,1,0,0:0:0:0:
332,174,154758,1,0,0:0:0:0:
387,130,154833,1,0,0:0:0:0:
401,61,154908,5,12,0:0:0:0:
401,61,154983,1,0,0:0:0:0:
419,51,155058,1,0,0:0:0:0:
419,51,155133,1,0,0:0:0:0:
455,31,155208,5,0,0:0:0:0:
480,49,155283,1,0,0:0:0:0:
497,82,155358,1,0,0:0:0:0:
501,125,155433,1,0,0:0:0:0:
482,170,155508,1,8,0:0:0:0:
440,203,155583,1,0,0:0:0:0:
378,210,155658,1,0,0:0:0:0:
324,174,155733,1,0,0:0:0:0:
302,106,155808,1,8,0:0:0:0:
273,44,155883,1,0,0:0:0:0:
205,25,155958,1,0,0:0:0:0:
147,63,156033,1,0,0:0:0:0:
137,132,156108,6,0,P|174:114|202:94,3,58.0999982269288,12|0|0|0,0:0|0:0|0:0|0:0,0:0:0:0:
310,212,156408,6,0,P|292:175|271:143,3,58.0999982269288,12|0|0|0,0:0|0:0|0:0|0:0,0:0:0:0:
153,261,156708,1,12,0:0:0:0:
158,307,156783,1,0,0:0:0:0:
134,346,156858,1,0,0:0:0:0:
91,364,156933,1,0,0:0:0:0:
45,352,157008,1,8,0:0:0:0:
15,316,157083,1,0,0:0:0:0:
14,269,157158,1,0,0:0:0:0:
41,231,157233,1,0,0:0:0:0:
84,213,157308,1,0,0:0:0:0:
133,196,157383,1,0,0:0:0:0:
166,148,157458,1,8,0:0:0:0:
165,84,157533,1,0,0:0:0:0:
118,32,157608,5,12,0:0:0:0:
103,88,157683,1,0,0:0:0:0:
122,142,157758,1,0,0:0:0:0:
168,176,157833,1,0,0:0:0:0:
226,177,157908,2,0,P|256:160|281:128,3,58.0999982269288
386,60,158208,2,0,P|416:77|441:109,3,58.0999982269288
504,248,158508,5,12,0:0:0:0:
512,285,158583,1,0,0:0:0:0:
502,326,158658,1,0,0:0:0:0:
472,363,158733,1,0,0:0:0:0:
422,382,158808,1,8,0:0:0:0:
370,371,158883,1,0,0:0:0:0:
330,335,158958,1,0,0:0:0:0:
318,282,159033,1,0,0:0:0:0:
326,228,159108,2,0,P|369:227|400:239,3,58.0999982269288,8|0|0|0,0:0|0:0|0:0|0:0,0:0:0:0:
423,53,159408,5,12,0:0:0:0:
360,66,159483,1,0,0:0:0:0:
296,73,159558,1,0,0:0:0:0:
232,72,159633,1,0,0:0:0:0:
168,64,159708,2,0,P|132:56|74:29,3,58.0999982269288,8|0|0|0,0:0|0:0|0:0|0:0,0:0:0:0:
32,115,160008,6,0,P|42:163|59:198,1,58.0999982269288,8|0,0:0|0:0,0:0:0:0:
155,186,160158,2,0,P|165:234|181:268,1,58.0999982269288
292,384,160308,1,12,0:0:0:0:
364,374,160383,1,0,0:0:0:0:
416,322,160458,1,0,0:0:0:0:
432,251,160533,1,0,0:0:0:0:
402,185,160608,1,12,0:0:0:0:
340,146,160683,1,0,0:0:0:0:
268,150,160758,1,0,0:0:0:0:
210,194,160833,1,0,0:0:0:0:
188,263,160908,5,12,0:0:0:0:
148,316,160983,1,0,0:0:0:0:
94,341,161058,1,0,0:0:0:0:
42,337,161133,1,0,0:0:0:0:
0,317,161208,1,12,0:0:0:0:
