osu file format v14

[General]
AudioFilename: audio.mp3
AudioLeadIn: 0
PreviewTime: 75473
Countdown: 0
SampleSet: Normal
StackLeniency: 0.4
Mode: 0
LetterboxInBreaks: 0
WidescreenStoryboard: 0

[Editor]
Bookmarks: 78,710,10815,20920,31025,41131,51236,61341,76499,86604,94183,104289,116920,127025,142183,152289,159868,169973,180078,190183,200289,210394,220499,230604,240710,250815,260920,273552,283657,293762,301341,302604
DistanceSpacing: 0.2
BeatDivisor: 4
GridSize: 16
TimelineZoom: 3.099999

[Metadata]
Title:Tsuioku no Kuroki Makenshi
TitleUnicode:追憶の黒き魔剣士
Artist:Dragon Guardian
ArtistUnicode:Dragon Guardian
Creator:lit120
Version:Fate
Source:
Tags:鈴木このみ suzuki konomi deathstream symphonic power rsi metal j-rock rock jrock japanese female vocal 勇者アーサー ドラゴンガーディアン the best of saga arthur brave -Hakurei-
BeatmapID:3792984
BeatmapSetID:1846448

[Difficulty]
HPDrainRate:5.5
CircleSize:4.5
OverallDifficulty:9.5
ApproachRate:9.8
SliderMultiplier:2
SliderTickRate:1

[Events]
//Background and Video events
0,0,"tsuioku.jpg",0,0
//Break Periods
//Storyboard Layer 0 (Background)
//Storyboard Layer 1 (Fail)
//Storyboard Layer 2 (Pass)
//Storyboard Layer 3 (Foreground)
//Storyboard Layer 4 (Overlay)
//Storyboard Sound Samples

[TimingPoints]
-553,315.789473684211,4,2,1,50,1,0
78,-200,4,2,1,50,0,0
315,-100,4,2,1,5,0,0
394,-133.333333333333,4,2,1,50,0,0
631,-100,4,2,1,5,0,0
710,-125,4,1,1,65,0,0
1894,-125,4,2,1,6,0,0
1973,-125,4,1,1,65,0,0
3157,-125,4,2,1,5,0,0
3236,-100,4,1,1,65,0,0
5683,-100,4,2,1,5,0,0
5762,-133.333333333333,4,1,1,65,0,0
9552,-100,4,1,1,65,0,0
10815,-71.4285714285714,4,3,1,70,0,1
18394,-71.4285714285714,4,3,1,70,0,1
20920,-83.3333333333333,4,1,1,70,0,0
21631,-83.3333333333333,4,2,1,5,0,0
21710,-83.3333333333333,4,1,1,70,0,0
21947,-83.3333333333333,4,2,1,5,0,0
22025,-83.3333333333333,4,1,1,70,0,0
22578,-83.3333333333333,4,2,1,5,0,0
22657,-83.3333333333333,4,1,1,70,0,0
23368,-83.3333333333333,4,2,1,5,0,0
23447,-83.3333333333333,4,1,1,70,0,0
23525,-83.3333333333333,4,2,1,5,0,0
23604,-83.3333333333333,4,1,1,70,0,0
24157,-83.3333333333333,4,2,1,5,0,0
24236,-83.3333333333333,4,1,1,70,0,0
24473,-83.3333333333333,4,2,1,5,0,0
24552,-83.3333333333333,4,1,1,70,0,0
25657,-133.333333333333,4,1,1,70,0,0
25894,-83.3333333333333,4,2,1,5,0,0
25973,-200,4,1,1,70,0,0
26525,-200,4,2,1,5,0,0
26604,-133.333333333333,4,2,1,50,0,0
27157,-200,4,2,1,5,0,0
27236,-100,4,1,1,70,0,0
27315,-100,4,2,1,5,0,0
27710,-100,4,1,1,70,0,0
27789,-100,4,2,1,5,0,0
28183,-100,4,1,1,70,0,0
28262,-100,4,2,1,5,0,0
28499,-71.4285714285714,4,1,1,60,0,0
29762,-71.4285714285714,4,1,1,70,0,0
30947,-71.4285714285714,4,2,1,5,0,0
31025,-100,4,1,1,50,0,0
33315,-100,4,2,1,5,0,0
33394,-100,4,1,1,50,0,0
36157,-100,4,2,1,5,0,0
36236,-100,4,1,1,50,0,0
37262,-100,4,2,1,5,0,0
37341,-100,4,1,1,50,0,0
37420,-100,4,2,1,5,0,0
37499,-100,4,1,1,50,0,0
38525,-100,4,2,1,5,0,0
38604,-100,4,1,1,50,0,0
39157,-100,4,2,1,5,0,0
39236,-100,4,1,1,50,0,0
39315,-100,4,2,1,5,0,0
39394,-100,4,1,1,50,0,0
39473,-100,4,2,1,5,0,0
39552,-100,4,1,1,50,0,0
39789,-100,4,2,1,5,0,0
39868,-71.4285714285714,4,1,1,50,0,0
39947,-71.4285714285714,4,2,1,5,0,0
40025,-55.5555555555556,4,1,1,50,0,0
40499,-71.4285714285714,4,1,1,50,0,0
40578,-55.5555555555556,4,2,1,5,0,0
40657,-55.5555555555556,4,1,1,50,0,0
41131,-83.3333333333333,4,3,1,60,0,0
48710,-83.3333333333333,4,1,1,70,0,0
50368,-83.3333333333333,4,2,1,5,0,0
50447,-83.3333333333333,4,1,1,70,0,0
51236,-83.3333333333333,4,1,1,60,0,0
51789,-83.3333333333333,4,2,1,5,0,0
51868,-83.3333333333333,4,1,1,60,0,0
51947,-83.3333333333333,4,2,1,5,0,0
52025,-83.3333333333333,4,1,1,60,0,0
59525,-83.3333333333333,4,2,1,5,0,0
59604,-83.3333333333333,4,1,1,60,0,0
60473,-83.3333333333333,4,2,1,5,0,0
60552,-83.3333333333333,4,1,1,60,0,0
60631,-83.3333333333333,4,2,1,5,0,0
60710,-83.3333333333333,4,1,1,60,0,0
62052,-83.3333333333333,4,2,1,5,0,0
62131,-83.3333333333333,4,1,1,60,0,0
65525,-83.3333333333333,4,2,1,5,0,0
65604,-83.3333333333333,4,1,1,60,0,0
65683,-83.3333333333333,4,2,1,5,0,0
65762,-83.3333333333333,4,1,1,60,0,0
66078,-55.5555555555556,4,1,1,60,0,0
66315,-83.3333333333333,4,2,1,5,0,0
66394,-133.333333333333,4,1,1,50,0,0
66947,-133.333333333333,4,2,1,5,0,0
67025,-133.333333333333,4,1,1,50,0,0
67578,-133.333333333333,4,2,1,5,0,0
67657,-133.333333333333,4,1,1,50,0,0
67815,-133.333333333333,4,2,1,5,0,0
67973,-133.333333333333,4,1,1,50,0,0
68131,-133.333333333333,4,2,1,5,0,0
68289,-133.333333333333,4,1,1,50,0,0
68841,-133.333333333333,4,2,1,5,0,0
68920,-100,4,1,1,50,0,0
69473,-100,4,2,1,5,0,0
69552,-100,4,1,1,50,0,0
70104,-100,4,2,1,5,0,0
70183,-133.333333333333,4,1,1,50,0,0
70341,-133.333333333333,4,2,1,5,0,0
70499,-133.333333333333,4,1,1,50,0,0
70657,-100,4,2,1,5,0,0
70815,-100,4,1,1,50,0,0
71368,-100,4,2,1,5,0,0
71446,-133.333333333333,4,1,1,30,0,0
72078,-133.333333333333,4,1,1,40,0,0
72710,-133.333333333333,4,1,1,50,0,0
73341,-133.333333333333,4,1,1,60,0,0
73973,-83.3333333333333,4,1,1,70,0,0
75394,-83.3333333333333,4,1,1,60,0,0
76499,-71.4285714285714,4,3,1,75,0,1
94183,-55.5555555555556,4,1,1,50,0,0
94262,-55.5555555555556,4,2,1,5,0,0
94341,-55.5555555555556,4,1,1,50,0,0
94420,-55.5555555555556,4,2,1,5,0,0
94499,-55.5555555555556,4,1,1,50,0,0
94736,-55.5555555555556,4,2,1,5,0,0
94815,-55.5555555555556,4,1,1,50,0,0
94894,-55.5555555555556,4,2,1,5,0,0
94973,-125,4,1,1,50,0,0
96631,-55.5555555555556,4,2,1,5,0,0
96710,-62.5,4,1,1,50,0,0
96789,-62.5,4,2,1,5,0,0
96868,-62.5,4,1,1,50,0,0
96947,-62.5,4,2,1,5,0,0
97025,-62.5,4,1,1,50,0,0
97262,-62.5,4,2,1,5,0,0
97341,-62.5,4,1,1,50,0,0
97420,-62.5,4,2,1,5,0,0
97499,-166.666666666667,4,1,1,50,0,0
99157,-166.666666666667,4,2,1,5,0,0
99236,-166.666666666667,4,1,1,50,0,0
99789,-166.666666666667,4,2,1,5,0,0
99868,-166.666666666667,4,1,1,50,0,0
100499,-125,4,1,1,50,0,0
100736,-125,4,2,1,5,0,0
100815,-125,4,1,1,50,0,0
101052,-125,4,2,1,5,0,0
101131,-125,4,1,1,50,0,0
101762,-100,4,1,1,50,0,0
102315,-100,4,2,1,5,0,0
102394,-100,4,1,1,50,0,0
103025,-83.3333333333333,4,1,1,60,0,0
104288,-55.5555555555556,4,1,1,50,0,0
104368,-55.5555555555556,4,2,1,5,0,0
104447,-55.5555555555556,4,1,1,50,0,0
104525,-55.5555555555556,4,2,1,5,0,0
104604,-55.5555555555556,4,1,1,50,0,0
104841,-55.5555555555556,4,2,1,5,0,0
104920,-55.5555555555556,4,1,1,50,0,0
104999,-55.5555555555556,4,2,1,5,0,0
105078,-125,4,1,1,50,0,0
106736,-125,4,2,1,5,0,0
106815,-62.5,4,1,1,50,0,0
106894,-62.5,4,2,1,5,0,0
106973,-62.5,4,1,1,50,0,0
107052,-62.5,4,2,1,5,0,0
107131,-62.5,4,1,1,50,0,0
107368,-62.5,4,2,1,5,0,0
107447,-62.5,4,1,1,50,0,0
107525,-62.5,4,2,1,5,0,0
107604,-166.666666666667,4,1,1,50,0,0
109262,-166.666666666667,4,2,1,5,0,0
109341,-125,4,1,1,50,0,0
109894,-125,4,2,1,5,0,0
109973,-125,4,1,1,50,0,0
110604,-100,4,1,1,50,0,0
110841,-100,4,2,1,5,0,0
110920,-100,4,1,1,50,0,0
111157,-100,4,2,1,5,0,0
111236,-100,4,1,1,50,0,0
111868,-83.3333333333333,4,1,1,50,0,0
112420,-83.3333333333333,4,2,1,5,0,0
112499,-83.3333333333333,4,1,1,50,0,0
113131,-83.3333333333333,4,1,1,60,0,0
117236,-153.846153846154,4,1,1,60,0,0
119368,-83.3333333333333,4,2,1,5,0,0
119447,-83.3333333333333,4,1,1,60,0,0
121894,-83.3333333333333,4,2,1,5,0,0
121973,-83.3333333333333,4,1,1,60,0,0
122052,-83.3333333333333,4,2,1,5,0,0
122131,-83.3333333333333,4,1,1,60,0,0
125210,-83.3333333333333,4,2,1,5,0,0
125289,-83.3333333333333,4,1,1,60,0,0
126157,-83.3333333333333,4,2,1,5,0,0
126236,-83.3333333333333,4,1,1,60,0,0
126315,-83.3333333333333,4,2,1,5,0,0
126394,-83.3333333333333,4,1,1,60,0,0
127736,-83.3333333333333,4,2,1,5,0,0
127815,-83.3333333333333,4,1,1,60,0,0
131210,-83.3333333333333,4,2,1,5,0,0
131289,-83.3333333333333,4,1,1,60,0,0
131368,-83.3333333333333,4,2,1,5,0,0
131447,-83.3333333333333,4,1,1,60,0,0
131762,-55.5555555555556,4,1,1,60,0,0
131999,-83.3333333333333,4,2,1,5,0,0
132078,-133.333333333333,4,1,1,50,0,0
132631,-133.333333333333,4,2,1,5,0,0
132710,-133.333333333333,4,1,1,50,0,0
133262,-133.333333333333,4,2,1,5,0,0
133341,-133.333333333333,4,1,1,50,0,0
133499,-133.333333333333,4,2,1,5,0,0
133657,-133.333333333333,4,1,1,50,0,0
133815,-133.333333333333,4,2,1,5,0,0
133973,-133.333333333333,4,1,1,50,0,0
134525,-133.333333333333,4,2,1,5,0,0
134604,-100,4,1,1,50,0,0
135157,-100,4,2,1,5,0,0
135236,-100,4,1,1,50,0,0
135789,-100,4,2,1,5,0,0
135868,-133.333333333333,4,1,1,50,0,0
136025,-133.333333333333,4,2,1,5,0,0
136183,-133.333333333333,4,1,1,50,0,0
136341,-133.333333333333,4,2,1,5,0,0
136499,-100,4,1,1,50,0,0
137052,-100,4,2,1,5,0,0
137131,-133.333333333333,4,1,1,30,0,0
137762,-133.333333333333,4,1,1,40,0,0
138394,-133.333333333333,4,1,1,50,0,0
139025,-133.333333333333,4,1,1,60,0,0
139657,-83.3333333333333,4,1,1,70,0,0
142183,-71.4285714285714,4,3,1,75,0,1
159868,-83.3333333333333,4,1,1,60,0,0
161368,-83.3333333333333,4,2,1,5,0,0
161447,-83.3333333333333,4,1,1,60,0,0
162315,-83.3333333333333,4,2,1,5,0,0
162394,-83.3333333333333,4,1,1,60,0,0
166420,-83.3333333333333,4,2,1,5,0,0
166499,-83.3333333333333,4,1,1,60,0,0
167368,-83.3333333333333,4,2,1,5,0,0
167447,-83.3333333333333,4,1,1,60,0,0
168789,-83.3333333333333,4,2,1,5,0,0
168868,-55.5555555555556,4,1,1,60,0,0
169341,-83.3333333333333,4,1,1,60,0,0
169420,-83.3333333333333,4,2,1,5,0,0
169499,-83.3333333333333,4,1,1,60,0,0
169973,-71.4285714285714,4,1,1,70,0,0
170052,-71.4285714285714,4,2,1,5,0,0
170131,-71.4285714285714,4,1,1,70,0,0
171315,-71.4285714285714,4,2,1,5,0,0
171394,-71.4285714285714,4,1,1,70,0,0
172420,-71.4285714285714,4,2,1,5,0,0
172499,-71.4285714285714,4,1,1,70,0,0
172578,-71.4285714285714,4,2,1,5,0,0
172657,-71.4285714285714,4,1,1,70,0,0
173289,-71.4285714285714,4,2,1,5,0,0
173368,-71.4285714285714,4,1,1,70,0,0
173525,-71.4285714285714,4,2,1,5,0,0
173604,-71.4285714285714,4,1,1,70,0,0
173683,-71.4285714285714,4,2,1,5,0,0
173762,-71.4285714285714,4,1,1,70,0,0
173841,-71.4285714285714,4,2,1,5,0,0
173920,-71.4285714285714,4,1,1,70,0,0
174394,-71.4285714285714,4,1,1,60,0,0
175025,-133.333333333333,4,1,1,60,0,0
176210,-83.3333333333333,4,2,1,5,0,0
176289,-133.333333333333,4,1,1,60,0,0
177473,-133.333333333333,4,2,1,5,0,0
177552,-133.333333333333,4,1,1,60,0,0
178973,-133.333333333333,4,2,1,5,0,0
180078,-166.666666666667,4,2,1,40,0,0
185131,-71.4285714285714,4,1,1,60,0,0
185210,-83.3333333333333,4,2,1,5,0,0
185289,-71.4285714285714,4,1,1,60,0,0
185683,-71.4285714285714,4,2,1,5,0,0
185762,-71.4285714285714,4,1,1,60,0,0
186473,-71.4285714285714,4,2,1,5,0,0
186552,-71.4285714285714,4,1,1,60,0,0
186947,-71.4285714285714,4,2,1,5,0,0
187025,-71.4285714285714,4,1,1,60,0,0
187736,-71.4285714285714,4,2,1,5,0,0
187815,-71.4285714285714,4,1,1,60,0,0
188210,-71.4285714285714,4,2,1,5,0,0
188289,-71.4285714285714,4,1,1,60,0,0
188368,-71.4285714285714,4,2,1,5,0,0
188447,-71.4285714285714,4,1,1,60,0,0
188841,-71.4285714285714,4,2,1,5,0,0
188920,-71.4285714285714,4,1,1,60,0,0
188999,-100,4,1,1,62,0,0
189078,-100,4,1,1,64,0,0
189157,-100,4,1,1,66,0,0
189236,-100,4,1,1,68,0,0
189315,-76.9230769230769,4,1,1,70,0,0
189394,-62.5,4,1,1,72,0,0
189473,-62.5,4,1,1,76,0,0
189552,-55.5555555555556,4,1,1,80,0,0
189789,-62.5,4,2,1,5,0,0
189867,-333.333333333333,4,2,1,60,0,0
190104,-125,4,2,1,5,0,0
190183,-83.3333333333333,4,1,1,60,0,0
199736,-83.3333333333333,4,2,1,5,0,0
199815,-83.3333333333333,4,1,1,60,0,0
199894,-83.3333333333333,4,2,1,5,0,0
199973,-83.3333333333333,4,1,1,60,0,0
200052,-83.3333333333333,4,2,1,5,0,0
200131,-83.3333333333333,4,1,1,60,0,0
200210,-83.3333333333333,4,2,1,5,0,0
200289,-83.3333333333333,4,1,1,60,0,0
210157,-83.3333333333333,4,2,1,5,0,0
210236,-83.3333333333333,4,1,1,60,0,0
210315,-83.3333333333333,4,2,1,5,0,0
210394,-71.4285714285714,4,1,1,70,0,0
210710,-71.4285714285714,4,1,2,70,0,0
213947,-71.4285714285714,4,2,2,5,0,0
214025,-71.4285714285714,4,1,2,70,0,0
214104,-71.4285714285714,4,2,2,5,0,0
214183,-71.4285714285714,4,1,2,70,0,0
214420,-71.4285714285714,4,2,2,5,0,0
214499,-71.4285714285714,4,1,2,70,0,0
218999,-71.4285714285714,4,2,2,5,0,0
219078,-71.4285714285714,4,1,2,70,0,0
219157,-71.4285714285714,4,2,2,5,0,0
219236,-71.4285714285714,4,1,2,70,0,0
219473,-71.4285714285714,4,2,2,5,0,0
219552,-71.4285714285714,4,1,2,70,0,0
219947,-71.4285714285714,4,2,1,5,0,0
220025,-71.4285714285714,4,1,1,70,0,0
220499,-83.3333333333333,4,1,1,60,0,0
225552,-125,4,1,1,60,0,0
226736,-83.3333333333333,4,2,1,5,0,0
226815,-125,4,1,1,60,0,0
227999,-125,4,2,1,5,0,0
228078,-71.4285714285714,4,1,1,60,0,0
230683,-71.4285714285714,4,2,1,5,0,0
230762,-71.4285714285714,4,1,1,60,0,0
230841,-71.4285714285714,4,2,1,5,0,0
231868,-71.4285714285714,4,1,1,60,0,0
231947,-71.4285714285714,4,2,1,5,0,0
232025,-71.4285714285714,4,1,1,60,0,0
232104,-71.4285714285714,4,2,1,5,0,0
232499,-71.4285714285714,4,1,1,60,0,0
232578,-71.4285714285714,4,2,1,5,0,0
232657,-71.4285714285714,4,1,1,60,0,0
232736,-71.4285714285714,4,2,1,5,0,0
233131,-71.4285714285714,4,1,1,60,0,0
234394,-83.3333333333333,4,1,1,70,0,0
235341,-55.5555555555556,4,1,1,70,0,0
235578,-83.3333333333333,4,1,1,5,0,0
235657,-71.4285714285714,4,3,1,75,0,1
250815,-62.5,4,3,1,80,0,1
260920,-133.333333333333,4,1,1,70,0,0
271341,-100,4,1,1,70,0,0
271657,-80,4,1,1,70,0,0
271973,-66.6666666666667,4,1,1,70,0,0
273552,-62.5,4,3,1,80,0,1
293762,-71.4285714285714,4,1,1,80,0,0
294473,-71.4285714285714,4,2,1,5,0,0
294552,-71.4285714285714,4,1,1,80,0,0
294789,-71.4285714285714,4,2,1,5,0,0
294868,-71.4285714285714,4,1,1,80,0,0
295420,-71.4285714285714,4,2,1,5,0,0
295499,-71.4285714285714,4,1,1,80,0,0
296210,-71.4285714285714,4,2,1,5,0,0
296289,-71.4285714285714,4,1,1,80,0,0
296368,-71.4285714285714,4,2,1,5,0,0
296447,-71.4285714285714,4,1,1,80,0,0
296999,-71.4285714285714,4,2,1,5,0,0
297078,-71.4285714285714,4,1,1,80,0,0
297315,-71.4285714285714,4,2,1,5,0,0
297394,-71.4285714285714,4,1,1,80,0,0
298499,-100,4,1,1,80,0,0
298736,-71.4285714285714,4,2,1,5,0,0
298815,-133.333333333333,4,1,1,80,0,0
299368,-71.4285714285714,4,2,1,5,0,0
299447,-100,4,1,1,60,0,0
299999,-100,4,2,1,5,0,0
300078,-83.3333333333333,4,1,1,80,0,0
300157,-83.3333333333333,4,2,1,5,0,0
300552,-83.3333333333333,4,1,1,80,0,0
300631,-83.3333333333333,4,2,1,5,0,0
301025,-83.3333333333333,4,1,1,80,0,0
301104,-83.3333333333333,4,2,1,5,0,0
301341,-100,4,1,1,80,0,0
302604,-83.3333333333333,4,2,1,5,0,0

[Colours]
Combo1 : 128,134,191
Combo2 : 118,197,235
Combo3 : 205,181,232
Combo4 : 145,172,166

[HitObjects]
294,283,78,6,0,P|308:262|305:291,1,75,2|0,0:0|0:0,0:0:0:0:
236,337,394,6,0,P|175:327|108:321,1,112.500004291535,2|0,0:0|0:0,0:0:0:0:
57,384,710,6,0,B|158:224|-48:254|53:94|53:94|42:175|99:228|186:243|239:168,1,600,14|0,3:1|0:0,0:0:0:0:
295,56,1973,6,0,B|235:69|235:69|213:98|213:98|153:113,1,160,14|0,3:1|0:0,0:0:0:0:
363,160,2447,2,0,P|410:100|401:-9,1,160,14|0,3:1|0:0,0:0:0:0:
239,168,2920,2,0,P|253:264|258:311,1,120,14|0,3:1|0:0,0:0:0:0:
263,298,3236,5,2,3:1:0:0:
271,310,3552,1,0,3:2:0:0:
279,322,3868,1,0,3:2:0:0:
287,334,4183,1,2,3:1:0:0:
295,346,4499,5,10,0:0:0:0:
340,364,4578,1,8,0:0:0:0:
388,354,4657,1,8,0:0:0:0:
422,318,4736,1,8,0:0:0:0:
429,269,4815,2,8,P|421:231|417:201,1,50
284,101,4973,5,8,0:0:0:0:
235,91,5052,1,8,0:0:0:0:
191,113,5131,1,10,0:0:0:0:
170,157,5210,1,8,0:0:0:0:
148,201,5289,1,8,0:0:0:0:
104,223,5368,1,8,0:0:0:0:
56,213,5447,2,0,P|8:133|64:63,1,150,10|0,0:0|0:0,0:0:0:0:
106,39,5762,6,0,B|164:51|164:51|177:79|177:79|235:91,1,150.000005722046,6|0,3:1|0:0,0:0:0:0:
296,169,6236,1,2,3:1:0:0:
351,3,6394,2,0,P|336:69|330:110,1,75.0000028610231,12|0,0:0|0:0,0:0:0:0:
378,227,6710,2,0,P|387:190|395:154,1,75.0000028610231,2|0,3:1|0:0,0:0:0:0:
242,315,7025,5,6,3:1:0:0:
242,315,7183,2,0,P|289:259|362:253,1,150.000005722046,0|0,3:1|3:1,0:0:0:0:
406,356,7657,2,0,P|370:349|333:344,1,75.0000028610231,14|0,0:0|0:0,0:0:0:0:
203,221,7973,2,0,P|239:228|276:233,1,75.0000028610231,2|0,0:0|0:0,0:0:0:0:
407,75,8289,5,6,3:1:0:0:
314,128,8447,1,2,0:0:0:0:
261,35,8604,1,2,0:0:0:0:
75,221,8762,5,2,3:1:0:0:
128,128,8920,1,14,0:0:0:0:
221,181,9078,1,2,0:0:0:0:
99,24,9236,5,2,3:1:0:0:
128,128,9394,1,2,0:0:0:0:
104,325,9552,5,10,0:0:0:0:
145,351,9631,1,8,0:0:0:0:
194,352,9710,1,8,0:0:0:0:
236,325,9789,1,8,0:0:0:0:
257,281,9868,1,8,0:3:0:0:
278,236,9947,1,8,0:3:0:0:
320,210,10025,2,8,P|363:217|401:222,1,50
484,103,10183,5,10,0:0:0:0:
478,83,10262,1,8,0:0:0:0:
472,63,10341,1,4,0:3:0:0:
466,43,10420,1,4,0:3:0:0:
461,23,10499,5,10,0:0:0:0:
407,49,10578,1,8,0:0:0:0:
353,76,10657,1,8,0:0:0:0:
299,103,10736,1,8,0:0:0:0:
245,130,10815,5,6,3:1:0:0:
220,96,10894,1,0,3:1:0:0:
184,75,10973,1,8,3:1:0:0:
142,72,11052,1,0,3:1:0:0:
103,87,11131,1,0,3:1:0:0:
74,117,11210,1,0,3:1:0:0:
60,156,11289,1,8,3:1:0:0:
65,198,11368,1,0,3:1:0:0:
86,234,11447,5,2,3:1:0:0:
133,194,11525,1,0,3:1:0:0:
195,189,11604,1,8,3:1:0:0:
247,222,11683,1,0,3:1:0:0:
270,279,11762,1,0,3:1:0:0:
255,339,11841,1,0,3:1:0:0:
208,379,11920,1,8,3:1:0:0:
146,383,11999,1,0,3:1:0:0:
94,350,12078,5,2,3:1:0:0:
135,346,12157,1,0,3:1:0:0:
177,341,12236,1,8,3:1:0:0:
219,337,12315,1,0,3:1:0:0:
261,332,12394,1,0,3:1:0:0:
302,327,12473,1,0,3:1:0:0:
344,323,12552,1,8,3:1:0:0:
386,318,12631,1,0,3:1:0:0:
428,314,12710,5,2,3:1:0:0:
458,260,12789,1,0,3:1:0:0:
445,200,12868,1,8,3:1:0:0:
395,164,12947,1,0,3:1:0:0:
333,171,13025,1,0,3:1:0:0:
271,177,13104,1,0,3:1:0:0:
221,141,13183,1,8,3:1:0:0:
208,81,13262,1,0,3:1:0:0:
238,27,13341,5,2,3:1:0:0:
267,81,13420,1,0,3:1:0:0:
262,143,13499,1,8,3:1:0:0:
223,191,13578,1,0,3:1:0:0:
164,210,13657,1,0,3:1:0:0:
104,192,13736,1,0,3:1:0:0:
64,145,13815,5,10,3:1:0:0:
34,183,13894,1,0,3:1:0:0:
20,229,13973,1,0,3:1:0:0:
26,278,14052,1,0,3:1:0:0:
50,320,14131,1,8,3:1:0:0:
88,350,14210,1,0,3:1:0:0:
135,363,14289,5,2,3:1:0:0:
156,335,14368,1,0,3:1:0:0:
188,321,14447,1,8,3:1:0:0:
222,324,14525,1,0,3:1:0:0:
253,339,14604,6,0,L|322:354,3,69.9999978637696,2|0|8|0,3:1|3:1|3:1|3:0,0:0:0:0:
218,244,14920,2,0,L|149:229,3,69.9999978637696,2|0|8|0,3:1|3:0|3:1|3:0,0:0:0:0:
302,169,15236,6,0,B|336:166|336:166|371:195,1,69.9999978637696,2|0,3:1|3:0,0:0:0:0:
446,320,15394,2,0,B|427:291|427:291|434:247,1,69.9999978637696,10|0,3:1|3:0,0:0:0:0:
505,120,15552,2,0,B|489:150|489:150|447:166,3,69.9999978637696,2|0|8|0,3:1|3:0|3:1|3:0,0:0:0:0:
457,33,15868,5,6,3:1:0:0:
391,12,15947,1,0,3:1:0:0:
325,34,16025,1,8,3:1:0:0:
286,90,16104,1,0,3:1:0:0:
246,146,16183,1,0,3:1:0:0:
180,168,16262,1,0,3:1:0:0:
115,147,16341,5,10,3:1:0:0:
171,124,16420,1,0,3:1:0:0:
224,153,16499,1,0,3:1:0:0:
239,212,16578,1,0,3:1:0:0:
253,271,16657,1,8,3:1:0:0:
306,300,16736,1,0,3:1:0:0:
364,278,16815,2,0,P|395:269|450:269,3,69.9999978637696,2|0|8|0,3:1|3:1|3:1|3:1,0:0:0:0:
295,201,17131,5,2,3:1:0:0:
246,210,17210,1,0,3:1:0:0:
198,220,17289,1,8,3:1:0:0:
150,229,17368,1,0,3:1:0:0:
102,239,17447,1,0,3:1:0:0:
54,248,17525,1,0,3:1:0:0:
6,257,17604,5,10,3:1:0:0:
38,211,17683,1,0,3:1:0:0:
48,156,17762,1,0,3:1:0:0:
18,108,17841,1,0,3:1:0:0:
3,53,17920,1,8,3:1:0:0:
40,11,17999,1,0,3:1:0:0:
95,3,18078,2,0,P|160:10|198:13,3,69.9999978637696,2|0|8|0,3:1|3:0|3:1|3:1,0:0:0:0:
154,129,18394,5,10,0:1:0:0:
191,186,18473,1,8,0:1:0:0:
190,255,18552,1,10,0:1:0:0:
150,311,18631,1,8,0:1:0:0:
85,334,18710,2,0,P|49:327|6:322,1,69.9999978637696,2|0,3:1|3:1,0:1:0:0:
154,129,18868,5,10,0:1:0:0:
220,107,18947,1,8,0:1:0:0:
284,131,19025,1,10,0:1:0:0:
317,192,19104,1,8,0:1:0:0:
317,262,19183,2,0,P|324:322|333:365,1,69.9999978637696,2|0,3:1|3:1,0:1:0:0:
463,151,19341,5,10,0:1:0:0:
494,88,19420,1,8,0:1:0:0:
436,48,19499,2,8,P|375:60|324:70,1,69.9999978637696,8|8,0:1|0:1,0:1:0:0:
281,207,19657,6,0,P|220:195|169:185,1,69.9999978637696,2|0,3:1|3:1,0:1:0:0:
171,49,19815,1,8,0:1:0:0:
113,8,19894,1,8,0:1:0:0:
50,17,19973,1,8,0:3:0:0:
13,59,20052,1,8,0:3:0:0:
5,107,20131,1,8,0:3:0:0:
20,145,20210,1,8,0:3:0:0:
45,169,20289,6,0,L|56:251,3,69.9999978637696,8|8|8|8,0:3|0:3|0:3|0:3,0:0:0:0:
123,191,20604,2,0,L|134:273,3,69.9999978637696,4|4|4|4,0:3|0:3|0:3|0:3,0:0:0:0:
201,213,20920,6,0,L|217:331,1,119.999996337891,10|0,0:0|3:1,0:0:0:0:
306,375,21157,1,0,3:1:0:0:
337,380,21236,2,0,P|392:378|422:317,1,119.999996337891,8|2,0:0|3:1,0:0:0:0:
511,83,21552,2,0,L|493:155,1,59.9999981689454,8|0,0:0|0:0,0:0:0:0:
474,236,21710,1,0,3:1:0:0:
322,27,21868,2,0,L|339:99,1,59.9999981689454,10|0,0:0|0:0,0:0:0:0:
359,180,22025,1,0,3:1:0:0:
204,326,22183,6,0,P|146:328|106:285,1,119.999996337891,10|0,0:0|3:1,0:0:0:0:
185,204,22420,1,0,3:1:0:0:
185,204,22499,2,0,P|178:233|173:263,1,59.9999981689454,8|0,0:0|0:0,0:0:0:0:
92,128,22657,1,0,3:1:0:0:
92,128,22736,1,0,3:1:0:0:
92,128,22815,2,0,P|105:66|117:3,1,119.999996337891,10|0,0:0|3:1,0:0:0:0:
1,221,23131,1,10,0:0:0:0:
1,221,23210,2,0,P|14:283|26:346,1,119.999996337891,0|0,3:1|0:0,0:0:0:0:
117,370,23447,6,0,P|110:341|102:302,1,59.9999981689454,10|0,0:0|0:0,0:0:0:0:
185,204,23604,1,0,3:1:0:0:
185,204,23683,1,0,3:1:0:0:
185,204,23762,2,0,P|264:220|355:234,1,119.999996337891,8|2,0:0|3:1,0:0:0:0:
500,16,24078,2,0,L|415:36,1,59.9999981689454,8|0,0:0|0:0,0:0:0:0:
320,58,24236,1,0,3:1:0:0:
401,319,24394,2,0,L|421:234,1,59.9999981689454,10|0,0:0|0:0,0:0:0:0:
443,139,24552,1,0,3:1:0:0:
193,275,24710,6,0,P|190:333|222:383,1,119.999996337891,10|0,0:0|3:1,0:0:0:0:
381,341,24947,1,0,3:1:0:0:
401,319,25025,2,0,L|281:308,1,119.999996337891,10|0,0:0|3:1,0:0:0:0:
173,253,25262,1,0,3:1:0:0:
153,231,25341,5,10,0:0:0:0:
209,174,25447,5,8,0:0:0:0:
287,185,25552,5,8,0:0:0:0:
337,246,25657,6,0,P|360:212|350:138,1,112.500004291535,2|0,3:1|0:0,0:0:0:0:
278,90,25973,6,0,B|210:103|210:103|195:136|195:136|127:150,1,175,6|0,3:1|0:0,2:2:0:0:
54,104,26604,6,0,B|101:36|101:36|63:238,1,262.500010013581,2|0,2:0|0:0,2:0:0:0:
18,315,27236,6,0,P|11:286|-1:244,1,50,6|0,3:1|0:0,0:0:0:0:
27,318,27710,6,0,P|20:289|8:247,1,50,6|0,3:1|0:0,0:0:0:0:
36,321,28183,6,0,P|29:292|17:250,1,50,6|0,3:1|0:0,0:0:0:0:
280,383,28499,5,2,3:1:0:0:
287,376,28815,1,2,3:1:0:0:
294,369,29131,1,2,3:1:0:0:
301,362,29447,1,2,3:1:0:0:
308,355,29762,5,8,0:0:0:0:
292,287,29841,1,8,0:0:0:0:
240,242,29920,1,8,0:0:0:0:
172,237,29999,1,8,0:0:0:0:
113,273,30078,2,0,P|120:315|125:365,1,69.9999978637696,8|8,0:3|0:3,0:0:0:0:
301,187,30236,5,8,0:0:0:0:
360,223,30315,1,8,0:0:0:0:
428,218,30394,1,8,0:0:0:0:
480,173,30473,1,8,0:0:0:0:
495,106,30552,2,0,B|466:87|466:87|414:93,1,69.9999978637696,8|4,0:3|0:3,0:0:0:0:
237,6,30710,6,0,P|255:109|270:214,1,209.999993591309,8|0,0:0|0:0,0:0:0:0:
222,324,31025,6,0,P|257:248|371:267,1,200,6|8,3:1|0:0,0:0:0:0:
479,370,31499,1,0,3:1:0:0:
479,370,31578,1,0,3:1:0:0:
479,370,31657,2,0,P|410:360|362:357,1,100,0|0,3:1|3:1,0:0:0:0:
512,147,31973,1,10,0:0:0:0:
397,62,32131,1,0,3:1:0:0:
397,62,32210,1,0,3:1:0:0:
397,62,32289,6,0,B|287:63|342:151|232:153,1,200,2|8,3:1|0:0,0:0:0:0:
92,18,32762,1,0,3:1:0:0:
92,18,32841,1,0,3:1:0:0:
92,18,32920,1,0,3:1:0:0:
203,76,33078,1,0,3:1:0:0:
64,222,33236,2,0,P|56:189|46:158,1,50,10|0,0:0|0:0,0:0:0:0:
183,291,33394,2,0,P|191:258|201:227,1,50,2|0,3:1|3:1,0:0:0:0:
24,381,33552,6,0,P|51:318|190:337,1,200,2|8,3:1|0:0,0:0:0:0:
310,184,34025,1,2,3:1:0:0:
310,184,34104,1,0,3:1:0:0:
310,184,34183,2,0,P|298:261|295:315,1,100,0|0,3:1|3:1,0:0:0:0:
119,137,34499,1,10,0:0:0:0:
197,24,34657,1,0,3:1:0:0:
197,24,34736,1,0,3:1:0:0:
197,24,34815,5,2,3:1:0:0:
234,214,34973,1,2,0:0:0:0:
42,252,35131,1,10,0:0:0:0:
4,62,35289,1,2,3:1:0:0:
184,158,35447,5,0,0:0:0:0:
104,70,35604,1,2,3:1:0:0:
104,70,35683,1,0,3:1:0:0:
104,70,35762,1,10,0:1:0:0:
67,182,35920,1,2,0:0:0:0:
277,30,36078,6,0,P|285:71|292:109,1,50,2|0,3:1|0:0,0:0:0:0:
343,154,36236,1,0,3:1:0:0:
343,154,36315,1,0,3:1:0:0:
343,154,36394,2,0,P|334:215|330:280,1,100,10|0,0:0|0:0,0:0:0:0:
152,382,36710,1,2,3:1:0:0:
229,237,36868,1,0,3:0:0:0:
379,360,37025,2,0,P|451:367|495:301,1,150,10|0,0:0|0:0,0:0:0:0:
411,249,37341,6,0,P|417:274|421:299,1,50,2|0,3:1|0:0,0:0:0:0:
494,156,37499,1,0,3:1:0:0:
494,156,37578,1,0,3:1:0:0:
494,156,37657,2,0,P|484:105|474:21,1,100,10|0,0:0|3:0,0:0:0:0:
316,6,37973,1,2,0:0:0:0:
389,119,38131,1,0,3:1:0:0:
211,205,38289,2,0,P|150:198|29:191,1,150,10|0,0:0|0:0,0:0:0:0:
1,124,38604,6,0,P|90:109|133:101,1,100,2|0,3:1|0:0,0:0:0:0:
253,281,38920,2,0,P|294:226|261:133,1,150,10|0,0:0|0:0,0:0:0:0:
194,157,39236,2,0,P|203:181|210:204,1,50,2|0,3:1|0:0,0:0:0:0:
271,66,39394,2,0,P|262:42|254:18,1,50,2|0,3:1|0:0,0:0:0:0:
406,157,39552,2,0,P|395:235|385:317,1,150,10|0,0:0|0:0,0:0:0:0:
257,381,39868,6,0,B|278:353|278:353|311:340,1,69.9999978637696,14|0,0:0|0:0,0:0:0:0:
471,313,40025,1,0,3:1:0:0:
272,134,40183,2,0,B|123:135|197:253|49:256,1,269.999991760254,12|0,0:0|3:1,0:0:0:0:
243,292,40499,6,0,B|257:260|257:260|245:227,1,69.9999978637696,14|0,0:0|0:0,0:0:0:0:
79,99,40657,1,0,3:1:0:0:
85,82,40736,1,0,3:1:0:0:
91,65,40815,5,8,0:0:0:0:
139,36,40894,1,8,0:0:0:0:
194,34,40973,1,8,0:0:0:0:
244,59,41052,1,8,0:0:0:0:
276,105,41131,5,6,3:1:0:0:
305,134,41210,1,0,3:1:0:0:
346,142,41289,1,8,3:1:0:0:
384,128,41368,1,0,3:1:0:0:
409,95,41447,1,0,3:1:0:0:
448,81,41525,1,0,3:1:0:0:
487,96,41604,1,8,3:1:0:0:
507,131,41683,1,0,3:1:0:0:
501,172,41762,1,0,3:1:0:0:
470,199,41841,1,0,3:1:0:0:
439,226,41920,1,8,3:1:0:0:
432,267,41999,1,0,3:1:0:0:
453,303,42078,2,0,P|448:349|446:375,3,59.9999981689454,2|0|8|0,3:1|3:1|3:1|3:1,1:0:0:0:
353,226,42394,5,2,3:1:0:0:
316,206,42473,1,0,3:1:0:0:
274,203,42552,1,8,3:1:0:0:
235,216,42631,1,0,3:1:0:0:
204,244,42710,1,0,3:1:0:0:
187,282,42789,1,0,3:1:0:0:
160,313,42868,1,8,3:1:0:0:
121,327,42947,1,0,3:1:0:0:
80,319,43025,1,0,3:1:0:0:
49,291,43104,1,0,3:1:0:0:
37,251,43183,1,8,3:1:0:0:
47,211,43262,1,0,3:1:0:0:
76,182,43341,2,0,P|75:146|67:89,3,59.9999981689454,2|0|8|0,3:1|3:1|3:1|3:1,3:1:0:0:
17,54,43657,5,2,3:1:0:0:
55,37,43736,1,0,3:1:0:0:
96,38,43815,1,8,3:1:0:0:
132,59,43894,1,0,3:1:0:0:
154,95,43973,1,0,3:1:0:0:
175,130,44052,1,0,3:1:0:0:
211,151,44131,5,10,3:1:0:0:
175,172,44210,1,0,3:1:0:0:
152,207,44289,1,0,3:1:0:0:
146,248,44368,1,0,3:1:0:0:
158,287,44447,1,8,3:1:0:0:
186,318,44525,1,0,3:1:0:0:
225,334,44604,5,2,3:1:0:0:
254,303,44683,1,0,3:1:0:0:
293,289,44762,1,8,3:1:0:0:
334,292,44841,1,0,3:1:0:0:
372,308,44920,6,0,P|376:258|379:233,1,59.9999981689454,2|0,3:1|3:1,3:1:0:0:
273,114,45078,2,0,P|269:164|266:189,1,59.9999981689454,10|0,3:1|3:1,3:1:0:0:
468,208,45236,2,0,P|471:157|474:132,1,59.9999981689454,2|0,3:1|3:1,3:1:0:0:
368,13,45394,2,0,P|364:63|361:88,1,59.9999981689454,10|0,3:1|3:1,3:1:0:0:
196,196,45552,5,2,3:1:0:0:
154,192,45631,1,0,3:1:0:0:
131,156,45710,2,0,P|138:107|143:70,1,59.9999981689454,12|0,3:1|3:1,3:1:0:0:
2,306,45868,5,2,3:1:0:0:
44,302,45947,1,0,3:1:0:0:
67,266,46025,2,0,P|60:217|55:180,1,59.9999981689454,12|0,3:1|3:1,3:1:0:0:
165,18,46183,5,2,3:1:0:0:
217,12,46262,1,0,3:1:0:0:
264,37,46341,1,8,3:1:0:0:
290,84,46420,1,0,3:1:0:0:
315,130,46499,1,0,3:1:0:0:
362,155,46578,1,0,3:1:0:0:
415,150,46657,5,10,3:1:0:0:
365,130,46736,1,0,3:1:0:0:
313,140,46815,1,0,3:1:0:0:
275,178,46894,1,0,3:1:0:0:
263,230,46973,1,8,3:1:0:0:
281,280,47052,1,0,3:1:0:0:
323,312,47131,5,2,3:1:0:0:
287,271,47210,1,0,3:1:0:0:
237,253,47289,1,8,3:1:0:0:
183,260,47368,1,0,3:1:0:0:
140,291,47447,2,0,P|147:335|152:368,3,59.9999981689454,2|0|8|0,3:1|3:1|3:1|3:1,3:1:0:0:
37,245,47762,5,2,3:1:0:0:
43,203,47841,1,0,3:1:0:0:
51,162,47920,2,0,L|61:102,1,59.9999981689454,8|0,3:1|3:1,3:1:0:0:
264,155,48078,5,2,3:1:0:0:
226,170,48157,1,0,3:1:0:0:
186,185,48236,2,0,L|129:205,1,59.9999981689454,8|0,3:1|3:1,3:1:0:0:
75,2,48394,5,2,3:1:0:0:
107,28,48473,1,0,3:1:0:0:
139,56,48552,2,0,L|184:94,1,59.9999981689454,8|0,3:1|3:1,3:1:0:0:
37,245,48710,5,10,0:0:0:0:
13,306,48789,1,8,0:0:0:0:
64,347,48868,2,0,P|101:338|150:329,1,59.9999981689454,2|0,3:1|3:1,3:1:0:0:
269,182,49025,5,10,0:0:0:0:
293,121,49104,1,8,0:0:0:0:
242,80,49183,2,0,P|213:87|184:94,1,59.9999981689454,0|0,3:0|3:0,3:0:0:0:
228,346,49341,5,10,0:0:0:0:
291,361,49420,1,8,0:0:0:0:
345,335,49499,1,8,0:3:0:0:
373,289,49578,1,8,0:3:0:0:
396,247,49657,1,8,0:3:0:0:
429,223,49736,1,8,0:3:0:0:
464,216,49815,2,4,P|476:178|476:149,1,59.9999981689454,4|4,0:3|0:3,0:3:0:0:
354,22,49973,5,10,0:0:0:0:
288,16,50052,1,8,0:0:0:0:
233,50,50131,1,8,0:0:0:0:
207,110,50210,1,8,0:0:0:0:
220,173,50289,2,0,P|216:228|211:272,1,59.9999981689454,10|0,0:0|0:0,0:0:0:0:
112,79,50447,2,8,P|116:24|121:-20,1,59.9999981689454,10|8,0:0|0:0,0:0:0:0:
11,215,50604,5,10,0:0:0:0:
2,279,50683,1,8,0:0:0:0:
29,338,50762,1,8,0:0:0:0:
83,375,50841,1,8,0:0:0:0:
148,377,50920,1,10,0:0:0:0:
205,345,50999,1,8,0:0:0:0:
262,313,51078,1,8,0:0:0:0:
327,315,51157,1,8,0:0:0:0:
381,352,51236,5,14,0:0:0:0:
459,269,51394,1,0,3:1:0:0:
457,260,51447,1,0,3:0:0:0:
455,250,51499,1,0,3:0:0:0:
454,240,51552,2,0,P|442:163|428:58,1,179.999994506836,10|0,0:0|0:0,0:0:0:0:
488,9,51868,2,0,P|503:35|508:64,1,59.9999981689454
364,119,52025,1,0,3:0:0:0:
364,119,52104,1,0,3:0:0:0:
364,119,52183,2,0,P|297:112|219:106,1,119.999996337891,8|0,0:0|3:1,0:0:0:0:
59,253,52499,5,8,0:0:0:0:
165,320,52657,1,0,3:1:0:0:
174,318,52710,1,0,3:1:0:0:
184,316,52762,1,0,3:1:0:0:
194,315,52815,2,0,P|261:308|339:302,1,119.999996337891,10|0,0:0|3:1,0:0:0:0:
157,57,53131,2,0,P|98:63|61:107,1,119.999996337891,10|0,0:0|3:1,0:0:0:0:
103,236,53368,1,0,3:1:0:0:
127,252,53447,2,0,L|135:133,1,119.999996337891,10|0,0:0|3:1,0:0:0:0:
300,8,53762,5,10,0:0:0:0:
387,111,53920,1,0,3:1:0:0:
385,120,53973,1,0,3:1:0:0:
383,130,54025,1,0,3:1:0:0:
382,140,54078,2,0,P|375:207|369:285,1,119.999996337891,8|2,0:0|3:1,0:0:0:0:
301,347,54315,1,0,3:0:0:0:
284,322,54394,2,0,P|351:336|449:353,1,119.999996337891,10|0,0:0|3:0,0:0:0:0:
471,260,54631,1,0,3:0:0:0:
488,235,54710,2,0,P|420:249|322:266,1,119.999996337891,8|0,0:0|3:0,0:0:0:0:
167,134,55025,5,8,0:0:0:0:
265,46,55183,1,0,3:0:0:0:
267,55,55236,1,0,3:0:0:0:
269,65,55289,1,0,3:0:0:0:
270,75,55341,2,0,P|261:148|254:228,1,119.999996337891,10|0,0:0|3:0,0:0:0:0:
90,355,55657,2,0,P|187:350|192:259,1,179.999994506836,10|0,0:0|3:0,0:0:0:0:
51,222,55973,2,0,P|68:305|78:364,1,119.999996337891,10|0,0:0|3:0,0:0:0:0:
188,84,56289,5,10,0:0:0:0:
282,173,56447,1,0,3:0:0:0:
291,171,56499,1,0,3:0:0:0:
301,169,56552,1,0,3:0:0:0:
311,168,56604,2,0,P|378:161|456:155,1,119.999996337891,8|2,0:0|3:1,0:0:0:0:
505,82,56841,1,0,3:0:0:0:
484,60,56920,2,0,P|417:67|339:73,1,119.999996337891,8|0,0:0|3:0,0:0:0:0:
257,264,57236,2,0,P|324:257|402:251,1,119.999996337891,10|0,0:0|3:0,0:0:0:0:
188,11,57552,5,10,0:0:0:0:
81,108,57710,1,0,3:0:0:0:
79,117,57762,1,0,3:0:0:0:
77,127,57815,1,0,3:0:0:0:
76,137,57867,2,0,P|83:213|88:287,1,119.999996337891,8|2,0:0|3:1,0:0:0:0:
275,117,58183,1,8,0:0:0:0:
376,252,58341,1,0,3:0:0:0:
376,252,58420,1,0,3:0:0:0:
376,252,58499,2,0,P|276:234|234:229,1,119.999996337891,10|0,0:0|3:1,0:0:0:0:
352,17,58815,5,10,0:0:0:0:
477,61,58973,1,0,3:1:0:0:
479,70,59025,1,0,3:1:0:0:
481,80,59078,1,0,3:1:0:0:
482,90,59131,2,0,P|475:185|471:295,1,179.999994506836,8|0,0:0|3:0,0:0:0:0:
394,343,59447,2,0,P|364:344|335:336,1,59.9999981689454,8|0,0:0|0:0,0:0:0:0:
258,231,59604,1,0,3:0:0:0:
258,231,59683,1,0,3:0:0:0:
258,231,59762,2,0,P|188:246|123:258,1,119.999996337891,8|0,0:0|3:0,0:0:0:0:
0,46,60078,6,0,P|101:47|134:138,1,179.999994506836,8|0,0:0|3:0,0:0:0:0:
59,176,60394,2,0,P|56:146|50:117,1,59.9999981689454,8|0,0:0|0:0,0:0:0:0:
193,4,60552,2,0,P|196:33|202:63,1,59.9999981689454,0|0,3:0|0:0,0:0:0:0:
332,202,60710,5,10,0:0:0:0:
358,261,60789,1,8,0:0:0:0:
344,319,60868,1,0,3:0:0:0:
303,355,60947,1,0,3:0:0:0:
256,363,61025,1,8,0:3:0:0:
216,349,61104,1,8,0:3:0:0:
189,324,61183,1,4,0:3:0:0:
175,297,61262,1,4,0:3:0:0:
176,230,61341,5,14,0:0:0:0:
242,114,61499,1,0,3:0:0:0:
251,112,61552,1,0,3:0:0:0:
261,110,61604,1,0,3:0:0:0:
271,110,61657,2,0,P|365:121|477:133,1,179.999994506836,8|0,0:0|3:0,0:0:0:0:
512,30,61973,2,0,B|481:32|481:32|460:52,1,59.9999981689454,8|0,0:0|0:0,0:0:0:0:
438,207,62131,1,0,3:0:0:0:
438,207,62210,1,0,3:0:0:0:
438,207,62289,2,0,P|447:286|454:347,1,119.999996337891,8|0,0:0|3:0,0:0:0:0:
271,110,62604,5,8,0:0:0:0:
147,213,62762,1,0,3:0:0:0:
149,222,62815,1,0,3:0:0:0:
151,232,62868,1,0,3:0:0:0:
152,242,62920,2,0,P|159:309|165:387,1,119.999996337891,10|0,0:0|3:0,0:0:0:0:
4,172,63236,2,0,P|8:114|54:72,1,119.999996337891,10|0,0:0|3:0,0:0:0:0:
180,108,63473,1,0,3:0:0:0:
198,132,63552,2,0,L|79:147,1,119.999996337891,10|0,0:0|3:0,0:0:0:0:
253,2,63868,5,10,0:0:0:0:
331,119,64025,1,0,3:0:0:0:
329,128,64078,1,0,3:0:0:0:
328,138,64131,1,0,3:0:0:0:
328,148,64183,2,0,P|322:207|318:267,1,119.999996337891,8|2,0:0|3:1,0:0:0:0:
387,347,64420,1,0,3:0:0:0:
404,322,64499,2,0,P|314:343|253:355,1,119.999996337891,10|0,0:0|3:0,0:0:0:0:
142,294,64736,1,0,3:0:0:0:
129,266,64815,2,0,P|183:246|230:279,1,119.999996337891,8|0,0:0|3:0,0:0:0:0:
415,133,65131,6,0,P|385:52|301:37,1,179.999994506836,8|0,0:0|3:0,0:0:0:0:
272,132,65447,2,0,P|301:124|331:119,1,59.9999981689454,10|0,0:0|0:0,0:0:0:0:
147,18,65604,2,0,P|176:25|205:31,1,59.9999981689454,0|0,3:0|0:0,0:0:0:0:
50,166,65762,5,8,0:3:0:0:
52,185,65841,1,8,0:3:0:0:
55,204,65920,1,4,0:3:0:0:
57,223,65999,1,4,0:3:0:0:
33,265,66078,6,0,P|147:279|90:378,1,269.999991760254,14|0,0:0|0:0,0:0:0:0:
86,310,66394,6,0,B|186:320|186:320|226:364|226:364|327:378,1,262.500010013581,6|0,3:1|0:0,0:0:0:0:
418,292,67025,6,0,B|439:224|393:171|393:171|320:185|299:254,1,262.500010013581,14|0,0:0|0:0,0:0:0:0:
327,378,67657,5,6,3:1:0:0:
336,345,67736,2,0,L|347:309,1,37.5000014305115,2|0,3:1|0:0,0:0:0:0:
254,150,67973,5,2,3:1:0:0:
244,182,68052,2,0,L|233:218,1,37.5000014305115,2|0,3:1|0:0,0:0:0:0:
67,317,68289,6,0,B|110:374|110:374|78:163,1,262.500010013581,14|0,0:0|0:0,0:0:0:0:
28,93,68920,6,0,B|230:45|112:262|314:215,1,350,6|0,3:1|0:0,0:0:0:0:
415,272,69552,6,0,B|451:310|417:354|384:360|345:352|320:317|302:261|325:170|402:143,1,350,14|0,0:0|0:0,0:0:0:0:
501,82,70183,5,6,3:1:0:0:
496,114,70262,2,0,L|491:151,1,37.5000014305115,2|0,3:1|0:0,0:0:0:0:
345,81,70499,5,2,3:1:0:0:
350,49,70578,2,0,L|354:11,1,37.5000014305115,2|0,3:1|0:0,0:0:0:0:
142,100,70815,6,0,B|162:183|162:183|137:228|137:228|154:313|154:313|206:323|240:300|246:252,1,350,14|0,0:0|0:0,0:0:0:0:
266,186,71447,5,14,0:0:0:0:
313,272,71604,1,8,0:0:0:0:
399,225,71762,1,8,0:0:0:0:
352,139,71919,1,8,0:0:0:0:
246,252,72078,5,8,0:0:0:0:
285,119,72236,1,8,0:0:0:0:
419,159,72394,1,8,0:0:0:0:
379,292,72552,1,8,0:0:0:0:
199,166,72710,5,8,0:0:0:0:
293,339,72868,1,8,0:0:0:0:
465,245,73025,1,8,0:0:0:0:
372,72,73183,1,8,0:0:0:0:
160,299,73341,5,8,0:0:0:0:
238,33,73499,1,8,0:0:0:0:
505,112,73657,1,10,0:0:0:0:
426,378,73815,1,8,0:0:0:0:
199,166,73973,5,10,0:0:0:0:
134,161,74052,1,8,0:0:0:0:
77,193,74131,1,8,0:3:0:0:
46,250,74210,1,8,0:3:0:0:
51,315,74289,2,0,P|59:356|63:379,1,59.9999981689454,8|8,0:3|0:3,0:0:0:0:
270,261,74447,5,10,0:0:0:0:
306,206,74526,1,8,0:0:0:0:
307,141,74605,1,8,0:3:0:0:
273,86,74684,1,8,0:3:0:0:
214,58,74762,2,0,P|160:72|114:82,1,59.9999981689454,8|4,0:3|0:3,0:0:0:0:
46,250,74920,5,10,0:0:0:0:
111,239,74999,1,8,0:0:0:0:
176,228,75078,1,0,3:0:0:0:
241,217,75157,1,0,3:0:0:0:
306,206,75236,2,0,P|356:215|394:220,1,59.9999981689454,8|8,0:3|0:3,0:0:0:0:
503,382,75394,5,8,0:0:0:0:
459,332,75473,1,8,0:0:0:0:
490,273,75552,2,8,P|496:223|500:200,3,59.9999981689454,8|8|8|8,0:3|0:3|0:3|0:3,0:3:0:0:
401,263,75868,2,8,P|382:240|365:216,3,59.9999981689454,8|8|8|8,0:3|0:3|0:3|0:3,0:3:0:0:
331,318,76183,2,0,P|301:314|271:310,3,59.9999981689454,4|4|4|4,0:3|0:3|0:3|0:3,0:0:0:0:
190,383,76499,5,6,0:1:0:0:
140,377,76578,1,0,0:1:0:0:
100,353,76657,1,0,0:1:0:0:
74,313,76736,1,0,0:1:0:0:
71,266,76815,1,8,0:1:0:0:
89,221,76894,1,0,0:1:0:0:
108,177,76973,1,0,0:1:0:0:
104,129,77052,1,0,0:1:0:0:
80,89,77131,6,0,P|43:107|-9:105,3,69.9999978637696,2|0|0|0,0:1|0:1|0:1|0:1,0:1:0:0:
122,6,77447,2,0,P|156:10|187:26,3,69.9999978637696,10|0|0|0,0:1|0:1|0:1|0:1,0:1:0:0:
197,117,77762,5,2,0:1:0:0:
239,143,77841,1,0,0:1:0:0:
286,143,77920,1,0,0:1:0:0:
331,120,77999,1,0,0:1:0:0:
354,77,78078,1,8,0:1:0:0:
380,37,78157,1,0,0:1:0:0:
422,13,78236,1,0,0:1:0:0:
470,13,78315,1,0,0:1:0:0:
511,38,78394,5,6,0:1:0:0:
460,61,78473,1,0,0:1:0:0:
420,100,78552,1,0,0:1:0:0:
393,149,78631,1,0,0:1:0:0:
384,204,78710,1,8,0:1:0:0:
393,259,78789,1,0,0:1:0:0:
418,308,78868,1,0,0:1:0:0:
458,347,78947,1,0,0:1:0:0:
508,372,79025,5,6,0:1:0:0:
503,310,79104,1,0,0:1:0:0:
463,262,79183,1,0,0:1:0:0:
404,244,79262,1,0,0:1:0:0:
345,264,79341,1,8,0:1:0:0:
286,283,79420,1,0,0:1:0:0:
226,266,79499,2,0,P|209:235|210:201,1,69.9999978637696,2|0,0:1|0:1,0:1:0:0:
276,81,79657,5,2,0:1:0:0:
296,85,79736,1,0,0:1:0:0:
317,89,79815,1,0,0:1:0:0:
337,93,79894,1,0,0:1:0:0:
358,98,79973,1,8,0:1:0:0:
378,102,80052,1,0,0:1:0:0:
399,106,80131,1,0,0:1:0:0:
419,111,80210,1,0,0:1:0:0:
440,115,80289,2,0,P|486:103|506:75,3,69.9999978637696,6|0|0|0,0:1|0:1|0:1|0:1,0:1:0:0:
393,187,80604,5,10,0:1:0:0:
400,235,80683,1,0,0:1:0:0:
407,283,80762,2,0,L|420:373,1,69.9999978637696,0|0,0:1|0:1,0:1:0:0:
262,177,80920,5,2,0:1:0:0:
269,129,80999,1,0,0:1:0:0:
276,81,81078,2,0,L|289:-9,1,69.9999978637696,0|0,0:1|0:1,0:1:0:0:
35,158,81236,5,10,0:1:0:0:
84,163,81315,1,0,0:1:0:0:
125,137,81394,2,0,B|159:128|159:128|191:143,1,69.9999978637696,0|0,0:1|0:1,0:1:0:0:
310,355,81552,5,6,0:1:0:0:
262,365,81631,1,0,0:1:0:0:
218,345,81710,1,0,0:1:0:0:
193,304,81789,1,0,0:1:0:0:
168,261,81868,1,8,0:1:0:0:
123,242,81947,1,0,0:1:0:0:
76,252,82025,2,0,P|86:310|91:343,1,69.9999978637696,2|0,0:1|0:1,0:1:0:0:
191,143,82183,5,2,0:1:0:0:
188,129,82262,1,0,0:1:0:0:
185,115,82341,1,0,0:1:0:0:
182,101,82420,1,0,0:1:0:0:
179,87,82499,1,8,0:1:0:0:
176,73,82578,1,0,0:1:0:0:
174,59,82657,1,0,0:1:0:0:
172,45,82736,1,0,0:1:0:0:
170,31,82815,5,6,0:1:0:0:
224,33,82894,1,0,0:1:0:0:
271,62,82973,1,0,0:1:0:0:
300,109,83052,1,0,0:1:0:0:
301,164,83131,1,8,0:1:0:0:
334,208,83210,1,0,0:1:0:0:
388,219,83289,1,0,0:1:0:0:
435,192,83368,1,0,0:1:0:0:
453,140,83447,6,0,P|461:109|480:43,3,69.9999978637696,6|0|0|0,0:1|0:1|0:1|0:1,0:1:0:0:
402,24,83762,2,0,P|394:55|375:121,3,69.9999978637696,12|0|0|0,0:1|0:1|0:1|0:1,0:1:0:0:
300,109,84078,5,6,0:1:0:0:
307,157,84157,1,0,0:1:0:0:
314,205,84236,1,0,0:1:0:0:
321,254,84315,1,0,0:1:0:0:
329,302,84394,1,8,0:1:0:0:
295,337,84473,1,0,0:1:0:0:
248,344,84552,1,0,0:1:0:0:
206,319,84631,1,0,0:1:0:0:
189,274,84710,1,0,0:1:0:0:
171,229,84789,1,0,0:1:0:0:
130,204,84868,1,0,0:1:0:0:
82,211,84947,1,0,0:1:0:0:
49,245,85025,2,0,P|42:283|56:313,3,69.9999978637696,10|0|0|0,0:1|0:1|0:1|0:1,0:1:0:0:
13,123,85341,5,10,0:1:0:0:
79,83,85420,1,8,0:1:0:0:
135,134,85499,2,0,P|133:169|130:204,1,69.9999978637696
204,335,85657,5,8,0:1:0:0:
270,375,85736,1,8,0:1:0:0:
326,323,85815,2,0,P|324:288|321:254,1,69.9999978637696
497,130,85973,5,10,0:1:0:0:
458,65,86052,1,8,0:1:0:0:
389,57,86131,1,0,0:1:0:0:
342,98,86210,1,0,0:1:0:0:
313,147,86289,1,8,0:3:0:0:
283,186,86368,1,8,0:3:0:0:
241,193,86447,1,4,0:3:0:0:
208,181,86525,1,4,0:3:0:0:
171,121,86604,5,6,0:1:0:0:
127,99,86683,1,0,0:1:0:0:
79,101,86762,1,0,0:1:0:0:
37,127,86841,1,0,0:1:0:0:
13,169,86920,1,8,0:1:0:0:
12,217,86999,1,0,0:1:0:0:
34,260,87078,1,0,0:1:0:0:
75,287,87157,1,0,0:1:0:0:
123,291,87236,6,0,P|184:283|221:273,3,69.9999978637696,2|0|0|0,0:1|0:0|0:0|0:0,0:0:0:0:
82,179,87552,2,0,P|47:172|13:169,3,69.9999978637696,10|0|0|0,0:1|0:0|0:0|0:0,0:0:0:0:
212,127,87868,5,2,0:1:0:0:
259,134,87947,1,0,0:1:0:0:
308,143,88025,1,0,0:1:0:0:
356,152,88104,1,0,0:1:0:0:
404,160,88183,1,8,0:1:0:0:
446,137,88262,1,0,0:1:0:0:
465,93,88341,1,0,0:1:0:0:
453,46,88420,1,0,0:1:0:0:
415,17,88499,5,2,0:1:0:0:
380,60,88578,1,0,0:1:0:0:
367,114,88657,1,0,0:1:0:0:
379,169,88736,1,0,0:1:0:0:
412,212,88815,1,8,0:1:0:0:
415,267,88894,1,0,0:1:0:0:
387,315,88973,1,0,0:1:0:0:
337,337,89052,1,0,0:1:0:0:
282,328,89131,5,2,0:1:0:0:
310,272,89210,1,0,0:1:0:0:
306,210,89289,1,0,0:1:0:0:
270,159,89368,1,0,0:1:0:0:
212,135,89447,1,8,0:1:0:0:
151,143,89525,1,0,0:1:0:0:
104,183,89604,5,2,0:1:0:0:
163,215,89683,1,0,0:1:0:0:
231,203,89762,1,0,0:1:0:0:
275,150,89841,1,0,0:1:0:0:
275,82,89920,1,0,0:1:0:0:
232,29,89999,1,0,0:1:0:0:
165,15,90078,2,0,P|126:38|76:40,3,69.9999978637696,10|0|0|0,0:1|0:1|0:1|0:1,0:1:0:0:
275,82,90394,5,2,0:1:0:0:
247,130,90473,1,0,0:1:0:0:
241,185,90552,1,0,0:1:0:0:
257,239,90631,1,0,0:1:0:0:
274,291,90710,1,8,0:1:0:0:
249,339,90789,1,0,0:1:0:0:
197,355,90868,5,2,0:1:0:0:
216,311,90947,1,0,0:1:0:0:
252,277,91025,1,0,0:1:0:0:
297,260,91104,1,0,0:1:0:0:
346,262,91183,1,0,0:1:0:0:
394,264,91262,1,0,0:1:0:0:
442,266,91341,2,0,P|476:264|506:237,3,69.9999978637696,8|0|0|0,0:1|0:1|0:1|0:1,0:1:0:0:
387,167,91657,5,2,0:1:0:0:
366,169,91736,1,0,0:1:0:0:
345,171,91815,1,0,0:1:0:0:
325,174,91894,1,0,0:1:0:0:
303,177,91973,1,8,0:1:0:0:
283,179,92052,1,0,0:1:0:0:
262,181,92131,1,0,0:1:0:0:
241,185,92210,1,0,0:1:0:0:
220,187,92289,5,2,0:1:0:0:
260,234,92368,1,0,0:1:0:0:
266,295,92447,1,0,0:1:0:0:
237,350,92525,1,0,0:1:0:0:
182,379,92604,1,8,0:1:0:0:
121,372,92683,1,0,0:1:0:0:
74,331,92762,1,0,0:1:0:0:
58,271,92841,1,0,0:1:0:0:
79,213,92920,5,2,0:1:0:0:
90,158,92999,1,0,0:1:0:0:
86,101,93078,1,0,0:1:0:0:
33,84,93157,1,0,0:1:0:0:
3,132,93236,1,8,0:1:0:0:
35,176,93315,1,0,0:1:0:0:
90,158,93394,5,2,0:1:0:0:
137,161,93473,1,0,0:1:0:0:
177,188,93552,1,0,0:1:0:0:
199,231,93631,1,0,0:1:0:0:
221,272,93710,1,8,0:1:0:0:
261,300,93789,1,8,0:1:0:0:
310,303,93868,5,2,0:1:0:0:
361,257,93947,1,0,0:1:0:0:
373,189,94025,1,8,0:3:0:0:
341,129,94104,1,4,0:3:0:0:
278,101,94183,6,0,P|206:120|150:132,1,89.9999972534181,10|0,0:0|0:0,0:0:0:0:
10,285,94341,2,0,P|82:266|138:254,1,89.9999972534181,10|0,0:0|0:0,0:0:0:0:
144,193,94499,1,0,3:0:0:0:
235,327,94657,6,0,P|217:255|205:199,1,89.9999972534181,10|0,0:0|0:0,0:0:0:0:
52,59,94815,2,0,P|70:131|82:187,1,89.9999972534181,10|0,0:0|0:0,0:0:0:0:
144,193,94973,1,0,3:0:0:0:
280,20,95131,6,0,B|428:28|348:142|496:153|496:153|481:65|390:43|306:87|295:198|379:239|379:239|465:280|433:350,1,760,10|0,0:0|0:0,0:0:0:0:
351,377,96710,6,0,P|301:370|246:365,1,80,10|0,0:0|0:0,0:0:0:0:
93,237,96868,2,0,P|143:244|198:249,1,80,10|0,0:0|0:0,0:0:0:0:
222,307,97025,1,0,3:0:0:0:
339,136,97183,6,0,P|379:141|419:147,1,80,10|0,0:0|0:0,0:0:0:0:
240,17,97341,2,0,P|200:12|161:7,1,80,10|0,0:0|0:0,0:0:0:0:
290,77,97499,1,0,3:0:0:0:
93,237,97657,6,0,B|51:274|103:332|144:321|184:296|188:256|179:194|117:165|117:165|56:135|46:73|50:33|91:8|131:-2|184:55|142:93,1,569.999982604981,10|0,0:0|0:0,0:0:0:0:
219,140,99236,6,0,B|327:159|285:40|394:60,1,209.999993591309,6|0,3:1|0:0,0:0:0:0:
468,119,99868,2,0,B|480:148|462:174|462:174|428:172|416:141,1,119.999996337891,14|2,0:0|0:0,0:0:0:0:
187,344,100499,6,0,P|252:353|303:304,1,120,6|0,3:1|0:0,0:0:0:0:
270,211,100815,2,0,P|213:201|164:233,1,120,0|0,3:1|0:0,0:0:0:0:
72,309,101131,2,0,L|229:278,1,160,14|2,0:0|0:0,0:0:0:0:
74,11,101762,6,0,B|-29:40|8:170|111:140|111:140|262:96,1,350,6|0,3:1|0:0,0:0:0:0:
271,13,102394,2,0,P|327:92|298:184,1,200,14|2,0:0|0:0,0:0:0:0:
492,382,103025,5,10,0:0:0:0:
477,324,103104,1,8,0:0:0:0:
432,286,103183,1,8,0:3:0:0:
373,280,103262,1,8,0:3:0:0:
322,309,103341,2,0,P|329:361|332:392,1,59.9999981689454,4|4,0:3|0:3,0:0:0:0:
496,245,103499,5,8,0:0:0:0:
491,185,103578,1,8,0:0:0:0:
486,125,103657,1,8,0:3:0:0:
481,65,103736,1,8,0:3:0:0:
476,5,103815,2,0,P|424:17|366:27,1,59.9999981689454,4|4,0:3|0:3,0:0:0:0:
228,157,103973,5,10,0:0:0:0:
244,99,104052,1,8,0:0:0:0:
292,63,104131,1,8,0:3:0:0:
352,67,104210,1,4,0:3:0:0:
398,105,104289,6,0,P|391:149|385:194,1,89.9999972534181,10|0,0:0|0:0,0:0:0:0:
218,381,104447,2,0,P|226:321|233:259,1,89.9999972534181,10|0,0:0|0:0,0:0:0:0:
308,243,104604,1,0,3:0:0:0:
446,333,104762,6,0,P|386:324|324:317,1,89.9999972534181,10|0,0:0|0:0,0:0:0:0:
170,153,104920,2,0,P|229:161|291:168,1,89.9999972534181,10|0,0:0|0:0,0:0:0:0:
308,243,105078,1,0,3:0:0:0:
452,7,105236,6,0,B|342:22|342:22|309:69|309:69|201:85|201:85|214:0|341:-58|428:64|379:147|379:147|332:231|369:286,1,760,10|0,0:0|0:0,0:0:0:0:
458,338,106815,6,0,P|470:300|468:260,1,80,10|0,0:0|0:0,0:0:0:0:
280,234,106973,2,0,P|267:271|269:311,1,80,10|0,0:0|0:0,0:0:0:0:
369,286,107131,1,0,3:0:0:0:
242,72,107289,6,0,P|244:112|232:150,1,80,10|0,0:0|0:0,0:0:0:0:
43,123,107447,2,0,P|41:83|54:46,1,80,10|0,0:0|0:0,0:0:0:0:
143,98,107604,1,0,3:0:0:0:
11,279,107762,6,0,B|-7:344|39:381|39:381|25:290|114:222|214:267|225:349|225:349|274:325|274:325|305:343|305:343|365:321,1,569.999982604981,10|0,0:0|0:0,0:0:0:0:
404,231,109341,6,0,B|344:228|344:228|415:372|415:372|449:324,1,280,6|0,3:1|0:0,0:0:0:0:
508,195,109973,2,0,B|484:148|484:148|473:254,1,160,14|2,0:0|0:0,0:0:0:0:
385,21,110604,6,0,P|333:67|239:61,1,150,6|0,3:1|0:0,0:0:0:0:
244,166,110920,2,0,P|178:143|136:59,1,150,0|0,3:1|0:0,0:0:0:0:
47,116,111236,2,0,P|56:209|68:347,1,200,14|2,0:0|0:0,0:0:0:0:
371,383,111868,6,0,B|361:300|280:244|191:268|149:332|149:332|205:356|262:302,1,419.999987182618,6|0,3:1|0:0,0:0:0:0:
322,218,112499,2,0,B|306:127|306:127|263:94|263:94|244:3,1,239.999992675781,12|0,0:0|3:0,0:0:0:0:
493,178,113131,5,10,0:0:0:0:
489,236,113210,1,8,0:0:0:0:
452,282,113289,1,8,0:3:0:0:
395,296,113368,1,8,0:3:0:0:
340,274,113447,2,4,P|329:247|322:218,1,59.9999981689454,4|4,0:3|0:3,0:3:0:0:
249,41,113604,5,10,0:0:0:0:
195,17,113683,1,8,0:0:0:0:
137,28,113762,1,8,0:3:0:0:
98,72,113841,1,8,0:3:0:0:
91,130,113920,2,4,P|98:180|102:215,1,59.9999981689454,4|4,0:3|0:3,0:3:0:0:
26,351,114078,5,10,0:0:0:0:
85,338,114157,1,8,0:0:0:0:
144,325,114236,1,8,0:3:0:0:
203,312,114315,1,4,0:3:0:0:
262,301,114394,5,6,3:1:0:0:
271,308,114710,1,0,3:1:0:0:
280,315,115025,1,0,3:1:0:0:
289,322,115341,1,0,3:1:0:0:
298,329,115657,5,8,0:0:0:0:
346,295,115736,1,8,0:0:0:0:
370,241,115814,1,0,3:1:0:0:
360,182,115894,1,0,3:1:0:0:
321,138,115973,2,8,P|267:130|231:127,1,59.9999981689454,8|8,0:3|0:3,0:3:0:0:
381,43,116131,2,4,P|435:51|471:54,1,59.9999981689454,4|4,0:3|0:3,0:3:0:0:
512,185,116289,5,8,0:3:0:0:
510,196,116368,1,8,0:3:0:0:
508,207,116447,1,8,0:3:0:0:
507,218,116525,1,8,0:3:0:0:
506,228,116604,1,4,0:3:0:0:
504,239,116683,1,4,0:3:0:0:
503,250,116762,1,4,0:3:0:0:
502,261,116841,1,4,0:3:0:0:
501,271,116920,5,0,3:0:0:0:
501,271,117236,6,0,B|334:226|384:417|217:371|217:371|189:291|269:262|269:262|185:264|183:179|183:179|159:261|77:237|77:237|147:285|98:355,1,877.49995983124,14|0,0:0|0:0,0:0:0:0:
0,383,119447,5,10,0:0:0:0:
4,322,119525,1,8,0:0:0:0:
9,262,119604,1,8,0:0:0:0:
13,202,119683,1,8,0:0:0:0:
17,143,119762,2,0,P|13:113|10:83,1,59.9999981689454,8|4,0:3|0:3,0:0:0:0:
174,17,119920,5,10,0:0:0:0:
231,4,119999,1,8,0:0:0:0:
287,25,120078,1,10,0:0:0:0:
322,73,120157,1,8,0:0:0:0:
325,132,120236,2,0,P|321:180|318:229,1,59.9999981689454,8|4,0:3|0:3,0:0:0:0:
462,384,120394,5,8,0:0:0:0:
491,333,120473,1,8,0:0:0:0:
474,277,120552,1,8,0:0:0:0:
422,251,120631,1,8,0:0:0:0:
367,272,120710,2,0,P|317:266|277:263,1,59.9999981689454,8|4,0:3|0:3,0:0:0:0:
178,381,120868,6,8,P|208:340|231:307,1,59.9999981689454
178,161,121025,1,10,0:0:0:0:
178,161,121104,1,8,0:0:0:0:
178,161,121183,2,0,P|189:189|201:217,1,59.9999981689454,8|4,0:3|0:3,0:0:0:0:
413,360,121341,5,10,0:0:0:0:
456,318,121420,1,8,0:0:0:0:
479,263,121499,1,8,0:0:0:0:
479,203,121578,1,8,0:0:0:0:
447,152,121657,2,0,P|359:165|270:180,1,179.999994506836,2|0,3:1|0:0,0:0:0:0:
218,291,121973,6,0,P|245:278|266:256,1,59.9999981689454,14|0,0:0|0:0,0:0:0:0:
178,161,122131,1,0,3:0:0:0:
169,163,122183,1,0,3:0:0:0:
159,165,122236,1,0,3:0:0:0:
149,166,122288,2,0,P|82:173|4:179,1,119.999996337891,8|2,0:0|3:1,0:0:0:0:
0,273,122525,1,0,3:0:0:0:
19,296,122604,2,0,P|86:289|164:283,1,119.999996337891,8|0,0:0|3:0,0:0:0:0:
245,360,122841,1,0,3:0:0:0:
226,383,122920,2,0,P|159:376|81:370,1,119.999996337891,10|0,0:0|3:0,0:0:0:0:
268,158,123236,5,10,0:0:0:0:
366,234,123394,1,0,3:0:0:0:
368,243,123447,1,0,3:0:0:0:
370,253,123499,1,0,3:0:0:0:
371,263,123552,2,0,P|364:358|360:434,1,119.999996337891,8|2,0:0|3:1,0:0:0:0:
489,166,123868,1,8,0:0:0:0:
399,105,124025,1,0,3:0:0:0:
399,105,124104,1,0,3:0:0:0:
399,105,124183,2,0,P|313:125|240:134,1,119.999996337891,10|0,0:0|3:0,0:0:0:0:
68,21,124499,5,8,0:0:0:0:
140,125,124657,1,0,3:0:0:0:
142,134,124710,1,0,3:0:0:0:
144,144,124762,1,0,3:0:0:0:
145,154,124815,2,0,P|137:249|131:333,1,179.999994506836,8|0,0:0|3:0,0:0:0:0:
49,380,125131,2,0,P|41:360|40:311,1,59.9999981689454,8|0,0:0|0:0,0:0:0:0:
172,243,125289,1,0,3:0:0:0:
172,243,125368,1,0,3:0:0:0:
172,243,125447,2,0,P|247:259|298:269,1,119.999996337891,8|0,0:0|3:0,0:0:0:0:
479,43,125762,6,0,P|392:42|349:116,1,179.999994506836,8|0,0:0|3:0,0:0:0:0:
427,177,126078,2,0,P|430:147|435:118,1,59.9999981689454,8|0,0:0|0:0,0:0:0:0:
310,259,126236,2,0,P|314:288|317:318,1,59.9999981689454,0|0,3:0|0:0,0:0:0:0:
233,62,126394,5,8,0:0:0:0:
178,34,126473,1,8,0:0:0:0:
126,42,126552,1,8,0:3:0:0:
89,73,126631,1,8,0:3:0:0:
71,111,126710,1,8,0:3:0:0:
72,146,126789,1,8,0:3:0:0:
81,173,126868,1,4,0:3:0:0:
95,193,126947,1,4,0:3:0:0:
151,223,127025,5,14,0:0:0:0:
24,366,127183,1,0,3:0:0:0:
33,368,127236,1,0,3:0:0:0:
43,370,127289,1,0,3:0:0:0:
53,370,127341,2,0,P|147:359|259:347,1,179.999994506836,8|0,0:0|3:0,0:0:0:0:
310,259,127657,2,0,P|259:269|218:275,1,59.9999981689454,8|0,0:0|0:0,0:0:0:0:
362,381,127815,1,0,3:0:0:0:
362,381,127894,1,0,3:0:0:0:
362,381,127973,2,0,P|427:368|491:356,1,119.999996337891,8|0,0:0|3:0,0:0:0:0:
363,142,128289,5,8,0:0:0:0:
473,62,128447,1,0,3:0:0:0:
475,71,128499,1,0,3:0:0:0:
477,81,128552,1,0,3:0:0:0:
478,91,128604,2,0,P|471:161|463:243,1,119.999996337891,10|0,0:0|3:0,0:0:0:0:
284,55,128920,2,0,P|226:57|190:103,1,119.999996337891,10|0,0:0|3:0,0:0:0:0:
222,222,129157,1,0,3:0:0:0:
246,240,129236,2,0,P|252:180|258:121,1,119.999996337891,10|0,0:0|3:0,0:0:0:0:
114,347,129552,5,10,0:0:0:0:
40,248,129710,1,0,3:0:0:0:
40,238,129762,1,0,3:0:0:0:
42,228,129815,1,0,3:0:0:0:
45,218,129868,2,0,P|50:158|56:98,1,119.999996337891,8|2,0:0|3:1,0:0:0:0:
148,11,130104,1,0,3:0:0:0:
172,29,130183,2,0,P|166:88|160:148,1,119.999996337891,10|0,0:0|3:0,0:0:0:0:
222,222,130420,1,0,3:0:0:0:
246,240,130499,2,0,P|252:180|258:121,1,119.999996337891,8|0,0:0|3:0,0:0:0:0:
501,19,130815,6,0,P|410:21|372:112,1,179.999994506836,8|0,0:0|3:0,0:0:0:0:
451,153,131131,2,0,P|453:123|456:93,1,59.9999981689454,10|0,0:0|0:0,0:0:0:0:
332,210,131289,2,0,P|335:239|337:269,1,59.9999981689454,0|0,3:0|0:0,0:0:0:0:
422,377,131447,5,8,0:3:0:0:
441,375,131526,1,8,0:3:0:0:
460,372,131605,1,4,0:3:0:0:
479,370,131684,1,4,0:3:0:0:
508,336,131763,6,0,B|499:289|448:282|448:282|255:338,1,269.999991760254,14|0,0:0|0:0,0:0:0:0:
206,379,132078,6,0,P|238:277|139:315,1,262.500010013581,6|0,3:1|0:0,0:0:0:0:
50,238,132710,6,0,P|18:136|117:174,1,262.500010013581,14|0,0:0|0:0,0:0:0:0:
206,96,133341,5,6,3:1:0:0:
193,63,133420,2,0,L|174:7,1,37.5000014305115,2|0,3:1|0:0,0:0:0:0:
291,183,133657,5,2,3:1:0:0:
268,209,133736,2,0,L|229:252,1,37.5000014305115,2|0,3:1|0:0,0:0:0:0:
325,65,133973,6,0,B|393:77|393:77|429:55|429:55|499:65|499:65|521:111|486:144,1,262.500010013581,14|0,0:0|0:0,0:0:0:0:
435,198,134604,6,0,B|382:241|357:297|348:387|407:406|463:394|493:347|495:306|426:277|422:336,1,350,6|0,3:1|0:0,0:0:0:0:
315,376,135236,6,0,B|183:397|268:263|136:285|136:285|116:363|46:353,1,350,14|0,0:0|0:0,0:0:0:0:
0,284,135868,5,6,3:1:0:0:
8,250,135947,2,0,L|19:192,1,37.5000014305115,2|0,3:1|0:0,0:0:0:0:
189,147,136183,5,2,3:1:0:0:
181,181,136262,2,0,L|169:238,1,37.5000014305115,2|0,3:1|0:0,0:0:0:0:
42,32,136499,6,0,B|-3:54|-3:112|30:143|30:143|113:123|113:123|143:82|143:82|224:66,1,350,14|0,0:0|0:0,0:0:0:0:
304,123,137131,5,14,0:0:0:0:
207,262,137289,1,8,0:0:0:0:
215,164,137447,1,8,0:0:0:0:
296,221,137604,1,8,0:0:0:0:
224,66,137762,5,8,0:0:0:0:
126,205,137920,1,8,0:0:0:0:
304,123,138078,1,8,0:0:0:0:
207,262,138236,1,8,0:0:0:0:
134,107,138394,5,8,0:0:0:0:
296,221,138552,1,8,0:0:0:0:
45,148,138710,1,8,0:0:0:0:
224,66,138868,1,8,0:0:0:0:
118,303,139025,5,8,0:0:0:0:
142,9,139183,1,8,0:0:0:0:
288,319,139341,1,10,0:0:0:0:
314,25,139499,1,8,0:0:0:0:
45,148,139657,5,8,0:0:0:0:
38,212,139736,1,8,0:0:0:0:
76,264,139815,1,0,0:3:0:0:
139,276,139894,1,0,0:3:0:0:
194,243,139973,2,4,P|205:193|211:154,1,59.9999981689454,4|4,0:3|0:3,0:3:0:0:
450,33,140131,5,8,0:0:0:0:
395,0,140210,1,8,0:0:0:0:
332,12,140289,1,8,0:3:0:0:
294,64,140368,1,8,0:3:0:0:
301,129,140447,2,4,P|306:158|312:187,1,59.9999981689454,4|4,0:3|0:3,0:3:0:0:
505,368,140604,5,8,0:0:0:0:
439,360,140683,1,8,0:0:0:0:
373,353,140762,1,0,0:3:0:0:
308,345,140841,1,0,0:3:0:0:
242,339,140920,2,4,P|194:340|146:345,1,59.9999981689454,4|4,0:3|0:3,0:3:0:0:
19,161,141078,5,8,0:0:0:0:
79,135,141157,1,8,0:0:0:0:
123,183,141236,2,8,P|111:237|102:286,3,59.9999981689454,8|8|8|8,0:3|0:3|0:3|0:3,0:3:0:0:
209,153,141552,2,0,P|216:207|224:256,3,59.9999981689454,0|0|0|0,0:3|0:3|0:3|0:3,0:3:0:0:
279,95,141868,2,4,P|304:144|329:187,3,59.9999981689454,4|4|4|4,0:3|0:3|0:3|0:3,0:3:0:0:
324,16,142183,5,6,0:1:0:0:
371,8,142262,1,0,0:1:0:0:
417,24,142341,1,0,0:1:0:0:
450,60,142420,1,0,0:1:0:0:
463,107,142499,1,8,0:1:0:0:
452,154,142578,1,0,0:1:0:0:
441,201,142657,1,0,0:1:0:0:
430,248,142736,1,0,0:1:0:0:
418,293,142815,6,0,B|413:328|413:328|437:362,3,69.9999978637696,2|0|0|0,0:1|0:1|0:1|0:1,0:1:0:0:
322,254,143131,2,0,B|326:219|326:219|303:185,3,69.9999978637696,10|0|0|0,0:1|0:1|0:1|0:1,0:1:0:0:
238,314,143447,5,2,0:1:0:0:
189,309,143525,1,0,0:1:0:0:
147,284,143604,1,0,0:1:0:0:
121,244,143683,1,0,0:1:0:0:
116,195,143762,1,8,0:1:0:0:
132,150,143841,1,0,0:1:0:0:
167,116,143920,1,0,0:1:0:0:
201,82,143999,1,0,0:1:0:0:
218,36,144078,5,6,0:1:0:0:
163,41,144157,1,0,0:1:0:0:
120,76,144236,1,0,0:1:0:0:
103,129,144315,1,0,0:1:0:0:
117,182,144394,1,8,0:1:0:0:
159,219,144473,1,0,0:1:0:0:
213,227,144552,1,0,0:1:0:0:
263,204,144631,1,0,0:1:0:0:
293,158,144710,5,6,0:1:0:0:
237,186,144789,1,0,0:1:0:0:
206,240,144868,1,0,0:1:0:0:
211,301,144947,1,0,0:1:0:0:
178,353,145025,1,8,0:1:0:0:
118,365,145104,1,0,0:1:0:0:
65,333,145183,2,0,P|56:290|64:247,1,69.9999978637696,2|0,0:1|0:1,0:1:0:0:
167,116,145341,5,2,0:1:0:0:
187,119,145420,1,0,0:1:0:0:
208,122,145499,1,0,0:1:0:0:
229,126,145578,1,0,0:1:0:0:
249,129,145657,1,8,0:1:0:0:
270,133,145736,1,0,0:1:0:0:
291,136,145815,1,0,0:1:0:0:
312,139,145894,1,0,0:1:0:0:
332,143,145973,2,0,P|391:137|431:102,3,69.9999978637696,6|0|0|0,0:1|0:1|0:1|0:1,0:1:0:0:
269,53,146289,5,10,0:1:0:0:
305,19,146368,1,0,0:1:0:0:
353,28,146447,2,0,P|387:38|455:54,1,69.9999978637696,0|0,0:1|0:1,0:1:0:0:
497,219,146604,5,2,0:1:0:0:
461,253,146683,1,0,0:1:0:0:
413,244,146762,2,0,P|379:234|311:218,1,69.9999978637696,0|0,0:1|0:1,0:1:0:0:
169,378,146920,5,10,0:1:0:0:
174,329,146999,1,0,0:1:0:0:
180,280,147078,2,0,L|192:188,1,69.9999978637696,0|0,0:1|0:1,0:1:0:0:
30,7,147236,5,6,0:1:0:0:
15,52,147315,1,0,0:1:0:0:
29,98,147394,1,0,0:1:0:0:
68,125,147473,1,0,0:1:0:0:
116,125,147552,1,8,0:1:0:0:
154,95,147631,1,0,0:1:0:0:
200,81,147710,2,0,P|258:89|302:97,1,69.9999978637696,2|0,0:1|0:1,0:1:0:0:
362,232,147868,5,2,0:1:0:0:
360,245,147947,1,0,0:1:0:0:
358,259,148025,1,0,0:1:0:0:
356,273,148104,1,0,0:1:0:0:
355,287,148183,1,8,0:1:0:0:
353,301,148262,1,0,0:1:0:0:
351,315,148341,1,0,0:1:0:0:
349,329,148420,1,0,0:1:0:0:
347,343,148499,5,2,0:1:0:0:
400,337,148578,1,0,0:1:0:0:
450,310,148657,1,0,0:1:0:0:
483,266,148736,1,0,0:1:0:0:
498,212,148815,1,8,0:1:0:0:
489,158,148894,1,0,0:1:0:0:
460,110,148973,1,0,0:1:0:0:
413,79,149052,1,0,0:1:0:0:
359,68,149131,6,0,P|326:80|291:84,3,69.9999978637696,6|0|0|0,0:1|0:1|0:1|0:1,0:1:0:0:
234,163,149447,2,0,P|201:151|166:147,3,69.9999978637696,14|0|0|0,0:1|0:1|0:1|0:1,0:1:0:0:
80,39,149762,5,6,0:1:0:0:
113,74,149841,1,0,0:1:0:0:
127,120,149920,1,0,0:1:0:0:
120,169,149999,1,0,0:1:0:0:
95,210,150078,1,8,0:1:0:0:
54,236,150157,1,0,0:1:0:0:
20,270,150236,1,0,0:1:0:0:
13,317,150315,1,0,0:1:0:0:
36,360,150394,1,0,0:1:0:0:
79,380,150473,1,0,0:1:0:0:
127,371,150552,1,0,0:1:0:0:
157,335,150631,1,0,0:1:0:0:
201,314,150710,2,0,P|244:314|294:344,3,69.9999978637696,10|0|0|0,0:1|0:1|0:1|0:1,0:1:0:0:
351,382,151025,5,14,0:1:0:0:
416,340,151104,1,8,0:1:0:0:
392,266,151183,2,0,P|386:229|366:164,1,69.9999978637696,0|0,0:1|0:1,0:1:0:0:
251,32,151341,5,14,0:1:0:0:
186,74,151420,1,8,0:1:0:0:
210,148,151499,2,0,P|216:185|236:250,1,69.9999978637696,0|0,0:1|0:1,0:1:0:0:
79,380,151657,5,8,0:1:0:0:
29,326,151736,1,8,0:1:0:0:
29,254,151815,1,0,0:1:0:0:
70,206,151894,1,0,0:1:0:0:
107,164,151973,1,8,0:3:0:0:
117,115,152052,1,8,0:3:0:0:
104,75,152131,1,4,0:3:0:0:
81,47,152210,1,4,0:3:0:0:
13,27,152289,5,6,0:1:0:0:
9,74,152368,1,0,0:1:0:0:
26,120,152447,1,0,0:1:0:0:
59,156,152525,1,0,0:1:0:0:
103,176,152604,1,8,0:1:0:0:
152,178,152683,1,0,0:1:0:0:
197,159,152762,1,0,0:1:0:0:
232,126,152841,1,0,0:1:0:0:
250,81,152920,6,0,P|245:44|209:1,3,69.9999978637696,2|0|0|0,0:1|0:1|0:1|0:1,0:1:0:0:
347,157,153236,2,0,P|352:120|388:77,3,69.9999978637696,10|0|0|0,0:1|0:1|0:1|0:1,0:1:0:0:
232,228,153552,5,2,0:1:0:0:
217,273,153631,1,0,0:1:0:0:
232,319,153710,1,0,0:1:0:0:
272,346,153789,1,0,0:1:0:0:
320,344,153868,1,8,0:1:0:0:
357,313,153947,1,0,0:1:0:0:
398,288,154025,1,0,0:1:0:0:
445,298,154104,1,0,0:1:0:0:
474,336,154183,5,2,0:1:0:0:
420,351,154262,1,0,0:1:0:0:
367,337,154341,1,0,0:1:0:0:
329,297,154420,1,0,0:1:0:0:
317,243,154499,1,8,0:1:0:0:
305,188,154578,1,0,0:1:0:0:
267,149,154657,1,0,0:1:0:0:
213,134,154736,1,0,0:1:0:0:
160,150,154815,5,2,0:1:0:0:
203,192,154894,1,0,0:1:0:0:
265,199,154973,1,0,0:1:0:0:
319,167,155052,1,0,0:1:0:0:
342,111,155131,1,8,0:1:0:0:
327,51,155210,1,0,0:1:0:0:
278,12,155289,5,2,0:1:0:0:
221,52,155368,1,0,0:1:0:0:
153,65,155447,1,0,0:1:0:0:
86,48,155525,1,0,0:1:0:0:
21,75,155604,1,0,0:1:0:0:
4,142,155683,1,0,0:1:0:0:
43,200,155762,2,0,P|27:263|27:290,3,69.9999978637696,10|0|0|0,0:1|0:1|0:1|0:1,0:1:0:0:
106,335,156078,5,2,0:1:0:0:
157,355,156157,1,0,0:1:0:0:
211,345,156235,1,0,0:1:0:0:
251,307,156315,1,0,0:1:0:0:
264,254,156394,1,8,0:1:0:0:
298,220,156473,1,0,0:1:0:0:
345,207,156552,5,2,0:1:0:0:
319,247,156631,1,0,0:1:0:0:
277,271,156710,1,0,0:1:0:0:
228,268,156789,1,0,0:1:0:0:
191,238,156868,1,0,0:1:0:0:
174,193,156947,1,0,0:1:0:0:
188,146,157025,2,0,P|198:107|184:50,3,69.9999978637696,10|0|0|0,0:1|0:1|0:1|0:1,0:1:0:0:
290,16,157341,5,2,0:1:0:0:
310,20,157420,1,0,0:1:0:0:
331,24,157499,1,0,0:1:0:0:
351,28,157578,1,0,0:1:0:0:
372,32,157657,1,8,0:1:0:0:
393,36,157736,1,0,0:1:0:0:
413,40,157815,1,0,0:1:0:0:
434,44,157894,1,0,0:1:0:0:
454,48,157973,5,2,0:1:0:0:
407,88,158052,1,0,0:1:0:0:
397,150,158131,1,0,0:1:0:0:
424,206,158210,1,0,0:1:0:0:
449,262,158289,1,8,0:1:0:0:
435,322,158368,1,0,0:1:0:0:
387,361,158447,1,0,0:1:0:0:
325,363,158525,1,0,0:1:0:0:
276,326,158604,5,2,0:1:0:0:
231,294,158683,1,0,0:1:0:0:
176,290,158762,1,0,0:1:0:0:
127,315,158841,1,0,0:1:0:0:
80,343,158920,1,8,0:1:0:0:
31,323,158999,1,0,0:1:0:0:
18,270,159078,5,2,0:1:0:0:
52,236,159157,1,0,0:1:0:0:
100,224,159236,1,0,0:1:0:0:
147,235,159315,1,0,0:1:0:0:
182,268,159394,1,8,0:1:0:0:
199,314,159473,1,8,0:1:0:0:
192,362,159552,5,8,0:3:0:0:
200,292,159631,1,8,0:3:0:0:
208,223,159710,1,4,0:3:0:0:
218,153,159789,1,4,0:3:0:0:
228,84,159868,6,0,B|98:53|146:183|16:152,2,239.999992675781,6|8|0,3:1|0:0|3:1,0:0:0:0:
309,182,160657,1,0,3:1:0:0:
435,2,160815,2,0,P|412:103|403:174,1,119.999996337891,8|0,0:0|0:0,0:0:0:0:
501,355,161131,6,0,P|468:274|373:295,1,179.999994506836,0|0,3:0|0:0,0:0:0:0:
358,383,161447,2,0,P|453:369|516:364,1,119.999996337891,10|0,0:0|3:0,0:0:0:0:
341,202,161762,2,0,P|281:195|222:185,1,119.999996337891,2|0,0:0|3:0,0:0:0:0:
22,357,162078,2,0,P|105:370|144:283,1,179.999994506836,10|0,0:0|0:0,0:0:0:0:
102,197,162394,6,0,B|47:143|47:143|73:303,2,239.999992675781,2|8|0,3:1|0:0|3:0,0:0:0:0:
230,282,163183,1,0,3:0:0:0:
371,85,163341,2,0,P|284:103|222:109,1,119.999996337891,10|0,0:0|0:0,0:0:0:0:
40,13,163657,5,2,3:1:0:0:
161,78,163815,1,0,3:0:0:0:
48,321,163973,1,8,0:0:0:0:
192,198,164131,2,0,P|258:214|466:247,1,239.999992675781,2|0,3:1|3:0,0:0:0:0:
308,10,164604,2,0,P|297:69|282:127,1,119.999996337891,10|0,0:0|0:0,0:0:0:0:
92,343,164920,6,0,P|18:291|59:149,2,239.999992675781,2|8|0,3:1|0:0|3:0,0:0:0:0:
188,225,165710,1,0,3:0:0:0:
324,370,165868,2,0,P|336:294|346:238,1,119.999996337891,10|0,0:0|0:0,0:0:0:0:
492,75,166183,6,0,P|453:152|367:158,1,179.999994506836,2|0,3:1|0:0,0:0:0:0:
288,54,166499,2,0,P|346:68|405:79,1,119.999996337891,10|0,0:0|3:0,0:0:0:0:
266,254,166815,2,0,P|207:239|148:228,1,119.999996337891,2|0,0:0|3:0,0:0:0:0:
0,58,167131,2,0,B|39:15|39:15|16:166,1,179.999994506836,10|0,0:0|0:0,0:0:0:0:
58,210,167447,6,0,B|149:191|149:191|182:148|182:148|273:132,2,239.999992675781,2|8|0,3:1|0:0|3:0,0:0:0:0:
142,67,168236,1,0,3:0:0:0:
277,256,168394,2,0,P|264:337|259:387,1,119.999996337891,10|0,0:0|0:0,0:0:0:0:
453,184,168710,6,0,L|438:108,1,59.9999981689454,14|0,0:0|0:0,0:0:0:0:
418,10,168868,1,0,3:0:0:0:
279,234,169025,6,0,B|129:245|205:109|55:121,1,269.999991760254,12|0,0:0|3:0,0:0:0:0:
0,223,169341,6,0,P|29:219|58:210,1,59.9999981689454,8|0,0:0|0:0,0:0:0:0:
195,51,169499,1,0,3:0:0:0:
188,33,169578,1,0,3:0:0:0:
182,15,169657,5,10,0:0:0:0:
144,60,169736,1,8,0:0:0:0:
152,117,169815,1,10,0:0:0:0:
201,149,169894,1,8,0:0:0:0:
257,133,169973,6,0,P|307:124|354:122,1,69.9999978637696,14|0,0:0|0:0,0:0:0:0:
426,241,170131,1,0,3:0:0:0:
426,241,170210,1,0,3:0:0:0:
426,241,170289,2,0,P|353:228|253:218,1,139.999995727539,8|0,0:0|3:0,0:0:0:0:
42,374,170604,1,8,0:0:0:0:
42,374,170683,2,0,P|27:295|3:208,1,139.999995727539,0|0,3:0|3:0,0:0:0:0:
105,215,170920,2,0,P|117:284|134:352,1,139.999995727539,8|0,0:0|3:0,0:0:0:0:
322,141,171236,6,0,B|329:107|329:107|310:77,1,69.9999978637696,10|0,0:0|0:0,0:0:0:0:
226,25,171394,1,0,3:0:0:0:
226,25,171473,1,0,3:0:0:0:
226,25,171552,2,0,P|127:46|55:55,1,139.999995727539,8|2,0:0|3:1,0:0:0:0:
25,155,171789,1,0,3:0:0:0:
3,127,171868,2,0,P|72:137|140:153,1,139.999995727539,8|0,0:0|3:0,0:0:0:0:
274,384,172183,1,10,0:0:0:0:
274,384,172262,2,0,P|279:304|289:225,1,139.999995727539,0|0,3:0|0:0,0:0:0:0:
396,159,172499,6,0,B|379:190|379:190|346:202,1,69.9999978637696,10|0,0:0|0:0,0:0:0:0:
212,250,172657,1,0,3:0:0:0:
212,250,172736,1,0,3:0:0:0:
212,250,172815,2,0,P|143:234|74:223,1,139.999995727539,8|0,0:0|3:0,0:0:0:0:
306,36,173131,1,8,0:0:0:0:
306,36,173210,2,0,B|298:69|298:69|265:93,1,69.9999978637696,0|0,3:0|0:0,0:0:0:0:
208,166,173368,1,0,3:0:0:0:
208,166,173447,2,0,B|182:143|182:143|179:101,1,69.9999978637696,8|0,0:0|0:0,0:0:0:0:
144,16,173604,2,0,B|176:5|176:5|213:23,1,69.9999978637696,0|0,3:0|0:0,0:0:0:0:
356,132,173762,6,0,P|351:167|347:201,1,69.9999978637696,10|0,0:0|0:0,0:0:0:0:
300,321,173920,1,0,3:0:0:0:
300,321,173999,1,0,3:0:0:0:
300,321,174078,2,0,P|234:312|212:250,1,139.999995727539,8|0,0:0|3:0,0:0:0:0:
90,192,174315,1,0,3:0:0:0:
62,213,174394,5,8,0:0:0:0:
21,286,174499,5,8,0:0:0:0:
64,357,174604,5,8,0:0:0:0:
148,355,174710,6,0,P|217:346|286:338,1,139.999995727539,2|0,3:1|0:0,0:0:0:0:
503,126,175025,6,0,B|499:47|431:24|431:24|409:141|409:141|441:187|441:187|419:304|419:304|351:281|347:202,1,562.500021457673,6|0,3:1|0:0,0:0:0:0:
284,139,176289,6,0,B|226:151|226:151|213:179|213:179|156:192,1,150.000005722046,6|0,3:1|0:0,0:0:0:0:
19,84,176762,2,0,B|76:71|76:71|89:42|89:42|146:30,1,150.000005722046,6|0,3:1|0:0,0:0:0:0:
125,264,177236,2,0,P|85:226|81:171,1,112.500004291535,6|0,3:1|0:0,0:0:0:0:
156,192,177552,6,0,B|124:263|124:263|165:304|165:304|134:376|134:376|241:401|280:324|260:285|299:208|405:232|405:232|449:242|435:295|393:309|385:252,1,675.000025749208,6|0,3:1|0:0,0:0:0:0:
385,253,180078,6,0,P|390:223|397:194,1,59.9999981689454,2|2,0:0|0:0,0:0:0:0:
316,178,180394,2,0,P|311:207|304:237,1,59.9999981689454,2|2,0:0|0:0,0:0:0:0:
371,116,180710,1,2,0:0:0:0:
371,116,180789,1,2,0:0:0:0:
371,116,180868,1,2,0:0:0:0:
371,116,180947,1,2,0:0:0:0:
371,116,181025,2,0,L|379:75,3,29.9999990844727,2|2|2|2,0:0|0:0|0:0|0:0,0:0:0:0:
305,44,181341,5,2,0:0:0:0:
207,92,181499,1,0,0:0:0:0:
232,19,181657,1,2,0:0:0:0:
280,117,181815,1,0,0:0:0:0:
109,140,181973,5,2,0:0:0:0:
93,165,182052,1,2,0:0:0:0:
86,194,182131,1,2,0:0:0:0:
88,224,182210,1,2,0:0:0:0:
99,251,182289,2,0,P|106:289|110:310,1,29.9999990844727,2|2,0:0|0:0,0:0:0:0:
203,193,182447,2,0,P|196:230|192:251,1,29.9999990844727,2|2,0:0|0:0,0:0:0:0:
328,364,182604,5,2,0:0:0:0:
269,312,182762,1,0,0:0:0:0:
195,338,182920,1,2,0:0:0:0:
284,234,183078,1,0,0:0:0:0:
417,260,183236,5,2,0:0:0:0:
444,248,183315,1,2,0:0:0:0:
463,225,183394,1,2,0:0:0:0:
471,197,183473,1,2,0:0:0:0:
465,168,183552,1,2,0:0:0:0:
447,144,183631,1,2,0:0:0:0:
421,131,183710,1,2,0:0:0:0:
391,130,183789,1,2,0:0:0:0:
364,143,183868,5,2,0:0:0:0:
283,96,184025,1,2,0:0:0:0:
235,272,184183,5,2,0:0:0:0:
283,191,184341,1,2,0:0:0:0:
107,143,184499,5,2,0:0:0:0:
188,191,184657,1,2,0:0:0:0:
236,15,184815,5,2,0:0:0:0:
188,96,184973,1,2,0:0:0:0:
398,12,185131,6,0,L|408:89,1,69.9999978637696,10|0,0:0|0:0,0:0:0:0:
428,244,185289,2,0,L|407:89,1,139.999995727539,10|0,0:0|0:0,0:0:0:0:
225,341,185604,2,0,L|235:272,1,69.9999978637696,10|0,0:0|0:0,0:0:0:0:
255,109,185762,1,10,0:0:0:0:
214,102,185841,1,0,0:0:0:0:
175,117,185920,1,0,0:0:0:0:
148,148,185999,1,0,0:0:0:0:
120,179,186078,1,0,0:0:0:0:
81,193,186157,1,0,0:0:0:0:
40,186,186236,2,0,B|27:153|27:153|39:117,1,69.9999978637696,10|0,0:0|0:0,0:0:0:0:
131,315,186394,6,0,B|143:347|143:347|132:380,1,69.9999978637696,10|0,0:0|0:0,0:0:0:0:
295,229,186552,2,0,P|364:240|433:249,1,139.999995727539,10|0,0:0|0:0,0:0:0:0:
240,9,186868,2,0,P|228:62|217:104,1,69.9999978637696,10|0,0:0|0:0,0:0:0:0:
81,193,187025,1,10,0:0:0:0:
61,229,187104,1,0,0:0:0:0:
66,270,187183,1,0,0:0:0:0:
92,302,187262,1,0,0:0:0:0:
131,315,187341,1,0,0:0:0:0:
171,303,187420,1,0,0:0:0:0:
211,291,187499,1,0,0:0:0:0:
251,279,187578,1,0,0:0:0:0:
290,267,187657,6,0,B|300:233|300:233|281:198,1,69.9999978637696,10|0,0:0|0:0,0:0:0:0:
143,135,187815,2,0,P|33:163|-56:183,1,139.999995727539,10|0,0:0|0:0,0:0:0:0:
240,9,188131,6,0,B|269:29|269:29|281:62,1,69.9999978637696,10|0,0:0|0:0,0:0:0:0:
366,213,188289,2,0,B|369:177|369:177|391:150,1,69.9999978637696,10|0,0:0|0:0,0:0:0:0:
480,2,188447,2,0,B|435:53|435:53|359:42,1,139.999995727539,10|0,0:0|0:0,0:0:0:0:
171,303,188762,2,0,P|176:265|185:208,1,69.9999978637696,10|0,0:0|0:0,0:0:0:0:
89,20,188920,5,10,0:0:0:0:
81,50,188999,1,8,0:0:0:0:
73,81,189078,1,8,0:3:0:0:
65,112,189157,1,4,0:3:0:0:
13,159,189236,5,10,0:0:0:0:
25,204,189315,1,8,0:0:0:0:
37,251,189394,1,8,0:3:0:0:
50,299,189473,1,4,0:3:0:0:
101,345,189552,6,0,P|222:325|188:198,1,269.999991760254,10|0,0:0|0:0,0:0:0:0:
129,156,189868,6,0,P|123:177|115:199,1,44.999998626709,2|0,0:3|0:0,0:0:0:0:
152,276,190183,6,0,B|242:257|242:257|276:214|276:214|367:198,1,239.999992675781,6|0,3:1|0:0,0:0:0:0:
469,262,190657,1,0,3:0:0:0:
497,25,190815,2,0,P|486:84|475:143,1,119.999996337891,8|0,0:0|0:0,0:0:0:0:
315,297,191131,1,2,0:0:0:0:
384,170,191289,1,2,0:0:0:0:
210,80,191447,6,0,P|117:96|50:105,1,119.999996337891,2|0,3:1|0:0,0:0:0:0:
248,216,191762,2,0,P|307:206|367:197,1,119.999996337891,2|0,3:1|0:0,0:0:0:0:
133,377,192078,2,0,P|46:331|80:197,1,239.999992675781,10|2,0:0|0:0,0:0:0:0:
379,7,192710,6,0,P|466:53|432:187,1,239.999992675781,6|0,3:1|0:0,0:0:0:0:
355,273,193183,1,0,3:0:0:0:
213,104,193341,2,0,P|282:120|347:133,1,119.999996337891,8|0,0:0|0:0,0:0:0:0:
215,278,193657,1,2,0:0:0:0:
133,186,193815,1,2,0:0:0:0:
21,351,193973,6,0,P|99:345|126:279,1,119.999996337891,2|0,3:1|0:0,0:0:0:0:
317,233,194289,2,0,P|274:192|216:197,1,119.999996337891,0|2,3:0|0:0,0:0:0:0:
110,17,194604,2,0,B|89:107|89:107|115:155|115:155|97:245,1,239.999992675781,8|2,0:0|0:0,0:0:0:0:
402,367,195236,6,0,B|422:276|422:276|396:228|396:228|414:138,1,239.999992675781,6|0,3:1|0:0,0:0:0:0:
329,51,195710,1,0,3:0:0:0:
199,213,195868,2,0,P|280:198|342:192,1,119.999996337891,8|0,0:0|0:0,0:0:0:0:
97,100,196183,1,2,0:0:0:0:
195,19,196341,1,2,0:0:0:0:
106,214,196499,6,0,P|118:297|125:370,1,119.999996337891,2|0,3:1|0:0,0:0:0:0:
311,205,196815,2,0,P|299:122|292:49,1,119.999996337891,2|0,3:1|0:0,0:0:0:0:
456,350,197131,2,0,P|377:342|350:265,1,119.999996337891,10|0,0:0|0:0,0:0:0:0:
152,154,197447,5,2,0:0:0:0:
97,138,197552,5,2,0:0:0:0:
46,166,197657,5,2,0:0:0:0:
31,220,197762,6,0,B|53:382|53:382|99:304,1,239.999992675781,6|0,3:1|0:0,0:0:0:0:
178,229,198236,1,0,3:0:0:0:
20,76,198394,2,0,P|78:88|138:98,1,119.999996337891,8|0,0:0|0:0,0:0:0:0:
310,154,198710,1,2,0:0:0:0:
214,32,198868,1,2,0:0:0:0:
160,241,199025,6,0,P|169:326|172:370,1,119.999996337891,2|0,3:1|0:0,0:0:0:0:
329,145,199341,2,0,P|320:60|317:16,1,119.999996337891,0|2,3:0|0:0,0:0:0:0:
499,299,199657,2,0,P|466:293|414:289,1,59.9999981689454,8|0,0:0|0:0,0:0:0:0:
255,218,199815,2,0,P|288:224|340:228,1,59.9999981689454,8|0,0:0|0:0,0:0:0:0:
417,136,199973,2,0,P|411:169|407:221,1,59.9999981689454,10|0,0:0|0:0,0:0:0:0:
336,380,200131,2,0,P|342:347|346:295,1,59.9999981689454,8|0,0:0|0:0,0:0:0:0:
209,133,200289,6,0,B|76:118|139:241|6:226,1,239.999992675781,6|0,3:1|0:0,0:0:0:0:
179,229,200762,1,0,3:0:0:0:
11,14,200920,2,0,P|24:72|36:131,1,119.999996337891,8|0,0:0|0:0,0:0:0:0:
98,321,201236,1,2,0:0:0:0:
179,229,201394,1,2,0:0:0:0:
301,375,201552,6,0,P|227:359|159:358,1,119.999996337891,2|0,3:1|0:0,0:0:0:0:
344,234,201868,2,0,P|403:229|462:215,1,119.999996337891,0|0,3:1|0:0,0:0:0:0:
272,23,202183,2,0,P|266:100|255:243,2,179.999994506836,8|2|2,0:0|0:0|0:0,0:0:0:0:
38,173,202815,6,0,B|60:234|127:244|127:244|166:193|144:132,1,239.999992675781,6|0,3:1|0:0,0:0:0:0:
56,60,203289,1,0,3:0:0:0:
128,244,203447,2,0,P|120:324|116:377,1,119.999996337891,8|0,0:0|0:0,0:0:0:0:
254,201,203762,1,2,0:0:0:0:
145,115,203920,1,2,0:0:0:0:
299,33,204078,6,0,P|361:47|442:63,1,119.999996337891,2|0,3:1|0:0,0:0:0:0:
498,212,204394,2,0,P|439:198|380:187,1,119.999996337891,0|2,3:0|0:0,0:0:0:0:
239,340,204710,2,0,P|318:375|385:242,1,239.999992675781,8|2,0:0|0:0,0:0:0:0:
273,44,205341,6,0,P|194:9|127:142,1,239.999992675781,6|0,3:1|0:0,0:0:0:0:
99,215,205815,1,0,3:0:0:0:
0,32,205973,2,0,P|15:112|28:190,1,119.999996337891,8|0,0:0|0:0,0:0:0:0:
99,332,206289,1,2,0:0:0:0:
1,278,206447,1,0,0:0:0:0:
177,178,206604,6,0,P|267:195|316:204,1,119.999996337891,2|0,3:1|0:0,0:0:0:0:
413,333,206920,2,0,P|354:343|295:355,1,119.999996337891,0|0,3:0|0:0,0:0:0:0:
461,150,207236,2,0,B|432:79|432:79|408:266,1,239.999992675781,8|0,0:0|0:0,0:0:0:0:
51,234,207868,5,6,3:1:0:0:
26,267,207947,1,2,0:0:0:0:
24,308,208025,1,2,0:0:0:0:
44,344,208104,1,2,0:0:0:0:
82,362,208183,2,0,P|127:356|160:352,1,59.9999981689454,2|2,0:0|0:0,0:0:0:0:
222,252,208341,5,2,3:1:0:0:
218,210,208420,1,2,0:0:0:0:
214,168,208499,1,10,0:0:0:0:
211,126,208578,1,2,0:0:0:0:
207,84,208657,2,0,P|203:41|199:13,1,59.9999981689454,2|2,0:0|0:0,0:0:0:0:
346,182,208815,5,2,0:0:0:0:
342,224,208894,1,2,0:0:0:0:
338,266,208973,1,2,0:0:0:0:
335,308,209052,1,2,0:0:0:0:
331,350,209131,6,0,P|397:353|421:293,1,119.999996337891,2|0,3:1|0:0,0:0:0:0:
256,227,209447,2,0,P|180:250|112:266,1,119.999996337891,2|0,3:1|0:0,0:0:0:0:
352,39,209762,2,0,P|338:122|333:177,1,119.999996337891,10|0,0:0|0:0,0:0:0:0:
133,6,210078,2,0,P|140:46|146:85,1,59.9999981689454,10|0,0:0|0:0,0:0:0:0:
30,188,210236,2,0,P|23:148|17:109,1,59.9999981689454,10|0,0:0|0:0,0:0:0:0:
231,228,210394,5,6,3:1:0:0:
34,216,210552,1,2,0:0:0:0:
235,256,210710,1,14,0:0:0:0:
30,188,210868,1,2,0:0:0:0:
124,65,211025,2,0,P|132:146|145:222,1,139.999995727539,6|0,3:1|3:0,0:0:0:0:
363,378,211341,2,0,P|356:309|346:240,1,139.999995727539,14|0,0:0|0:0,0:0:0:0:
481,79,211657,5,6,3:1:0:0:
418,188,211815,1,2,0:0:0:0:
328,9,211973,1,14,0:0:0:0:
336,121,212131,1,2,3:1:0:0:
161,38,212289,1,6,0:1:0:0:
225,116,212447,1,2,3:1:0:0:
40,157,212604,1,14,0:0:0:0:
128,181,212762,1,2,0:0:0:0:
11,324,212920,6,0,B|116:305|116:305|172:336|172:336|277:314,1,279.999991455078,6|12,3:1|0:0,0:0:0:0:
378,215,213394,1,2,0:0:0:0:
230,37,213552,2,0,P|171:31|124:104,1,139.999995727539,6|0,3:1|3:1,0:0:0:0:
190,221,213789,2,0,P|257:222|295:167,1,139.999995727539,2|0,0:0|0:0,0:0:0:0:
194,97,214025,2,0,L|225:159,1,69.9999978637696,2|0,0:0|0:0,0:0:0:0:
378,358,214183,6,0,P|467:352|496:231,1,209.999993591309,6|0,3:1|0:0,0:0:0:0:
388,139,214499,2,0,P|403:207|417:275,1,139.999995727539,12|0,0:0|3:0,0:0:0:0:
258,383,214815,1,6,0:0:0:0:
229,384,214894,1,2,0:0:0:0:
195,376,214973,1,2,3:1:0:0:
160,351,215052,1,2,0:0:0:0:
135,308,215131,1,14,0:0:0:0:
130,252,215210,1,2,0:0:0:0:
123,189,215289,1,2,0:0:0:0:
78,135,215368,1,2,0:0:0:0:
1,122,215447,5,6,3:1:0:0:
228,99,215604,1,2,0:0:0:0:
29,195,215762,1,14,0:0:0:0:
200,26,215920,1,2,0:0:0:0:
272,243,216078,2,0,P|262:313|258:383,1,139.999995727539,6|0,3:1|0:0,0:0:0:0:
416,168,216394,2,0,P|411:98|401:28,1,139.999995727539,14|0,0:1|0:0,0:0:0:0:
165,190,216710,5,6,3:1:0:0:
105,52,216868,1,2,0:0:0:0:
260,218,217025,1,14,0:0:0:0:
274,84,217183,1,2,3:1:0:0:
326,289,217341,1,6,0:0:0:0:
398,191,217499,1,2,3:1:0:0:
349,384,217657,1,14,0:0:0:0:
449,341,217815,1,2,0:0:0:0:
260,218,217973,6,0,B|104:206|183:347|28:334,1,279.999991455078,6|12,3:1|0:0,0:0:0:0:
124,141,218447,1,0,0:0:0:0:
326,289,218604,2,0,P|355:220|323:143,1,139.999995727539,6|0,3:1|3:2,0:0:0:0:
239,79,218841,2,0,P|249:148|260:218,1,139.999995727539,2|0,0:0|0:0,0:0:0:0:
231,310,219078,2,0,P|196:309|164:283,1,69.9999978637696,2|0,0:0|0:0,0:0:0:0:
102,51,219236,6,0,B|87:130|87:130|111:172|111:172|94:251,1,209.999993591309,6|0,3:1|0:0,0:0:0:0:
0,325,219552,2,0,B|24:187,1,139.999995727539,14|0,0:0|3:1,0:0:0:0:
199,9,219868,2,0,P|206:57|221:133,1,69.9999978637696,8|0,0:0|0:0,0:0:0:0:
288,221,220025,1,8,0:0:0:0:
336,246,220104,1,8,0:0:0:0:
391,243,220183,1,8,0:0:0:0:
438,213,220262,1,8,0:0:0:0:
463,164,220341,1,8,0:0:0:0:
459,109,220420,1,8,0:0:0:0:
393,79,220499,6,0,P|417:245|431:358,1,239.999992675781,2|0,3:1|0:0,0:0:0:0:
351,380,220973,1,0,3:1:0:0:
200,261,221131,2,0,P|127:278|0:301,2,179.999994506836,8|2|2,0:0|0:0|0:0,0:0:0:0:
37,70,221762,6,0,P|58:143|76:217,1,119.999996337891,2|0,3:1|0:0,0:0:0:0:
225,4,222078,2,0,P|204:77|186:151,1,119.999996337891,0|0,3:0|0:0,0:0:0:0:
336,308,222394,2,0,P|415:260|421:174,2,179.999994506836,10|2|2,0:0|0:0|0:0,0:0:0:0:
119,290,223025,6,0,B|209:271|209:271|243:228|243:228|334:212,1,239.999992675781,2|0,3:1|0:0,0:0:0:0:
459,323,223499,1,0,3:0:0:0:
511,127,223657,2,0,B|496:1|496:1|469:65,2,179.999994506836,8|2|2,0:0|0:0|0:0,0:0:0:0:
425,329,224289,6,0,P|431:259|438:200,1,119.999996337891,2|0,3:1|0:0,0:0:0:0:
268,81,224604,2,0,P|262:151|255:210,1,119.999996337891,0|0,3:0|0:0,0:0:0:0:
115,373,224920,2,0,P|190:306|285:339,2,179.999994506836,10|2|2,0:0|0:0|0:0,0:0:0:0:
3,250,225552,6,0,B|27:152|27:152|1:98|1:98|29:2|29:2|45:105|148:89|148:89|254:72|267:175,1,600,6|0,3:1|0:0,0:0:0:0:
333,242,226815,6,0,P|424:250|453:186,1,160,6|0,3:1|0:0,0:0:0:0:
304,54,227289,2,0,P|226:72|147:89,1,160,6|0,3:1|0:0,0:0:0:0:
1,269,227762,2,0,P|31:214|102:215,1,120,6|0,3:1|0:0,0:0:0:0:
156,254,228078,5,6,3:1:0:0:
154,269,228157,1,2,0:0:0:0:
152,284,228236,1,2,0:0:0:0:
151,299,228315,1,2,0:0:0:0:
149,315,228394,1,2,0:0:0:0:
148,330,228473,1,2,0:0:0:0:
146,345,228552,1,2,0:0:0:0:
145,361,228631,1,2,0:0:0:0:
143,376,228710,5,10,0:0:0:0:
199,340,228789,1,8,0:0:0:0:
219,283,228868,1,8,0:3:0:0:
204,231,228947,1,8,0:3:0:0:
169,198,229025,1,8,0:3:0:0:
136,169,229104,1,8,0:3:0:0:
120,136,229183,1,4,0:3:0:0:
119,105,229262,1,4,0:3:0:0:
169,45,229341,5,8,0:0:0:0:
239,28,229420,1,8,0:0:0:0:
303,61,229499,1,8,0:0:0:0:
330,127,229578,1,8,0:0:0:0:
309,196,229657,1,10,0:0:0:0:
288,265,229736,1,8,0:0:0:0:
317,331,229815,1,8,0:0:0:0:
381,364,229894,1,8,0:0:0:0:
451,348,229973,1,10,0:0:0:0:
494,291,230052,1,8,0:0:0:0:
491,218,230131,1,8,0:0:0:0:
442,165,230210,1,8,0:0:0:0:
370,157,230289,1,10,0:0:0:0:
309,196,230368,1,8,0:0:0:0:
248,235,230447,1,8,0:0:0:0:
176,227,230525,1,8,0:0:0:0:
126,173,230604,6,0,P|132:145|141:78,1,69.9999978637696,10|0,0:0|0:0,0:0:0:0:
328,6,230762,2,0,P|322:34|313:101,1,69.9999978637696,10|0,0:0|0:0,0:0:0:0:
184,378,231868,6,0,P|189:349|198:282,1,69.9999978637696,10|0,0:0|0:0,0:0:0:0:
385,210,232025,2,0,P|380:239|371:306,1,69.9999978637696,10|0,0:0|0:0,0:0:0:0:
385,210,232499,6,0,P|380:239|371:306,1,69.9999978637696,10|0,0:0|0:0,0:0:0:0:
184,378,232657,2,0,P|189:349|198:282,1,69.9999978637696,10|0,0:0|0:0,0:0:0:0:
194,308,233131,5,6,3:1:0:0:
190,302,233447,1,0,3:1:0:0:
186,296,233762,1,2,3:1:0:0:
182,290,234078,1,0,3:1:0:0:
178,284,234394,5,12,0:0:0:0:
140,228,234473,1,0,3:1:0:0:
145,164,234552,1,0,3:1:0:0:
187,116,234631,1,0,3:1:0:0:
250,103,234710,2,0,P|280:111|322:118,1,59.9999981689454,2|0,3:1|3:1,3:1:0:0:
468,203,234868,5,12,0:0:0:0:
506,259,234947,1,0,3:1:0:0:
501,323,235025,1,2,3:1:0:0:
459,371,235104,1,0,3:1:0:0:
396,384,235183,2,0,P|366:376|324:369,1,59.9999981689454,0|0,3:1|3:1,3:1:0:0:
178,284,235341,6,0,B|86:281|51:372|51:372|-6:334|29:266,1,269.999991760254,14|0,0:0|0:0,0:0:0:0:
77,208,235657,5,6,0:1:0:0:
93,162,235736,1,0,0:1:0:0:
82,115,235815,1,0,0:1:0:0:
71,69,235894,1,0,0:1:0:0:
94,27,235973,1,8,0:1:0:0:
140,10,236052,1,0,0:1:0:0:
184,28,236131,2,0,P|193:77|196:116,1,69.9999978637696,2|0,0:1|0:1,0:1:0:0:
288,189,236289,5,2,0:1:0:0:
300,194,236368,1,0,0:1:0:0:
314,197,236447,1,0,0:1:0:0:
328,197,236525,1,0,0:1:0:0:
342,195,236604,1,8,0:1:0:0:
355,190,236683,1,0,0:1:0:0:
367,183,236762,1,0,0:1:0:0:
378,174,236841,1,0,0:1:0:0:
387,164,236920,5,2,0:1:0:0:
332,156,236999,1,0,0:1:0:0:
281,179,237078,1,0,0:1:0:0:
251,225,237157,1,0,0:1:0:0:
251,280,237236,1,8,0:1:0:0:
280,327,237315,1,0,0:1:0:0:
330,351,237394,1,0,0:1:0:0:
385,345,237473,1,0,0:1:0:0:
427,310,237552,6,0,P|441:263|415:217,3,69.9999978637696,6|0|0|0,0:1|0:1|0:1|0:1,0:1:0:0:
507,175,237868,2,0,P|483:131|432:117,3,69.9999978637696,14|0|0|0,0:1|0:1|0:1|0:1,0:1:0:0:
467,23,238183,5,6,0:1:0:0:
417,16,238261,1,0,0:1:0:0:
372,34,238340,1,0,0:1:0:0:
341,70,238419,1,0,0:1:0:0:
328,118,238498,1,8,0:1:0:0:
324,166,238578,1,0,0:1:0:0:
297,206,238657,1,0,0:1:0:0:
255,230,238736,1,0,0:1:0:0:
207,232,238815,1,0,0:1:0:0:
164,210,238894,1,0,0:1:0:0:
135,171,238973,1,0,0:1:0:0:
128,122,239052,1,0,0:1:0:0:
144,77,239131,2,0,P|134:26|126:-8,3,69.9999978637696,10|0|0|0,0:1|0:1|0:1|0:1,0:1:0:0:
56,154,239447,5,10,0:1:0:0:
36,228,239525,1,8,0:1:0:0:
98,274,239604,2,0,P|132:266|167:259,1,69.9999978637696,0|0,0:1|0:1,0:1:0:0:
324,166,239762,5,8,0:1:0:0:
344,92,239840,1,8,0:1:0:0:
281,45,239919,2,0,P|246:53|212:60,1,69.9999978637696,0|0,0:1|0:1,0:1:0:0:
299,284,240078,5,10,0:1:0:0:
355,333,240157,1,8,0:1:0:0:
426,325,240236,1,0,0:1:0:0:
471,278,240315,1,0,0:1:0:0:
476,222,240394,1,8,0:3:0:0:
457,179,240473,1,8,0:3:0:0:
423,154,240552,1,4,0:3:0:0:
391,145,240631,1,4,0:3:0:0:
324,166,240710,5,6,0:1:0:0:
280,188,240789,1,0,0:1:0:0:
232,191,240868,1,0,0:1:0:0:
186,175,240947,1,0,0:1:0:0:
149,143,241025,1,8,0:1:0:0:
128,99,241104,1,0,0:1:0:0:
89,72,241183,1,0,0:1:0:0:
41,78,241262,1,0,0:1:0:0:
9,114,241341,6,0,P|22:164|23:203,3,69.9999978637696,2|0|0|0,0:1|0:1|0:1|0:1,0:1:0:0:
109,220,241657,2,0,P|96:270|95:309,3,69.9999978637696,10|0|0|0,0:1|0:1|0:1|0:1,0:1:0:0:
31,370,241973,5,2,0:1:0:0:
78,381,242052,1,0,0:1:0:0:
126,374,242131,1,0,0:1:0:0:
168,349,242210,1,0,0:1:0:0:
198,311,242289,1,8,0:1:0:0:
235,279,242368,1,0,0:1:0:0:
282,270,242447,1,0,0:1:0:0:
329,284,242525,1,0,0:1:0:0:
362,319,242604,5,2,0:1:0:0:
307,322,242683,1,0,0:1:0:0:
261,292,242762,1,0,0:1:0:0:
241,241,242841,1,0,0:1:0:0:
255,188,242920,1,8,0:1:0:0:
298,153,242999,1,0,0:1:0:0:
335,112,243078,1,0,0:1:0:0:
328,56,243157,1,0,0:1:0:0:
279,28,243236,5,2,0:1:0:0:
250,83,243315,1,0,0:1:0:0:
259,144,243394,1,0,0:1:0:0:
301,189,243473,1,0,0:1:0:0:
362,201,243552,1,8,0:1:0:0:
419,176,243631,1,0,0:1:0:0:
451,123,243710,5,2,0:1:0:0:
485,183,243789,1,0,0:1:0:0:
484,252,243868,1,0,0:1:0:0:
447,310,243947,1,0,0:1:0:0:
385,340,244025,1,0,0:1:0:0:
316,334,244104,1,0,0:1:0:0:
261,293,244183,2,0,P|227:285|194:297,3,69.9999978637696,10|0|0|0,0:1|0:1|0:1|0:1,0:1:0:0:
100,366,244499,5,2,0:1:0:0:
63,324,244578,1,0,0:1:0:0:
53,270,244657,1,0,0:1:0:0:
73,218,244736,1,0,0:1:0:0:
98,169,244815,1,8,0:1:0:0:
94,114,244894,1,0,0:1:0:0:
61,69,244973,5,2,0:1:0:0:
31,107,245052,1,0,0:1:0:0:
28,155,245131,1,0,0:1:0:0:
51,197,245210,1,0,0:1:0:0:
94,219,245289,1,0,0:1:0:0:
142,213,245368,1,0,0:1:0:0:
178,182,245447,2,0,P|186:147|179:113,3,69.9999978637696,10|0|0|0,0:1|0:1|0:1|0:1,0:1:0:0:
286,27,245762,5,2,0:1:0:0:
282,47,245841,1,0,0:1:0:0:
279,68,245920,1,0,0:1:0:0:
276,89,245999,1,0,0:1:0:0:
273,110,246078,1,8,0:1:0:0:
270,130,246157,1,0,0:1:0:0:
267,151,246236,1,0,0:1:0:0:
264,172,246315,1,0,0:1:0:0:
261,193,246394,5,2,0:1:0:0:
309,155,246473,1,0,0:1:0:0:
369,167,246552,1,0,0:1:0:0:
402,221,246631,1,0,0:1:0:0:
386,280,246710,1,8,0:1:0:0:
374,340,246789,1,0,0:1:0:0:
416,380,246868,1,0,0:1:0:0:
476,366,246947,1,0,0:1:0:0:
495,310,247025,5,2,0:1:0:0:
443,289,247104,1,0,0:1:0:0:
387,287,247183,1,0,0:1:0:0:
335,306,247262,1,0,0:1:0:0:
293,343,247341,1,8,0:1:0:0:
241,365,247420,1,0,0:1:0:0:
189,343,247499,5,2,0:1:0:0:
226,312,247578,1,0,0:1:0:0:
240,265,247657,1,0,0:1:0:0:
227,219,247736,1,0,0:1:0:0:
191,187,247815,1,0,0:1:0:0:
143,180,247894,1,0,0:1:0:0:
99,200,247973,5,10,0:1:0:0:
37,171,248052,1,0,0:1:0:0:
15,106,248131,1,0,0:1:0:0:
46,46,248210,1,0,0:1:0:0:
112,26,248289,6,8,P|179:37|213:42,1,69.9999978637696,8|8,0:1|0:1,0:1:0:0:
351,165,248447,1,8,0:1:0:0:
349,240,248525,1,8,0:1:0:0:
299,297,248604,1,8,0:3:0:0:
226,312,248683,1,4,0:3:0:0:
158,278,248762,6,8,P|149:218|149:173,1,69.9999978637696,8|8,0:1|0:1,0:1:0:0:
10,36,248920,1,8,0:1:0:0:
85,46,248999,1,8,0:1:0:0:
161,55,249078,1,8,0:3:0:0:
238,64,249157,1,4,0:3:0:0:
315,72,249236,6,8,P|372:69|438:68,1,69.9999978637696,8|8,0:1|0:1,0:1:0:0:
488,251,249394,1,8,0:1:0:0:
441,310,249472,1,8,0:1:0:0:
368,328,249552,1,8,0:3:0:0:
299,297,249631,1,4,0:3:0:0:
265,230,249710,6,8,P|273:179|281:130,1,69.9999978637696,8|8,0:1|0:1,0:1:0:0:
174,8,249868,2,8,P|153:45|153:92,3,69.9999978637696,8|8|8|8,0:3|0:3|0:3|0:3,0:3:0:0:
65,95,250183,2,0,P|69:137|95:175,3,69.9999978637696,0|0|0|0,0:3|0:3|0:3|0:3,0:3:0:0:
25,228,250499,2,4,P|52:260|96:276,3,69.9999978637696,4|4|4|4,0:3|0:3|0:3|0:3,0:3:0:0:
68,359,250815,5,6,0:1:0:0:
121,373,250894,1,0,0:1:0:0:
176,363,250973,1,8,0:1:0:0:
221,331,251052,1,0,0:1:0:0:
249,283,251131,1,0,0:1:0:0:
276,234,251210,1,0,0:1:0:0:
321,202,251289,1,8,0:1:0:0:
376,192,251368,1,0,0:1:0:0:
430,207,251447,6,0,P|447:251|437:282,3,80,2|0|8|0,0:1|0:1|0:1|0:1,0:1:0:0:
510,130,251762,2,0,P|493:86|503:55,3,80,2|0|8|0,0:1|0:1|0:1|0:1,0:1:0:0:
400,79,252078,5,2,0:1:0:0:
345,92,252157,1,0,0:1:0:0:
290,83,252236,1,8,0:1:0:0:
242,55,252315,1,0,0:1:0:0:
194,28,252394,1,0,0:1:0:0:
138,29,252473,1,0,0:1:0:0:
92,59,252552,1,8,0:1:0:0:
68,109,252631,1,0,0:1:0:0:
73,164,252710,5,6,0:1:0:0:
125,127,252789,1,0,0:1:0:0:
188,121,252868,1,8,0:1:0:0:
246,147,252947,1,0,0:1:0:0:
284,197,253025,1,0,0:1:0:0:
293,260,253104,1,0,0:1:0:0:
271,319,253183,1,8,0:1:0:0:
222,359,253262,1,0,0:1:0:0:
160,371,253341,5,6,0:1:0:0:
182,303,253420,1,0,0:1:0:0:
236,257,253499,1,8,0:1:0:0:
306,245,253578,1,0,0:1:0:0:
373,271,253657,1,0,0:1:0:0:
444,263,253736,1,0,0:1:0:0:
488,205,253815,2,0,P|493:166|480:129,1,80,10|0,0:1|0:1,0:1:0:0:
361,34,253973,5,2,0:1:0:0:
337,37,254052,1,0,0:1:0:0:
313,42,254131,1,8,0:1:0:0:
289,46,254210,1,0,0:1:0:0:
266,51,254289,1,0,0:1:0:0:
242,55,254368,1,0,0:1:0:0:
218,59,254447,1,8,0:1:0:0:
194,63,254525,1,0,0:1:0:0:
172,68,254604,2,0,P|126:61|102:11,3,80,6|0|8|0,0:1|0:1|0:1|0:1,0:1:0:0:
27,136,254920,5,2,0:1:0:0:
38,190,254999,1,0,0:1:0:0:
49,244,255078,2,0,L|67:328,1,80,8|0,0:1|0:1,0:1:0:0:
259,166,255236,5,2,0:1:0:0:
209,140,255315,1,0,0:1:0:0:
172,182,255394,2,0,P|181:234|192:309,1,80,8|0,0:1|0:1,0:1:0:0:
318,352,255552,5,2,0:1:0:0:
368,378,255631,1,0,0:1:0:0:
405,336,255710,2,0,P|396:284|385:209,1,80,8|0,0:1|0:1,0:1:0:0:
266,51,255868,5,6,0:1:0:0:
287,101,255947,1,0,0:1:0:0:
337,124,256025,1,8,0:1:0:0:
389,109,256104,1,0,0:1:0:0:
436,78,256183,1,0,0:1:0:0:
490,89,256262,1,0,0:1:0:0:
511,140,256341,2,0,P|505:202|503:249,1,80,10|0,0:1|0:1,0:1:0:0:
405,336,256499,5,2,0:1:0:0:
389,333,256578,1,0,0:1:0:0:
373,331,256657,1,8,0:1:0:0:
357,329,256736,1,0,0:1:0:0:
341,327,256815,1,0,0:1:0:0:
325,325,256894,1,0,0:1:0:0:
309,323,256973,1,8,0:1:0:0:
293,321,257052,1,0,0:1:0:0:
278,319,257131,5,2,0:1:0:0:
314,267,257210,1,0,0:1:0:0:
315,205,257289,1,8,0:1:0:0:
277,154,257368,1,0,0:1:0:0:
217,136,257447,1,0,0:1:0:0:
158,157,257525,1,0,0:1:0:0:
123,209,257604,1,8,0:1:0:0:
62,230,257683,1,0,0:1:0:0:
8,195,257762,6,0,P|16:139|61:117,3,80,6|0|8|0,0:1|0:1|0:1|0:1,0:1:0:0:
86,304,258078,2,0,P|78:360|33:382,3,80,6|0|8|0,0:1|0:1|0:1|0:1,0:1:0:0:
194,244,258394,5,6,0:1:0:0:
245,222,258473,1,0,0:1:0:0:
298,233,258552,1,8,0:1:0:0:
339,270,258631,1,0,0:1:0:0:
353,324,258710,1,0,0:1:0:0:
387,366,258789,1,0,0:1:0:0:
441,375,258868,1,8,0:1:0:0:
488,345,258947,1,0,0:1:0:0:
502,292,259025,1,0,0:1:0:0:
479,242,259104,1,0,0:1:0:0:
453,193,259182,1,8,0:1:0:0:
460,137,259261,1,0,0:1:0:0:
484,86,259341,2,0,P|483:41|478:-26,3,80,2|0|8|0,0:1|0:1|0:1|0:1,0:1:0:0:
377,116,259657,5,8,0:1:0:0:
328,62,259736,1,8,0:1:0:0:
264,54,259815,1,0,0:1:0:0:
213,78,259894,1,0,0:1:0:0:
177,110,259973,1,8,0:3:0:0:
137,104,260052,1,8,0:3:0:0:
116,79,260131,1,4,0:3:0:0:
120,55,260210,1,4,0:3:0:0:
133,46,260289,5,10,0:1:0:0:
202,95,260394,5,8,0:1:0:0:
175,174,260499,5,8,0:1:0:0:
93,172,260604,5,10,0:1:0:0:
68,252,260710,5,8,0:1:0:0:
135,301,260815,5,8,0:1:0:0:
198,253,260920,6,0,B|74:239|133:354|9:340,1,225.000008583069,6|0,3:1|3:0,0:0:0:0:
186,347,261552,2,0,P|246:333|348:314,1,150.000005722046,2|2,0:0|3:1,0:0:0:0:
201,154,262183,2,0,B|168:107|96:102|40:134|26:193|26:193|68:195|92:147,1,300.000011444092,14|2,0:0|0:0,0:0:0:0:
452,125,263447,6,0,P|410:28|304:31,1,225.000008583069,6|2,3:1|0:0,0:0:0:0:
211,126,264078,2,0,P|285:116|360:109,1,150.000005722046,0|2,3:0|0:0,0:0:0:0:
507,361,264710,2,0,P|401:364|358:267,2,225.000008583069,14|2|2,0:0|0:0|0:0,0:0:0:0:
358,187,265973,6,0,P|227:219|104:244,1,225.000008583069,6|0,3:1|3:0,0:0:0:0:
52,299,266604,2,0,P|128:310|223:328,1,150.000005722046,2|0,0:0|3:0,0:0:0:0:
385,100,267236,2,0,B|337:40|337:40|358:187,2,225.000008583069,14|2|2,0:0|0:0|0:0,0:0:0:0:
480,359,268499,6,0,B|365:346|365:346|319:296|319:296|204:286,1,300.000011444092,6|0,3:1|0:0,0:0:0:0:
32,25,269762,2,0,B|147:38|147:38|193:88|193:88|308:98,1,300.000011444092,12|2,0:0|0:0,0:0:0:0:
308,98,270710,1,2,0:0:0:0:
39,222,271025,6,8,L|44:259,3,37.5000014305115,10|8|8|8,3:1|0:0|0:0|0:0,0:0:0:0:
132,305,271341,6,8,L|124:255,3,50,8|8|8|8,3:1|0:0|0:0|0:0,0:0:0:0:
191,172,271657,6,8,L|200:233,3,62.5,10|8|8|8,3:1|0:0|0:0|0:0,0:0:0:0:
292,305,271973,6,8,L|280:230,3,75.0000028610231,8|8|8|8,3:1|0:0|0:0|0:0,0:0:0:0:
344,122,272289,5,10,3:1:0:0:
388,102,272368,1,8,0:0:0:0:
436,104,272447,1,8,0:0:0:0:
478,128,272525,1,8,0:0:0:0:
505,168,272604,1,8,3:1:0:0:
511,216,272683,1,8,0:0:0:0:
494,262,272762,1,10,0:0:0:0:
458,295,272841,1,8,0:0:0:0:
411,308,272920,5,8,3:1:0:0:
403,239,272999,1,8,0:0:0:0:
427,174,273078,1,8,0:0:0:0:
478,128,273157,1,8,0:0:0:0:
477,58,273236,1,10,3:1:0:0:
419,17,273315,1,8,0:0:0:0:
351,35,273394,1,8,0:0:0:0:
328,101,273473,1,8,0:0:0:0:
264,131,273552,5,6,0:1:0:0:
216,131,273631,1,0,0:1:0:0:
176,106,273710,1,8,0:1:0:0:
156,63,273789,1,0,0:1:0:0:
115,40,273867,1,0,0:1:0:0:
67,44,273947,1,0,0:1:0:0:
29,72,274025,1,8,0:1:0:0:
12,116,274104,1,0,0:1:0:0:
22,162,274183,5,2,0:1:0:0:
90,148,274262,1,0,0:1:0:0:
151,184,274341,1,8,0:1:0:0:
171,251,274420,1,0,0:1:0:0:
178,321,274499,1,0,0:1:0:0:
232,366,274578,1,0,0:1:0:0:
301,360,274657,1,8,0:1:0:0:
347,306,274736,1,0,0:1:0:0:
341,236,274815,5,2,0:1:0:0:
291,239,274894,1,0,0:1:0:0:
247,258,274973,1,8,0:1:0:0:
212,290,275052,1,0,0:1:0:0:
190,332,275131,1,0,0:1:0:0:
158,367,275210,1,0,0:1:0:0:
114,380,275289,1,8,0:1:0:0:
68,365,275368,1,0,0:1:0:0:
39,329,275447,5,2,0:1:0:0:
35,258,275525,1,0,0:1:0:0:
73,198,275604,1,8,0:1:0:0:
139,172,275683,1,0,0:1:0:0:
202,141,275761,1,0,0:1:0:0:
220,74,275840,1,0,0:1:0:0:
182,15,275919,1,8,0:1:0:0:
113,5,275998,1,0,0:1:0:0:
60,50,276078,5,2,0:1:0:0:
110,99,276157,1,0,0:1:0:0:
179,118,276236,1,8,0:1:0:0:
248,101,276315,1,0,0:1:0:0:
300,53,276394,1,0,0:1:0:0:
368,27,276473,1,0,0:1:0:0:
438,42,276552,5,10,0:1:0:0:
389,69,276631,1,0,0:1:0:0:
354,113,276710,1,0,0:1:0:0:
337,166,276789,1,0,0:1:0:0:
340,221,276868,1,8,0:1:0:0:
362,272,276947,1,0,0:1:0:0:
402,312,277025,5,2,0:1:0:0:
430,284,277104,1,0,0:1:0:0:
441,246,277183,1,8,0:1:0:0:
434,207,277262,1,0,0:1:0:0:
409,176,277341,5,2,0:1:0:0:
386,182,277420,1,0,0:1:0:0:
363,187,277499,1,8,0:1:0:0:
340,193,277578,1,0,0:1:0:0:
316,199,277657,1,0,0:1:0:0:
293,205,277736,1,0,0:1:0:0:
270,211,277815,1,8,0:1:0:0:
247,217,277894,1,0,0:1:0:0:
222,223,277973,6,0,P|183:218|155:190,3,80,2|0|8|0,0:1|0:1|0:1|0:1,0:1:0:0:
44,315,278289,2,0,P|72:287|111:282,3,80,2|0|8|0,0:1|0:1|0:1|0:1,0:1:0:0:
181,372,278604,5,6,0:1:0:0:
233,383,278683,1,0,0:1:0:0:
286,367,278762,1,8,0:1:0:0:
322,326,278841,1,0,0:1:0:0:
359,285,278920,1,0,0:1:0:0:
412,268,278999,1,0,0:1:0:0:
465,281,279078,5,10,0:1:0:0:
405,296,279157,1,0,0:1:0:0:
348,268,279236,1,0,0:1:0:0:
327,209,279315,1,0,0:1:0:0:
352,151,279394,1,8,0:1:0:0:
409,125,279473,1,0,0:1:0:0:
467,143,279552,5,2,0:1:0:0:
499,82,279631,1,0,0:1:0:0:
470,19,279710,1,8,0:1:0:0:
402,4,279789,1,0,0:1:0:0:
349,49,279868,5,2,0:1:0:0:
326,42,279947,1,0,0:1:0:0:
303,35,280025,2,0,L|194:2,1,80,8|0,0:1|0:1,0:1:0:0:
106,87,280183,5,2,0:1:0:0:
129,94,280262,1,0,0:1:0:0:
152,101,280341,2,0,L|261:134,1,80,8|0,0:1|0:1,0:1:0:0:
348,268,280499,5,2,0:1:0:0:
371,226,280578,1,0,0:1:0:0:
346,184,280657,2,0,P|283:198|223:209,1,80,8|0,0:1|0:1,0:1:0:0:
53,314,280815,5,2,0:1:0:0:
94,373,280894,1,0,0:1:0:0:
155,335,280973,2,0,P|149:261|146:228,1,80,8|0,0:1|0:1,0:1:0:0:
13,21,281131,5,2,0:1:0:0:
10,84,281210,1,0,0:1:0:0:
39,139,281289,1,8,0:1:0:0:
91,174,281368,1,0,0:1:0:0:
154,178,281447,1,0,0:1:0:0:
212,151,281525,1,0,0:1:0:0:
248,99,281604,5,10,0:1:0:0:
287,102,281683,1,0,0:0:0:0:
322,120,281762,1,0,0:0:0:0:
348,150,281841,1,0,0:0:0:0:
360,188,281920,1,8,0:1:0:0:
356,228,281999,1,0,0:0:0:0:
337,263,282078,5,2,0:1:0:0:
394,224,282157,1,0,0:1:0:0:
463,237,282236,1,8,0:1:0:0:
503,296,282315,1,0,0:1:0:0:
490,365,282394,6,0,B|452:379|452:379|402:355,1,80,2|0,0:1|0:1,0:1:0:0:
251,225,282552,1,8,0:1:0:0:
176,195,282631,1,8,0:1:0:0:
111,227,282710,1,8,0:3:0:0:
88,286,282789,1,8,0:3:0:0:
101,340,282868,1,4,0:3:0:0:
135,373,282947,1,4,0:3:0:0:
197,324,283025,5,8,0:1:0:0:
199,252,283104,1,8,0:1:0:0:
202,180,283183,1,8,0:1:0:0:
205,108,283262,1,8,0:1:0:0:
208,35,283341,2,0,B|172:19|172:19|128:34,3,80,8|8|4|4,0:3|0:3|0:3|0:3,0:1:0:0:
64,127,283657,5,6,0:1:0:0:
80,170,283736,1,0,0:1:0:0:
112,207,283815,1,8,0:1:0:0:
156,227,283894,1,0,0:1:0:0:
203,235,283973,1,0,0:1:0:0:
251,225,284052,1,0,0:1:0:0:
289,197,284131,1,8,0:1:0:0:
317,159,284210,1,0,0:1:0:0:
331,113,284289,5,2,0:1:0:0:
397,89,284368,1,0,0:1:0:0:
463,113,284447,1,8,0:1:0:0:
499,174,284525,1,0,0:1:0:0:
488,243,284604,1,0,0:1:0:0:
436,290,284683,1,0,0:1:0:0:
365,293,284762,1,8,0:1:0:0:
297,317,284841,1,0,0:1:0:0:
255,375,284920,5,2,0:1:0:0:
220,341,284999,1,0,0:1:0:0:
203,296,285078,1,8,0:1:0:0:
206,249,285157,1,0,0:1:0:0:
228,207,285236,1,0,0:1:0:0:
251,164,285315,1,0,0:1:0:0:
254,117,285394,1,8,0:1:0:0:
236,73,285473,1,0,0:1:0:0:
202,40,285552,5,2,0:1:0:0:
198,110,285631,1,0,0:1:0:0:
147,158,285710,1,8,0:1:0:0:
77,157,285789,1,0,0:1:0:0:
25,205,285868,1,0,0:1:0:0:
17,275,285947,1,0,0:1:0:0:
59,332,286025,1,8,0:1:0:0:
128,347,286104,1,0,0:1:0:0:
189,312,286183,5,2,0:1:0:0:
250,277,286262,1,0,0:1:0:0:
319,292,286341,1,8,0:1:0:0:
361,349,286420,1,0,0:1:0:0:
428,366,286499,1,0,0:1:0:0:
487,328,286578,1,0,0:1:0:0:
498,259,286657,5,10,0:1:0:0:
444,267,286736,1,0,0:1:0:0:
391,249,286815,1,0,0:1:0:0:
353,209,286894,1,0,0:1:0:0:
338,156,286973,1,8,0:1:0:0:
349,101,287052,1,0,0:1:0:0:
383,58,287131,5,2,0:1:0:0:
419,77,287210,1,0,0:1:0:0:
433,114,287289,1,8,0:1:0:0:
422,152,287368,1,0,0:1:0:0:
386,169,287447,5,2,0:1:0:0:
362,162,287525,1,0,0:1:0:0:
338,156,287604,2,0,L|256:137,1,80,8|0,0:1|0:1,0:1:0:0:
162,13,287762,5,2,0:1:0:0:
186,20,287840,1,0,0:1:0:0:
210,26,287920,2,0,L|292:45,1,80,8|0,0:1|0:1,0:1:0:0:
89,202,288078,5,2,0:1:0:0:
78,146,288157,1,0,0:1:0:0:
68,90,288236,2,0,L|53:7,1,80,12|0,0:1|0:1,0:1:0:0:
256,170,288394,5,2,0:1:0:0:
245,226,288473,1,0,0:1:0:0:
235,282,288552,2,0,L|220:365,1,80,12|0,0:1|0:1,0:1:0:0:
512,104,288710,5,2,0:1:0:0:
448,59,288789,1,0,0:1:0:0:
375,82,288868,1,8,0:1:0:0:
348,155,288947,1,0,0:1:0:0:
390,220,289025,1,0,0:1:0:0:
412,296,289104,1,0,0:1:0:0:
361,358,289183,5,10,0:1:0:0:
290,350,289262,1,0,0:1:0:0:
244,297,289341,1,0,0:1:0:0:
245,226,289420,1,0,0:1:0:0:
246,155,289499,1,8,0:1:0:0:
200,102,289578,1,0,0:1:0:0:
128,93,289657,2,0,B|90:101|90:101|64:132,3,80,2|0|8|0,0:1|0:1|0:1|0:1,0:1:0:0:
10,227,289973,5,2,0:1:0:0:
61,249,290052,1,0,0:1:0:0:
116,247,290131,1,8,0:1:0:0:
165,221,290210,1,0,0:1:0:0:
193,172,290289,1,0,0:1:0:0:
246,155,290368,1,0,0:1:0:0:
296,177,290447,5,10,0:1:0:0:
247,216,290525,1,0,0:1:0:0:
229,277,290604,1,0,0:1:0:0:
249,337,290683,1,0,0:1:0:0:
300,374,290762,1,8,0:1:0:0:
363,376,290841,1,0,0:1:0:0:
416,341,290920,2,0,P|429:304|417:267,3,80,2|0|8|0,0:1|0:1|0:1|0:1,0:1:0:0:
501,187,291236,5,10,0:1:0:0:
431,149,291315,1,8,0:1:0:0:
354,161,291394,1,10,0:1:0:0:
299,217,291473,1,8,0:1:0:0:
289,294,291552,2,0,P|294:334|300:374,1,80,8|4,0:3|0:3,0:1:0:0:
107,149,291710,5,10,0:1:0:0:
55,204,291789,1,8,0:1:0:0:
80,276,291868,1,8,0:1:0:0:
156,285,291947,1,8,0:1:0:0:
199,223,292025,2,0,P|193:153|190:109,1,80,8|4,0:3|0:3,0:1:0:0:
330,4,292183,5,10,0:1:0:0:
341,82,292262,1,8,0:1:0:0:
354,161,292341,1,8,0:1:0:0:
365,241,292420,1,8,0:1:0:0:
375,319,292499,2,0,B|414:321|414:321|446:287,1,80,8|4,0:3|0:3,0:1:0:0:
477,47,292657,5,8,0:1:0:0:
397,36,292736,1,8,0:1:0:0:
341,82,292815,1,0,0:1:0:0:
295,126,292894,1,0,0:1:0:0:
239,131,292973,1,0,0:1:0:0:
195,109,293052,1,0,0:1:0:0:
171,76,293131,6,8,P|123:52|74:70,3,80,8|8|8|8,0:3|0:3|0:3|0:3,0:3:0:0:
95,150,293447,2,4,P|57:188|59:240,3,80,4|4|4|4,0:3|0:3|0:3|0:3,0:3:0:0:
141,245,293762,6,0,P|131:320|125:390,1,139.999995727539,14|0,0:0|3:1,0:0:0:0:
238,301,293999,1,0,3:1:0:0:
254,270,294078,2,0,P|248:200|239:131,1,139.999995727539,8|2,0:0|3:1,0:0:0:0:
428,337,294394,2,0,L|338:319,1,69.9999978637696,8|0,0:0|0:0,0:0:0:0:
238,301,294552,1,0,3:0:0:0:
359,45,294710,2,0,L|376:134,1,69.9999978637696,10|0,0:0|0:0,0:0:0:0:
395,235,294868,1,0,3:0:0:0:
164,53,295025,6,0,P|96:52|53:109,1,139.999995727539,10|0,0:0|3:0,0:0:0:0:
121,193,295262,1,0,3:0:0:0:
121,193,295341,2,0,L|130:124,1,69.9999978637696,8|0,0:0|0:0,0:0:0:0:
11,243,295499,1,0,3:0:0:0:
11,243,295578,1,0,3:0:0:0:
11,243,295657,2,0,P|23:325|31:390,1,139.999995727539,10|0,0:0|3:0,0:0:0:0:
253,231,295973,1,10,0:0:0:0:
253,231,296052,2,0,P|242:162|234:93,1,139.999995727539,0|0,3:0|0:0,0:0:0:0:
113,8,296289,6,0,B|131:38|131:38|164:53,1,69.9999978637696,10|0,0:0|0:0,0:0:0:0:
312,71,296447,1,0,3:0:0:0:
312,71,296525,1,0,3:0:0:0:
312,71,296604,2,0,P|403:62|481:57,1,139.999995727539,8|2,0:0|3:1,0:0:0:0:
356,314,296920,2,0,L|338:238,1,69.9999978637696,8|0,0:0|0:0,0:0:0:0:
318,154,297078,1,0,3:0:0:0:
174,350,297236,2,0,L|201:229,1,69.9999978637696,10|0,0:0|0:0,0:0:0:0:
234,93,297394,1,0,3:0:0:0:
10,280,297552,6,0,P|78:272|123:220,1,139.999995727539,10|0,0:0|3:0,0:0:0:0:
45,71,297789,1,0,3:0:0:0:
17,50,297868,2,0,P|25:119|34:189,1,139.999995727539,10|0,0:0|3:0,0:0:0:0:
163,305,298104,1,0,3:0:0:0:
189,281,298183,5,10,0:0:0:0:
268,252,298289,5,8,0:0:0:0:
344,289,298394,5,8,0:0:0:0:
362,370,298499,6,0,P|421:363|433:273,1,150,2|0,3:1|0:0,0:0:0:0:
391,206,298815,6,0,B|420:18|420:18|446:107,1,262.500010013581,14|0,0:0|0:0,2:2:0:0:
485,179,299447,6,0,B|349:151|349:151|319:85|319:85|183:59,1,350,2|0,2:2|0:0,2:0:0:0:
110,123,300078,6,0,L|118:187,1,59.9999981689454,6|0,3:1|0:0,0:0:0:0:
102,131,300552,6,0,L|110:195,1,59.9999981689454,6|0,3:1|0:0,0:0:0:0:
94,139,301025,6,0,L|102:203,1,59.9999981689454,6|0,3:1|0:0,0:0:0:0:
272,365,301341,6,0,B|302:318|342:306|386:331|437:309|437:309|400:307|375:283|375:283|422:284|458:254|458:254|423:257|397:234|397:234|470:226|484:152|484:152|416:189|364:146|300:172|266:260,1,800,6|0,3:1|0:0,0:0:0:0:
