osu file format v14

[General]
AudioFilename: audio.mp3
AudioLeadIn: 0
PreviewTime: 75433
Countdown: 0
SampleSet: Normal
StackLeniency: 0.7
Mode: 1
LetterboxInBreaks: 0
WidescreenStoryboard: 0

[Editor]
Bookmarks: 51241,75241,180083,228083
DistanceSpacing: 1.1
BeatDivisor: 8
GridSize: 8
TimelineZoom: 2.599999

[Metadata]
Title:Tsuioku no Kuroki Makenshi
TitleUnicode:追憶の黒き魔剣士
Artist:Dragon Guardian
ArtistUnicode:Dragon Guardian
Creator:Faputa
Version:Knight Oni
Source:
Tags:inner 鈴木このみ Suzuki Konomi Deathstream symphonic RPG J-rock 勇者アーサー ドラゴンガーディアン THE BEST OF SAGA
BeatmapID:1874646
BeatmapSetID:897314

[Difficulty]
HPDrainRate:5
CircleSize:2
OverallDifficulty:6.5
ApproachRate:10
SliderMultiplier:1.4
SliderTickRate:1

[Events]
//Background and Video events
0,0,"welcometoyoukosojaparipark.jpg",0,0
//Break Periods
//Storyboard Layer 0 (Background)
//Storyboard Layer 1 (Fail)
//Storyboard Layer 2 (Pass)
//Storyboard Layer 3 (Foreground)
//Storyboard Sound Samples

[TimingPoints]
710,315.789473684211,4,1,0,90,1,0
10815,-95.2380952380952,4,1,0,100,0,1
25973,-95.2380952380952,4,1,0,90,0,0
27236,-100,4,1,0,90,0,0
76499,-95.2380952380952,4,1,0,100,0,1
94183,-95.2380952380952,4,1,0,90,0,0
94341,-96.1538461538461,4,1,0,90,0,0
94499,-97.0873786407767,4,1,0,90,0,0
94657,-98.0392156862745,4,1,0,90,0,0
94815,-99.009900990099,4,1,0,90,0,0
94973,-100,4,1,0,90,0,0
95131,-101.010101010101,4,1,0,90,0,0
95288,-100,4,1,0,90,0,0
104288,-95.2380952380952,4,1,0,90,0,0
104446,-96.1538461538461,4,1,0,90,0,0
104604,-97.0873786407767,4,1,0,90,0,0
104762,-98.0392156862745,4,1,0,90,0,0
104920,-99.009900990099,4,1,0,90,0,0
105078,-100,4,1,0,90,0,0
105236,-101.010101010101,4,1,0,90,0,0
105552,-100,4,1,0,90,0,0
142183,-95.2380952380952,4,1,0,100,0,1
159867,-95.2380952380952,4,1,0,90,0,0
160183,-100,4,1,0,90,0,0
179131,-111.111111111111,4,1,0,75,0,0
184815,-111.111111111111,4,1,0,90,0,0
189867,-121.951219512195,4,1,0,90,0,0
190183,-133.333333333333,4,1,0,90,0,0
210078,-125,4,1,0,90,0,0
210236,-117.647058823529,4,1,0,90,0,0
210394,-111.111111111111,4,1,0,90,0,0
226815,-107.52688172043,4,1,0,90,0,0
227288,-104.166666666667,4,1,0,90,0,0
227762,-102.040816326531,4,1,0,90,0,0
228078,-100,4,1,0,90,0,0
235025,-99.009900990099,4,1,0,90,0,0
235104,-98.0392156862745,4,1,0,90,0,0
235183,-97.0873786407767,4,1,0,90,0,0
235262,-96.1538461538461,4,1,0,90,0,0
235341,-95.2380952380952,4,1,0,90,0,0
235420,-94.3396226415094,4,1,0,90,0,0
235499,-93.4579439252336,4,1,0,90,0,0
235578,-92.5925925925926,4,1,0,90,0,0
235657,-91.743119266055,4,1,0,100,0,1
248288,-91.743119266055,4,1,0,100,0,0
250815,-89.2857142857143,4,1,0,100,0,1
260920,-89.2857142857143,4,1,0,90,0,0
261394,-95.2380952380952,4,1,0,90,0,0
273315,-94.3396226415094,4,1,0,90,0,0
273394,-93.4579439252336,4,1,0,90,0,0
273473,-92.5925925925926,4,1,0,90,0,0
273552,-91.743119266055,4,1,0,100,0,1
283657,-95.2380952380952,4,1,0,100,0,1
298815,-95.2380952380952,4,1,0,90,0,0
300078,-100,4,1,0,90,0,0

[HitObjects]
256,192,710,5,12,0:0:0:0:
256,192,1973,1,12,0:0:0:0:
256,192,2446,1,12,0:0:0:0:
256,192,2920,1,12,0:0:0:0:
256,192,3236,1,0,0:0:0:0:
256,192,3552,1,0,0:0:0:0:
256,192,3867,1,0,0:0:0:0:
256,192,4183,1,0,0:0:0:0:
256,192,4499,1,8,0:0:0:0:
256,192,4578,1,8,0:0:0:0:
256,192,4657,1,8,0:0:0:0:
256,192,4736,1,8,0:0:0:0:
256,192,4815,1,0,0:0:0:0:
256,192,4894,1,0,0:0:0:0:
256,192,4973,1,8,0:0:0:0:
256,192,5052,1,8,0:0:0:0:
256,192,5131,1,8,0:0:0:0:
256,192,5210,1,8,0:0:0:0:
256,192,5288,1,0,0:0:0:0:
256,192,5367,1,0,0:0:0:0:
256,192,5446,1,8,0:0:0:0:
256,192,5762,1,4,0:0:0:0:
256,192,6236,1,0,0:0:0:0:
256,192,6394,1,12,0:0:0:0:
256,192,6710,1,0,0:0:0:0:
256,192,7025,1,12,0:0:0:0:
256,192,7183,1,0,0:0:0:0:
256,192,7499,1,0,0:0:0:0:
256,192,7657,1,12,0:0:0:0:
256,192,7973,1,8,0:0:0:0:
256,192,8288,1,4,0:0:0:0:
256,192,8604,1,8,0:0:0:0:
256,192,8762,1,0,0:0:0:0:
256,192,8920,1,12,0:0:0:0:
256,192,9236,1,0,0:0:0:0:
256,192,9552,1,8,0:0:0:0:
256,192,9631,1,8,0:0:0:0:
256,192,9710,1,8,0:0:0:0:
256,192,9788,1,8,0:0:0:0:
256,192,9867,1,0,0:0:0:0:
256,192,9946,1,0,0:0:0:0:
256,192,10025,1,8,0:0:0:0:
256,192,10104,1,8,0:0:0:0:
256,192,10183,1,0,0:0:0:0:
256,192,10262,1,0,0:0:0:0:
256,192,10341,1,0,0:0:0:0:
256,192,10420,1,0,0:0:0:0:
256,192,10499,1,8,0:0:0:0:
256,192,10578,1,8,0:0:0:0:
256,192,10657,1,0,0:0:0:0:
256,192,10815,1,4,0:0:0:0:
256,192,10973,1,8,0:0:0:0:
256,192,11131,1,0,0:0:0:0:
256,192,11210,1,0,0:0:0:0:
256,192,11288,1,8,0:0:0:0:
256,192,11367,1,8,0:0:0:0:
256,192,11446,1,0,0:0:0:0:
256,192,11525,1,0,0:0:0:0:
256,192,11604,1,8,0:0:0:0:
256,192,11683,1,8,0:0:0:0:
256,192,11762,1,0,0:0:0:0:
256,192,11841,1,0,0:0:0:0:
256,192,11920,1,8,0:0:0:0:
256,192,12078,1,0,0:0:0:0:
256,192,12236,1,8,0:0:0:0:
256,192,12315,1,0,0:0:0:0:
256,192,12394,1,0,0:0:0:0:
256,192,12552,1,8,0:0:0:0:
256,192,12631,1,8,0:0:0:0:
256,192,12710,1,0,0:0:0:0:
256,192,12788,1,0,0:0:0:0:
256,192,12867,1,8,0:0:0:0:
256,192,12946,1,0,0:0:0:0:
256,192,13025,1,0,0:0:0:0:
256,192,13104,1,0,0:0:0:0:
256,192,13183,1,8,0:0:0:0:
256,192,13262,1,8,0:0:0:0:
256,192,13341,1,0,0:0:0:0:
256,192,13499,1,8,0:0:0:0:
256,192,13657,1,0,0:0:0:0:
256,192,13736,1,0,0:0:0:0:
256,192,13815,1,8,0:0:0:0:
256,192,13894,1,8,0:0:0:0:
256,192,13973,1,0,0:0:0:0:
256,192,14052,1,0,0:0:0:0:
256,192,14131,1,8,0:0:0:0:
256,192,14210,1,8,0:0:0:0:
256,192,14288,1,0,0:0:0:0:
256,192,14367,1,0,0:0:0:0:
256,192,14446,1,8,0:0:0:0:
256,192,14604,1,0,0:0:0:0:
256,192,14762,1,8,0:0:0:0:
256,192,14841,1,0,0:0:0:0:
256,192,14920,1,8,0:0:0:0:
256,192,14999,1,8,0:0:0:0:
256,192,15078,1,0,0:0:0:0:
256,192,15157,1,0,0:0:0:0:
256,192,15236,1,0,0:0:0:0:
256,192,15315,1,8,0:0:0:0:
256,192,15394,1,8,0:0:0:0:
256,192,15473,1,0,0:0:0:0:
256,192,15552,1,0,0:0:0:0:
256,192,15631,1,0,0:0:0:0:
256,192,15710,1,8,0:0:0:0:
256,192,15867,1,12,0:0:0:0:
256,192,16025,1,8,0:0:0:0:
256,192,16104,1,8,0:0:0:0:
256,192,16183,1,0,0:0:0:0:
256,192,16262,1,0,0:0:0:0:
256,192,16341,1,8,0:0:0:0:
256,192,16420,1,0,0:0:0:0:
256,192,16499,1,8,0:0:0:0:
256,192,16578,1,0,0:0:0:0:
256,192,16657,1,0,0:0:0:0:
256,192,16736,1,8,0:0:0:0:
256,192,16815,1,8,0:0:0:0:
256,192,16894,1,0,0:0:0:0:
256,192,16973,1,8,0:0:0:0:
256,192,17131,1,8,0:0:0:0:
256,192,17210,1,0,0:0:0:0:
256,192,17288,1,8,0:0:0:0:
256,192,17367,1,8,0:0:0:0:
256,192,17446,1,0,0:0:0:0:
256,192,17525,1,0,0:0:0:0:
256,192,17604,1,8,0:0:0:0:
256,192,17683,1,0,0:0:0:0:
256,192,17762,1,8,0:0:0:0:
256,192,17841,1,8,0:0:0:0:
256,192,17920,1,0,0:0:0:0:
256,192,17999,1,8,0:0:0:0:
256,192,18078,1,0,0:0:0:0:
256,192,18157,1,0,0:0:0:0:
256,192,18236,1,8,0:0:0:0:
256,192,18394,1,8,0:0:0:0:
256,192,18473,1,8,0:0:0:0:
256,192,18552,1,0,0:0:0:0:
256,192,18631,1,0,0:0:0:0:
256,192,18710,1,0,0:0:0:0:
256,192,18867,1,8,0:0:0:0:
256,192,18946,1,0,0:0:0:0:
256,192,19025,1,0,0:0:0:0:
256,192,19104,1,0,0:0:0:0:
256,192,19183,1,0,0:0:0:0:
256,192,19341,1,8,0:0:0:0:
256,192,19420,1,8,0:0:0:0:
256,192,19499,1,0,0:0:0:0:
256,192,19578,1,0,0:0:0:0:
256,192,19657,1,8,0:0:0:0:
256,192,19815,1,8,0:0:0:0:
256,192,19894,1,0,0:0:0:0:
256,192,19973,1,0,0:0:0:0:
256,192,20131,1,0,0:0:0:0:
256,192,20210,1,0,0:0:0:0:
256,192,20288,1,8,0:0:0:0:
256,192,20367,1,0,0:0:0:0:
256,192,20446,1,0,0:0:0:0:
256,192,20525,1,0,0:0:0:0:
256,192,20604,1,8,0:0:0:0:
256,192,20920,1,12,0:0:0:0:
256,192,21078,1,0,0:0:0:0:
256,192,21157,1,0,0:0:0:0:
256,192,21236,1,8,0:0:0:0:
256,192,21394,1,0,0:0:0:0:
256,192,21552,1,8,0:0:0:0:
256,192,21710,1,8,0:0:0:0:
256,192,21867,1,0,0:0:0:0:
256,192,21946,1,0,0:0:0:0:
256,192,22025,1,0,0:0:0:0:
256,192,22183,1,8,0:0:0:0:
256,192,22341,1,0,0:0:0:0:
256,192,22420,1,8,0:0:0:0:
256,192,22499,1,0,0:0:0:0:
256,192,22657,1,8,0:0:0:0:
256,192,22736,1,8,0:0:0:0:
256,192,22815,1,0,0:0:0:0:
256,192,22973,1,0,0:0:0:0:
256,192,23131,1,8,0:0:0:0:
256,192,23446,1,0,0:0:0:0:
256,192,23604,1,8,0:0:0:0:
256,192,23683,1,0,0:0:0:0:
256,192,23762,1,0,0:0:0:0:
256,192,23920,1,8,0:0:0:0:
256,192,24078,1,0,0:0:0:0:
256,192,24157,1,0,0:0:0:0:
256,192,24236,1,0,0:0:0:0:
256,192,24394,1,8,0:0:0:0:
256,192,24552,1,0,0:0:0:0:
256,192,24710,1,8,0:0:0:0:
256,192,24788,1,8,0:0:0:0:
256,192,24867,1,0,0:0:0:0:
256,192,25025,1,8,0:0:0:0:
256,192,25183,1,0,0:0:0:0:
256,192,25262,1,0,0:0:0:0:
256,192,25341,1,8,0:0:0:0:
256,192,25446,1,8,0:0:0:0:
256,192,25552,1,8,0:0:0:0:
256,192,25657,1,0,0:0:0:0:
256,192,25973,1,12,0:0:0:0:
256,192,27236,1,12,0:0:0:0:
256,192,27710,1,12,0:0:0:0:
256,192,28183,1,12,0:0:0:0:
256,192,28499,1,0,0:0:0:0:
256,192,28815,1,0,0:0:0:0:
256,192,29131,1,0,0:0:0:0:
256,192,29446,1,0,0:0:0:0:
256,192,29762,1,8,0:0:0:0:
256,192,29841,1,8,0:0:0:0:
256,192,29920,1,8,0:0:0:0:
256,192,29999,1,8,0:0:0:0:
256,192,30078,1,0,0:0:0:0:
256,192,30157,1,0,0:0:0:0:
256,192,30236,1,8,0:0:0:0:
256,192,30315,1,8,0:0:0:0:
256,192,30394,1,8,0:0:0:0:
256,192,30473,1,8,0:0:0:0:
256,192,30552,1,0,0:0:0:0:
256,192,30631,1,0,0:0:0:0:
256,192,30710,1,8,0:0:0:0:
256,192,31025,1,4,0:0:0:0:
256,192,31341,1,8,0:0:0:0:
256,192,31499,1,0,0:0:0:0:
256,192,31578,1,0,0:0:0:0:
256,192,31657,1,0,0:0:0:0:
256,192,31815,1,0,0:0:0:0:
256,192,31973,1,8,0:0:0:0:
256,192,32131,1,8,0:0:0:0:
256,192,32210,1,8,0:0:0:0:
256,192,32288,1,0,0:0:0:0:
256,192,32604,1,8,0:0:0:0:
256,192,32762,1,0,0:0:0:0:
256,192,32841,1,0,0:0:0:0:
256,192,32920,1,8,0:0:0:0:
256,192,33078,1,0,0:0:0:0:
256,192,33236,1,8,0:0:0:0:
256,192,33315,1,8,0:0:0:0:
256,192,33394,1,8,0:0:0:0:
256,192,33552,1,0,0:0:0:0:
256,192,33867,1,8,0:0:0:0:
256,192,34025,1,0,0:0:0:0:
256,192,34104,1,0,0:0:0:0:
256,192,34183,1,0,0:0:0:0:
256,192,34341,1,8,0:0:0:0:
256,192,34499,1,0,0:0:0:0:
256,192,34578,1,0,0:0:0:0:
256,192,34657,1,8,0:0:0:0:
256,192,34815,1,0,0:0:0:0:
256,192,35131,1,8,0:0:0:0:
256,192,35288,1,0,0:0:0:0:
256,192,35446,1,8,0:0:0:0:
256,192,35604,1,8,0:0:0:0:
256,192,35683,1,8,0:0:0:0:
256,192,35762,1,0,0:0:0:0:
256,192,35920,1,0,0:0:0:0:
256,192,36078,1,8,0:0:0:0:
256,192,36236,1,0,0:0:0:0:
256,192,36315,1,0,0:0:0:0:
256,192,36394,1,8,0:0:0:0:
256,192,36552,1,8,0:0:0:0:
256,192,36710,1,0,0:0:0:0:
256,192,36867,1,8,0:0:0:0:
256,192,37025,1,8,0:0:0:0:
256,192,37183,1,8,0:0:0:0:
256,192,37341,1,0,0:0:0:0:
256,192,37499,1,8,0:0:0:0:
256,192,37578,1,0,0:0:0:0:
256,192,37657,1,8,0:0:0:0:
256,192,37815,1,8,0:0:0:0:
256,192,37973,1,0,0:0:0:0:
256,192,38131,1,0,0:0:0:0:
256,192,38288,1,8,0:0:0:0:
256,192,38446,1,8,0:0:0:0:
256,192,38604,1,0,0:0:0:0:
256,192,38920,1,8,0:0:0:0:
256,192,39078,1,0,0:0:0:0:
256,192,39236,1,8,0:0:0:0:
256,192,39394,1,0,0:0:0:0:
256,192,39552,1,8,0:0:0:0:
256,192,39867,1,12,0:0:0:0:
256,192,40183,1,12,0:0:0:0:
256,192,40499,1,12,0:0:0:0:
256,192,40815,1,8,0:0:0:0:
256,192,40894,1,8,0:0:0:0:
256,192,40973,1,8,0:0:0:0:
256,192,41052,1,8,0:0:0:0:
256,192,41131,1,0,0:0:0:0:
256,192,41288,1,8,0:0:0:0:
256,192,41446,1,0,0:0:0:0:
256,192,41525,1,0,0:0:0:0:
256,192,41604,1,8,0:0:0:0:
256,192,41762,1,0,0:0:0:0:
256,192,41841,1,0,0:0:0:0:
256,192,41920,1,8,0:0:0:0:
256,192,41999,1,0,0:0:0:0:
256,192,42157,1,0,0:0:0:0:
256,192,42236,1,8,0:0:0:0:
256,192,42394,1,0,0:0:0:0:
256,192,42552,1,8,0:0:0:0:
256,192,42631,1,8,0:0:0:0:
256,192,42710,1,0,0:0:0:0:
256,192,42867,1,8,0:0:0:0:
256,192,43025,1,0,0:0:0:0:
256,192,43104,1,0,0:0:0:0:
256,192,43183,1,8,0:0:0:0:
256,192,43262,1,0,0:0:0:0:
256,192,43341,1,0,0:0:0:0:
256,192,43420,1,0,0:0:0:0:
256,192,43499,1,8,0:0:0:0:
256,192,43657,1,0,0:0:0:0:
256,192,43815,1,8,0:0:0:0:
256,192,43973,1,0,0:0:0:0:
256,192,44052,1,0,0:0:0:0:
256,192,44131,1,8,0:0:0:0:
256,192,44288,1,0,0:0:0:0:
256,192,44367,1,0,0:0:0:0:
256,192,44446,1,8,0:0:0:0:
256,192,44525,1,0,0:0:0:0:
256,192,44683,1,0,0:0:0:0:
256,192,44762,1,8,0:0:0:0:
256,192,44920,1,0,0:0:0:0:
256,192,45078,1,8,0:0:0:0:
256,192,45157,1,8,0:0:0:0:
256,192,45236,1,0,0:0:0:0:
256,192,45394,1,8,0:0:0:0:
256,192,45552,1,0,0:0:0:0:
256,192,45631,1,0,0:0:0:0:
256,192,45710,1,8,0:0:0:0:
256,192,45867,1,0,0:0:0:0:
256,192,45946,1,0,0:0:0:0:
256,192,46025,1,0,0:0:0:0:
256,192,46104,1,0,0:0:0:0:
256,192,46183,1,8,0:0:0:0:
256,192,46341,1,8,0:0:0:0:
256,192,46499,1,0,0:0:0:0:
256,192,46578,1,0,0:0:0:0:
256,192,46657,1,8,0:0:0:0:
256,192,46815,1,0,0:0:0:0:
256,192,46894,1,0,0:0:0:0:
256,192,46973,1,8,0:0:0:0:
256,192,47052,1,0,0:0:0:0:
256,192,47210,1,0,0:0:0:0:
256,192,47288,1,8,0:0:0:0:
256,192,47446,1,0,0:0:0:0:
256,192,47604,1,0,0:0:0:0:
256,192,47762,1,8,0:0:0:0:
256,192,47841,1,8,0:0:0:0:
256,192,47920,1,0,0:0:0:0:
256,192,48078,1,0,0:0:0:0:
256,192,48157,1,0,0:0:0:0:
256,192,48236,1,8,0:0:0:0:
256,192,48315,1,0,0:0:0:0:
256,192,48394,1,0,0:0:0:0:
256,192,48473,1,0,0:0:0:0:
256,192,48552,1,8,0:0:0:0:
256,192,48710,1,8,0:0:0:0:
256,192,48788,1,0,0:0:0:0:
256,192,48867,1,0,0:0:0:0:
256,192,49025,1,8,0:0:0:0:
256,192,49104,1,8,0:0:0:0:
256,192,49183,1,0,0:0:0:0:
256,192,49341,1,8,0:0:0:0:
256,192,49420,1,8,0:0:0:0:
256,192,49499,1,8,0:0:0:0:
256,192,49657,1,0,0:0:0:0:
256,192,49815,1,0,0:0:0:0:
256,192,49973,1,8,0:0:0:0:
256,192,50052,1,8,0:0:0:0:
256,192,50131,1,8,0:0:0:0:
256,192,50210,1,8,0:0:0:0:
256,192,50288,1,0,0:0:0:0:
256,192,50367,1,0,0:0:0:0:
256,192,50446,1,8,0:0:0:0:
256,192,50525,1,8,0:0:0:0:
256,192,50604,1,0,0:0:0:0:
256,192,50683,1,0,0:0:0:0:
256,192,50762,1,0,0:0:0:0:
256,192,50841,1,0,0:0:0:0:
256,192,50920,1,8,0:0:0:0:
256,192,51078,1,8,0:0:0:0:
256,192,51157,1,8,0:0:0:0:
256,192,51236,1,0,0:0:0:0:
256,192,51394,1,0,0:0:0:0:
256,192,51446,1,0,0:0:0:0:
256,192,51499,1,0,0:0:0:0:
256,192,51552,1,8,0:0:0:0:
256,192,51788,1,0,0:0:0:0:
256,192,51867,1,8,0:0:0:0:
256,192,52025,1,0,0:0:0:0:
256,192,52104,1,0,0:0:0:0:
256,192,52183,1,8,0:0:0:0:
256,192,52341,1,0,0:0:0:0:
256,192,52499,1,8,0:0:0:0:
256,192,52657,1,0,0:0:0:0:
256,192,52710,1,0,0:0:0:0:
256,192,52762,1,0,0:0:0:0:
256,192,52815,1,8,0:0:0:0:
256,192,52973,1,0,0:0:0:0:
256,192,53131,1,8,0:0:0:0:
256,192,53367,1,0,0:0:0:0:
256,192,53446,1,8,0:0:0:0:
256,192,53525,1,0,0:0:0:0:
256,192,53604,1,0,0:0:0:0:
256,192,53762,1,8,0:0:0:0:
256,192,53920,1,0,0:0:0:0:
256,192,53973,1,0,0:0:0:0:
256,192,54025,1,0,0:0:0:0:
256,192,54078,1,8,0:0:0:0:
256,192,54315,1,0,0:0:0:0:
256,192,54394,1,8,0:0:0:0:
256,192,54552,1,0,0:0:0:0:
256,192,54631,1,8,0:0:0:0:
256,192,54710,1,8,0:0:0:0:
256,192,54867,1,0,0:0:0:0:
256,192,55025,1,8,0:0:0:0:
256,192,55183,1,0,0:0:0:0:
256,192,55236,1,0,0:0:0:0:
256,192,55288,1,0,0:0:0:0:
256,192,55341,1,8,0:0:0:0:
256,192,55499,1,0,0:0:0:0:
256,192,55657,1,8,0:0:0:0:
256,192,55894,1,0,0:0:0:0:
256,192,55973,1,8,0:0:0:0:
256,192,56052,1,8,0:0:0:0:
256,192,56131,1,0,0:0:0:0:
256,192,56288,1,8,0:0:0:0:
256,192,56446,1,0,0:0:0:0:
256,192,56499,1,0,0:0:0:0:
256,192,56552,1,0,0:0:0:0:
256,192,56604,1,8,0:0:0:0:
256,192,56841,1,0,0:0:0:0:
256,192,56920,1,8,0:0:0:0:
256,192,57078,1,8,0:0:0:0:
256,192,57157,1,0,0:0:0:0:
256,192,57236,1,8,0:0:0:0:
256,192,57394,1,0,0:0:0:0:
256,192,57552,1,8,0:0:0:0:
256,192,57710,1,0,0:0:0:0:
256,192,57762,1,0,0:0:0:0:
256,192,57815,1,0,0:0:0:0:
256,192,57867,1,8,0:0:0:0:
256,192,58025,1,0,0:0:0:0:
256,192,58183,1,8,0:0:0:0:
256,192,58341,1,8,0:0:0:0:
256,192,58420,1,8,0:0:0:0:
256,192,58499,1,0,0:0:0:0:
256,192,58578,1,8,0:0:0:0:
256,192,58657,1,0,0:0:0:0:
256,192,58815,1,8,0:0:0:0:
256,192,58973,1,0,0:0:0:0:
256,192,59025,1,0,0:0:0:0:
256,192,59078,1,0,0:0:0:0:
256,192,59131,1,8,0:0:0:0:
256,192,59367,1,0,0:0:0:0:
256,192,59446,1,8,0:0:0:0:
256,192,59604,1,8,0:0:0:0:
256,192,59683,1,0,0:0:0:0:
256,192,59762,1,8,0:0:0:0:
256,192,59920,1,0,0:0:0:0:
256,192,60078,1,8,0:0:0:0:
256,192,60236,1,0,0:0:0:0:
256,192,60315,1,0,0:0:0:0:
256,192,60394,1,8,0:0:0:0:
256,192,60473,1,0,0:0:0:0:
256,192,60552,1,8,0:0:0:0:
256,192,60710,1,8,0:0:0:0:
256,192,60788,1,8,0:0:0:0:
256,192,60867,1,0,0:0:0:0:
256,192,60946,1,0,0:0:0:0:
256,192,61025,1,8,0:0:0:0:
256,192,61104,1,0,0:0:0:0:
256,192,61183,1,0,0:0:0:0:
256,192,61341,1,12,0:0:0:0:
256,192,61499,1,0,0:0:0:0:
256,192,61552,1,0,0:0:0:0:
256,192,61604,1,0,0:0:0:0:
256,192,61657,1,8,0:0:0:0:
256,192,61815,1,0,0:0:0:0:
256,192,61894,1,0,0:0:0:0:
256,192,61973,1,8,0:0:0:0:
256,192,62131,1,8,0:0:0:0:
256,192,62210,1,0,0:0:0:0:
256,192,62288,1,8,0:0:0:0:
256,192,62446,1,0,0:0:0:0:
256,192,62604,1,8,0:0:0:0:
256,192,62762,1,0,0:0:0:0:
256,192,62815,1,0,0:0:0:0:
256,192,62867,1,0,0:0:0:0:
256,192,62920,1,8,0:0:0:0:
256,192,63078,1,0,0:0:0:0:
256,192,63236,1,8,0:0:0:0:
256,192,63315,1,8,0:0:0:0:
256,192,63394,1,0,0:0:0:0:
256,192,63473,1,0,0:0:0:0:
256,192,63552,1,8,0:0:0:0:
256,192,63710,1,0,0:0:0:0:
256,192,63867,1,8,0:0:0:0:
256,192,64025,1,0,0:0:0:0:
256,192,64078,1,0,0:0:0:0:
256,192,64131,1,0,0:0:0:0:
256,192,64183,1,8,0:0:0:0:
256,192,64341,1,0,0:0:0:0:
256,192,64420,1,8,0:0:0:0:
256,192,64499,1,0,0:0:0:0:
256,192,64657,1,0,0:0:0:0:
256,192,64736,1,0,0:0:0:0:
256,192,64815,1,8,0:0:0:0:
256,192,64973,1,0,0:0:0:0:
256,192,65131,1,8,0:0:0:0:
256,192,65288,1,8,0:0:0:0:
256,192,65367,1,8,0:0:0:0:
256,192,65446,1,0,0:0:0:0:
256,192,65604,1,0,0:0:0:0:
256,192,65762,1,12,0:0:0:0:
256,192,66078,1,12,0:0:0:0:
256,192,66394,1,4,0:0:0:0:
256,192,67025,1,8,0:0:0:0:
256,192,67657,1,0,0:0:0:0:
256,192,67736,1,0,0:0:0:0:
256,192,67973,1,0,0:0:0:0:
256,192,68052,1,0,0:0:0:0:
256,192,68288,1,8,0:0:0:0:
256,192,68920,1,4,0:0:0:0:
256,192,69552,1,8,0:0:0:0:
256,192,70183,1,0,0:0:0:0:
256,192,70262,1,0,0:0:0:0:
256,192,70499,1,0,0:0:0:0:
256,192,70578,1,0,0:0:0:0:
256,192,70815,1,8,0:0:0:0:
256,192,71446,1,0,0:0:0:0:
256,192,71762,1,8,0:0:0:0:
256,192,71920,1,0,0:0:0:0:
256,192,72078,1,0,0:0:0:0:
256,192,72236,1,0,0:0:0:0:
256,192,72394,1,8,0:0:0:0:
256,192,72552,1,8,0:0:0:0:
256,192,72710,1,0,0:0:0:0:
256,192,72867,1,8,0:0:0:0:
256,192,73025,1,8,0:0:0:0:
256,192,73183,1,8,0:0:0:0:
256,192,73341,1,0,0:0:0:0:
256,192,73499,1,8,0:0:0:0:
256,192,73657,1,0,0:0:0:0:
256,192,73815,1,8,0:0:0:0:
256,192,73973,1,8,0:0:0:0:
256,192,74052,1,8,0:0:0:0:
256,192,74131,1,0,0:0:0:0:
256,192,74210,1,0,0:0:0:0:
256,192,74288,1,0,0:0:0:0:
256,192,74367,1,0,0:0:0:0:
256,192,74446,1,8,0:0:0:0:
256,192,74525,1,8,0:0:0:0:
256,192,74604,1,8,0:0:0:0:
256,192,74683,1,8,0:0:0:0:
256,192,74762,1,0,0:0:0:0:
256,192,74841,1,0,0:0:0:0:
256,192,74920,1,8,0:0:0:0:
256,192,74999,1,8,0:0:0:0:
256,192,75078,1,8,0:0:0:0:
256,192,75157,1,8,0:0:0:0:
256,192,75236,1,0,0:0:0:0:
256,192,75315,1,0,0:0:0:0:
256,192,75394,1,8,0:0:0:0:
256,192,75473,1,8,0:0:0:0:
256,192,75552,1,0,0:0:0:0:
256,192,75631,1,0,0:0:0:0:
256,192,75710,1,0,0:0:0:0:
256,192,75788,1,0,0:0:0:0:
256,192,75867,1,8,0:0:0:0:
256,192,75946,1,8,0:0:0:0:
256,192,76025,1,8,0:0:0:0:
256,192,76104,1,8,0:0:0:0:
256,192,76183,1,0,0:0:0:0:
256,192,76499,1,8,0:0:0:0:
256,192,76578,1,0,0:0:0:0:
256,192,76657,1,0,0:0:0:0:
256,192,76736,1,0,0:0:0:0:
256,192,76815,1,8,0:0:0:0:
256,192,76894,1,8,0:0:0:0:
256,192,76973,1,0,0:0:0:0:
256,192,77052,1,0,0:0:0:0:
256,192,77131,1,8,0:0:0:0:
256,192,77210,1,0,0:0:0:0:
256,192,77288,1,0,0:0:0:0:
256,192,77367,1,0,0:0:0:0:
256,192,77446,1,8,0:0:0:0:
256,192,77525,1,8,0:0:0:0:
256,192,77604,1,8,0:0:0:0:
256,192,77683,1,0,0:0:0:0:
256,192,77762,1,8,0:0:0:0:
256,192,77841,1,0,0:0:0:0:
256,192,77920,1,0,0:0:0:0:
256,192,77999,1,0,0:0:0:0:
256,192,78078,1,8,0:0:0:0:
256,192,78157,1,8,0:0:0:0:
256,192,78236,1,0,0:0:0:0:
256,192,78315,1,0,0:0:0:0:
256,192,78394,1,8,0:0:0:0:
256,192,78473,1,0,0:0:0:0:
256,192,78552,1,0,0:0:0:0:
256,192,78631,1,0,0:0:0:0:
256,192,78710,1,8,0:0:0:0:
256,192,78788,1,8,0:0:0:0:
256,192,78867,1,8,0:0:0:0:
256,192,78946,1,0,0:0:0:0:
256,192,79025,1,8,0:0:0:0:
256,192,79104,1,8,0:0:0:0:
256,192,79183,1,0,0:0:0:0:
256,192,79262,1,0,0:0:0:0:
256,192,79341,1,8,0:0:0:0:
256,192,79420,1,0,0:0:0:0:
256,192,79499,1,8,0:0:0:0:
256,192,79578,1,0,0:0:0:0:
256,192,79657,1,8,0:0:0:0:
256,192,79736,1,8,0:0:0:0:
256,192,79815,1,0,0:0:0:0:
256,192,79894,1,0,0:0:0:0:
256,192,79973,1,8,0:0:0:0:
256,192,80052,1,8,0:0:0:0:
256,192,80131,1,8,0:0:0:0:
256,192,80210,1,0,0:0:0:0:
256,192,80288,1,8,0:0:0:0:
256,192,80367,1,0,0:0:0:0:
256,192,80446,1,0,0:0:0:0:
256,192,80525,1,0,0:0:0:0:
256,192,80604,1,8,0:0:0:0:
256,192,80683,1,8,0:0:0:0:
256,192,80762,1,0,0:0:0:0:
256,192,80841,1,0,0:0:0:0:
256,192,80920,1,8,0:0:0:0:
256,192,80999,1,8,0:0:0:0:
256,192,81078,1,0,0:0:0:0:
256,192,81157,1,0,0:0:0:0:
256,192,81236,1,8,0:0:0:0:
256,192,81315,1,8,0:0:0:0:
256,192,81394,1,8,0:0:0:0:
256,192,81473,1,0,0:0:0:0:
256,192,81552,1,8,0:0:0:0:
256,192,81631,1,0,0:0:0:0:
256,192,81710,1,0,0:0:0:0:
256,192,81788,1,0,0:0:0:0:
256,192,81867,1,8,0:0:0:0:
256,192,81946,1,0,0:0:0:0:
256,192,82025,1,8,0:0:0:0:
256,192,82104,1,0,0:0:0:0:
256,192,82183,1,8,0:0:0:0:
256,192,82262,1,8,0:0:0:0:
256,192,82341,1,0,0:0:0:0:
256,192,82420,1,0,0:0:0:0:
256,192,82499,1,8,0:0:0:0:
256,192,82578,1,8,0:0:0:0:
256,192,82657,1,8,0:0:0:0:
256,192,82736,1,0,0:0:0:0:
256,192,82815,1,8,0:0:0:0:
256,192,82894,1,8,0:0:0:0:
256,192,82973,1,8,0:0:0:0:
256,192,83052,1,8,0:0:0:0:
256,192,83131,1,0,0:0:0:0:
256,192,83210,1,0,0:0:0:0:
256,192,83288,1,0,0:0:0:0:
256,192,83367,1,0,0:0:0:0:
256,192,83446,1,8,0:0:0:0:
256,192,83525,1,0,0:0:0:0:
256,192,83604,1,0,0:0:0:0:
256,192,83683,1,0,0:0:0:0:
256,192,83762,1,8,0:0:0:0:
256,192,83841,1,8,0:0:0:0:
256,192,83920,1,8,0:0:0:0:
256,192,83999,1,0,0:0:0:0:
256,192,84078,1,8,0:0:0:0:
256,192,84157,1,0,0:0:0:0:
256,192,84236,1,0,0:0:0:0:
256,192,84315,1,0,0:0:0:0:
256,192,84394,1,8,0:0:0:0:
256,192,84473,1,8,0:0:0:0:
256,192,84552,1,0,0:0:0:0:
256,192,84631,1,0,0:0:0:0:
256,192,84710,1,8,0:0:0:0:
256,192,84788,1,0,0:0:0:0:
256,192,84867,1,0,0:0:0:0:
256,192,84946,1,0,0:0:0:0:
256,192,85025,1,8,0:0:0:0:
256,192,85104,1,8,0:0:0:0:
256,192,85183,1,8,0:0:0:0:
256,192,85262,1,0,0:0:0:0:
256,192,85341,1,8,0:0:0:0:
256,192,85420,1,8,0:0:0:0:
256,192,85499,1,0,0:0:0:0:
256,192,85578,1,0,0:0:0:0:
256,192,85657,1,8,0:0:0:0:
256,192,85736,1,8,0:0:0:0:
256,192,85815,1,0,0:0:0:0:
256,192,85894,1,0,0:0:0:0:
256,192,85973,1,8,0:0:0:0:
256,192,86052,1,0,0:0:0:0:
256,192,86131,1,0,0:0:0:0:
256,192,86210,1,0,0:0:0:0:
256,192,86288,1,8,0:0:0:0:
256,192,86367,1,0,0:0:0:0:
256,192,86446,1,8,0:0:0:0:
256,192,86525,1,8,0:0:0:0:
256,192,86604,1,8,0:0:0:0:
256,192,86683,1,0,0:0:0:0:
256,192,86762,1,0,0:0:0:0:
256,192,86841,1,0,0:0:0:0:
256,192,86920,1,8,0:0:0:0:
256,192,86999,1,8,0:0:0:0:
256,192,87078,1,0,0:0:0:0:
256,192,87157,1,0,0:0:0:0:
256,192,87236,1,8,0:0:0:0:
256,192,87315,1,0,0:0:0:0:
256,192,87394,1,0,0:0:0:0:
256,192,87473,1,0,0:0:0:0:
256,192,87552,1,8,0:0:0:0:
256,192,87631,1,8,0:0:0:0:
256,192,87710,1,8,0:0:0:0:
256,192,87788,1,0,0:0:0:0:
256,192,87867,1,8,0:0:0:0:
256,192,87946,1,0,0:0:0:0:
256,192,88025,1,0,0:0:0:0:
256,192,88104,1,0,0:0:0:0:
256,192,88183,1,8,0:0:0:0:
256,192,88262,1,8,0:0:0:0:
256,192,88341,1,0,0:0:0:0:
256,192,88420,1,0,0:0:0:0:
256,192,88499,1,8,0:0:0:0:
256,192,88578,1,0,0:0:0:0:
256,192,88657,1,0,0:0:0:0:
256,192,88736,1,0,0:0:0:0:
256,192,88815,1,8,0:0:0:0:
256,192,88894,1,8,0:0:0:0:
256,192,88973,1,0,0:0:0:0:
256,192,89052,1,0,0:0:0:0:
256,192,89131,1,8,0:0:0:0:
256,192,89210,1,8,0:0:0:0:
256,192,89288,1,8,0:0:0:0:
256,192,89367,1,8,0:0:0:0:
256,192,89446,1,0,0:0:0:0:
256,192,89525,1,0,0:0:0:0:
256,192,89604,1,8,0:0:0:0:
256,192,89683,1,8,0:0:0:0:
256,192,89762,1,8,0:0:0:0:
256,192,89841,1,8,0:0:0:0:
256,192,89920,1,0,0:0:0:0:
256,192,89999,1,0,0:0:0:0:
256,192,90078,1,8,0:0:0:0:
256,192,90157,1,8,0:0:0:0:
256,192,90236,1,0,0:0:0:0:
256,192,90315,1,0,0:0:0:0:
256,192,90394,1,8,0:0:0:0:
256,192,90473,1,0,0:0:0:0:
256,192,90552,1,0,0:0:0:0:
256,192,90631,1,0,0:0:0:0:
256,192,90710,1,8,0:0:0:0:
256,192,90788,1,0,0:0:0:0:
256,192,90867,1,8,0:0:0:0:
256,192,90946,1,8,0:0:0:0:
256,192,91025,1,0,0:0:0:0:
256,192,91104,1,0,0:0:0:0:
256,192,91183,1,0,0:0:0:0:
256,192,91262,1,0,0:0:0:0:
256,192,91341,1,8,0:0:0:0:
256,192,91420,1,8,0:0:0:0:
256,192,91499,1,8,0:0:0:0:
256,192,91578,1,0,0:0:0:0:
256,192,91657,1,8,0:0:0:0:
256,192,91736,1,0,0:0:0:0:
256,192,91815,1,0,0:0:0:0:
256,192,91894,1,0,0:0:0:0:
256,192,91973,1,8,0:0:0:0:
256,192,92052,1,8,0:0:0:0:
256,192,92131,1,0,0:0:0:0:
256,192,92210,1,0,0:0:0:0:
256,192,92288,1,8,0:0:0:0:
256,192,92367,1,0,0:0:0:0:
256,192,92446,1,0,0:0:0:0:
256,192,92525,1,0,0:0:0:0:
256,192,92604,1,8,0:0:0:0:
256,192,92683,1,8,0:0:0:0:
256,192,92762,1,8,0:0:0:0:
256,192,92841,1,8,0:0:0:0:
256,192,92920,1,0,0:0:0:0:
256,192,92999,1,0,0:0:0:0:
256,192,93078,1,0,0:0:0:0:
256,192,93157,1,0,0:0:0:0:
256,192,93236,1,8,0:0:0:0:
256,192,93315,1,8,0:0:0:0:
256,192,93394,1,0,0:0:0:0:
256,192,93473,1,0,0:0:0:0:
256,192,93552,1,0,0:0:0:0:
256,192,93631,1,0,0:0:0:0:
256,192,93710,1,8,0:0:0:0:
256,192,93788,1,8,0:0:0:0:
256,192,93867,1,0,0:0:0:0:
256,192,94025,1,0,0:0:0:0:
256,192,94183,1,12,0:0:0:0:
256,192,94341,1,12,0:0:0:0:
256,192,94499,1,4,0:0:0:0:
256,192,94657,1,12,0:0:0:0:
256,192,94815,1,12,0:0:0:0:
256,192,94973,1,4,0:0:0:0:
256,192,95131,1,12,0:0:0:0:
80,112,95762,2,0,L|400:264,1,350
256,192,96710,1,12,0:0:0:0:
256,192,96867,1,4,0:0:0:0:
256,192,97025,1,4,0:0:0:0:
256,192,97183,1,12,0:0:0:0:
256,192,97341,1,4,0:0:0:0:
256,192,97499,1,4,0:0:0:0:
256,192,97657,1,12,0:0:0:0:
80,112,98288,2,0,L|400:264,1,350
256,192,99236,1,4,0:0:0:0:
256,192,99867,1,8,0:0:0:0:
256,192,100183,1,0,0:0:0:0:
256,192,100262,1,0,0:0:0:0:
256,192,100341,1,0,0:0:0:0:
256,192,100499,1,12,0:0:0:0:
256,192,100815,1,0,0:0:0:0:
256,192,101131,1,8,0:0:0:0:
256,192,101446,1,0,0:0:0:0:
256,192,101525,1,0,0:0:0:0:
256,192,101604,1,0,0:0:0:0:
256,192,101762,1,12,0:0:0:0:
256,192,102078,1,0,0:0:0:0:
256,192,102394,1,8,0:0:0:0:
256,192,102710,1,0,0:0:0:0:
256,192,102788,1,0,0:0:0:0:
256,192,102867,1,0,0:0:0:0:
256,192,103025,1,8,0:0:0:0:
256,192,103104,1,8,0:0:0:0:
256,192,103183,1,8,0:0:0:0:
256,192,103262,1,8,0:0:0:0:
256,192,103341,1,0,0:0:0:0:
256,192,103420,1,0,0:0:0:0:
256,192,103499,1,8,0:0:0:0:
256,192,103578,1,8,0:0:0:0:
256,192,103657,1,0,0:0:0:0:
256,192,103736,1,0,0:0:0:0:
256,192,103815,1,0,0:0:0:0:
256,192,103894,1,0,0:0:0:0:
256,192,103973,1,8,0:0:0:0:
256,192,104052,1,8,0:0:0:0:
256,192,104131,1,0,0:0:0:0:
256,192,104288,1,12,0:0:0:0:
256,192,104446,1,12,0:0:0:0:
256,192,104604,1,4,0:0:0:0:
256,192,104762,1,12,0:0:0:0:
256,192,104920,1,12,0:0:0:0:
256,192,105078,1,4,0:0:0:0:
256,192,105236,1,12,0:0:0:0:
80,112,105867,2,0,L|400:264,1,350
256,192,106815,1,12,0:0:0:0:
256,192,106973,1,4,0:0:0:0:
256,192,107131,1,4,0:0:0:0:
256,192,107288,1,12,0:0:0:0:
256,192,107446,1,4,0:0:0:0:
256,192,107604,1,4,0:0:0:0:
256,192,107762,1,12,0:0:0:0:
80,112,108394,2,0,L|400:264,1,350
256,192,109341,1,4,0:0:0:0:
256,192,109815,1,0,0:0:0:0:
256,192,109973,1,8,0:0:0:0:
256,192,110288,1,0,0:0:0:0:
256,192,110446,1,0,0:0:0:0:
256,192,110604,1,12,0:0:0:0:
256,192,110762,1,0,0:0:0:0:
256,192,111078,1,0,0:0:0:0:
256,192,111236,1,8,0:0:0:0:
256,192,111552,1,8,0:0:0:0:
256,192,111867,1,4,0:0:0:0:
256,192,112183,1,0,0:0:0:0:
256,192,112499,1,8,0:0:0:0:
256,192,112815,1,0,0:0:0:0:
256,192,113131,1,8,0:0:0:0:
256,192,113210,1,8,0:0:0:0:
256,192,113288,1,8,0:0:0:0:
256,192,113367,1,8,0:0:0:0:
256,192,113446,1,0,0:0:0:0:
256,192,113525,1,0,0:0:0:0:
256,192,113604,1,8,0:0:0:0:
256,192,113683,1,8,0:0:0:0:
256,192,113762,1,8,0:0:0:0:
256,192,113841,1,8,0:0:0:0:
256,192,113920,1,0,0:0:0:0:
256,192,113999,1,0,0:0:0:0:
256,192,114078,1,8,0:0:0:0:
256,192,114157,1,8,0:0:0:0:
256,192,114236,1,0,0:0:0:0:
256,192,114394,1,12,0:0:0:0:
256,192,114710,1,0,0:0:0:0:
256,192,115025,1,0,0:0:0:0:
256,192,115341,1,0,0:0:0:0:
256,192,115657,1,8,0:0:0:0:
256,192,115736,1,8,0:0:0:0:
256,192,115815,1,0,0:0:0:0:
256,192,115894,1,0,0:0:0:0:
256,192,115973,1,0,0:0:0:0:
256,192,116131,1,0,0:0:0:0:
256,192,116210,1,8,0:0:0:0:
256,192,116288,1,0,0:0:0:0:
256,192,116446,1,0,0:0:0:0:
256,192,116525,1,0,0:0:0:0:
256,192,116604,1,8,0:0:0:0:
256,192,116683,1,0,0:0:0:0:
256,192,116762,1,0,0:0:0:0:
256,192,116841,1,0,0:0:0:0:
256,192,116920,1,0,0:0:0:0:
256,192,117236,1,12,0:0:0:0:
256,192,119446,1,8,0:0:0:0:
256,192,119525,1,8,0:0:0:0:
256,192,119604,1,8,0:0:0:0:
256,192,119683,1,8,0:0:0:0:
256,192,119762,1,0,0:0:0:0:
256,192,119841,1,0,0:0:0:0:
256,192,119920,1,8,0:0:0:0:
256,192,119999,1,8,0:0:0:0:
256,192,120078,1,0,0:0:0:0:
256,192,120157,1,0,0:0:0:0:
256,192,120236,1,0,0:0:0:0:
256,192,120315,1,0,0:0:0:0:
256,192,120394,1,8,0:0:0:0:
256,192,120473,1,8,0:0:0:0:
256,192,120552,1,8,0:0:0:0:
256,192,120631,1,8,0:0:0:0:
256,192,120710,1,0,0:0:0:0:
256,192,120788,1,0,0:0:0:0:
256,192,120867,1,8,0:0:0:0:
256,192,120946,1,8,0:0:0:0:
256,192,121025,1,8,0:0:0:0:
256,192,121104,1,8,0:0:0:0:
256,192,121183,1,0,0:0:0:0:
256,192,121262,1,0,0:0:0:0:
256,192,121341,1,8,0:0:0:0:
256,192,121420,1,8,0:0:0:0:
256,192,121499,1,0,0:0:0:0:
256,192,121578,1,0,0:0:0:0:
256,192,121657,1,8,0:0:0:0:
256,192,121973,1,8,0:0:0:0:
256,192,122131,1,0,0:0:0:0:
256,192,122183,1,0,0:0:0:0:
256,192,122236,1,0,0:0:0:0:
256,192,122288,1,8,0:0:0:0:
256,192,122525,1,0,0:0:0:0:
256,192,122604,1,8,0:0:0:0:
256,192,122762,1,8,0:0:0:0:
256,192,122841,1,0,0:0:0:0:
256,192,122920,1,8,0:0:0:0:
256,192,123078,1,0,0:0:0:0:
256,192,123236,1,8,0:0:0:0:
256,192,123394,1,0,0:0:0:0:
256,192,123446,1,0,0:0:0:0:
256,192,123499,1,0,0:0:0:0:
256,192,123552,1,8,0:0:0:0:
256,192,123710,1,0,0:0:0:0:
256,192,123867,1,8,0:0:0:0:
256,192,124025,1,8,0:0:0:0:
256,192,124104,1,8,0:0:0:0:
256,192,124183,1,0,0:0:0:0:
256,192,124262,1,8,0:0:0:0:
256,192,124341,1,0,0:0:0:0:
256,192,124499,1,8,0:0:0:0:
256,192,124657,1,0,0:0:0:0:
256,192,124710,1,0,0:0:0:0:
256,192,124762,1,0,0:0:0:0:
256,192,124815,1,8,0:0:0:0:
256,192,125052,1,0,0:0:0:0:
256,192,125131,1,8,0:0:0:0:
256,192,125288,1,8,0:0:0:0:
256,192,125367,1,0,0:0:0:0:
256,192,125446,1,8,0:0:0:0:
256,192,125604,1,0,0:0:0:0:
256,192,125762,1,8,0:0:0:0:
256,192,125920,1,0,0:0:0:0:
256,192,125999,1,0,0:0:0:0:
256,192,126078,1,8,0:0:0:0:
256,192,126157,1,0,0:0:0:0:
256,192,126236,1,8,0:0:0:0:
256,192,126394,1,8,0:0:0:0:
256,192,126473,1,8,0:0:0:0:
256,192,126552,1,0,0:0:0:0:
256,192,126631,1,0,0:0:0:0:
256,192,126710,1,8,0:0:0:0:
256,192,126788,1,0,0:0:0:0:
256,192,126867,1,0,0:0:0:0:
256,192,127025,1,12,0:0:0:0:
256,192,127183,1,0,0:0:0:0:
256,192,127236,1,0,0:0:0:0:
256,192,127288,1,0,0:0:0:0:
256,192,127341,1,8,0:0:0:0:
256,192,127499,1,0,0:0:0:0:
256,192,127578,1,0,0:0:0:0:
256,192,127657,1,8,0:0:0:0:
256,192,127815,1,8,0:0:0:0:
256,192,127894,1,0,0:0:0:0:
256,192,127973,1,8,0:0:0:0:
256,192,128131,1,0,0:0:0:0:
256,192,128288,1,8,0:0:0:0:
256,192,128446,1,0,0:0:0:0:
256,192,128499,1,0,0:0:0:0:
256,192,128552,1,0,0:0:0:0:
256,192,128604,1,8,0:0:0:0:
256,192,128762,1,0,0:0:0:0:
256,192,128920,1,8,0:0:0:0:
256,192,128999,1,8,0:0:0:0:
256,192,129078,1,0,0:0:0:0:
256,192,129157,1,0,0:0:0:0:
256,192,129236,1,8,0:0:0:0:
256,192,129394,1,0,0:0:0:0:
256,192,129552,1,8,0:0:0:0:
256,192,129710,1,0,0:0:0:0:
256,192,129762,1,0,0:0:0:0:
256,192,129815,1,0,0:0:0:0:
256,192,129867,1,8,0:0:0:0:
256,192,130025,1,0,0:0:0:0:
256,192,130104,1,8,0:0:0:0:
256,192,130183,1,0,0:0:0:0:
256,192,130341,1,0,0:0:0:0:
256,192,130420,1,0,0:0:0:0:
256,192,130499,1,8,0:0:0:0:
256,192,130657,1,0,0:0:0:0:
256,192,130815,1,8,0:0:0:0:
256,192,130973,1,8,0:0:0:0:
256,192,131052,1,8,0:0:0:0:
256,192,131131,1,0,0:0:0:0:
256,192,131288,1,8,0:0:0:0:
256,192,131446,1,0,0:0:0:0:
256,192,131762,1,12,0:0:0:0:
256,192,132078,1,4,0:0:0:0:
256,192,132710,1,8,0:0:0:0:
256,192,133341,1,0,0:0:0:0:
256,192,133420,1,0,0:0:0:0:
256,192,133657,1,0,0:0:0:0:
256,192,133736,1,0,0:0:0:0:
256,192,133973,1,8,0:0:0:0:
256,192,134604,1,4,0:0:0:0:
256,192,135236,1,8,0:0:0:0:
256,192,135867,1,0,0:0:0:0:
256,192,135946,1,0,0:0:0:0:
256,192,136183,1,0,0:0:0:0:
256,192,136262,1,0,0:0:0:0:
256,192,136499,1,8,0:0:0:0:
256,192,137131,1,0,0:0:0:0:
256,192,137446,1,8,0:0:0:0:
256,192,137604,1,0,0:0:0:0:
256,192,137762,1,0,0:0:0:0:
256,192,137920,1,0,0:0:0:0:
256,192,138078,1,8,0:0:0:0:
256,192,138236,1,8,0:0:0:0:
256,192,138394,1,0,0:0:0:0:
256,192,138552,1,8,0:0:0:0:
256,192,138710,1,8,0:0:0:0:
256,192,138867,1,8,0:0:0:0:
256,192,139025,1,0,0:0:0:0:
256,192,139183,1,8,0:0:0:0:
256,192,139341,1,0,0:0:0:0:
256,192,139499,1,8,0:0:0:0:
256,192,139657,1,8,0:0:0:0:
256,192,139736,1,8,0:0:0:0:
256,192,139815,1,0,0:0:0:0:
256,192,139894,1,0,0:0:0:0:
256,192,139973,1,0,0:0:0:0:
256,192,140052,1,0,0:0:0:0:
256,192,140131,1,8,0:0:0:0:
256,192,140210,1,8,0:0:0:0:
256,192,140288,1,8,0:0:0:0:
256,192,140367,1,8,0:0:0:0:
256,192,140446,1,0,0:0:0:0:
256,192,140525,1,0,0:0:0:0:
256,192,140604,1,8,0:0:0:0:
256,192,140683,1,8,0:0:0:0:
256,192,140762,1,8,0:0:0:0:
256,192,140841,1,8,0:0:0:0:
256,192,140920,1,0,0:0:0:0:
256,192,140999,1,0,0:0:0:0:
256,192,141078,1,8,0:0:0:0:
256,192,141157,1,8,0:0:0:0:
256,192,141236,1,0,0:0:0:0:
256,192,141315,1,0,0:0:0:0:
256,192,141394,1,0,0:0:0:0:
256,192,141473,1,0,0:0:0:0:
256,192,141552,1,8,0:0:0:0:
256,192,141631,1,8,0:0:0:0:
256,192,141710,1,8,0:0:0:0:
256,192,141788,1,8,0:0:0:0:
256,192,141867,1,0,0:0:0:0:
256,192,142183,1,8,0:0:0:0:
256,192,142262,1,0,0:0:0:0:
256,192,142341,1,0,0:0:0:0:
256,192,142420,1,0,0:0:0:0:
256,192,142499,1,8,0:0:0:0:
256,192,142578,1,8,0:0:0:0:
256,192,142657,1,0,0:0:0:0:
256,192,142736,1,0,0:0:0:0:
256,192,142815,1,8,0:0:0:0:
256,192,142894,1,0,0:0:0:0:
256,192,142973,1,0,0:0:0:0:
256,192,143052,1,0,0:0:0:0:
256,192,143131,1,8,0:0:0:0:
256,192,143210,1,8,0:0:0:0:
256,192,143288,1,8,0:0:0:0:
256,192,143367,1,0,0:0:0:0:
256,192,143446,1,8,0:0:0:0:
256,192,143525,1,0,0:0:0:0:
256,192,143604,1,0,0:0:0:0:
256,192,143683,1,0,0:0:0:0:
256,192,143762,1,8,0:0:0:0:
256,192,143841,1,8,0:0:0:0:
256,192,143920,1,0,0:0:0:0:
256,192,143999,1,0,0:0:0:0:
256,192,144078,1,8,0:0:0:0:
256,192,144157,1,0,0:0:0:0:
256,192,144236,1,0,0:0:0:0:
256,192,144315,1,0,0:0:0:0:
256,192,144394,1,8,0:0:0:0:
256,192,144473,1,8,0:0:0:0:
256,192,144552,1,8,0:0:0:0:
256,192,144631,1,0,0:0:0:0:
256,192,144710,1,8,0:0:0:0:
256,192,144788,1,8,0:0:0:0:
256,192,144867,1,0,0:0:0:0:
256,192,144946,1,0,0:0:0:0:
256,192,145025,1,8,0:0:0:0:
256,192,145104,1,0,0:0:0:0:
256,192,145183,1,8,0:0:0:0:
256,192,145262,1,0,0:0:0:0:
256,192,145341,1,8,0:0:0:0:
256,192,145420,1,8,0:0:0:0:
256,192,145499,1,0,0:0:0:0:
256,192,145578,1,0,0:0:0:0:
256,192,145657,1,8,0:0:0:0:
256,192,145736,1,8,0:0:0:0:
256,192,145815,1,8,0:0:0:0:
256,192,145894,1,0,0:0:0:0:
256,192,145973,1,8,0:0:0:0:
256,192,146052,1,0,0:0:0:0:
256,192,146131,1,0,0:0:0:0:
256,192,146210,1,0,0:0:0:0:
256,192,146288,1,8,0:0:0:0:
256,192,146367,1,8,0:0:0:0:
256,192,146446,1,0,0:0:0:0:
256,192,146525,1,0,0:0:0:0:
256,192,146604,1,8,0:0:0:0:
256,192,146683,1,8,0:0:0:0:
256,192,146762,1,0,0:0:0:0:
256,192,146841,1,0,0:0:0:0:
256,192,146920,1,8,0:0:0:0:
256,192,146999,1,8,0:0:0:0:
256,192,147078,1,8,0:0:0:0:
256,192,147157,1,0,0:0:0:0:
256,192,147236,1,8,0:0:0:0:
256,192,147315,1,0,0:0:0:0:
256,192,147394,1,0,0:0:0:0:
256,192,147473,1,0,0:0:0:0:
256,192,147552,1,8,0:0:0:0:
256,192,147631,1,0,0:0:0:0:
256,192,147710,1,8,0:0:0:0:
256,192,147788,1,0,0:0:0:0:
256,192,147867,1,8,0:0:0:0:
256,192,147946,1,8,0:0:0:0:
256,192,148025,1,0,0:0:0:0:
256,192,148104,1,0,0:0:0:0:
256,192,148183,1,8,0:0:0:0:
256,192,148262,1,8,0:0:0:0:
256,192,148341,1,8,0:0:0:0:
256,192,148420,1,0,0:0:0:0:
256,192,148499,1,8,0:0:0:0:
256,192,148578,1,8,0:0:0:0:
256,192,148657,1,8,0:0:0:0:
256,192,148736,1,8,0:0:0:0:
256,192,148815,1,0,0:0:0:0:
256,192,148894,1,0,0:0:0:0:
256,192,148973,1,0,0:0:0:0:
256,192,149052,1,0,0:0:0:0:
256,192,149131,1,8,0:0:0:0:
256,192,149210,1,0,0:0:0:0:
256,192,149288,1,0,0:0:0:0:
256,192,149367,1,0,0:0:0:0:
256,192,149446,1,8,0:0:0:0:
256,192,149525,1,8,0:0:0:0:
256,192,149604,1,8,0:0:0:0:
256,192,149683,1,0,0:0:0:0:
256,192,149762,1,8,0:0:0:0:
256,192,149841,1,0,0:0:0:0:
256,192,149920,1,0,0:0:0:0:
256,192,149999,1,0,0:0:0:0:
256,192,150078,1,8,0:0:0:0:
256,192,150157,1,8,0:0:0:0:
256,192,150236,1,0,0:0:0:0:
256,192,150315,1,0,0:0:0:0:
256,192,150394,1,8,0:0:0:0:
256,192,150473,1,0,0:0:0:0:
256,192,150552,1,0,0:0:0:0:
256,192,150631,1,0,0:0:0:0:
256,192,150710,1,8,0:0:0:0:
256,192,150788,1,8,0:0:0:0:
256,192,150867,1,8,0:0:0:0:
256,192,150946,1,0,0:0:0:0:
256,192,151025,1,8,0:0:0:0:
256,192,151104,1,8,0:0:0:0:
256,192,151183,1,0,0:0:0:0:
256,192,151262,1,0,0:0:0:0:
256,192,151341,1,8,0:0:0:0:
256,192,151420,1,8,0:0:0:0:
256,192,151499,1,0,0:0:0:0:
256,192,151578,1,0,0:0:0:0:
256,192,151657,1,8,0:0:0:0:
256,192,151736,1,0,0:0:0:0:
256,192,151815,1,0,0:0:0:0:
256,192,151894,1,0,0:0:0:0:
256,192,151973,1,8,0:0:0:0:
256,192,152052,1,0,0:0:0:0:
256,192,152131,1,8,0:0:0:0:
256,192,152210,1,8,0:0:0:0:
256,192,152288,1,8,0:0:0:0:
256,192,152367,1,0,0:0:0:0:
256,192,152446,1,0,0:0:0:0:
256,192,152525,1,0,0:0:0:0:
256,192,152604,1,8,0:0:0:0:
256,192,152683,1,8,0:0:0:0:
256,192,152762,1,0,0:0:0:0:
256,192,152841,1,0,0:0:0:0:
256,192,152920,1,8,0:0:0:0:
256,192,152999,1,0,0:0:0:0:
256,192,153078,1,0,0:0:0:0:
256,192,153157,1,0,0:0:0:0:
256,192,153236,1,8,0:0:0:0:
256,192,153315,1,8,0:0:0:0:
256,192,153394,1,8,0:0:0:0:
256,192,153473,1,0,0:0:0:0:
256,192,153552,1,8,0:0:0:0:
256,192,153631,1,0,0:0:0:0:
256,192,153710,1,0,0:0:0:0:
256,192,153788,1,0,0:0:0:0:
256,192,153867,1,8,0:0:0:0:
256,192,153946,1,8,0:0:0:0:
256,192,154025,1,0,0:0:0:0:
256,192,154104,1,0,0:0:0:0:
256,192,154183,1,8,0:0:0:0:
256,192,154262,1,0,0:0:0:0:
256,192,154341,1,0,0:0:0:0:
256,192,154420,1,0,0:0:0:0:
256,192,154499,1,8,0:0:0:0:
256,192,154578,1,8,0:0:0:0:
256,192,154657,1,0,0:0:0:0:
256,192,154736,1,0,0:0:0:0:
256,192,154815,1,8,0:0:0:0:
256,192,154894,1,8,0:0:0:0:
256,192,154973,1,8,0:0:0:0:
256,192,155052,1,8,0:0:0:0:
256,192,155131,1,0,0:0:0:0:
256,192,155210,1,0,0:0:0:0:
256,192,155288,1,8,0:0:0:0:
256,192,155367,1,8,0:0:0:0:
256,192,155446,1,8,0:0:0:0:
256,192,155525,1,8,0:0:0:0:
256,192,155604,1,0,0:0:0:0:
256,192,155683,1,0,0:0:0:0:
256,192,155762,1,8,0:0:0:0:
256,192,155841,1,8,0:0:0:0:
256,192,155920,1,0,0:0:0:0:
256,192,155999,1,0,0:0:0:0:
256,192,156078,1,8,0:0:0:0:
256,192,156157,1,0,0:0:0:0:
256,192,156236,1,0,0:0:0:0:
256,192,156315,1,0,0:0:0:0:
256,192,156394,1,8,0:0:0:0:
256,192,156473,1,0,0:0:0:0:
256,192,156552,1,8,0:0:0:0:
256,192,156631,1,8,0:0:0:0:
256,192,156710,1,0,0:0:0:0:
256,192,156788,1,0,0:0:0:0:
256,192,156867,1,0,0:0:0:0:
256,192,156946,1,0,0:0:0:0:
256,192,157025,1,8,0:0:0:0:
256,192,157104,1,8,0:0:0:0:
256,192,157183,1,8,0:0:0:0:
256,192,157262,1,0,0:0:0:0:
256,192,157341,1,8,0:0:0:0:
256,192,157420,1,0,0:0:0:0:
256,192,157499,1,0,0:0:0:0:
256,192,157578,1,0,0:0:0:0:
256,192,157657,1,8,0:0:0:0:
256,192,157736,1,8,0:0:0:0:
256,192,157815,1,0,0:0:0:0:
256,192,157894,1,0,0:0:0:0:
256,192,157973,1,8,0:0:0:0:
256,192,158052,1,0,0:0:0:0:
256,192,158131,1,0,0:0:0:0:
256,192,158210,1,0,0:0:0:0:
256,192,158288,1,8,0:0:0:0:
256,192,158367,1,8,0:0:0:0:
256,192,158446,1,8,0:0:0:0:
256,192,158525,1,8,0:0:0:0:
256,192,158604,1,0,0:0:0:0:
256,192,158683,1,0,0:0:0:0:
256,192,158762,1,0,0:0:0:0:
256,192,158841,1,0,0:0:0:0:
256,192,158920,1,8,0:0:0:0:
256,192,158999,1,8,0:0:0:0:
256,192,159078,1,0,0:0:0:0:
256,192,159157,1,0,0:0:0:0:
256,192,159236,1,0,0:0:0:0:
256,192,159315,1,0,0:0:0:0:
256,192,159394,1,8,0:0:0:0:
256,192,159473,1,8,0:0:0:0:
256,192,159552,1,0,0:0:0:0:
256,192,159710,1,8,0:0:0:0:
256,192,159867,1,0,0:0:0:0:
256,192,160183,1,8,0:0:0:0:
256,192,160420,1,8,0:0:0:0:
256,192,160499,1,0,0:0:0:0:
256,192,160657,1,0,0:0:0:0:
256,192,160815,1,8,0:0:0:0:
256,192,161131,1,0,0:0:0:0:
256,192,161446,1,8,0:0:0:0:
256,192,161604,1,0,0:0:0:0:
256,192,161762,1,8,0:0:0:0:
256,192,161920,1,8,0:0:0:0:
256,192,162078,1,0,0:0:0:0:
256,192,162394,1,0,0:0:0:0:
256,192,162710,1,8,0:0:0:0:
256,192,162946,1,0,0:0:0:0:
256,192,163025,1,8,0:0:0:0:
256,192,163183,1,8,0:0:0:0:
256,192,163341,1,0,0:0:0:0:
256,192,163657,1,8,0:0:0:0:
256,192,163815,1,0,0:0:0:0:
256,192,163973,1,8,0:0:0:0:
256,192,164131,1,8,0:0:0:0:
256,192,164446,1,0,0:0:0:0:
256,192,164604,1,8,0:0:0:0:
256,192,164762,1,0,0:0:0:0:
256,192,164920,1,0,0:0:0:0:
256,192,165236,1,8,0:0:0:0:
256,192,165473,1,0,0:0:0:0:
256,192,165552,1,0,0:0:0:0:
256,192,165710,1,0,0:0:0:0:
256,192,165867,1,8,0:0:0:0:
256,192,166183,1,0,0:0:0:0:
256,192,166499,1,8,0:0:0:0:
256,192,166657,1,0,0:0:0:0:
256,192,166815,1,8,0:0:0:0:
256,192,166973,1,8,0:0:0:0:
256,192,167131,1,0,0:0:0:0:
256,192,167288,1,0,0:0:0:0:
256,192,167446,1,8,0:0:0:0:
256,192,167762,1,0,0:0:0:0:
256,192,167999,1,8,0:0:0:0:
256,192,168078,1,8,0:0:0:0:
256,192,168236,1,8,0:0:0:0:
256,192,168394,1,0,0:0:0:0:
256,192,168710,1,8,0:0:0:0:
256,192,168867,1,0,0:0:0:0:
256,192,169025,1,8,0:0:0:0:
256,192,169262,1,0,0:0:0:0:
256,192,169341,1,8,0:0:0:0:
256,192,169499,1,0,0:0:0:0:
256,192,169657,1,8,0:0:0:0:
256,192,169736,1,8,0:0:0:0:
256,192,169815,1,8,0:0:0:0:
256,192,169973,1,4,0:0:0:0:
256,192,170131,1,8,0:0:0:0:
256,192,170288,1,8,0:0:0:0:
256,192,170446,1,0,0:0:0:0:
256,192,170604,1,8,0:0:0:0:
256,192,170683,1,0,0:0:0:0:
256,192,170762,1,8,0:0:0:0:
256,192,170841,1,8,0:0:0:0:
256,192,170920,1,0,0:0:0:0:
256,192,171078,1,0,0:0:0:0:
256,192,171236,1,8,0:0:0:0:
256,192,171394,1,0,0:0:0:0:
256,192,171552,1,0,0:0:0:0:
256,192,171710,1,8,0:0:0:0:
256,192,171788,1,8,0:0:0:0:
256,192,171867,1,0,0:0:0:0:
256,192,172025,1,0,0:0:0:0:
256,192,172183,1,8,0:0:0:0:
256,192,172262,1,0,0:0:0:0:
256,192,172341,1,8,0:0:0:0:
256,192,172499,1,0,0:0:0:0:
256,192,172578,1,0,0:0:0:0:
256,192,172657,1,8,0:0:0:0:
256,192,172736,1,0,0:0:0:0:
256,192,172815,1,8,0:0:0:0:
256,192,172973,1,0,0:0:0:0:
256,192,173131,1,8,0:0:0:0:
256,192,173210,1,8,0:0:0:0:
256,192,173288,1,0,0:0:0:0:
256,192,173367,1,0,0:0:0:0:
256,192,173446,1,8,0:0:0:0:
256,192,173604,1,0,0:0:0:0:
256,192,173762,1,8,0:0:0:0:
256,192,173841,1,0,0:0:0:0:
256,192,173920,1,8,0:0:0:0:
256,192,174078,1,8,0:0:0:0:
256,192,174236,1,0,0:0:0:0:
256,192,174315,1,0,0:0:0:0:
256,192,174394,1,8,0:0:0:0:
256,192,174499,1,8,0:0:0:0:
256,192,174604,1,8,0:0:0:0:
256,192,174710,1,0,0:0:0:0:
256,192,174815,1,0,0:0:0:0:
256,192,174920,1,0,0:0:0:0:
256,192,175025,1,12,0:0:0:0:
256,192,176288,1,12,0:0:0:0:
256,192,176762,1,12,0:0:0:0:
256,192,177236,1,12,0:0:0:0:
256,192,177552,1,12,0:0:0:0:
256,192,177710,12,0,178973,0:0:0:0:
256,192,180078,5,0,0:0:0:0:
256,192,180710,1,8,0:0:0:0:
256,192,181025,1,0,0:0:0:0:
256,192,181341,1,8,0:0:0:0:
256,192,181973,1,0,0:0:0:0:
256,192,182604,1,8,0:0:0:0:
256,192,183236,1,8,0:0:0:0:
256,192,183552,1,0,0:0:0:0:
256,192,183867,1,0,0:0:0:0:
256,192,184499,1,8,0:0:0:0:
256,192,185131,1,12,0:0:0:0:
256,192,185288,1,12,0:0:0:0:
256,192,185604,1,12,0:0:0:0:
256,192,185762,1,4,0:0:0:0:
256,192,186236,1,4,0:0:0:0:
256,192,186394,1,12,0:0:0:0:
256,192,186552,1,12,0:0:0:0:
256,192,186867,1,12,0:0:0:0:
256,192,187025,1,4,0:0:0:0:
256,192,187657,1,12,0:0:0:0:
256,192,187815,1,12,0:0:0:0:
256,192,188131,1,12,0:0:0:0:
256,192,188288,1,4,0:0:0:0:
256,192,188446,1,12,0:0:0:0:
256,192,188762,1,4,0:0:0:0:
256,192,188920,1,8,0:0:0:0:
256,192,188999,1,8,0:0:0:0:
256,192,189078,1,0,0:0:0:0:
256,192,189157,1,0,0:0:0:0:
256,192,189236,1,8,0:0:0:0:
256,192,189315,1,8,0:0:0:0:
256,192,189394,1,0,0:0:0:0:
256,192,189473,1,0,0:0:0:0:
256,192,189552,1,8,0:0:0:0:
256,192,189867,1,8,0:0:0:0:
256,192,190183,1,4,0:0:0:0:
256,192,190657,1,0,0:0:0:0:
256,192,190815,1,8,0:0:0:0:
256,192,191131,1,0,0:0:0:0:
256,192,191288,1,0,0:0:0:0:
256,192,191446,1,8,0:0:0:0:
256,192,191762,1,0,0:0:0:0:
256,192,192078,1,8,0:0:0:0:
256,192,192394,1,0,0:0:0:0:
256,192,192710,1,8,0:0:0:0:
256,192,193183,1,0,0:0:0:0:
256,192,193341,1,8,0:0:0:0:
256,192,193657,1,0,0:0:0:0:
256,192,193815,1,0,0:0:0:0:
256,192,193973,1,8,0:0:0:0:
256,192,194131,1,8,0:0:0:0:
256,192,194288,1,0,0:0:0:0:
256,192,194604,1,8,0:0:0:0:
256,192,194920,1,0,0:0:0:0:
256,192,194999,1,0,0:0:0:0:
256,192,195078,1,0,0:0:0:0:
256,192,195236,1,8,0:0:0:0:
256,192,195710,1,0,0:0:0:0:
256,192,195867,1,8,0:0:0:0:
256,192,196183,1,0,0:0:0:0:
256,192,196341,1,0,0:0:0:0:
256,192,196499,1,8,0:0:0:0:
256,192,196815,1,0,0:0:0:0:
256,192,197131,1,8,0:0:0:0:
256,192,197446,1,0,0:0:0:0:
256,192,197525,1,8,0:0:0:0:
256,192,197604,1,8,0:0:0:0:
256,192,197762,1,0,0:0:0:0:
256,192,198236,1,0,0:0:0:0:
256,192,198394,1,8,0:0:0:0:
256,192,198710,1,0,0:0:0:0:
256,192,198867,1,8,0:0:0:0:
256,192,199025,1,0,0:0:0:0:
256,192,199341,1,0,0:0:0:0:
256,192,199499,1,8,0:0:0:0:
256,192,199657,1,0,0:0:0:0:
256,192,199815,1,0,0:0:0:0:
256,192,199973,1,8,0:0:0:0:
256,192,200131,1,8,0:0:0:0:
256,192,200288,1,0,0:0:0:0:
256,192,200762,1,0,0:0:0:0:
256,192,200920,1,8,0:0:0:0:
256,192,201236,1,0,0:0:0:0:
256,192,201394,1,8,0:0:0:0:
256,192,201552,1,8,0:0:0:0:
256,192,201867,1,0,0:0:0:0:
256,192,202183,1,8,0:0:0:0:
256,192,202420,1,0,0:0:0:0:
256,192,202657,1,0,0:0:0:0:
256,192,202815,1,8,0:0:0:0:
256,192,203131,1,8,0:0:0:0:
256,192,203288,1,0,0:0:0:0:
256,192,203446,1,8,0:0:0:0:
256,192,203762,1,0,0:0:0:0:
256,192,204078,1,0,0:0:0:0:
256,192,204473,1,8,0:0:0:0:
256,192,204710,1,0,0:0:0:0:
256,192,204946,1,8,0:0:0:0:
256,192,205262,1,0,0:0:0:0:
256,192,205341,1,8,0:0:0:0:
256,192,205815,1,0,0:0:0:0:
256,192,205973,1,8,0:0:0:0:
256,192,206288,1,0,0:0:0:0:
256,192,206446,1,0,0:0:0:0:
256,192,206604,1,8,0:0:0:0:
256,192,206762,1,0,0:0:0:0:
256,192,206920,1,8,0:0:0:0:
256,192,207236,1,0,0:0:0:0:
256,192,207394,1,8,0:0:0:0:
256,192,207552,1,0,0:0:0:0:
256,192,207631,1,0,0:0:0:0:
256,192,207710,1,0,0:0:0:0:
256,192,207867,1,8,0:0:0:0:
256,192,207946,1,0,0:0:0:0:
256,192,208025,1,8,0:0:0:0:
256,192,208104,1,8,0:0:0:0:
256,192,208183,1,8,0:0:0:0:
256,192,208262,1,0,0:0:0:0:
256,192,208341,1,0,0:0:0:0:
256,192,208420,1,8,0:0:0:0:
256,192,208499,1,8,0:0:0:0:
256,192,208578,1,0,0:0:0:0:
256,192,208657,1,0,0:0:0:0:
256,192,208736,1,8,0:0:0:0:
256,192,208815,1,0,0:0:0:0:
256,192,208894,1,0,0:0:0:0:
256,192,208973,1,8,0:0:0:0:
256,192,209052,1,0,0:0:0:0:
224,192,209131,2,0,L|440:160,1,210.000008010865
256,192,210078,1,8,0:0:0:0:
256,192,210236,1,8,0:0:0:0:
256,192,210394,1,4,0:0:0:0:
256,192,210710,1,8,0:0:0:0:
256,192,211025,1,0,0:0:0:0:
256,192,211183,1,0,0:0:0:0:
256,192,211341,1,8,0:0:0:0:
256,192,211657,1,0,0:0:0:0:
256,192,211815,1,8,0:0:0:0:
256,192,211973,1,8,0:0:0:0:
256,192,212131,1,0,0:0:0:0:
256,192,212288,1,0,0:0:0:0:
256,192,212446,1,0,0:0:0:0:
256,192,212604,1,8,0:0:0:0:
256,192,212762,1,8,0:0:0:0:
256,192,212920,1,0,0:0:0:0:
256,192,213236,1,8,0:0:0:0:
256,192,213394,1,0,0:0:0:0:
256,192,213552,1,8,0:0:0:0:
256,192,213788,1,8,0:0:0:0:
256,192,214025,1,0,0:0:0:0:
256,192,214183,1,8,0:0:0:0:
256,192,214499,1,8,0:0:0:0:
256,192,214657,1,0,0:0:0:0:
256,192,214815,1,0,0:0:0:0:
256,192,214894,1,0,0:0:0:0:
256,192,214973,1,8,0:0:0:0:
256,192,215052,1,8,0:0:0:0:
256,192,215131,1,0,0:0:0:0:
256,192,215210,1,8,0:0:0:0:
256,192,215288,1,8,0:0:0:0:
256,192,215446,1,4,0:0:0:0:
256,192,215762,1,8,0:0:0:0:
256,192,216078,1,0,0:0:0:0:
256,192,216236,1,0,0:0:0:0:
256,192,216394,1,8,0:0:0:0:
256,192,216710,1,0,0:0:0:0:
256,192,216867,1,0,0:0:0:0:
256,192,217025,1,8,0:0:0:0:
256,192,217183,1,8,0:0:0:0:
256,192,217341,1,0,0:0:0:0:
256,192,217499,1,8,0:0:0:0:
256,192,217657,1,0,0:0:0:0:
256,192,217815,1,8,0:0:0:0:
256,192,217973,1,0,0:0:0:0:
256,192,218288,1,8,0:0:0:0:
256,192,218604,1,0,0:0:0:0:
256,192,218841,1,0,0:0:0:0:
256,192,219078,1,8,0:0:0:0:
256,192,219236,1,0,0:0:0:0:
256,192,219552,1,8,0:0:0:0:
256,192,219710,1,0,0:0:0:0:
256,192,219867,1,8,0:0:0:0:
256,192,220025,1,8,0:0:0:0:
256,192,220183,1,0,0:0:0:0:
256,192,220262,1,0,0:0:0:0:
256,192,220341,1,0,0:0:0:0:
256,192,220420,1,0,0:0:0:0:
256,192,220499,1,8,0:0:0:0:
256,192,220973,1,0,0:0:0:0:
256,192,221131,1,8,0:0:0:0:
256,192,221367,1,8,0:0:0:0:
256,192,221604,1,0,0:0:0:0:
256,192,221762,1,8,0:0:0:0:
256,192,222078,1,0,0:0:0:0:
256,192,222394,1,8,0:0:0:0:
256,192,222631,1,0,0:0:0:0:
256,192,222867,1,8,0:0:0:0:
256,192,223025,1,8,0:0:0:0:
256,192,223499,1,0,0:0:0:0:
256,192,223657,1,8,0:0:0:0:
256,192,223894,1,0,0:0:0:0:
256,192,224131,1,0,0:0:0:0:
256,192,224288,1,8,0:0:0:0:
256,192,224604,1,0,0:0:0:0:
256,192,224920,1,8,0:0:0:0:
256,192,225157,1,8,0:0:0:0:
256,192,225394,1,0,0:0:0:0:
256,192,225552,1,12,0:0:0:0:
256,192,226815,1,12,0:0:0:0:
256,192,227288,1,12,0:0:0:0:
256,192,227762,1,12,0:0:0:0:
256,192,228078,1,8,0:0:0:0:
256,192,228157,1,0,0:0:0:0:
256,192,228236,1,0,0:0:0:0:
256,192,228315,1,8,0:0:0:0:
256,192,228394,1,8,0:0:0:0:
256,192,228473,1,0,0:0:0:0:
256,192,228552,5,0,0:0:0:0:
256,192,228631,1,0,0:0:0:0:
256,192,228710,1,8,0:0:0:0:
256,192,228788,1,8,0:0:0:0:
256,192,228867,1,0,0:0:0:0:
256,192,228946,1,0,0:0:0:0:
256,192,229025,1,8,0:0:0:0:
256,192,229104,1,8,0:0:0:0:
256,192,229183,1,8,0:0:0:0:
256,192,229262,1,8,0:0:0:0:
256,192,229341,1,0,0:0:0:0:
256,192,229420,1,0,0:0:0:0:
256,192,229499,1,8,0:0:0:0:
256,192,229578,1,8,0:0:0:0:
256,192,229657,1,0,0:0:0:0:
256,192,229736,1,0,0:0:0:0:
256,192,229815,1,0,0:0:0:0:
256,192,229894,1,0,0:0:0:0:
256,192,229973,1,8,0:0:0:0:
256,192,230052,1,8,0:0:0:0:
256,192,230131,1,8,0:0:0:0:
256,192,230210,1,8,0:0:0:0:
256,192,230288,1,0,0:0:0:0:
256,192,230604,1,12,0:0:0:0:
256,192,230762,1,12,0:0:0:0:
256,192,231867,1,4,0:0:0:0:
256,192,232025,1,4,0:0:0:0:
256,192,232499,1,4,0:0:0:0:
256,192,232657,1,4,0:0:0:0:
256,192,233131,1,12,0:0:0:0:
256,192,233446,1,8,0:0:0:0:
256,192,233762,1,8,0:0:0:0:
256,192,234078,1,8,0:0:0:0:
256,192,234394,1,12,0:0:0:0:
256,192,234552,1,0,0:0:0:0:
256,192,234631,1,0,0:0:0:0:
256,192,234710,1,0,0:0:0:0:
256,192,234867,1,12,0:0:0:0:
256,192,235025,1,0,0:0:0:0:
256,192,235104,1,0,0:0:0:0:
256,192,235183,1,0,0:0:0:0:
256,192,235262,1,0,0:0:0:0:
256,192,235341,1,8,0:0:0:0:
256,192,235420,1,8,0:0:0:0:
256,192,235499,1,8,0:0:0:0:
256,192,235578,1,0,0:0:0:0:
256,192,235657,1,8,0:0:0:0:
256,192,235736,1,0,0:0:0:0:
256,192,235815,1,0,0:0:0:0:
256,192,235894,1,0,0:0:0:0:
256,192,235973,1,8,0:0:0:0:
256,192,236052,1,0,0:0:0:0:
256,192,236131,1,8,0:0:0:0:
256,192,236210,1,0,0:0:0:0:
256,192,236288,1,8,0:0:0:0:
256,192,236367,1,8,0:0:0:0:
256,192,236446,1,0,0:0:0:0:
256,192,236525,1,0,0:0:0:0:
256,192,236604,1,8,0:0:0:0:
256,192,236683,1,8,0:0:0:0:
256,192,236762,1,8,0:0:0:0:
256,192,236841,1,0,0:0:0:0:
256,192,236920,1,8,0:0:0:0:
256,192,236999,1,8,0:0:0:0:
256,192,237078,1,8,0:0:0:0:
256,192,237157,1,8,0:0:0:0:
256,192,237236,1,0,0:0:0:0:
256,192,237315,1,0,0:0:0:0:
256,192,237394,1,0,0:0:0:0:
256,192,237473,1,0,0:0:0:0:
256,192,237552,1,8,0:0:0:0:
256,192,237631,1,0,0:0:0:0:
256,192,237710,1,0,0:0:0:0:
256,192,237788,1,0,0:0:0:0:
256,192,237867,1,8,0:0:0:0:
256,192,237946,1,8,0:0:0:0:
256,192,238025,1,8,0:0:0:0:
256,192,238104,1,0,0:0:0:0:
256,192,238183,1,8,0:0:0:0:
256,192,238262,1,0,0:0:0:0:
256,192,238341,1,0,0:0:0:0:
256,192,238420,1,0,0:0:0:0:
256,192,238499,1,8,0:0:0:0:
256,192,238578,1,8,0:0:0:0:
256,192,238657,1,0,0:0:0:0:
256,192,238736,1,0,0:0:0:0:
256,192,238815,1,8,0:0:0:0:
256,192,238894,1,0,0:0:0:0:
256,192,238973,1,0,0:0:0:0:
256,192,239052,1,0,0:0:0:0:
256,192,239131,1,8,0:0:0:0:
256,192,239210,1,8,0:0:0:0:
256,192,239288,1,8,0:0:0:0:
256,192,239367,1,0,0:0:0:0:
256,192,239446,1,8,0:0:0:0:
256,192,239525,1,8,0:0:0:0:
256,192,239604,1,0,0:0:0:0:
256,192,239683,1,0,0:0:0:0:
256,192,239762,1,8,0:0:0:0:
256,192,239841,1,8,0:0:0:0:
256,192,239920,1,0,0:0:0:0:
256,192,239999,1,0,0:0:0:0:
256,192,240078,1,8,0:0:0:0:
256,192,240157,1,0,0:0:0:0:
256,192,240236,1,0,0:0:0:0:
256,192,240315,1,0,0:0:0:0:
256,192,240394,1,8,0:0:0:0:
256,192,240473,1,0,0:0:0:0:
256,192,240552,1,8,0:0:0:0:
256,192,240631,1,8,0:0:0:0:
256,192,240710,1,8,0:0:0:0:
256,192,240788,1,0,0:0:0:0:
256,192,240867,1,0,0:0:0:0:
256,192,240946,1,0,0:0:0:0:
256,192,241025,1,8,0:0:0:0:
256,192,241104,1,8,0:0:0:0:
256,192,241183,1,0,0:0:0:0:
256,192,241262,1,0,0:0:0:0:
256,192,241341,1,8,0:0:0:0:
256,192,241420,1,0,0:0:0:0:
256,192,241499,1,0,0:0:0:0:
256,192,241578,1,0,0:0:0:0:
256,192,241657,1,8,0:0:0:0:
256,192,241736,1,8,0:0:0:0:
256,192,241815,1,8,0:0:0:0:
256,192,241894,1,0,0:0:0:0:
256,192,241973,1,8,0:0:0:0:
256,192,242052,1,0,0:0:0:0:
256,192,242131,1,0,0:0:0:0:
256,192,242210,1,0,0:0:0:0:
256,192,242288,1,8,0:0:0:0:
256,192,242367,1,8,0:0:0:0:
256,192,242446,1,0,0:0:0:0:
256,192,242525,1,0,0:0:0:0:
256,192,242604,1,8,0:0:0:0:
256,192,242683,1,0,0:0:0:0:
256,192,242762,1,0,0:0:0:0:
256,192,242841,1,0,0:0:0:0:
256,192,242920,1,8,0:0:0:0:
256,192,242999,1,8,0:0:0:0:
256,192,243078,1,0,0:0:0:0:
256,192,243157,1,0,0:0:0:0:
256,192,243236,1,8,0:0:0:0:
256,192,243315,1,8,0:0:0:0:
256,192,243394,1,8,0:0:0:0:
256,192,243473,1,8,0:0:0:0:
256,192,243552,1,0,0:0:0:0:
256,192,243631,1,0,0:0:0:0:
256,192,243710,1,8,0:0:0:0:
256,192,243788,1,8,0:0:0:0:
256,192,243867,1,8,0:0:0:0:
256,192,243946,1,8,0:0:0:0:
256,192,244025,1,0,0:0:0:0:
256,192,244104,1,0,0:0:0:0:
256,192,244183,1,8,0:0:0:0:
256,192,244262,1,8,0:0:0:0:
256,192,244341,1,0,0:0:0:0:
256,192,244420,1,0,0:0:0:0:
256,192,244499,1,8,0:0:0:0:
256,192,244578,1,0,0:0:0:0:
256,192,244657,1,0,0:0:0:0:
256,192,244736,1,0,0:0:0:0:
256,192,244815,1,8,0:0:0:0:
256,192,244894,1,0,0:0:0:0:
256,192,244973,1,8,0:0:0:0:
256,192,245052,1,8,0:0:0:0:
256,192,245131,1,0,0:0:0:0:
256,192,245210,1,0,0:0:0:0:
256,192,245288,1,0,0:0:0:0:
256,192,245367,1,0,0:0:0:0:
256,192,245446,1,8,0:0:0:0:
256,192,245525,1,8,0:0:0:0:
256,192,245604,1,8,0:0:0:0:
256,192,245683,1,0,0:0:0:0:
256,192,245762,1,8,0:0:0:0:
256,192,245841,1,0,0:0:0:0:
256,192,245920,1,0,0:0:0:0:
256,192,245999,1,0,0:0:0:0:
256,192,246078,1,8,0:0:0:0:
256,192,246157,1,8,0:0:0:0:
256,192,246236,1,0,0:0:0:0:
256,192,246315,1,0,0:0:0:0:
256,192,246394,1,8,0:0:0:0:
256,192,246473,1,0,0:0:0:0:
256,192,246552,1,0,0:0:0:0:
256,192,246631,1,0,0:0:0:0:
256,192,246710,1,8,0:0:0:0:
256,192,246788,1,8,0:0:0:0:
256,192,246867,1,8,0:0:0:0:
256,192,246946,1,8,0:0:0:0:
256,192,247025,1,0,0:0:0:0:
256,192,247104,1,0,0:0:0:0:
256,192,247183,1,0,0:0:0:0:
256,192,247262,1,0,0:0:0:0:
256,192,247341,1,8,0:0:0:0:
256,192,247420,1,8,0:0:0:0:
256,192,247499,1,0,0:0:0:0:
256,192,247578,1,0,0:0:0:0:
256,192,247657,1,0,0:0:0:0:
256,192,247736,1,0,0:0:0:0:
256,192,247815,1,8,0:0:0:0:
256,192,247894,1,8,0:0:0:0:
256,192,247973,1,0,0:0:0:0:
256,192,248131,1,8,0:0:0:0:
256,192,248288,1,8,0:0:0:0:
256,192,248367,1,8,0:0:0:0:
256,192,248446,1,0,0:0:0:0:
256,192,248525,1,0,0:0:0:0:
256,192,248604,1,0,0:0:0:0:
256,192,248683,1,0,0:0:0:0:
256,192,248762,1,8,0:0:0:0:
256,192,248841,1,8,0:0:0:0:
256,192,248920,1,8,0:0:0:0:
256,192,248999,1,8,0:0:0:0:
256,192,249078,1,0,0:0:0:0:
256,192,249157,1,0,0:0:0:0:
256,192,249236,1,8,0:0:0:0:
256,192,249315,1,8,0:0:0:0:
256,192,249394,1,8,0:0:0:0:
256,192,249473,1,8,0:0:0:0:
256,192,249552,1,0,0:0:0:0:
256,192,249631,1,0,0:0:0:0:
256,192,249710,1,8,0:0:0:0:
256,192,249788,1,8,0:0:0:0:
256,192,249867,1,0,0:0:0:0:
256,192,249946,1,0,0:0:0:0:
256,192,250025,1,0,0:0:0:0:
256,192,250104,1,0,0:0:0:0:
256,192,250183,1,8,0:0:0:0:
256,192,250262,1,8,0:0:0:0:
256,192,250341,1,8,0:0:0:0:
256,192,250420,1,8,0:0:0:0:
256,192,250499,1,0,0:0:0:0:
256,192,250815,1,8,0:0:0:0:
256,192,250894,1,0,0:0:0:0:
256,192,250973,1,8,0:0:0:0:
256,192,251052,1,0,0:0:0:0:
256,192,251131,1,8,0:0:0:0:
256,192,251210,1,8,0:0:0:0:
256,192,251288,1,0,0:0:0:0:
256,192,251367,1,0,0:0:0:0:
256,192,251446,1,8,0:0:0:0:
256,192,251525,1,0,0:0:0:0:
256,192,251604,1,8,0:0:0:0:
256,192,251683,1,0,0:0:0:0:
256,192,251762,1,8,0:0:0:0:
256,192,251841,1,8,0:0:0:0:
256,192,251920,1,8,0:0:0:0:
256,192,251999,1,0,0:0:0:0:
256,192,252078,1,8,0:0:0:0:
256,192,252157,1,0,0:0:0:0:
256,192,252236,1,8,0:0:0:0:
256,192,252315,1,0,0:0:0:0:
256,192,252394,1,8,0:0:0:0:
256,192,252473,1,8,0:0:0:0:
256,192,252552,1,0,0:0:0:0:
256,192,252631,1,0,0:0:0:0:
256,192,252710,1,8,0:0:0:0:
256,192,252788,1,0,0:0:0:0:
256,192,252867,1,8,0:0:0:0:
256,192,252946,1,0,0:0:0:0:
256,192,253025,1,8,0:0:0:0:
256,192,253104,1,8,0:0:0:0:
256,192,253183,1,8,0:0:0:0:
256,192,253262,1,0,0:0:0:0:
256,192,253341,1,8,0:0:0:0:
256,192,253420,1,8,0:0:0:0:
256,192,253499,1,0,0:0:0:0:
256,192,253578,1,0,0:0:0:0:
256,192,253657,1,8,0:0:0:0:
256,192,253736,1,0,0:0:0:0:
256,192,253815,1,8,0:0:0:0:
256,192,253894,1,0,0:0:0:0:
256,192,253973,1,8,0:0:0:0:
256,192,254052,1,8,0:0:0:0:
256,192,254131,1,0,0:0:0:0:
256,192,254210,1,0,0:0:0:0:
256,192,254288,1,8,0:0:0:0:
256,192,254367,1,8,0:0:0:0:
256,192,254446,1,8,0:0:0:0:
256,192,254525,1,0,0:0:0:0:
256,192,254604,1,8,0:0:0:0:
256,192,254683,1,0,0:0:0:0:
256,192,254762,1,8,0:0:0:0:
256,192,254841,1,8,0:0:0:0:
256,192,254920,1,0,0:0:0:0:
256,192,254999,1,8,0:0:0:0:
256,192,255078,1,0,0:0:0:0:
256,192,255157,1,0,0:0:0:0:
256,192,255236,1,8,0:0:0:0:
256,192,255315,1,8,0:0:0:0:
256,192,255394,1,0,0:0:0:0:
256,192,255473,1,0,0:0:0:0:
256,192,255552,1,8,0:0:0:0:
256,192,255631,1,8,0:0:0:0:
256,192,255710,1,8,0:0:0:0:
256,192,255788,1,0,0:0:0:0:
256,192,255867,1,8,0:0:0:0:
256,192,255946,1,0,0:0:0:0:
256,192,256025,1,8,0:0:0:0:
256,192,256104,1,0,0:0:0:0:
256,192,256183,1,0,0:0:0:0:
256,192,256262,1,0,0:0:0:0:
256,192,256341,1,8,0:0:0:0:
256,192,256420,1,8,0:0:0:0:
256,192,256499,1,0,0:0:0:0:
256,192,256578,1,0,0:0:0:0:
256,192,256657,1,8,0:0:0:0:
256,192,256736,1,0,0:0:0:0:
256,192,256815,1,8,0:0:0:0:
256,192,256894,1,8,0:0:0:0:
256,192,256973,1,8,0:0:0:0:
256,192,257052,1,0,0:0:0:0:
256,192,257131,1,8,0:0:0:0:
256,192,257210,1,8,0:0:0:0:
256,192,257288,1,0,0:0:0:0:
256,192,257367,1,8,0:0:0:0:
256,192,257446,1,0,0:0:0:0:
256,192,257525,1,0,0:0:0:0:
256,192,257604,1,8,0:0:0:0:
256,192,257683,1,0,0:0:0:0:
256,192,257762,1,8,0:0:0:0:
256,192,257841,1,8,0:0:0:0:
256,192,257920,1,0,0:0:0:0:
256,192,257999,1,0,0:0:0:0:
256,192,258078,1,8,0:0:0:0:
256,192,258157,1,8,0:0:0:0:
256,192,258236,1,8,0:0:0:0:
256,192,258315,1,0,0:0:0:0:
256,192,258394,1,8,0:0:0:0:
256,192,258473,1,0,0:0:0:0:
256,192,258552,1,8,0:0:0:0:
256,192,258631,1,0,0:0:0:0:
256,192,258710,1,8,0:0:0:0:
256,192,258788,1,8,0:0:0:0:
256,192,258867,1,0,0:0:0:0:
256,192,258946,1,0,0:0:0:0:
256,192,259025,1,8,0:0:0:0:
256,192,259104,1,0,0:0:0:0:
256,192,259183,1,8,0:0:0:0:
256,192,259262,1,0,0:0:0:0:
256,192,259341,1,8,0:0:0:0:
256,192,259420,1,8,0:0:0:0:
256,192,259499,1,8,0:0:0:0:
256,192,259578,1,0,0:0:0:0:
256,192,259657,1,8,0:0:0:0:
256,192,259736,1,0,0:0:0:0:
256,192,259815,1,8,0:0:0:0:
256,192,259894,1,8,0:0:0:0:
256,192,259973,1,0,0:0:0:0:
256,192,260052,1,8,0:0:0:0:
256,192,260131,1,0,0:0:0:0:
256,192,260210,1,0,0:0:0:0:
256,192,260288,1,8,0:0:0:0:
256,192,260367,1,8,0:0:0:0:
256,192,260446,1,0,0:0:0:0:
256,192,260525,1,0,0:0:0:0:
256,192,260604,1,8,0:0:0:0:
256,192,260683,1,0,0:0:0:0:
256,192,260762,1,8,0:0:0:0:
256,192,260920,1,12,0:0:0:0:
256,192,261394,1,0,0:0:0:0:
256,192,261552,1,0,0:0:0:0:
256,192,261867,1,8,0:0:0:0:
256,192,262183,1,12,0:0:0:0:
256,192,262657,1,0,0:0:0:0:
256,192,262815,1,8,0:0:0:0:
256,192,263446,1,12,0:0:0:0:
256,192,263920,1,8,0:0:0:0:
256,192,263999,1,8,0:0:0:0:
256,192,264078,1,8,0:0:0:0:
256,192,264394,1,0,0:0:0:0:
256,192,264710,1,12,0:0:0:0:
256,192,265183,1,0,0:0:0:0:
256,192,265657,1,8,0:0:0:0:
256,192,265973,1,12,0:0:0:0:
256,192,266446,1,0,0:0:0:0:
256,192,266604,1,0,0:0:0:0:
256,192,266920,1,8,0:0:0:0:
256,192,267236,1,12,0:0:0:0:
256,192,267710,1,0,0:0:0:0:
440,96,268183,1,0,0:0:0:0:
256,192,268499,1,12,0:0:0:0:
256,192,269131,1,0,0:0:0:0:
256,192,269446,1,8,0:0:0:0:
256,192,269762,1,4,0:0:0:0:
256,192,270394,1,0,0:0:0:0:
256,192,270710,1,0,0:0:0:0:
256,192,271025,1,8,0:0:0:0:
256,192,271341,1,8,0:0:0:0:
256,192,271657,1,8,0:0:0:0:
256,192,271973,1,8,0:0:0:0:
256,192,272288,1,0,0:0:0:0:
256,192,272367,1,0,0:0:0:0:
256,192,272446,1,8,0:0:0:0:
256,192,272525,1,8,0:0:0:0:
256,192,272604,1,0,0:0:0:0:
256,192,272683,1,0,0:0:0:0:
256,192,272762,1,8,0:0:0:0:
256,192,272841,1,8,0:0:0:0:
256,192,272920,1,8,0:0:0:0:
256,192,272999,1,8,0:0:0:0:
256,192,273078,1,0,0:0:0:0:
256,192,273157,1,0,0:0:0:0:
256,192,273236,1,8,0:0:0:0:
256,192,273315,1,8,0:0:0:0:
256,192,273394,1,8,0:0:0:0:
256,192,273473,1,0,0:0:0:0:
256,192,273552,1,8,0:0:0:0:
256,192,273631,1,0,0:0:0:0:
256,192,273710,1,8,0:0:0:0:
256,192,273788,1,0,0:0:0:0:
256,192,273867,1,8,0:0:0:0:
256,192,273946,1,8,0:0:0:0:
256,192,274025,1,0,0:0:0:0:
256,192,274104,1,0,0:0:0:0:
256,192,274183,1,8,0:0:0:0:
256,192,274262,1,0,0:0:0:0:
256,192,274341,1,8,0:0:0:0:
256,192,274420,1,0,0:0:0:0:
256,192,274499,1,8,0:0:0:0:
256,192,274578,1,8,0:0:0:0:
256,192,274657,1,8,0:0:0:0:
256,192,274736,1,0,0:0:0:0:
256,192,274815,1,8,0:0:0:0:
256,192,274894,1,0,0:0:0:0:
256,192,274973,1,8,0:0:0:0:
256,192,275052,1,0,0:0:0:0:
256,192,275131,1,8,0:0:0:0:
256,192,275210,1,8,0:0:0:0:
256,192,275288,1,0,0:0:0:0:
256,192,275367,1,0,0:0:0:0:
256,192,275446,1,8,0:0:0:0:
256,192,275525,1,0,0:0:0:0:
256,192,275604,1,8,0:0:0:0:
256,192,275683,1,0,0:0:0:0:
256,192,275762,1,8,0:0:0:0:
256,192,275841,1,8,0:0:0:0:
256,192,275920,1,8,0:0:0:0:
256,192,275999,1,0,0:0:0:0:
256,192,276078,1,8,0:0:0:0:
256,192,276157,1,8,0:0:0:0:
256,192,276236,1,8,0:0:0:0:
256,192,276315,1,8,0:0:0:0:
256,192,276394,1,0,0:0:0:0:
256,192,276473,1,0,0:0:0:0:
256,192,276552,1,8,0:0:0:0:
256,192,276631,1,8,0:0:0:0:
256,192,276710,1,8,0:0:0:0:
256,192,276788,1,8,0:0:0:0:
256,192,276867,1,0,0:0:0:0:
256,192,276946,1,0,0:0:0:0:
256,192,277025,1,8,0:0:0:0:
256,192,277104,1,8,0:0:0:0:
256,192,277183,1,8,0:0:0:0:
256,192,277262,1,0,0:0:0:0:
256,192,277341,1,8,0:0:0:0:
256,192,277420,1,0,0:0:0:0:
256,192,277499,1,8,0:0:0:0:
256,192,277578,1,0,0:0:0:0:
256,192,277657,1,8,0:0:0:0:
256,192,277736,1,8,0:0:0:0:
256,192,277815,1,0,0:0:0:0:
256,192,277894,1,0,0:0:0:0:
256,192,277973,1,8,0:0:0:0:
256,192,278052,1,0,0:0:0:0:
256,192,278131,1,8,0:0:0:0:
256,192,278210,1,0,0:0:0:0:
256,192,278288,1,8,0:0:0:0:
256,192,278367,1,8,0:0:0:0:
256,192,278446,1,8,0:0:0:0:
256,192,278525,1,0,0:0:0:0:
256,192,278604,1,8,0:0:0:0:
256,192,278683,1,0,0:0:0:0:
256,192,278762,1,8,0:0:0:0:
256,192,278841,1,0,0:0:0:0:
256,192,278920,1,8,0:0:0:0:
256,192,278999,1,8,0:0:0:0:
256,192,279078,1,0,0:0:0:0:
256,192,279157,1,0,0:0:0:0:
256,192,279236,1,0,0:0:0:0:
256,192,279315,1,0,0:0:0:0:
256,192,279394,1,8,0:0:0:0:
256,192,279473,1,0,0:0:0:0:
256,192,279552,1,8,0:0:0:0:
256,192,279631,1,8,0:0:0:0:
256,192,279710,1,8,0:0:0:0:
256,192,279788,1,0,0:0:0:0:
256,192,279867,1,8,0:0:0:0:
256,192,279946,1,8,0:0:0:0:
256,192,280025,1,0,0:0:0:0:
256,192,280104,1,0,0:0:0:0:
256,192,280183,1,8,0:0:0:0:
256,192,280262,1,8,0:0:0:0:
256,192,280341,1,0,0:0:0:0:
256,192,280420,1,0,0:0:0:0:
256,192,280499,1,8,0:0:0:0:
256,192,280578,1,0,0:0:0:0:
256,192,280657,1,8,0:0:0:0:
256,192,280736,1,0,0:0:0:0:
256,192,280815,1,8,0:0:0:0:
256,192,280894,1,8,0:0:0:0:
256,192,280973,1,8,0:0:0:0:
256,192,281052,1,0,0:0:0:0:
256,192,281131,1,8,0:0:0:0:
256,192,281210,1,0,0:0:0:0:
256,192,281288,1,8,0:0:0:0:
256,192,281367,1,0,0:0:0:0:
256,192,281446,1,8,0:0:0:0:
256,192,281525,1,8,0:0:0:0:
256,192,281604,1,0,0:0:0:0:
256,192,281683,1,0,0:0:0:0:
256,192,281762,1,0,0:0:0:0:
256,192,281841,1,0,0:0:0:0:
256,192,281920,1,8,0:0:0:0:
256,192,281999,1,0,0:0:0:0:
256,192,282078,1,8,0:0:0:0:
256,192,282157,1,8,0:0:0:0:
256,192,282236,1,0,0:0:0:0:
256,192,282315,1,0,0:0:0:0:
256,192,282394,1,8,0:0:0:0:
256,192,282473,1,8,0:0:0:0:
256,192,282552,1,8,0:0:0:0:
256,192,282631,1,8,0:0:0:0:
256,192,282710,1,0,0:0:0:0:
256,192,282788,1,0,0:0:0:0:
256,192,282867,1,8,0:0:0:0:
256,192,282946,1,8,0:0:0:0:
256,192,283025,1,0,0:0:0:0:
256,192,283104,1,0,0:0:0:0:
256,192,283183,1,0,0:0:0:0:
256,192,283262,1,0,0:0:0:0:
256,192,283341,1,8,0:0:0:0:
256,192,283420,1,8,0:0:0:0:
256,192,283499,1,0,0:0:0:0:
256,192,283657,1,4,0:0:0:0:
256,192,283815,1,8,0:0:0:0:
256,192,283973,1,0,0:0:0:0:
256,192,284052,1,0,0:0:0:0:
256,192,284131,1,8,0:0:0:0:
256,192,284288,1,0,0:0:0:0:
256,192,284367,1,0,0:0:0:0:
256,192,284446,1,8,0:0:0:0:
256,192,284525,1,8,0:0:0:0:
256,192,284604,1,0,0:0:0:0:
256,192,284683,1,0,0:0:0:0:
256,192,284762,1,8,0:0:0:0:
256,192,284920,1,0,0:0:0:0:
256,192,285078,1,8,0:0:0:0:
256,192,285157,1,0,0:0:0:0:
256,192,285236,1,0,0:0:0:0:
256,192,285394,1,8,0:0:0:0:
256,192,285473,1,8,0:0:0:0:
256,192,285552,1,0,0:0:0:0:
256,192,285631,1,0,0:0:0:0:
256,192,285710,1,8,0:0:0:0:
256,192,285788,1,0,0:0:0:0:
256,192,285867,1,0,0:0:0:0:
256,192,286025,1,8,0:0:0:0:
256,192,286104,1,8,0:0:0:0:
256,192,286183,1,0,0:0:0:0:
256,192,286341,1,8,0:0:0:0:
256,192,286499,1,0,0:0:0:0:
256,192,286578,1,0,0:0:0:0:
256,192,286657,1,8,0:0:0:0:
256,192,286815,1,0,0:0:0:0:
256,192,286894,1,0,0:0:0:0:
256,192,286973,1,8,0:0:0:0:
256,192,287052,1,8,0:0:0:0:
256,192,287131,1,0,0:0:0:0:
256,192,287210,1,0,0:0:0:0:
256,192,287288,1,8,0:0:0:0:
256,192,287446,1,0,0:0:0:0:
256,192,287604,1,8,0:0:0:0:
256,192,287683,1,0,0:0:0:0:
256,192,287762,1,8,0:0:0:0:
256,192,287920,1,8,0:0:0:0:
256,192,287999,1,8,0:0:0:0:
256,192,288078,1,0,0:0:0:0:
256,192,288157,1,8,0:0:0:0:
256,192,288236,1,8,0:0:0:0:
256,192,288315,1,0,0:0:0:0:
256,192,288394,1,0,0:0:0:0:
256,192,288473,1,0,0:0:0:0:
256,192,288552,1,8,0:0:0:0:
256,192,288710,1,12,0:0:0:0:
256,192,288867,1,8,0:0:0:0:
256,192,288946,1,8,0:0:0:0:
256,192,289025,1,0,0:0:0:0:
256,192,289104,1,0,0:0:0:0:
256,192,289183,1,8,0:0:0:0:
256,192,289262,1,0,0:0:0:0:
256,192,289341,1,8,0:0:0:0:
256,192,289420,1,0,0:0:0:0:
256,192,289499,1,0,0:0:0:0:
256,192,289578,1,8,0:0:0:0:
256,192,289657,1,8,0:0:0:0:
256,192,289736,1,0,0:0:0:0:
256,192,289815,1,8,0:0:0:0:
256,192,289973,1,8,0:0:0:0:
256,192,290052,1,0,0:0:0:0:
256,192,290131,1,8,0:0:0:0:
256,192,290210,1,8,0:0:0:0:
256,192,290288,1,0,0:0:0:0:
256,192,290367,1,8,0:0:0:0:
256,192,290446,1,0,0:0:0:0:
256,192,290525,1,0,0:0:0:0:
256,192,290604,1,8,0:0:0:0:
256,192,290683,1,8,0:0:0:0:
256,192,290762,1,0,0:0:0:0:
256,192,290841,1,8,0:0:0:0:
256,192,290920,1,0,0:0:0:0:
256,192,290999,1,0,0:0:0:0:
256,192,291078,1,8,0:0:0:0:
256,192,291236,1,8,0:0:0:0:
256,192,291315,1,8,0:0:0:0:
256,192,291394,1,0,0:0:0:0:
256,192,291473,1,0,0:0:0:0:
256,192,291552,1,0,0:0:0:0:
256,192,291710,1,8,0:0:0:0:
256,192,291788,1,0,0:0:0:0:
256,192,291867,1,0,0:0:0:0:
256,192,291946,1,0,0:0:0:0:
256,192,292025,1,0,0:0:0:0:
256,192,292183,1,8,0:0:0:0:
256,192,292262,1,8,0:0:0:0:
256,192,292341,1,0,0:0:0:0:
256,192,292420,1,0,0:0:0:0:
256,192,292499,1,8,0:0:0:0:
256,192,292657,1,8,0:0:0:0:
256,192,292736,1,0,0:0:0:0:
256,192,292815,1,0,0:0:0:0:
256,192,292973,1,0,0:0:0:0:
256,192,293131,1,8,0:0:0:0:
256,192,293210,1,0,0:0:0:0:
256,192,293288,1,0,0:0:0:0:
256,192,293367,1,0,0:0:0:0:
256,192,293446,1,8,0:0:0:0:
256,192,293762,1,12,0:0:0:0:
256,192,293920,1,0,0:0:0:0:
256,192,293999,1,0,0:0:0:0:
256,192,294078,1,8,0:0:0:0:
256,192,294236,1,0,0:0:0:0:
256,192,294394,1,8,0:0:0:0:
256,192,294552,1,8,0:0:0:0:
256,192,294710,1,0,0:0:0:0:
256,192,294788,1,0,0:0:0:0:
256,192,294867,1,0,0:0:0:0:
256,192,295025,1,8,0:0:0:0:
256,192,295183,1,0,0:0:0:0:
256,192,295262,1,8,0:0:0:0:
256,192,295341,1,0,0:0:0:0:
256,192,295499,1,8,0:0:0:0:
256,192,295578,1,8,0:0:0:0:
256,192,295657,1,0,0:0:0:0:
256,192,295815,1,0,0:0:0:0:
256,192,295973,1,8,0:0:0:0:
256,192,296288,1,0,0:0:0:0:
256,192,296446,1,8,0:0:0:0:
256,192,296525,1,0,0:0:0:0:
256,192,296604,1,0,0:0:0:0:
256,192,296762,1,8,0:0:0:0:
256,192,296920,1,0,0:0:0:0:
256,192,296999,1,0,0:0:0:0:
256,192,297078,1,0,0:0:0:0:
256,192,297236,1,8,0:0:0:0:
256,192,297394,1,0,0:0:0:0:
256,192,297552,1,8,0:0:0:0:
256,192,297631,1,8,0:0:0:0:
256,192,297710,1,0,0:0:0:0:
256,192,297867,1,8,0:0:0:0:
256,192,298025,1,0,0:0:0:0:
256,192,298104,1,0,0:0:0:0:
256,192,298183,1,8,0:0:0:0:
256,192,298288,1,8,0:0:0:0:
256,192,298394,1,8,0:0:0:0:
256,192,298499,1,0,0:0:0:0:
256,192,298815,1,12,0:0:0:0:
256,192,300078,1,12,0:0:0:0:
256,192,300552,1,12,0:0:0:0:
256,192,301025,1,12,0:0:0:0:
256,192,301341,1,4,0:0:0:0:
256,192,301499,12,0,302604,0:0:0:0:
