osu file format v14

[General]
AudioFilename: audio.mp3
AudioLeadIn: 0
PreviewTime: 148370
Countdown: 0
SampleSet: Drum
StackLeniency: 0.2
Mode: 0
LetterboxInBreaks: 0
EpilepsyWarning: 1
WidescreenStoryboard: 1

[Editor]
DistanceSpacing: 0.9
BeatDivisor: 4
GridSize: 4
TimelineZoom: 2.1

[Metadata]
Title:Tenkai e no Kippu
TitleUnicode:天界への切符
Artist:Dragon Guardian
ArtistUnicode:Dragon Guardian
Creator:Kroytz
Version:After the Finale
Source:
Tags:聖魔剣ヴァルキュリアス Ticket to Heaven Seimaken Valcurious Nana Mitani Japanese Symphonic Power Metal Female Vocal Stream Deathstream RSI Storyboard SB TheDuckMask
BeatmapID:2146365
BeatmapSetID:1026330

[Difficulty]
HPDrainRate:5
CircleSize:4.3
OverallDifficulty:9.7
ApproachRate:9.7
SliderMultiplier:2
SliderTickRate:1

[Events]
//Background and Video events
0,0,"BG.jpg",0,0
//Break Periods
2,129327,136706
//Storyboard Layer 0 (Background)
//Storyboard Layer 1 (Fail)
//Storyboard Layer 2 (Pass)
//Storyboard Layer 3 (Foreground)
Sprite,Foreground,Centre,"sb\highlight2.png",144,56 C,0,26811,,131,208,245 F,2,26811,27011,1,0 S,2,26811,27011,1,0.2 P,0,26811,27011,A
Sprite,Foreground,Centre,"sb\highlight2.png",134,89 C,0,26890,,131,208,245 F,2,26890,27090,1,0 S,2,26890,27090,1,0.2 P,0,26890,27090,A
Sprite,Foreground,Centre,"sb\highlight2.png",125,123 C,0,26969,,131,208,245 F,2,26969,27169,1,0 S,2,26969,27169,1,0.2 P,0,26969,27169,A
Sprite,Foreground,Centre,"sb\highlight2.png",116,157 C,0,27048,,131,208,245 F,2,27048,27248,1,0 S,2,27048,27248,1,0.2 P,0,27048,27248,A
Sprite,Foreground,Centre,"sb\highlight2.png",107,191 C,0,27127,,131,208,245 F,2,27127,27327,1,0 S,2,27127,27327,1,0.2 P,0,27127,27327,A
Sprite,Foreground,Centre,"sb\highlight2.png",342,254 C,0,27285,,46,85,150 F,2,27285,27485,1,0 S,2,27285,27485,1,0.2 P,0,27285,27485,A
Sprite,Foreground,Centre,"sb\highlight2.png",317,229 C,0,27363,,46,85,150 F,2,27363,27563,1,0 S,2,27363,27563,1,0.2 P,0,27363,27563,A
Sprite,Foreground,Centre,"sb\highlight2.png",292,204 C,0,27442,,46,85,150 F,2,27442,27642,1,0 S,2,27442,27642,1,0.2 P,0,27442,27642,A
Sprite,Foreground,Centre,"sb\highlight2.png",267,179 C,0,27521,,46,85,150 F,2,27521,27721,1,0 S,2,27521,27721,1,0.2 P,0,27521,27721,A
Sprite,Foreground,Centre,"sb\highlight2.png",243,155 C,0,27600,,46,85,150 F,2,27600,27800,1,0 S,2,27600,27800,1,0.2 P,0,27600,27800,A
Sprite,Foreground,Centre,"sb\highlight2.png",139,308 C,0,27758,,151,191,235 F,2,27758,27958,1,0 S,2,27758,27958,1,0.2 P,0,27758,27958,A
Sprite,Foreground,Centre,"sb\highlight2.png",173,298 C,0,27837,,151,191,235 F,2,27837,28037,1,0 S,2,27837,28037,1,0.2 P,0,27837,28037,A
Sprite,Foreground,Centre,"sb\highlight2.png",205,290 C,0,27916,,151,191,235 F,2,27916,28116,1,0 S,2,27916,28116,1,0.2 P,0,27916,28116,A
Sprite,Foreground,Centre,"sb\highlight2.png",77,116 C,0,67548,,46,85,150 F,2,67548,67748,1,0 S,2,67548,67748,1,0.2 P,0,67548,67748,A
Sprite,Foreground,Centre,"sb\highlight2.png",86,138 C,0,67863,,151,191,235 F,2,67863,68063,1,0 S,2,67863,68063,1,0.2 P,0,67863,68063,A
Sprite,Foreground,Centre,"sb\highlight2.png",159,343 C,0,68021,,151,191,235 F,2,68021,68221,1,0 S,2,68021,68221,1,0.2 P,0,68021,68221,A
Sprite,Foreground,Centre,"sb\highlight2.png",364,270 C,0,68179,,151,191,235 F,2,68179,68379,1,0 S,2,68179,68379,1,0.2 P,0,68179,68379,A
Sprite,Foreground,Centre,"sb\highlight2.png",291,65 C,0,68337,,151,191,235 F,2,68337,68537,1,0 S,2,68337,68537,1,0.2 P,0,68337,68537,A
Sprite,Foreground,Centre,"sb\highlight2.png",0,0 C,0,86179,,131,208,245 M,0,86179,86218,551,440,575.8492,408.7976 F,2,86179,86694,1,0 S,2,86179,86694,1,0.2 P,0,86179,86694,A M,0,86218,86257,575.8492,408.7976,590.8416,371.8901 M,0,86257,86297,590.8416,371.8901,592.9779,332.1491 M,0,86297,86336,592.9779,332.1491,581.2632,294.1205 M,0,86336,86376,581.2632,294.1205,557.4913,262.1688 M,0,86376,86415,557.4913,262.1688,526.9917,257.6473 M,0,86415,86455,526.9917,257.6473,503.6678,289.8512 M,0,86455,86494,503.6678,289.8512,497.9889,328.9173
Sprite,Foreground,Centre,"sb\highlight2.png",498,329 C,0,86653,,131,208,245 F,2,86653,86853,1,0 S,2,86653,86853,1,0.2 P,0,86653,86853,A
Sprite,Foreground,Centre,"sb\highlight2.png",0,0 C,0,86811,,131,208,245 M,0,86811,86850,357,61,332.1507,92.20236 F,2,86811,87326,1,0 S,2,86811,87326,1,0.2 P,0,86811,87326,A M,0,86850,86889,332.1507,92.20236,317.1584,129.1099 M,0,86889,86929,317.1584,129.1099,315.0222,168.8509 M,0,86929,86968,315.0222,168.8509,326.7368,206.8795 M,0,86968,87008,326.7368,206.8795,350.5086,238.8312 M,0,87008,87047,350.5086,238.8312,381.0081,243.3528 M,0,87047,87087,381.0081,243.3528,404.3322,211.1489 M,0,87087,87126,404.3322,211.1489,410.0111,172.0828
Sprite,Foreground,Centre,"sb\highlight2.png",410,172 C,0,87285,,131,208,245 F,2,87285,87485,1,0 S,2,87285,87485,1,0.2 P,0,87285,87485,A
Sprite,Foreground,Centre,"sb\highlight2.png",0,0 C,0,87442,,131,208,245 M,0,87442,87481,278,350,242.7957,368.4961 F,2,87442,87957,1,0 S,2,87442,87957,1,0.2 P,0,87442,87957,A M,0,87481,87520,242.7957,368.4961,203.5659,374.7775 M,0,87520,87560,203.5659,374.7775,164.4097,367.9149 M,0,87560,87599,164.4097,367.9149,130,349 M,0,87599,87639,130,349,164.4097,367.9149 M,0,87639,87678,164.4097,367.9149,203.5659,374.7775 M,0,87678,87718,203.5659,374.7775,242.7957,368.4961 M,0,87718,87757,242.7957,368.4961,278,350
Sprite,Foreground,Centre,"sb\highlight2.png",410,172 C,0,88074,,46,85,150 F,2,88074,88274,1,0 S,2,88074,88274,1,0.2 P,0,88074,88274,A
Sprite,Foreground,Centre,"sb\highlight2.png",409,340 C,0,88232,,46,85,150 F,2,88232,88432,1,0 S,2,88232,88432,1,0.2 P,0,88232,88432,A
Sprite,Foreground,Centre,"sb\highlight2.png",196,156 C,0,88390,,46,85,150 F,2,88390,88590,1,0 S,2,88390,88590,1,0.2 P,0,88390,88590,A
Sprite,Foreground,Centre,"sb\highlight2.png",576,56 C,0,88548,,46,85,150 F,2,88548,88748,1,0 S,2,88548,88748,1,0.2 P,0,88548,88748,A
Sprite,Foreground,Centre,"sb\highlight2.png",169,440 C,0,108285,,46,85,150 F,2,108285,108485,1,0 S,2,108285,108485,1,0.2 P,0,108285,108485,A
Sprite,Foreground,Centre,"sb\highlight2.png",196,382 C,0,108363,,46,85,150 F,2,108363,108563,1,0 S,2,108363,108563,1,0.2 P,0,108363,108563,A
Sprite,Foreground,Centre,"sb\highlight2.png",223,324 C,0,108442,,46,85,150 F,2,108442,108642,1,0 S,2,108442,108642,1,0.2 P,0,108442,108642,A
Sprite,Foreground,Centre,"sb\highlight2.png",250,266 C,0,108521,,46,85,150 F,2,108521,108721,1,0 S,2,108521,108721,1,0.2 P,0,108521,108721,A
Sprite,Foreground,Centre,"sb\highlight2.png",0,0 C,0,108600,,46,85,150 M,0,108600,108639,277,208,239.3079,221.3906 F,2,108600,108878,1,0 S,2,108600,108878,1,0.2 P,0,108600,108878,A M,0,108639,108678,239.3079,221.3906,201.6159,234.7812
Sprite,Foreground,Centre,"sb\highlight2.png",0,0 C,0,108758,,46,85,150 M,0,108758,108797,67,315,104.5337,328.8282 F,2,108758,109036,1,0 S,2,108758,109036,1,0.2 P,0,108758,109036,A M,0,108797,108836,104.5337,328.8282,142.0674,342.6564
Sprite,Foreground,Centre,"sb\highlight2.png",64,76 C,0,126600,,131,208,245 F,2,126600,126800,1,0 S,2,126600,126800,1,0.2 P,0,126600,126800,A
Sprite,Foreground,Centre,"sb\highlight2.png",81,152 C,0,126679,,131,208,245 F,2,126679,126879,1,0 S,2,126679,126879,1,0.2 P,0,126679,126879,A
Sprite,Foreground,Centre,"sb\highlight2.png",134,210 C,0,126758,,131,208,245 F,2,126758,126958,1,0 S,2,126758,126958,1,0.2 P,0,126758,126958,A
Sprite,Foreground,Centre,"sb\highlight2.png",209,235 C,0,126837,,131,208,245 F,2,126837,127037,1,0 S,2,126837,127037,1,0.2 P,0,126837,127037,A
Sprite,Foreground,Centre,"sb\highlight2.png",287,218 C,0,126916,,131,208,245 F,2,126916,127116,1,0 S,2,126916,127116,1,0.2 P,0,126916,127116,A
Sprite,Foreground,Centre,"sb\highlight2.png",346,164 C,0,126995,,131,208,245 F,2,126995,127195,1,0 S,2,126995,127195,1,0.2 P,0,126995,127195,A
Sprite,Foreground,Centre,"sb\highlight2.png",372,88 C,0,127074,,131,208,245 F,2,127074,127274,1,0 S,2,127074,127274,1,0.2 P,0,127074,127274,A
Sprite,Foreground,Centre,"sb\highlight2.png",446,56 C,0,127153,,131,208,245 F,2,127153,127353,1,0 S,2,127153,127353,1,0.2 P,0,127153,127353,A
Sprite,Foreground,Centre,"sb\highlight2.png",521,83 C,0,127232,,131,208,245 F,2,127232,127432,1,0 S,2,127232,127432,1,0.2 P,0,127232,127432,A
Sprite,Foreground,Centre,"sb\highlight2.png",554,156 C,0,127311,,131,208,245 F,2,127311,127511,1,0 S,2,127311,127511,1,0.2 P,0,127311,127511,A
Sprite,Foreground,Centre,"sb\highlight2.png",527,232 C,0,127390,,131,208,245 F,2,127390,127590,1,0 S,2,127390,127590,1,0.2 P,0,127390,127590,A
Sprite,Foreground,Centre,"sb\highlight2.png",453,264 C,0,127469,,131,208,245 F,2,127469,127669,1,0 S,2,127469,127669,1,0.2 P,0,127469,127669,A
Sprite,Foreground,Centre,"sb\highlight2.png",379,236 C,0,127548,,131,208,245 F,2,127548,127748,1,0 S,2,127548,127748,1,0.2 P,0,127548,127748,A
Sprite,Foreground,Centre,"sb\highlight2.png",346,164 C,0,127627,,131,208,245 F,2,127627,127827,1,0 S,2,127627,127827,1,0.2 P,0,127627,127827,A
Sprite,Foreground,Centre,"sb\highlight2.png",278,120 C,0,127706,,131,208,245 F,2,127706,127906,1,0 S,2,127706,127906,1,0.2 P,0,127706,127906,A
Sprite,Foreground,Centre,"sb\highlight2.png",198,114 C,0,127785,,131,208,245 F,2,127785,127985,1,0 S,2,127785,127985,1,0.2 P,0,127785,127985,A
Sprite,Foreground,Centre,"sb\highlight2.png",127,150 C,0,127863,,131,208,245 F,2,127863,128063,1,0 S,2,127863,128063,1,0.2 P,0,127863,128063,A
Sprite,Foreground,Centre,"sb\highlight2.png",83,215 C,0,127942,,131,208,245 F,2,127942,128142,1,0 S,2,127942,128142,1,0.2 P,0,127942,128142,A
Sprite,Foreground,Centre,"sb\highlight2.png",76,295 C,0,128021,,131,208,245 F,2,128021,128221,1,0 S,2,128021,128221,1,0.2 P,0,128021,128221,A
Sprite,Foreground,Centre,"sb\highlight2.png",111,366 C,0,128100,,131,208,245 F,2,128100,128300,1,0 S,2,128100,128300,1,0.2 P,0,128100,128300,A
Sprite,Foreground,Centre,"sb\highlight2.png",177,412 C,0,128179,,131,208,245 F,2,128179,128379,1,0 S,2,128179,128379,1,0.2 P,0,128179,128379,A
Sprite,Foreground,Centre,"sb\highlight2.png",257,416 C,0,128258,,131,208,245 F,2,128258,128458,1,0 S,2,128258,128458,1,0.2 P,0,128258,128458,A
Sprite,Foreground,Centre,"sb\highlight2.png",330,381 C,0,128337,,131,208,245 F,2,128337,128537,1,0 S,2,128337,128537,1,0.2 P,0,128337,128537,A
Sprite,Foreground,Centre,"sb\highlight2.png",376,316 C,0,128416,,131,208,245 F,2,128416,128616,1,0 S,2,128416,128616,1,0.2 P,0,128416,128616,A
Sprite,Foreground,Centre,"sb\highlight2.png",0,0 C,0,128495,,131,208,245 M,0,128495,128534,379,236,335.7383,245.2304 F,2,128495,128773,1,0 S,2,128495,128773,1,0.2 P,0,128495,128773,A M,0,128534,128573,335.7383,245.2304,305.0407,276.927
Sprite,Foreground,Centre,"sb\highlight2.png",0,0 C,0,128653,,131,208,245 M,0,128653,128692,177,412,191.6629,370.2269 F,2,128653,128931,1,0 S,2,128653,128931,1,0.2 P,0,128653,128931,A M,0,128692,128731,191.6629,370.2269,181.2628,327.3004
Sprite,Foreground,Centre,"sb\highlight2.png",0,0 C,0,128811,,131,208,245 M,0,128811,128850,127,150,155.8664,183.5411 F,2,128811,129089,1,0 S,2,128811,129089,1,0.2 P,0,128811,129089,A M,0,128850,128889,155.8664,183.5411,198.3498,195.9805
Sprite,Foreground,Centre,"sb\highlight2.png",451,196 C,0,128969,,131,208,245 F,2,128969,129169,1,0 S,2,128969,129169,1,0.2 P,0,128969,129169,A
Sprite,Foreground,Centre,"sb\highlight2.png",513,145 C,0,129048,,131,208,245 F,2,129048,129248,1,0 S,2,129048,129248,1,0.2 P,0,129048,129248,A
Sprite,Foreground,Centre,"sb\highlight2.png",524,65 C,0,129127,,131,208,245 F,2,129127,129327,1,0 S,2,129127,129327,1,0.2 P,0,129127,129327,A
Sprite,Foreground,Centre,"sb\highlight2.png",524,65 C,0,138285,,46,85,150 F,2,138285,138485,1,0 S,2,138285,138485,1,0.2 P,0,138285,138485,A
Sprite,Foreground,Centre,"sb\highlight2.png",522,81 C,0,138363,,46,85,150 F,2,138363,138563,1,0 S,2,138363,138563,1,0.2 P,0,138363,138563,A
Sprite,Foreground,Centre,"sb\highlight2.png",520,99 C,0,138442,,46,85,150 F,2,138442,138642,1,0 S,2,138442,138642,1,0.2 P,0,138442,138642,A
Sprite,Foreground,Centre,"sb\highlight2.png",519,116 C,0,138521,,46,85,150 F,2,138521,138721,1,0 S,2,138521,138721,1,0.2 P,0,138521,138721,A
Sprite,Foreground,Centre,"sb\highlight2.png",562,139 C,0,138600,,151,191,235 F,2,138600,138800,1,0 S,2,138600,138800,1,0.2 P,0,138600,138800,A
Sprite,Foreground,Centre,"sb\highlight2.png",564,162 C,0,138679,,151,191,235 F,2,138679,138879,1,0 S,2,138679,138879,1,0.2 P,0,138679,138879,A
Sprite,Foreground,Centre,"sb\highlight2.png",566,186 C,0,138758,,151,191,235 F,2,138758,138958,1,0 S,2,138758,138958,1,0.2 P,0,138758,138958,A
Sprite,Foreground,Centre,"sb\highlight2.png",568,210 C,0,138837,,151,191,235 F,2,138837,139037,1,0 S,2,138837,139037,1,0.2 P,0,138837,139037,A
Sprite,Foreground,Centre,"sb\highlight2.png",534,226 C,0,138916,,131,208,245 F,2,138916,139116,1,0 S,2,138916,139116,1,0.2 P,0,138916,139116,A
Sprite,Foreground,Centre,"sb\highlight2.png",531,255 C,0,138995,,131,208,245 F,2,138995,139195,1,0 S,2,138995,139195,1,0.2 P,0,138995,139195,A
Sprite,Foreground,Centre,"sb\highlight2.png",528,285 C,0,139074,,131,208,245 F,2,139074,139274,1,0 S,2,139074,139274,1,0.2 P,0,139074,139274,A
Sprite,Foreground,Centre,"sb\highlight2.png",526,315 C,0,139153,,131,208,245 F,2,139153,139353,1,0 S,2,139153,139353,1,0.2 P,0,139153,139353,A
Sprite,Foreground,Centre,"sb\highlight2.png",482,153 C,0,148390,,131,208,245 F,2,148390,148590,1,0 S,2,148390,148590,1,0.2 P,0,148390,148590,A
Sprite,Foreground,Centre,"sb\highlight2.png",482,153 C,0,148706,,131,208,245 F,2,148706,148906,1,0 S,2,148706,148906,1,0.2 P,0,148706,148906,A
Sprite,Foreground,Centre,"sb\highlight2.png",482,153 C,0,149021,,131,208,245 F,2,149021,149221,1,0 S,2,149021,149221,1,0.2 P,0,149021,149221,A
Sprite,Foreground,Centre,"sb\highlight2.png",0,0 C,0,167021,,46,85,150 M,0,167021,167060,247,248,229.549,283.5608 F,2,167021,167536,1,0 S,2,167021,167536,1,0.2 P,0,167021,167536,A M,0,167060,167099,229.549,283.5608,228.3657,323.0785 M,0,167099,167139,228.3657,323.0785,243.9405,359.4169 M,0,167139,167178,243.9405,359.4169,273.3743,385.8121 M,0,167178,167218,273.3743,385.8121,311.1884,397.3509 M,0,167218,167257,311.1884,397.3509,350.3443,391.8856 M,0,167257,167297,350.3443,391.8856,383.5536,370.4334 M,0,167297,167336,383.5536,370.4334,404.9579,337.1031
Sprite,Foreground,Centre,"sb\highlight2.png",494,121 C,0,167495,,46,85,150 F,2,167495,167695,1,0 S,2,167495,167695,1,0.2 P,0,167495,167695,A
Sprite,Foreground,Centre,"sb\highlight2.png",0,0 C,0,167653,,46,85,150 M,0,167653,167692,320,306,341.0482,272.0375 F,2,167653,168168,1,0 S,2,167653,168168,1,0.2 P,0,167653,168168,A M,0,167692,167731,341.0482,272.0375,355.1828,234.7088 M,0,167731,167771,355.1828,234.7088,359.3995,195.0662 M,0,167771,167810,359.3995,195.0662,352.1,155.8782 M,0,167810,167850,352.1,155.8782,334.8483,119.8908 M,0,167850,167889,334.8483,119.8908,311.3251,110.4156 M,0,167889,167929,311.3251,110.4156,300.1746,148.307 M,0,167929,167968,300.1746,148.307,307.4443,187.4124
Sprite,Foreground,Centre,"sb\highlight2.png",307,440 C,0,168127,,46,85,150 F,2,168127,168327,1,0 S,2,168127,168327,1,0.2 P,0,168127,168327,A
Sprite,Foreground,Centre,"sb\highlight2.png",0,0 C,0,168285,,46,85,150 M,0,168285,168324,107,248,138.5431,224.0566 F,2,168285,168800,1,0 S,2,168285,168800,1,0.2 P,0,168285,168800,A M,0,168324,168363,138.5431,224.0566,177.0975,215.3018 M,0,168363,168403,177.0975,215.3018,215.7844,223.6362 M,0,168403,168442,215.7844,223.6362,247,247 M,0,168442,168482,247,247,215.7844,223.6362 M,0,168482,168521,215.7844,223.6362,177.0975,215.3018 M,0,168521,168561,177.0975,215.3018,138.5431,224.0566 M,0,168561,168600,138.5431,224.0566,107,248
Sprite,Foreground,Centre,"sb\highlight2.png",494,121 C,0,168916,,151,191,235 F,2,168916,169116,1,0 S,2,168916,169116,1,0.2 P,0,168916,169116,A
Sprite,Foreground,Centre,"sb\highlight2.png",178,307 C,0,169074,,151,191,235 F,2,169074,169274,1,0 S,2,169074,169274,1,0.2 P,0,169074,169274,A
Sprite,Foreground,Centre,"sb\highlight2.png",494,375 C,0,169232,,151,191,235 F,2,169232,169432,1,0 S,2,169232,169432,1,0.2 P,0,169232,169432,A
Sprite,Foreground,Centre,"sb\highlight2.png",178,56 C,0,169390,,151,191,235 F,2,169390,169590,1,0 S,2,169390,169590,1,0.2 P,0,169390,169590,A
Sprite,Foreground,Centre,"sb\highlight2.png",523,130 C,0,189127,,131,208,245 F,2,189127,189327,1,0 S,2,189127,189327,1,0.2 P,0,189127,189327,A
Sprite,Foreground,Centre,"sb\highlight2.png",460,113 C,0,189206,,131,208,245 F,2,189206,189406,1,0 S,2,189206,189406,1,0.2 P,0,189206,189406,A
Sprite,Foreground,Centre,"sb\highlight2.png",397,96 C,0,189285,,131,208,245 F,2,189285,189485,1,0 S,2,189285,189485,1,0.2 P,0,189285,189485,A
Sprite,Foreground,Centre,"sb\highlight2.png",335,79 C,0,189363,,131,208,245 F,2,189363,189563,1,0 S,2,189363,189563,1,0.2 P,0,189363,189563,A
Sprite,Foreground,Centre,"sb\highlight2.png",0,0 C,0,189442,,131,208,245 M,0,189442,189481,272,62,233.2534,52.06499 F,2,189442,189720,1,0 S,2,189442,189720,1,0.2 P,0,189442,189720,A M,0,189481,189520,233.2534,52.06499,194.5069,42.12997
Sprite,Foreground,Centre,"sb\highlight2.png",0,0 C,0,189600,,131,208,245 M,0,189600,189639,382,267,421.0825,275.518 F,2,189600,189878,1,0 S,2,189600,189878,1,0.2 P,0,189600,189878,A M,0,189639,189678,421.0825,275.518,460,284
Sprite,Foreground,Centre,"sb\highlight2.png",239,56 C,0,207442,,131,208,245 F,2,207442,207642,1,0 S,2,207442,207642,1,0.2 P,0,207442,207642,A
Sprite,Foreground,Centre,"sb\highlight2.png",161,76 C,0,207521,,131,208,245 F,2,207521,207721,1,0 S,2,207521,207721,1,0.2 P,0,207521,207721,A
Sprite,Foreground,Centre,"sb\highlight2.png",115,142 C,0,207600,,131,208,245 F,2,207600,207800,1,0 S,2,207600,207800,1,0.2 P,0,207600,207800,A
Sprite,Foreground,Centre,"sb\highlight2.png",121,220 C,0,207679,,131,208,245 F,2,207679,207879,1,0 S,2,207679,207879,1,0.2 P,0,207679,207879,A
Sprite,Foreground,Centre,"sb\highlight2.png",179,276 C,0,207758,,131,208,245 F,2,207758,207958,1,0 S,2,207758,207958,1,0.2 P,0,207758,207958,A
Sprite,Foreground,Centre,"sb\highlight2.png",259,285 C,0,207837,,131,208,245 F,2,207837,208037,1,0 S,2,207837,208037,1,0.2 P,0,207837,208037,A
Sprite,Foreground,Centre,"sb\highlight2.png",324,239 C,0,207916,,131,208,245 F,2,207916,208116,1,0 S,2,207916,208116,1,0.2 P,0,207916,208116,A
Sprite,Foreground,Centre,"sb\highlight2.png",266,183 C,0,207995,,131,208,245 F,2,207995,208195,1,0 S,2,207995,208195,1,0.2 P,0,207995,208195,A
Sprite,Foreground,Centre,"sb\highlight2.png",186,174 C,0,208074,,131,208,245 F,2,208074,208274,1,0 S,2,208074,208274,1,0.2 P,0,208074,208274,A
Sprite,Foreground,Centre,"sb\highlight2.png",121,220 C,0,208153,,131,208,245 F,2,208153,208353,1,0 S,2,208153,208353,1,0.2 P,0,208153,208353,A
Sprite,Foreground,Centre,"sb\highlight2.png",100,297 C,0,208232,,131,208,245 F,2,208232,208432,1,0 S,2,208232,208432,1,0.2 P,0,208232,208432,A
Sprite,Foreground,Centre,"sb\highlight2.png",134,370 C,0,208311,,131,208,245 F,2,208311,208511,1,0 S,2,208311,208511,1,0.2 P,0,208311,208511,A
Sprite,Foreground,Centre,"sb\highlight2.png",207,405 C,0,208390,,131,208,245 F,2,208390,208590,1,0 S,2,208390,208590,1,0.2 P,0,208390,208590,A
Sprite,Foreground,Centre,"sb\highlight2.png",284,384 C,0,208469,,131,208,245 F,2,208469,208669,1,0 S,2,208469,208669,1,0.2 P,0,208469,208669,A
Sprite,Foreground,Centre,"sb\highlight2.png",330,319 C,0,208548,,131,208,245 F,2,208548,208748,1,0 S,2,208548,208748,1,0.2 P,0,208548,208748,A
Sprite,Foreground,Centre,"sb\highlight2.png",324,239 C,0,208627,,131,208,245 F,2,208627,208827,1,0 S,2,208627,208827,1,0.2 P,0,208627,208827,A
Sprite,Foreground,Centre,"sb\highlight2.png",370,174 C,0,208706,,131,208,245 F,2,208706,208906,1,0 S,2,208706,208906,1,0.2 P,0,208706,208906,A
Sprite,Foreground,Centre,"sb\highlight2.png",447,153 C,0,208785,,131,208,245 F,2,208785,208985,1,0 S,2,208785,208985,1,0.2 P,0,208785,208985,A
Sprite,Foreground,Centre,"sb\highlight2.png",520,188 C,0,208863,,131,208,245 F,2,208863,209063,1,0 S,2,208863,209063,1,0.2 P,0,208863,209063,A
Sprite,Foreground,Centre,"sb\highlight2.png",554,261 C,0,208942,,131,208,245 F,2,208942,209142,1,0 S,2,208942,209142,1,0.2 P,0,208942,209142,A
Sprite,Foreground,Centre,"sb\highlight2.png",533,338 C,0,209021,,131,208,245 F,2,209021,209221,1,0 S,2,209021,209221,1,0.2 P,0,209021,209221,A
Sprite,Foreground,Centre,"sb\highlight2.png",468,384 C,0,209100,,131,208,245 F,2,209100,209300,1,0 S,2,209100,209300,1,0.2 P,0,209100,209300,A
Sprite,Foreground,Centre,"sb\highlight2.png",388,375 C,0,209179,,131,208,245 F,2,209179,209379,1,0 S,2,209179,209379,1,0.2 P,0,209179,209379,A
Sprite,Foreground,Centre,"sb\highlight2.png",330,319 C,0,209258,,131,208,245 F,2,209258,209458,1,0 S,2,209258,209458,1,0.2 P,0,209258,209458,A
Sprite,Foreground,Centre,"sb\highlight2.png",0,0 C,0,209337,,131,208,245 M,0,209337,209376,324,239,356.8357,247.8215 F,2,209337,209615,1,0 S,2,209337,209615,1,0.2 P,0,209337,209615,A M,0,209376,209415,356.8357,247.8215,389.6713,256.643
Sprite,Foreground,Centre,"sb\highlight2.png",0,0 C,0,209495,,131,208,245 M,0,209495,209534,100,297,67.28983,287.724 F,2,209495,209773,1,0 S,2,209495,209773,1,0.2 P,0,209495,209773,A M,0,209534,209573,67.28983,287.724,34.57966,278.448
Sprite,Foreground,Centre,"sb\highlight2.png",0,0 C,0,209653,,131,208,245 M,0,209653,209692,183,156,191.7003,123.132 F,2,209653,209931,1,0 S,2,209653,209931,1,0.2 P,0,209653,209931,A M,0,209692,209731,191.7003,123.132,200.4007,90.26405
Sprite,Foreground,Centre,"sb\highlight2.png",0,0 C,0,209811,,131,208,245 M,0,209811,209850,241,380,231.724,412.7102 F,2,209811,210089,1,0 S,2,209811,210089,1,0.2 P,0,209811,210089,A M,0,209850,209889,231.724,412.7102,222.448,445.4203
Sprite,Foreground,Centre,"sb\highlight2.png",83,379 C,0,227653,,151,191,235 F,2,227653,227853,1,0 S,2,227653,227853,1,0.2 P,0,227653,227853,A
Sprite,Foreground,Centre,"sb\highlight2.png",139,409 C,0,227732,,151,191,235 F,2,227732,227932,1,0 S,2,227732,227932,1,0.2 P,0,227732,227932,A
Sprite,Foreground,Centre,"sb\highlight2.png",201,420 C,0,227811,,151,191,235 F,2,227811,228011,1,0 S,2,227811,228011,1,0.2 P,0,227811,228011,A
Sprite,Foreground,Centre,"sb\highlight2.png",264,410 C,0,227890,,151,191,235 F,2,227890,228090,1,0 S,2,227890,228090,1,0.2 P,0,227890,228090,A
Sprite,Foreground,Centre,"sb\highlight2.png",321,381 C,0,227969,,151,191,235 F,2,227969,228169,1,0 S,2,227969,228169,1,0.2 P,0,227969,228169,A
Sprite,Foreground,Centre,"sb\highlight2.png",378,352 C,0,228048,,151,191,235 F,2,228048,228248,1,0 S,2,228048,228248,1,0.2 P,0,228048,228248,A
Sprite,Foreground,Centre,"sb\highlight2.png",441,342 C,0,228127,,151,191,235 F,2,228127,228327,1,0 S,2,228127,228327,1,0.2 P,0,228127,228327,A
Sprite,Foreground,Centre,"sb\highlight2.png",503,353 C,0,228206,,151,191,235 F,2,228206,228406,1,0 S,2,228206,228406,1,0.2 P,0,228206,228406,A
Sprite,Foreground,Centre,"sb\highlight2.png",559,383 C,0,228285,,131,208,245 F,2,228285,228485,1,0 S,2,228285,228485,1,0.2 P,0,228285,228485,A
Sprite,Foreground,Centre,"sb\highlight2.png",495,406 C,0,228363,,131,208,245 F,2,228363,228563,1,0 S,2,228363,228563,1,0.2 P,0,228363,228563,A
Sprite,Foreground,Centre,"sb\highlight2.png",428,398 C,0,228442,,131,208,245 F,2,228442,228642,1,0 S,2,228442,228642,1,0.2 P,0,228442,228642,A
Sprite,Foreground,Centre,"sb\highlight2.png",378,352 C,0,228521,,131,208,245 F,2,228521,228721,1,0 S,2,228521,228721,1,0.2 P,0,228521,228721,A
Sprite,Foreground,Centre,"sb\highlight2.png",360,287 C,0,228600,,131,208,245 F,2,228600,228800,1,0 S,2,228600,228800,1,0.2 P,0,228600,228800,A
Sprite,Foreground,Centre,"sb\highlight2.png",379,222 C,0,228679,,131,208,245 F,2,228679,228879,1,0 S,2,228679,228879,1,0.2 P,0,228679,228879,A
Sprite,Foreground,Centre,"sb\highlight2.png",431,179 C,0,228758,,131,208,245 F,2,228758,228958,1,0 S,2,228758,228958,1,0.2 P,0,228758,228958,A
Sprite,Foreground,Centre,"sb\highlight2.png",498,172 C,0,228837,,131,208,245 F,2,228837,229037,1,0 S,2,228837,229037,1,0.2 P,0,228837,229037,A
Sprite,Foreground,Centre,"sb\highlight2.png",560,200 C,0,228916,,46,85,150 F,2,228916,229116,1,0 S,2,228916,229116,1,0.2 P,0,228916,229116,A
Sprite,Foreground,Centre,"sb\highlight2.png",495,247 C,0,228995,,46,85,150 F,2,228995,229195,1,0 S,2,228995,229195,1,0.2 P,0,228995,229195,A
Sprite,Foreground,Centre,"sb\highlight2.png",416,263 C,0,229074,,46,85,150 F,2,229074,229274,1,0 S,2,229074,229274,1,0.2 P,0,229074,229274,A
Sprite,Foreground,Centre,"sb\highlight2.png",337,247 C,0,229153,,46,85,150 F,2,229153,229353,1,0 S,2,229153,229353,1,0.2 P,0,229153,229353,A
Sprite,Foreground,Centre,"sb\highlight2.png",273,201 C,0,229232,,46,85,150 F,2,229232,229432,1,0 S,2,229232,229432,1,0.2 P,0,229232,229432,A
Sprite,Foreground,Centre,"sb\highlight2.png",222,139 C,0,229311,,46,85,150 F,2,229311,229511,1,0 S,2,229311,229511,1,0.2 P,0,229311,229511,A
Sprite,Foreground,Centre,"sb\highlight2.png",142,134 C,0,229390,,46,85,150 F,2,229390,229590,1,0 S,2,229390,229590,1,0.2 P,0,229390,229590,A
Sprite,Foreground,Centre,"sb\highlight2.png",81,185 C,0,229469,,46,85,150 F,2,229469,229669,1,0 S,2,229469,229669,1,0.2 P,0,229469,229669,A
Sprite,Foreground,Centre,"sb\highlight2.png",74,263 C,0,229548,,46,85,150 F,2,229548,229748,1,0 S,2,229548,229748,1,0.2 P,0,229548,229748,A
Sprite,Foreground,Centre,"sb\highlight2.png",123,325 C,0,229627,,46,85,150 F,2,229627,229827,1,0 S,2,229627,229827,1,0.2 P,0,229627,229827,A
Sprite,Foreground,Centre,"sb\highlight2.png",202,332 C,0,229706,,46,85,150 F,2,229706,229906,1,0 S,2,229706,229906,1,0.2 P,0,229706,229906,A
Sprite,Foreground,Centre,"sb\highlight2.png",265,282 C,0,229785,,46,85,150 F,2,229785,229985,1,0 S,2,229785,229985,1,0.2 P,0,229785,229985,A
Sprite,Foreground,Centre,"sb\highlight2.png",0,0 C,0,229863,,46,85,150 M,0,229863,229902,273,201,295.7506,168.6673 F,2,229863,230141,1,0 S,2,229863,230141,1,0.2 P,0,229863,230141,A M,0,229902,229941,295.7506,168.6673,302,130
Sprite,Foreground,Centre,"sb\highlight2.png",0,0 C,0,230021,,46,85,150 M,0,230021,230060,416,56,421.4504,95.02624 F,2,230021,230299,1,0 S,2,230021,230299,1,0.2 P,0,230021,230299,A M,0,230060,230099,421.4504,95.02624,445,126
Sprite,Foreground,Centre,"sb\highlight2.png",395,426 C,0,232706,,151,191,235 F,2,232706,232906,1,0 S,2,232706,232906,1,0.2 P,0,232706,232906,A
Sprite,Foreground,Centre,"sb\highlight2.png",245,70 C,0,232863,,151,191,235 F,2,232863,233063,1,0 S,2,232863,233063,1,0.2 P,0,232863,233063,A
Sprite,Foreground,Centre,"sb\highlight2.png",245,426 C,0,233021,,131,208,245 F,2,233021,233221,1,0 S,2,233021,233221,1,0.2 P,0,233021,233221,A
Sprite,Foreground,Centre,"sb\highlight2.png",395,70 C,0,233179,,131,208,245 F,2,233179,233379,1,0 S,2,233179,233379,1,0.2 P,0,233179,233379,A
Sprite,Foreground,Centre,"sb\highlight2.png",400,439 C,0,233337,,46,85,150 F,2,233337,233537,1,0 S,2,233337,233537,1,0.2 P,0,233337,233537,A
Sprite,Foreground,Centre,"sb\highlight2.png",239,56 C,0,233495,,46,85,150 F,2,233495,233695,1,0 S,2,233495,233695,1,0.2 P,0,233495,233695,A
Sprite,Foreground,Centre,"sb\highlight2.png",240,439 C,0,233653,,151,191,235 F,2,233653,233853,1,0 S,2,233653,233853,1,0.2 P,0,233653,233853,A
Sprite,Foreground,Centre,"sb\highlight2.png",401,56 C,0,233811,,151,191,235 F,2,233811,234011,1,0 S,2,233811,234011,1,0.2 P,0,233811,234011,A
Sprite,Foreground,Centre,"sb\highlight2.png",98,167 C,0,237758,,151,191,235 F,2,237758,237958,1,0 S,2,237758,237958,1,0.2 P,0,237758,237958,A
Sprite,Foreground,Centre,"sb\highlight2.png",542,329 C,0,237916,,151,191,235 F,2,237916,238116,1,0 S,2,237916,238116,1,0.2 P,0,237916,238116,A
Sprite,Foreground,Centre,"sb\highlight2.png",98,329 C,0,238074,,131,208,245 F,2,238074,238274,1,0 S,2,238074,238274,1,0.2 P,0,238074,238274,A
Sprite,Foreground,Centre,"sb\highlight2.png",542,167 C,0,238232,,131,208,245 F,2,238232,238432,1,0 S,2,238232,238432,1,0.2 P,0,238232,238432,A
Sprite,Foreground,Centre,"sb\highlight2.png",75,158 C,0,238390,,46,85,150 F,2,238390,238590,1,0 S,2,238390,238590,1,0.2 P,0,238390,238590,A
Sprite,Foreground,Centre,"sb\highlight2.png",564,338 C,0,238548,,46,85,150 F,2,238548,238748,1,0 S,2,238548,238748,1,0.2 P,0,238548,238748,A
Sprite,Foreground,Centre,"sb\highlight2.png",75,338 C,0,238706,,151,191,235 F,2,238706,238906,1,0 S,2,238706,238906,1,0.2 P,0,238706,238906,A
Sprite,Foreground,Centre,"sb\highlight2.png",564,158 C,0,238863,,151,191,235 F,2,238863,239063,1,0 S,2,238863,239063,1,0.2 P,0,238863,239063,A
Sprite,Foreground,Centre,"sb\highlight2.png",251,142 C,0,247863,,131,208,245 F,2,247863,248063,1,0 S,2,247863,248063,1,0.2 P,0,247863,248063,A
Sprite,Foreground,Centre,"sb\highlight2.png",251,142 C,0,248337,,46,85,150 F,2,248337,248537,1,0 S,2,248337,248537,1,0.2 P,0,248337,248537,A
Sprite,Foreground,Centre,"sb\highlight2.png",64,327 C,0,248495,,46,85,150 F,2,248495,248695,1,0 S,2,248495,248695,1,0.2 P,0,248495,248695,A
Sprite,Foreground,Centre,"sb\highlight2.png",132,73 C,0,248653,,46,85,150 F,2,248653,248853,1,0 S,2,248653,248853,1,0.2 P,0,248653,248853,A
Sprite,Foreground,Centre,"sb\highlight2.png",320,248 C,0,248969,,151,191,235 F,2,248969,249169,1,0 S,2,248969,249169,1,0.2 P,0,248969,249169,A
Sprite,Foreground,Centre,"sb\highlight2.png",159,204 C,0,249127,,151,191,235 F,2,249127,249327,1,0 S,2,249127,249327,1,0.2 P,0,249127,249327,A
Sprite,Foreground,Centre,"sb\highlight2.png",437,130 C,0,249285,,151,191,235 F,2,249285,249485,1,0 S,2,249285,249485,1,0.2 P,0,249285,249485,A
Sprite,Foreground,Centre,"sb\highlight2.png",363,408 C,0,249442,,151,191,235 F,2,249442,249642,1,0 S,2,249442,249642,1,0.2 P,0,249442,249642,A
Sprite,Foreground,Centre,"sb\highlight2.png",362,87 C,0,249758,,131,208,245 F,2,249758,249958,1,0 S,2,249758,249958,1,0.2 P,0,249758,249958,A
Sprite,Foreground,Centre,"sb\highlight2.png",479,290 C,0,249916,,131,208,245 F,2,249916,250116,1,0 S,2,249916,250116,1,0.2 P,0,249916,250116,A
Sprite,Foreground,Centre,"sb\highlight2.png",276,407 C,0,250074,,131,208,245 F,2,250074,250274,1,0 S,2,250074,250274,1,0.2 P,0,250074,250274,A
Sprite,Foreground,Centre,"sb\highlight2.png",159,204 C,0,250232,,131,208,245 F,2,250232,250432,1,0 S,2,250232,250432,1,0.2 P,0,250232,250432,A
Sprite,Foreground,Centre,"sb\highlight2.png",266,391 C,0,269969,,46,85,150 F,2,269969,270169,1,0 S,2,269969,270169,1,0.2 P,0,269969,270169,A
Sprite,Foreground,Centre,"sb\highlight2.png",340,396 C,0,270048,,46,85,150 F,2,270048,270248,1,0 S,2,270048,270248,1,0.2 P,0,270048,270248,A
Sprite,Foreground,Centre,"sb\highlight2.png",400,352 C,0,270127,,46,85,150 F,2,270127,270327,1,0 S,2,270127,270327,1,0.2 P,0,270127,270327,A
Sprite,Foreground,Centre,"sb\highlight2.png",418,280 C,0,270206,,46,85,150 F,2,270206,270406,1,0 S,2,270206,270406,1,0.2 P,0,270206,270406,A
Sprite,Foreground,Centre,"sb\highlight2.png",0,0 C,0,270285,,46,85,150 M,0,270285,270324,385,213,353.2726,189.3848 F,2,270285,270563,1,0 S,2,270285,270563,1,0.2 P,0,270285,270563,A M,0,270324,270363,353.2726,189.3848,314.4701,181.7858
Sprite,Foreground,Centre,"sb\highlight2.png",0,0 C,0,270442,,46,85,150 M,0,270442,270481,218,56,181.8354,72.08678 F,2,270442,270720,1,0 S,2,270442,270720,1,0.2 P,0,270442,270720,A M,0,270481,270520,181.8354,72.08678,155.7237,101.8172
Sprite,Foreground,Centre,"sb\highlight2.png",0,0 C,0,288285,,151,191,235 M,0,288285,288324,488,260,466.2113,232.6689 F,2,288285,288800,1,0 S,2,288285,288800,1,0.2 P,0,288285,288800,A M,0,288324,288363,466.2113,232.6689,450.9663,201.279 M,0,288363,288403,450.9663,201.279,446.063,166.8026 M,0,288403,288442,446.063,166.8026,453.184,132.6976 M,0,288442,288482,453.184,132.6976,469.6564,101.9105 M,0,288482,288521,469.6564,101.9105,490.808,83.87697 M,0,288521,288561,490.808,83.87697,508.2717,114.2088 M,0,288561,288600,508.2717,114.2088,525.7355,144.5405
Sprite,Foreground,Centre,"sb\highlight2.png",525,144 C,0,288758,,151,191,235 F,2,288758,288958,1,0 S,2,288758,288958,1,0.2 P,0,288758,288958,A
Sprite,Foreground,Centre,"sb\highlight2.png",0,0 C,0,288916,,151,191,235 M,0,288916,288955,307,408,328.7887,380.6689 F,2,288916,289431,1,0 S,2,288916,289431,1,0.2 P,0,288916,289431,A M,0,288955,288994,328.7887,380.6689,344.0338,349.279 M,0,288994,289034,344.0338,349.279,348.937,314.8026 M,0,289034,289073,348.937,314.8026,341.816,280.6976 M,0,289073,289113,341.816,280.6976,325.3436,249.9105 M,0,289113,289152,325.3436,249.9105,304.192,231.877 M,0,289152,289192,304.192,231.877,286.7282,262.2088 M,0,289192,289231,286.7282,262.2088,269.2645,292.5406
Sprite,Foreground,Centre,"sb\highlight2.png",269,293 C,0,289390,,151,191,235 F,2,289390,289590,1,0 S,2,289390,289590,1,0.2 P,0,289390,289590,A
Sprite,Foreground,Centre,"sb\highlight2.png",64,440 C,0,289548,,131,208,245 F,2,289548,289748,1,0 S,2,289548,289748,1,0.2 P,0,289548,289748,A
Sprite,Foreground,Centre,"sb\highlight2.png",84,362 C,0,289627,,131,208,245 F,2,289627,289827,1,0 S,2,289627,289827,1,0.2 P,0,289627,289827,A
Sprite,Foreground,Centre,"sb\highlight2.png",105,285 C,0,289706,,131,208,245 F,2,289706,289906,1,0 S,2,289706,289906,1,0.2 P,0,289706,289906,A
Sprite,Foreground,Centre,"sb\highlight2.png",126,208 C,0,289785,,131,208,245 F,2,289785,289985,1,0 S,2,289785,289985,1,0.2 P,0,289785,289985,A
Sprite,Foreground,Centre,"sb\highlight2.png",147,131 C,0,289863,,46,85,150 F,2,289863,290063,1,0 S,2,289863,290063,1,0.2 P,0,289863,290063,A
Sprite,Foreground,Centre,"sb\highlight2.png",157,169 C,0,289942,,46,85,150 F,2,289942,290142,1,0 S,2,289942,290142,1,0.2 P,0,289942,290142,A
Sprite,Foreground,Centre,"sb\highlight2.png",167,208 C,0,290021,,46,85,150 F,2,290021,290221,1,0 S,2,290021,290221,1,0.2 P,0,290021,290221,A
Sprite,Foreground,Centre,"sb\highlight2.png",178,246 C,0,290100,,46,85,150 F,2,290100,290300,1,0 S,2,290100,290300,1,0.2 P,0,290100,290300,A
Sprite,Foreground,Centre,"sb\highlight2.png",0,0 C,0,290179,,151,191,235 M,0,290179,290218,188,285,197.935,246.2534 F,2,290179,290457,1,0 S,2,290179,290457,1,0.2 P,0,290179,290457,A M,0,290218,290257,197.935,246.2534,207.87,207.5069
Sprite,Foreground,Centre,"sb\highlight2.png",0,0 C,0,290337,,151,191,235 M,0,290337,290376,324,56,334.0559,94.71535 F,2,290337,290615,1,0 S,2,290337,290615,1,0.2 P,0,290337,290615,A M,0,290376,290415,334.0559,94.71535,344,133
Sprite,Foreground,Centre,"sb\highlight2.png",0,0 C,0,290495,,151,191,235 M,0,290495,290534,370,238,331.4095,248.5247 F,2,290495,290773,1,0 S,2,290495,290773,1,0.2 P,0,290495,290773,A M,0,290534,290573,331.4095,248.5247,293,259
Sprite,Foreground,Centre,"sb\highlight2.png",0,0 C,0,290653,,151,191,235 M,0,290653,290692,137,93,175.7153,103.0559 F,2,290653,290931,1,0 S,2,290653,290931,1,0.2 P,0,290653,290931,A M,0,290692,290731,175.7153,103.0559,214,113
Sprite,Foreground,Centre,"sb\highlight2.png",258,164 C,0,309758,,131,208,245 F,2,309758,309958,1,0 S,2,309758,309958,1,0.2 P,0,309758,309958,A
Sprite,Foreground,Centre,"sb\highlight2.png",335,225 C,0,309837,,131,208,245 F,2,309837,310037,1,0 S,2,309837,310037,1,0.2 P,0,309837,310037,A
Sprite,Foreground,Centre,"sb\highlight2.png",412,287 C,0,309916,,131,208,245 F,2,309916,310116,1,0 S,2,309916,310116,1,0.2 P,0,309916,310116,A
Sprite,Foreground,Centre,"sb\highlight2.png",490,351 C,0,309995,,131,208,245 F,2,309995,310195,1,0 S,2,309995,310195,1,0.2 P,0,309995,310195,A
Sprite,Foreground,Centre,"sb\highlight2.png",567,411 C,0,310074,,131,208,245 F,2,310074,310274,1,0 S,2,310074,310274,1,0.2 P,0,310074,310274,A
Sprite,Foreground,Centre,"sb\highlight2.png",231,164 C,0,310232,,46,85,150 F,2,310232,310432,1,0 S,2,310232,310432,1,0.2 P,0,310232,310432,A
Sprite,Foreground,Centre,"sb\highlight2.png",308,225 C,0,310311,,46,85,150 F,2,310311,310511,1,0 S,2,310311,310511,1,0.2 P,0,310311,310511,A
Sprite,Foreground,Centre,"sb\highlight2.png",385,287 C,0,310390,,46,85,150 F,2,310390,310590,1,0 S,2,310390,310590,1,0.2 P,0,310390,310590,A
Sprite,Foreground,Centre,"sb\highlight2.png",463,351 C,0,310469,,46,85,150 F,2,310469,310669,1,0 S,2,310469,310669,1,0.2 P,0,310469,310669,A
Sprite,Foreground,Centre,"sb\highlight2.png",540,411 C,0,310548,,46,85,150 F,2,310548,310748,1,0 S,2,310548,310748,1,0.2 P,0,310548,310748,A
//Storyboard Layer 4 (Overlay)
//Storyboard Sound Samples

[TimingPoints]
285,315.789473684211,4,3,2,60,1,0
285,-83.3333333333333,4,3,2,60,0,0
2811,-83.3333333333333,4,3,2,60,0,0
5337,-83.3333333333333,4,3,2,60,0,0
7863,-83.3333333333333,4,3,2,60,0,0
10074,-83.3333333333333,4,3,1,60,0,0
12285,-83.3333333333333,4,3,1,60,0,0
12916,-83.3333333333333,4,3,4,60,0,0
12995,-83.3333333333333,4,3,1,60,0,0
14179,-83.3333333333333,4,3,4,60,0,0
15442,-83.3333333333333,4,3,1,60,0,0
17969,-166.666666666667,4,3,1,40,0,0
19232,-125,4,3,1,40,0,0
20495,-100,4,3,1,40,0,0
21758,-83.3333333333333,4,3,1,40,0,0
23021,-55.5555555555556,4,3,1,50,0,0
24285,-52.6315789473684,4,3,1,50,0,0
25548,-50,4,3,1,50,0,0
26811,-100,4,3,4,60,0,0
28074,-100,4,3,1,50,0,0
29653,-83.3333333333333,4,3,1,50,0,0
37863,-83.3333333333333,4,3,10,50,0,0
38179,-83.3333333333333,4,3,1,50,0,0
47021,-83.3333333333333,4,3,10,50,0,0
47337,-83.3333333333333,4,3,11,50,0,0
47653,-83.3333333333333,4,3,12,50,0,0
47969,-83.3333333333333,4,3,13,50,0,0
48285,-83.3333333333333,4,3,1,50,0,0
49548,-83.3333333333333,4,3,3,50,0,0
50179,-83.3333333333333,4,3,1,50,0,0
58390,-83.3333333333333,4,3,1,60,0,0
58627,-83.3333333333333,4,3,2,60,0,0
59021,-83.3333333333333,4,3,1,60,0,0
59258,-83.3333333333333,4,3,20,5,0,0
59337,-83.3333333333333,4,3,1,60,0,0
59574,-83.3333333333333,4,3,20,5,0,0
59653,-83.3333333333333,4,3,1,60,0,0
59890,-83.3333333333333,4,3,2,60,0,0
60285,-83.3333333333333,4,3,1,60,0,0
60521,-83.3333333333333,4,3,2,60,0,0
60916,-83.3333333333333,4,3,1,60,0,0
61153,-83.3333333333333,4,3,2,60,0,0
61548,-83.3333333333333,4,3,1,60,0,0
61706,-83.3333333333333,4,3,20,5,0,0
61785,-83.3333333333333,4,3,2,60,0,0
61942,-83.3333333333333,4,3,20,5,0,0
62021,-83.3333333333333,4,3,2,60,0,0
62179,-83.3333333333333,4,3,3,60,0,0
63127,-83.3333333333333,4,3,1,60,0,0
63363,-83.3333333333333,4,3,20,5,0,0
63442,-83.3333333333333,4,3,1,60,0,0
63679,-83.3333333333333,4,3,20,5,0,0
63758,-83.3333333333333,4,3,1,60,0,0
64627,-83.3333333333333,4,3,20,5,0,0
64706,-83.3333333333333,4,3,1,60,0,0
66916,-62.5,4,3,4,60,0,0
68495,-62.5,4,3,1,60,0,0
73232,-61.3496932515337,4,3,1,60,0,0
73548,-62.5,4,3,1,60,0,0
77969,-62.5,4,3,10,60,0,0
78285,-62.5,4,3,11,60,0,0
78600,-62.5,4,3,1,60,0,0
82390,-62.5,4,3,10,60,0,0
82706,-62.5,4,3,11,60,0,0
83021,-62.5,4,3,12,60,0,0
83337,-62.5,4,3,1,60,0,0
83653,-107.52688172043,4,3,1,60,0,0
84285,-74.0740740740741,4,3,2,60,0,0
84837,-74.0740740740741,4,3,20,5,0,0
84916,-62.5,4,3,2,60,0,0
85548,-62.5,4,3,1,60,0,0
86811,-62.5,4,3,2,60,0,0
87127,-62.5,4,3,2,60,0,0
88074,-74.0740740740741,4,3,1,60,0,0
88706,-62.5,4,3,3,60,0,1
107653,-62.5,4,3,2,60,0,1
108285,-62.5,4,3,10,60,0,1
108600,-62.5,4,3,11,60,0,1
108837,-62.5,4,3,11,60,0,0
108916,-62.5,4,3,3,60,0,1
115548,-60.6060606060606,4,3,3,60,0,1
117758,-62.5,4,3,3,60,0,1
123442,-62.5,4,3,12,60,0,1
123758,-62.5,4,3,13,60,0,1
124074,-62.5,4,3,3,60,0,1
128495,-55.5555555555556,4,3,3,60,0,1
128969,-62.5,4,3,3,60,0,1
129127,-100,4,3,1,60,0,0
138285,-83.3333333333333,4,3,2,35,0,0
138600,-83.3333333333333,4,3,2,40,0,0
138916,-83.3333333333333,4,3,2,45,0,0
139232,-83.3333333333333,4,3,2,50,0,0
144285,-83.3333333333333,4,3,1,50,0,0
149337,-62.5,4,3,1,60,0,0
152495,-57.1428571428571,4,3,1,60,0,0
153127,-62.5,4,3,1,60,0,0
158811,-62.5,4,3,10,60,0,0
159127,-62.5,4,3,11,60,0,0
159442,-62.5,4,3,1,60,0,0
163232,-62.5,4,3,10,60,0,0
163548,-62.5,4,3,11,60,0,0
163863,-62.5,4,3,12,60,0,0
164179,-62.5,4,3,1,60,0,0
164495,-85.4700854700855,4,3,1,60,0,0
165127,-74.0740740740741,4,3,2,60,0,0
165679,-74.0740740740741,4,3,1,5,0,0
165758,-74.0740740740741,4,3,2,60,0,0
166074,-62.5,4,3,1,60,0,0
167653,-62.5,4,3,2,60,0,0
168285,-62.5,4,3,2,60,0,0
168837,-62.5,4,3,20,5,0,0
168916,-62.5,4,3,1,60,0,0
169548,-62.5,4,3,3,60,0,1
188495,-62.5,4,3,2,60,0,1
189127,-62.5,4,3,10,60,0,1
189442,-62.5,4,3,11,60,0,1
189679,-62.5,4,3,11,60,0,0
189758,-62.5,4,3,3,60,0,1
198600,-57.1428571428571,4,3,3,60,0,1
199232,-62.5,4,3,3,60,0,1
204127,-55.5555555555556,4,3,3,60,0,1
204285,-72.463768115942,4,3,12,60,0,1
204600,-72.463768115942,4,3,13,60,0,1
204916,-72.463768115942,4,3,3,60,0,1
209337,-73.5294117647059,4,3,3,60,0,1
209653,-73.5294117647059,4,3,3,60,0,1
209969,-71.4285714285714,4,3,1,60,0,0
216916,-62.5,4,3,1,60,0,0
223863,-52.6315789473684,4,3,1,60,0,0
224969,-62.5,4,3,1,60,0,0
230179,-47.6190476190476,4,3,2,60,0,0
230653,-62.5,4,3,2,60,0,0
232706,-62.5,4,3,2,60,0,0
233969,-62.5,4,3,2,60,0,0
237758,-62.5,4,3,2,60,0,0
239653,-62.5,4,3,1,60,0,0
242811,-62.5,4,3,4,60,0,0
242890,-62.5,4,3,1,60,0,0
244074,-62.5,4,3,4,60,0,0
245337,-60.6060606060606,4,3,1,60,0,0
250390,-62.5,4,3,3,60,0,1
269337,-62.5,4,3,2,60,0,1
269969,-62.5,4,3,10,60,0,1
270285,-62.5,4,3,11,60,0,1
270521,-62.5,4,3,11,60,0,0
270600,-62.5,4,3,3,60,0,1
277232,-58.8235294117647,4,3,3,60,0,1
278179,-62.5,4,3,3,60,0,1
285127,-62.5,4,3,12,60,0,1
285442,-62.5,4,3,13,60,0,1
285758,-62.5,4,3,3,60,0,1
288285,-71.4285714285714,4,3,3,60,0,1
289548,-62.5,4,3,3,60,0,1
290811,-62.5,4,3,1,60,0,0
292074,-83.3333333333333,4,3,1,60,0,0
305969,-62.5,4,3,1,60,0,0

[Colours]
Combo1 : 131,208,245
Combo2 : 46,85,150
Combo3 : 151,191,235

[HitObjects]
0,84,285,5,2,0:0:0:0:
9,120,363,1,0,0:0:0:0:
19,158,442,1,8,0:0:0:0:
30,196,521,1,2,0:0:0:0:
40,233,600,1,0,0:0:0:0:
50,271,679,1,0,0:0:0:0:
60,309,758,1,10,0:0:0:0:
70,346,837,1,0,0:0:0:0:
80,384,916,2,0,L|95:326,3,59.9999981689454,2|0|8|2,0:0|0:0|0:0|0:0,0:0:0:0:
132,184,1232,2,0,L|147:241,3,59.9999981689454,0|0|10|0,0:0|0:0|0:0|0:0,0:0:0:0:
193,328,1548,5,2,0:0:0:0:
228,342,1627,1,0,0:0:0:0:
267,348,1706,1,8,0:0:0:0:
305,342,1785,1,2,0:0:0:0:
341,327,1863,1,0,0:0:0:0:
377,312,1942,1,0,0:0:0:0:
415,306,2021,1,10,0:0:0:0:
454,312,2100,1,0,0:0:0:0:
489,327,2179,5,2,0:0:0:0:
440,348,2258,1,0,0:0:0:0:
387,341,2337,1,8,0:0:0:0:
347,306,2416,1,2,0:0:0:0:
332,255,2495,1,0,0:0:0:0:
347,204,2574,1,0,0:0:0:0:
387,169,2653,1,10,0:0:0:0:
439,161,2732,1,0,0:0:0:0:
488,183,2811,6,0,L|472:125,3,59.9999981689454,12|0|0|0,0:0|0:0|0:0|0:0,0:0:0:0:
373,18,3127,2,0,L|357:75,3,59.9999981689454,12|0|0|0,0:0|0:0|0:0|0:0,0:0:0:0:
258,183,3442,2,0,L|242:125,3,59.9999981689454,12|0|0|0,0:0|0:0|0:0|0:0,0:0:0:0:
143,18,3758,2,0,L|127:75,3,59.9999981689454,12|0|0|0,0:0|0:0|0:0|0:0,0:0:0:0:
28,183,4074,5,2,0:2:0:0:
65,193,4153,1,2,0:2:0:0:
103,203,4232,1,2,0:2:0:0:
141,213,4311,1,2,0:2:0:0:
178,223,4390,5,0,0:0:0:0:
148,231,4469,1,0,0:0:0:0:
118,239,4548,1,0,0:0:0:0:
88,247,4627,1,0,0:0:0:0:
58,255,4706,5,2,0:2:0:0:
81,261,4785,1,2,0:2:0:0:
104,267,4863,1,2,0:2:0:0:
127,273,4942,1,2,0:2:0:0:
150,279,5021,6,0,L|208:294,1,59.9999981689454
0,327,5179,2,0,L|58:342,1,59.9999981689454
264,367,5337,6,0,P|296:317|294:258,1,119.999996337891,2|8,0:0|0:0,0:0:0:0:
143,18,5653,1,0,0:0:0:0:
135,46,5732,1,0,0:0:0:0:
127,75,5811,2,0,L|184:59,1,59.9999981689454,10|0,0:0|0:0,0:0:0:0:
414,58,5969,1,2,0:0:0:0:
422,30,6048,1,0,0:0:0:0:
430,1,6127,2,0,L|373:17,1,59.9999981689454,8|2,0:0|0:0,0:0:0:0:
294,258,6285,1,0,0:0:0:0:
340,245,6363,1,0,0:0:0:0:
386,233,6442,1,10,0:0:0:0:
433,220,6521,1,0,0:0:0:0:
479,208,6600,6,0,L|422:192,1,59.9999981689454,2|0,0:0|0:0,0:0:0:0:
284,74,6758,2,0,L|298:131,1,59.9999981689454,8|2,0:0|0:0,0:0:0:0:
208,294,6916,2,0,L|193:236,1,59.9999981689454
13,160,7074,2,0,L|70:176,1,59.9999981689454,10|0,0:0|0:0,0:0:0:0:
294,258,7232,5,2,0:0:0:0:
313,287,7311,1,0,0:0:0:0:
333,317,7390,1,8,0:0:0:0:
352,347,7469,1,2,0:0:0:0:
372,377,7548,5,0,0:0:0:0:
384,330,7627,1,0,0:0:0:0:
396,284,7706,1,10,0:0:0:0:
409,237,7785,1,0,0:0:0:0:
421,191,7863,6,0,L|436:133,3,59.9999981689454,12|0|0|0,0:0|0:0|0:0|0:0,0:0:0:0:
294,258,8179,2,0,L|309:200,3,59.9999981689454,12|0|0|0,0:0|0:0|0:0|0:0,0:0:0:0:
396,284,8495,2,0,L|453:299,3,59.9999981689454,12|0|0|0,0:0|0:0|0:0|0:0,0:0:0:0:
269,351,8811,2,0,L|211:335,3,59.9999981689454,12|0|0|0,0:0|0:0|0:0|0:0,0:0:0:0:
51,384,9127,5,0,0:0:0:0:
21,342,9206,1,0,0:0:0:0:
11,292,9285,1,0,0:0:0:0:
21,243,9363,1,0,0:0:0:0:
50,201,9442,1,0,0:0:0:0:
79,159,9521,1,0,0:0:0:0:
89,110,9600,1,0,0:0:0:0:
79,60,9679,1,0,0:0:0:0:
49,18,9758,5,0,0:0:0:0:
49,36,9837,1,0,0:0:0:0:
49,54,9916,1,0,0:0:0:0:
49,71,9995,1,0,0:0:0:0:
50,88,10074,5,8,0:0:0:0:
119,69,10153,1,8,0:0:0:0:
189,50,10232,1,8,0:0:0:0:
258,32,10311,1,8,0:0:0:0:
327,14,10390,6,0,L|384:-1,5,59.9999981689454,4|0|10|0|0|0,0:0|0:0|0:0|0:0|0:0|0:0,0:0:0:0:
358,126,10863,1,10,0:0:0:0:
348,166,10942,1,0,0:0:0:0:
337,207,11021,1,0,0:0:0:0:
326,247,11100,1,0,0:0:0:0:
316,288,11179,1,10,0:0:0:0:
305,328,11258,1,0,0:0:0:0:
294,368,11337,2,0,L|278:310,1,59.9999981689454
112,320,11495,2,0,L|96:262,1,59.9999981689454,10|0,0:0|0:0,0:0:0:0:
50,88,11653,5,0,0:0:0:0:
72,37,11732,1,0,0:0:0:0:
119,11,11811,1,10,0:0:0:0:
173,17,11890,1,0,0:0:0:0:
213,53,11969,1,0,0:0:0:0:
224,106,12048,1,0,0:0:0:0:
202,155,12127,1,10,0:0:0:0:
156,182,12206,1,0,0:0:0:0:
102,176,12285,5,4,0:0:0:0:
145,145,12363,1,0,0:0:0:0:
197,132,12442,1,10,0:0:0:0:
249,145,12521,1,0,0:0:0:0:
293,176,12600,1,0,0:0:0:0:
337,207,12679,1,0,0:0:0:0:
389,220,12758,1,10,0:0:0:0:
441,207,12837,1,0,0:0:0:0:
484,176,12916,5,4,0:0:0:0:
477,199,12995,1,0,0:0:0:0:
471,222,13074,1,10,0:0:0:0:
465,245,13153,1,0,0:0:0:0:
459,268,13232,1,0,0:0:0:0:
452,291,13311,1,0,0:0:0:0:
446,315,13390,1,10,0:0:0:0:
440,338,13469,1,0,0:0:0:0:
434,361,13548,6,0,L|418:303,3,59.9999981689454,0|0|10|0,0:0|0:0|0:0|0:0,0:0:0:0:
315,107,13863,2,0,L|299:164,3,59.9999981689454,0|0|10|0,0:0|0:0|0:0|0:0,0:0:0:0:
211,342,14179,5,8,0:0:0:0:
152,384,14258,1,8,0:0:0:0:
80,384,14337,1,8,0:0:0:0:
22,342,14416,1,8,0:0:0:0:
0,273,14495,1,8,0:0:0:0:
22,205,14574,1,8,0:0:0:0:
79,162,14653,1,8,0:0:0:0:
152,162,14732,1,8,0:0:0:0:
211,205,14811,1,8,0:0:0:0:
270,248,14890,1,8,0:0:0:0:
342,248,14969,1,8,0:0:0:0:
400,205,15048,1,8,0:0:0:0:
422,137,15127,1,8,0:0:0:0:
400,68,15206,1,8,0:0:0:0:
342,26,15285,1,8,0:0:0:0:
270,26,15363,1,8,0:0:0:0:
210,68,15442,6,0,P|153:84|97:67,1,119.999996337891,4|10,0:0|0:0,0:0:0:0:
24,37,15679,1,0,0:0:0:0:
24,37,15758,2,0,P|18:66|24:95,1,59.9999981689454
116,273,15916,5,10,0:0:0:0:
306,137,16074,1,0,0:0:0:0:
96,66,16232,1,10,0:0:0:0:
379,358,16390,1,0,0:0:0:0:
385,341,16469,1,0,0:0:0:0:
391,324,16548,1,10,0:0:0:0:
398,307,16627,1,0,0:0:0:0:
405,291,16706,5,0,0:0:0:0:
376,318,16785,1,0,0:0:0:0:
340,334,16863,1,10,0:0:0:0:
302,337,16942,1,0,0:0:0:0:
264,327,17021,1,0,0:0:0:0:
226,318,17100,1,0,0:0:0:0:
188,321,17179,1,10,0:0:0:0:
153,336,17258,1,0,0:0:0:0:
125,364,17337,5,4,0:0:0:0:
175,383,17416,1,0,0:0:0:0:
227,368,17495,1,10,0:0:0:0:
264,327,17574,1,0,0:0:0:0:
264,273,17653,1,0,0:0:0:0:
234,228,17732,1,0,0:0:0:0:
184,208,17811,1,10,0:0:0:0:
132,222,17890,1,0,0:0:0:0:
98,264,17969,6,0,L|90:235,1,29.9999990844727
2,169,18127,2,0,L|32:177,1,29.9999990844727,8|0,0:0|0:0,0:0:0:0:
132,133,18285,2,0,L|109:155,1,29.9999990844727
77,266,18442,6,0,L|77:236,1,29.9999990844727,8|0,0:0|0:0,0:0:0:0:
9,150,18600,2,0,L|37:166,1,29.9999990844727
144,149,18758,2,0,L|116:165,1,29.9999990844727,8|0,0:0|0:0,0:0:0:0:
76,33,18916,6,0,L|76:62,1,29.9999990844727
64,20,19074,2,0,L|64:49,1,29.9999990844727,8|0,0:0|0:0,0:0:0:0:
204,55,19232,6,0,L|242:65,1,40
298,147,19390,2,0,L|325:119,1,40,8|0,0:0|0:0,0:0:0:0:
424,111,19548,2,0,L|413:73,1,40
220,29,19706,6,0,L|254:49,1,40,8|0,0:0|0:0,0:0:0:0:
287,142,19863,2,0,L|321:122,1,40
418,140,20021,2,0,L|418:101,1,40,8|0,0:0|0:0,0:0:0:0:
500,13,20179,6,0,L|500:53,1,40
512,0,20337,2,0,L|512:40,1,40,8|0,0:0|0:0,0:0:0:0:
450,236,20495,6,0,P|425:239|400:236,1,50
288,329,20653,2,0,P|297:305|312:285,1,50,8|0,0:0|0:0,0:0:0:0:
287,142,20811,2,0,P|302:162|312:185,1,50
446,264,20969,6,0,P|421:260|397:251,1,50,8|0,0:0|0:0,0:0:0:0:
265,311,21127,2,0,P|281:292|301:276,1,50
313,131,21285,2,0,P|322:154|326:179,1,50,8|0,0:0|0:0,0:0:0:0:
185,356,21442,6,0,P|175:332|172:307,1,50
172,359,21600,2,0,P|163:335|159:311,1,50,8|0,0:0|0:0,0:0:0:0:
58,208,21758,6,0,L|0:223,1,59.9999981689454
176,162,21916,2,0,L|234:178,1,59.9999981689454,8|0,0:0|0:0,0:0:0:0:
57,116,22074,2,0,L|0:131,1,59.9999981689454
175,70,22232,6,0,L|232:85,1,59.9999981689454,8|0,0:0|0:0,0:0:0:0:
57,133,22390,2,0,L|0:148,1,59.9999981689454
176,179,22548,2,0,L|233:194,1,59.9999981689454,8|0,0:0|0:0,0:0:0:0:
58,225,22706,6,0,L|0:240,1,59.9999981689454
58,242,22863,2,0,L|0:257,1,59.9999981689454,8|0,0:0|0:0,0:0:0:0:
265,311,23021,6,0,B|319:296|319:296|348:313,1,89.9999972534181
344,141,23179,2,0,L|367:227,1,89.9999972534181,8|0,0:0|0:0,0:0:0:0:
503,247,23337,2,0,B|448:261|448:261|431:290,1,89.9999972534181
260,324,23495,6,0,B|314:309|314:309|343:326,1,89.9999972534181,8|0,0:0|0:0,0:0:0:0:
344,141,23653,2,0,L|367:227,1,89.9999972534181
512,257,23811,2,0,B|457:271|457:271|440:300,1,89.9999972534181,8|0,0:0|0:0,0:0:0:0:
366,59,23969,6,0,P|321:59|282:81,1,89.9999972534181
362,46,24127,2,0,P|318:46|279:69,1,89.9999972534181,8|0,0:0|0:0,0:0:0:0:
47,139,24285,6,0,P|22:98|22:51,1,94.9999974632264
149,241,24442,2,0,P|173:200|173:153,1,94.9999974632264,8|0,0:0|0:0,0:0:0:0:
47,343,24600,2,0,P|22:302|22:255,1,94.9999974632264
37,46,24758,6,0,P|37:93|62:134,1,94.9999974632264,8|0,0:0|0:0,0:0:0:0:
188,158,24916,2,0,P|188:205|164:246,1,94.9999974632264
37,250,25074,2,0,P|37:297|62:338,1,94.9999974632264,8|0,0:0|0:0,0:0:0:0:
304,360,25232,6,0,L|212:384,1,94.9999974632264
319,336,25390,2,0,L|227:360,1,94.9999974632264,8|0,0:0|0:0,0:0:0:0:
442,281,25548,6,0,P|442:231|418:188,1,100
251,89,25706,2,0,P|293:114|342:114,1,100,8|0,0:0|0:0,0:0:0:0:
512,18,25863,2,0,P|468:42|443:84,1,100
467,271,26021,6,0,P|459:222|427:184,1,100,8|0,0:0|0:0,0:0:0:0:
246,115,26179,2,0,P|292:132|340:124,1,100
490,0,26337,2,0,P|451:31|434:77,1,100,8|0,0:0|0:0,0:0:0:0:
277,307,26495,6,0,P|315:276|333:229,1,100
292,318,26653,2,0,P|330:286|347:240,1,100,8|0,0:0|0:0,0:0:0:0:
80,0,26811,5,8,0:0:0:0:
70,33,26890,1,8,0:0:0:0:
61,67,26969,1,8,0:0:0:0:
52,101,27048,1,8,0:0:0:0:
43,135,27127,1,8,0:0:0:0:
278,198,27285,5,8,0:0:0:0:
253,173,27363,1,8,0:0:0:0:
228,148,27442,1,8,0:0:0:0:
203,123,27521,1,8,0:0:0:0:
179,99,27600,1,8,0:0:0:0:
75,252,27758,5,8,0:0:0:0:
109,242,27837,1,8,0:0:0:0:
141,234,27916,1,8,0:0:0:0:
477,17,28074,5,4,0:0:0:0:
453,55,28153,1,0,0:0:0:0:
445,99,28232,1,10,0:0:0:0:
453,143,28311,1,0,0:0:0:0:
478,180,28390,1,0,0:0:0:0:
503,217,28469,1,0,0:0:0:0:
512,260,28548,1,10,0:0:0:0:
503,304,28627,1,0,0:0:0:0:
478,342,28706,1,0,0:0:0:0:
442,367,28785,1,0,0:0:0:0:
398,377,28863,1,10,0:0:0:0:
354,368,28942,1,0,0:0:0:0:
316,343,29021,1,0,0:0:0:0:
290,306,29100,1,0,0:0:0:0:
280,262,29179,1,10,0:0:0:0:
289,218,29258,1,0,0:0:0:0:
314,180,29337,1,0,0:0:0:0:
339,142,29416,1,0,0:0:0:0:
347,97,29495,1,10,0:0:0:0:
337,52,29574,1,0,0:0:0:0:
310,15,29653,6,0,L|183:16,1,119.999996337891,0|10,0:0|0:0,0:0:0:0:
175,148,29969,2,0,L|226:117,1,59.9999981689454
30,101,30127,1,10,0:0:0:0:
30,101,30206,1,0,0:0:0:0:
30,101,30285,2,0,L|81:70,1,59.9999981689454
73,294,30442,1,10,0:0:0:0:
0,238,30600,6,0,P|48:204|107:208,1,119.999996337891,0|10,0:0|0:0,0:0:0:0:
164,281,30837,2,0,P|212:314|271:309,1,119.999996337891
252,168,31074,2,0,L|237:226,1,59.9999981689454,10|0,0:0|0:0,0:0:0:0:
382,384,31232,6,0,B|362:350|362:350|383:271,1,119.999996337891,0|10,0:0|0:0,0:0:0:0:
460,334,31469,2,0,B|480:300|480:300|459:222,1,119.999996337891
363,122,31706,2,0,L|378:180,1,59.9999981689454,10|0,0:0|0:0,0:0:0:0:
511,59,31863,6,0,L|395:27,1,119.999996337891,0|10,0:0|0:0,0:0:0:0:
183,14,32100,2,0,L|299:46,1,119.999996337891
391,184,32337,2,0,L|376:126,1,59.9999981689454,10|0,0:0|0:0,0:0:0:0:
191,33,32495,2,0,L|306:64,1,119.999996337891,0|10,0:0|0:0,0:0:0:0:
459,222,32811,6,0,P|440:245|414:258,1,59.9999981689454
407,348,32969,2,0,P|377:343|352:326,1,59.9999981689454,10|0,0:0|0:0,0:0:0:0:
234,131,33127,5,4,0:0:0:0:
192,128,33206,1,0,0:0:0:0:
152,141,33285,1,10,0:0:0:0:
120,168,33363,1,0,0:0:0:0:
101,206,33442,1,0,0:0:0:0:
98,248,33521,1,0,0:0:0:0:
112,288,33600,1,10,0:0:0:0:
139,320,33679,1,0,0:0:0:0:
177,338,33758,1,0,0:0:0:0:
218,341,33837,1,0,0:0:0:0:
258,328,33916,1,10,0:0:0:0:
290,301,33995,1,0,0:0:0:0:
309,263,34074,1,0,0:0:0:0:
312,221,34153,1,0,0:0:0:0:
298,181,34232,1,10,0:0:0:0:
272,149,34311,1,0,0:0:0:0:
234,131,34390,5,0,0:0:0:0:
231,144,34469,1,0,0:0:0:0:
228,156,34548,1,10,0:0:0:0:
224,170,34627,1,0,0:0:0:0:
220,183,34706,1,0,0:0:0:0:
217,196,34785,1,0,0:0:0:0:
214,208,34863,1,10,0:0:0:0:
210,222,34942,1,0,0:0:0:0:
207,234,35021,6,0,L|175:118,1,119.999996337891,0|10,0:0|0:0,0:0:0:0:
209,22,35258,2,0,P|150:22|100:53,1,119.999996337891
25,138,35495,2,0,P|52:151|81:153,1,59.9999981689454,10|0,0:0|0:0,0:0:0:0:
274,101,35653,5,0,0:0:0:0:
312,85,35732,1,0,0:0:0:0:
350,69,35811,1,10,0:0:0:0:
388,53,35890,1,0,0:0:0:0:
426,37,35969,1,0,0:0:0:0:
465,21,36048,1,0,0:0:0:0:
504,5,36127,6,0,L|488:62,1,59.9999981689454,10|0,0:0|0:0,0:0:0:0:
396,144,36285,2,0,B|427:126|427:126|508:147,1,119.999996337891,0|10,0:0|0:0,0:0:0:0:
441,224,36521,2,0,B|409:242|409:242|328:220,1,119.999996337891
396,144,36758,1,10,0:0:0:0:
53,384,36916,5,10,0:0:0:0:
64,342,36995,1,0,0:0:0:0:
76,301,37074,1,0,0:0:0:0:
88,259,37153,1,0,0:0:0:0:
112,176,37232,5,8,0:0:0:0:
118,198,37311,1,0,0:0:0:0:
124,220,37390,1,0,0:0:0:0:
130,242,37469,1,0,0:0:0:0:
142,286,37548,5,8,0:0:0:0:
145,271,37627,1,0,0:0:0:0:
148,258,37706,1,0,0:0:0:0:
151,246,37785,1,0,0:0:0:0:
154,234,37863,2,0,L|169:176,3,59.9999981689454
216,1,38179,5,0,0:0:0:0:
227,41,38258,1,0,0:0:0:0:
238,82,38337,1,10,0:0:0:0:
249,122,38416,1,0,0:0:0:0:
260,163,38495,1,0,0:0:0:0:
271,203,38574,1,0,0:0:0:0:
282,244,38653,1,10,0:0:0:0:
293,284,38732,1,0,0:0:0:0:
317,317,38811,1,0,0:0:0:0:
357,328,38890,1,0,0:0:0:0:
395,313,38969,1,10,0:0:0:0:
417,278,39048,1,0,0:0:0:0:
413,236,39127,2,0,P|394:214|367:202,3,59.9999981689454,0|0|10|0,0:0|0:0|0:0|0:0,0:0:0:0:
395,313,39442,5,0,0:0:0:0:
355,329,39521,1,0,0:0:0:0:
312,329,39600,1,10,0:0:0:0:
272,313,39679,1,0,0:0:0:0:
232,297,39758,1,0,0:0:0:0:
189,297,39837,1,0,0:0:0:0:
148,312,39916,6,0,P|93:331|36:312,1,119.999996337891,10|0,0:0|0:0,0:0:0:0:
36,142,40153,1,0,0:0:0:0:
36,142,40232,2,0,P|48:200|93:239,1,119.999996337891,10|0,0:0|0:0,0:0:0:0:
127,153,40469,2,0,P|128:123|139:95,1,59.9999981689454,0|10,0:0|0:0,0:0:0:0:
506,47,40706,5,0,0:0:0:0:
504,88,40785,1,0,0:0:0:0:
470,113,40863,1,10,0:0:0:0:
430,103,40942,1,0,0:0:0:0:
413,64,41021,1,0,0:0:0:0:
432,27,41100,1,0,0:0:0:0:
474,19,41179,5,10,0:0:0:0:
460,71,41258,1,0,0:0:0:0:
446,123,41337,1,0,0:0:0:0:
432,175,41416,1,0,0:0:0:0:
418,227,41495,1,10,0:0:0:0:
404,278,41574,1,0,0:0:0:0:
390,330,41653,2,0,L|374:272,3,59.9999981689454,0|0|10|0,0:0|0:0|0:0|0:0,0:0:0:0:
273,337,41969,6,0,B|153:369|153:369|104:341,1,179.999994506836
181,213,42285,2,0,L|165:270,1,59.9999981689454
9,384,42442,2,0,L|40:268,1,119.999996337891,10|0,0:0|0:0,0:0:0:0:
48,240,42679,1,0,0:0:0:0:
48,240,42758,1,10,0:0:0:0:
76,54,42916,2,0,L|92:112,1,59.9999981689454
176,272,43074,2,0,L|191:214,1,59.9999981689454,10|0,0:0|0:0,0:0:0:0:
318,53,43232,5,4,0:0:0:0:
356,14,43311,1,0,0:0:0:0:
408,0,43390,1,10,0:0:0:0:
460,14,43469,1,0,0:0:0:0:
498,53,43548,1,0,0:0:0:0:
512,105,43627,1,0,0:0:0:0:
498,157,43706,1,10,0:0:0:0:
460,195,43785,1,0,0:0:0:0:
408,209,43863,1,0,0:0:0:0:
356,195,43942,1,0,0:0:0:0:
318,157,44021,1,10,0:0:0:0:
280,119,44100,1,0,0:0:0:0:
228,105,44179,1,0,0:0:0:0:
176,119,44258,1,0,0:0:0:0:
138,157,44337,1,10,0:0:0:0:
124,209,44416,1,0,0:0:0:0:
138,261,44495,1,0,0:0:0:0:
176,300,44574,1,0,0:0:0:0:
228,314,44653,1,10,0:0:0:0:
280,300,44732,1,0,0:0:0:0:
317,261,44811,2,0,L|260:228,3,59.9999981689454,0|0|10|0,0:0|0:0|0:0|0:0,0:0:0:0:
416,352,45127,2,0,L|363:381,3,59.9999981689454,0|0|10|0,0:0|0:0|0:0|0:0,0:0:0:0:
512,261,45442,2,0,L|455:228,3,59.9999981689454,0|0|10|0,0:0|0:0|0:0|0:0,0:0:0:0:
228,105,45758,5,0,0:0:0:0:
191,84,45837,1,0,0:0:0:0:
184,43,45916,1,8,0:0:0:0:
212,11,45995,1,0,0:0:0:0:
254,14,46074,1,0,0:0:0:0:
278,48,46153,1,0,0:0:0:0:
266,89,46232,5,8,0:0:0:0:
228,70,46311,1,0,0:0:0:0:
185,70,46390,1,0,0:0:0:0:
147,89,46469,1,0,0:0:0:0:
109,108,46548,1,8,0:0:0:0:
66,108,46627,1,0,0:0:0:0:
28,89,46706,2,0,L|43:147,3,59.9999981689454,0|0|8|0,0:0|0:0|0:0|0:0,0:0:0:0:
0,260,47021,5,0,0:0:0:0:
54,274,47100,1,0,0:0:0:0:
108,288,47179,1,0,0:0:0:0:
162,303,47258,1,0,0:0:0:0:
216,318,47337,5,0,0:0:0:0:
205,278,47416,1,0,0:0:0:0:
194,238,47495,1,0,0:0:0:0:
183,200,47574,1,0,0:0:0:0:
172,162,47653,5,0,0:0:0:0:
165,184,47732,1,0,0:0:0:0:
158,208,47811,1,0,0:0:0:0:
152,232,47890,1,0,0:0:0:0:
145,254,47969,2,0,L|129:196,1,59.9999981689454
28,89,48127,2,0,L|43:146,1,59.9999981689454
0,384,48285,5,4,0:0:0:0:
0,384,48600,1,0,0:0:0:0:
0,384,48916,1,0,0:0:0:0:
0,384,49232,1,0,0:0:0:0:
444,192,49548,5,8,0:0:0:0:
361,152,49706,1,8,0:0:0:0:
350,192,49785,1,8,0:0:0:0:
362,231,49863,1,8,0:0:0:0:
512,384,50021,1,0,0:0:0:0:
512,384,50100,1,0,0:0:0:0:
512,384,50179,6,0,L|496:326,1,59.9999981689454
404,310,50337,2,0,L|420:368,1,59.9999981689454
328,352,50495,2,0,L|312:294,1,59.9999981689454
220,278,50653,2,0,L|236:336,1,59.9999981689454
277,202,50811,6,0,B|242:182|242:182|165:203,1,119.999996337891,0|10,0:0|0:0,0:0:0:0:
18,287,51048,2,0,B|52:306|52:306|129:285,1,119.999996337891
91,154,51285,2,0,L|75:211,1,59.9999981689454,10|0,0:0|0:0,0:0:0:0:
201,0,51442,6,0,L|169:115,1,119.999996337891,0|10,0:0|0:0,0:0:0:0:
0,54,51679,2,0,L|115:22,1,119.999996337891
187,115,51916,2,0,L|244:99,1,59.9999981689454,10|0,0:0|0:0,0:0:0:0:
512,21,52074,5,0,0:0:0:0:
501,61,52153,1,0,0:0:0:0:
490,101,52232,1,10,0:0:0:0:
479,141,52311,1,0,0:0:0:0:
399,114,52390,5,0,0:0:0:0:
406,142,52469,1,0,0:0:0:0:
414,171,52548,1,10,0:0:0:0:
422,200,52627,1,0,0:0:0:0:
502,220,52706,5,0,0:0:0:0:
496,241,52785,1,0,0:0:0:0:
490,262,52863,1,10,0:0:0:0:
484,283,52942,1,0,0:0:0:0:
479,305,53021,2,0,L|409:324,1,59.9999981689454
317,259,53179,2,0,L|247:278,1,59.9999981689454,10|0,0:0|0:0,0:0:0:0:
140,384,53337,5,0,0:0:0:0:
108,361,53416,1,0,0:0:0:0:
87,328,53495,1,10,0:0:0:0:
80,290,53574,1,0,0:0:0:0:
87,252,53653,1,0,0:0:0:0:
107,219,53732,1,0,0:0:0:0:
138,195,53811,1,10,0:0:0:0:
170,173,53890,1,0,0:0:0:0:
191,140,53969,1,0,0:0:0:0:
196,100,54048,1,0,0:0:0:0:
185,63,54127,1,10,0:0:0:0:
161,33,54206,1,0,0:0:0:0:
125,16,54285,1,0,0:0:0:0:
86,14,54363,1,0,0:0:0:0:
50,29,54442,1,10,0:0:0:0:
22,57,54521,1,0,0:0:0:0:
10,94,54600,1,0,0:0:0:0:
11,133,54679,1,0,0:0:0:0:
30,167,54758,1,10,0:0:0:0:
60,192,54837,1,0,0:0:0:0:
98,200,54916,6,0,P|128:196|154:181,1,59.9999981689454
0,287,55074,2,0,P|29:291|55:306,1,59.9999981689454,10|0,0:0|0:0,0:0:0:0:
146,384,55232,5,0,0:0:0:0:
174,346,55311,1,0,0:0:0:0:
216,323,55390,1,10,0:0:0:0:
264,319,55469,1,0,0:0:0:0:
308,334,55548,2,0,P|337:330|364:317,3,59.9999981689454,0|0|10|0,0:0|0:0|0:0|0:0,0:0:0:0:
414,125,55863,5,0,0:0:0:0:
420,144,55942,1,0,0:0:0:0:
425,163,56021,1,10,0:0:0:0:
430,183,56100,1,0,0:0:0:0:
435,202,56179,1,0,0:0:0:0:
440,221,56258,1,0,0:0:0:0:
446,241,56337,5,10,0:0:0:0:
456,201,56416,1,0,0:0:0:0:
466,162,56495,1,0,0:0:0:0:
477,123,56574,1,0,0:0:0:0:
487,84,56653,1,10,0:0:0:0:
498,45,56732,1,0,0:0:0:0:
508,6,56811,5,0,0:0:0:0:
467,50,56890,1,0,0:0:0:0:
459,109,56969,1,10,0:0:0:0:
486,162,57048,1,0,0:0:0:0:
512,215,57127,1,0,0:0:0:0:
504,274,57206,1,0,0:0:0:0:
466,321,57285,1,0,0:0:0:0:
409,339,57363,1,0,0:0:0:0:
351,323,57442,1,0,0:0:0:0:
310,279,57521,1,0,0:0:0:0:
301,220,57600,1,0,0:0:0:0:
324,165,57679,1,0,0:0:0:0:
373,131,57758,5,0,0:0:0:0:
368,148,57837,1,0,0:0:0:0:
363,165,57916,1,0,0:0:0:0:
359,183,57995,1,0,0:0:0:0:
354,200,58074,5,0,0:0:0:0:
343,159,58153,1,0,0:0:0:0:
332,118,58232,1,0,0:0:0:0:
321,78,58311,1,0,0:0:0:0:
310,37,58390,5,0,1:0:0:0:
159,375,58627,1,0,1:0:0:0:
59,0,58863,1,0,1:0:0:0:
0,91,59021,6,0,P|86:103|154:48,1,179.999994506836,4|0,0:0|0:0,0:0:0:0:
310,37,59337,2,0,P|223:24|155:79,1,179.999994506836
251,128,59653,5,0,1:0:0:0:
0,384,59890,1,0,1:0:0:0:
59,0,60127,1,0,1:0:0:0:
113,202,60285,6,0,B|132:273|132:273|161:290|161:290|180:360,2,179.999994506836,4|0|0,1:3|1:0|1:0,0:0:0:0:
383,166,60916,2,0,L|210:213,2,179.999994506836,4|0|0,1:3|1:0|1:0,0:0:0:0:
501,74,61548,6,0,L|469:189,1,119.999996337891,4|0,1:3|0:0,0:0:0:0:
291,285,61785,2,0,L|406:253,1,119.999996337891,0|0,1:0|0:0,0:0:0:0:
493,277,62021,1,0,1:0:0:0:
274,56,62179,5,8,0:0:0:0:
389,24,62337,2,0,L|446:8,2,59.9999981689454,8|8|8,0:0|0:0|0:0,0:0:0:0:
290,72,62653,5,8,0:0:0:0:
175,104,62811,2,0,L|117:119,2,59.9999981689454,8|8|8,0:0|0:0|0:0,0:0:0:0:
270,384,63127,6,0,B|299:332|299:332|268:216,1,179.999994506836
87,316,63442,6,0,B|65:354|65:354|197:319,1,179.999994506836,4|0,0:0|0:0,0:0:0:0:
292,188,63758,2,0,L|323:303,1,119.999996337891
487,384,64074,2,0,L|455:268,1,119.999996337891
349,98,64390,2,0,P|263:84|196:140,1,179.999994506836
292,188,64706,5,0,0:0:0:0:
480,137,64863,1,0,0:0:0:0:
241,0,65021,1,0,0:0:0:0:
104,239,65179,1,0,0:0:0:0:
72,123,65337,6,0,L|103:238,1,119.999996337891
70,324,65574,1,0,0:0:0:0:
70,324,65653,2,0,P|128:327|177:294,1,119.999996337891
461,10,65969,5,0,0:0:0:0:
410,43,66048,1,0,0:0:0:0:
389,99,66127,1,0,0:0:0:0:
404,157,66206,1,0,0:0:0:0:
450,194,66285,1,0,0:0:0:0:
496,231,66363,1,0,0:0:0:0:
511,289,66442,1,0,0:0:0:0:
490,345,66521,1,0,0:0:0:0:
439,378,66600,1,0,0:0:0:0:
379,375,66679,1,0,0:0:0:0:
333,337,66758,1,0,0:0:0:0:
317,279,66837,1,0,0:0:0:0:
338,221,66916,2,0,P|368:196|406:185,1,80
265,384,67074,2,0,P|226:373|196:347,1,80
5,38,67232,5,0,0:0:0:0:
13,60,67548,5,0,0:0:0:0:
22,82,67863,5,8,0:0:0:0:
95,287,68021,1,8,0:0:0:0:
300,214,68179,1,8,0:0:0:0:
227,9,68337,1,8,0:0:0:0:
193,273,68495,5,6,0:0:0:0:
183,332,68574,1,0,0:0:0:0:
140,375,68653,1,0,0:0:0:0:
81,384,68732,1,0,0:0:0:0:
27,357,68811,1,10,0:0:0:0:
0,303,68890,1,0,0:0:0:0:
9,243,68969,1,0,0:0:0:0:
52,201,69048,1,0,0:0:0:0:
110,192,69127,5,2,0:0:0:0:
89,156,69206,1,0,0:0:0:0:
69,120,69285,1,0,0:0:0:0:
49,85,69363,1,0,0:0:0:0:
29,49,69442,5,10,0:0:0:0:
29,69,69521,1,0,0:0:0:0:
29,89,69600,1,0,0:0:0:0:
29,109,69679,1,0,0:0:0:0:
29,128,69758,5,2,0:0:0:0:
77,93,69837,1,0,0:0:0:0:
135,80,69916,1,0,0:0:0:0:
193,92,69995,1,0,0:0:0:0:
242,127,70074,1,10,0:0:0:0:
291,162,70153,1,0,0:0:0:0:
349,174,70232,1,0,0:0:0:0:
407,161,70311,1,0,0:0:0:0:
456,127,70390,5,6,0:0:0:0:
378,110,70469,1,0,0:0:0:0:
305,139,70548,1,0,0:0:0:0:
261,205,70627,1,0,0:0:0:0:
260,284,70706,1,10,0:0:0:0:
303,349,70785,1,0,0:0:0:0:
375,381,70863,1,0,0:0:0:0:
452,367,70942,1,0,0:0:0:0:
509,310,71021,5,6,0:0:0:0:
484,293,71100,1,0,0:0:0:0:
456,281,71179,1,0,0:0:0:0:
426,277,71258,1,0,0:0:0:0:
397,279,71337,1,10,0:0:0:0:
368,287,71416,1,0,0:0:0:0:
342,302,71495,1,0,0:0:0:0:
320,322,71574,1,0,0:0:0:0:
303,349,71653,2,0,P|282:315|281:275,3,80,2|0|0|0,0:0|0:0|0:0|0:0,0:0:0:0:
399,183,71969,2,0,P|398:143|377:109,3,80,10|0|0|0,0:0|0:0|0:0|0:0,0:0:0:0:
171,46,72285,5,6,0:0:0:0:
124,12,72363,1,0,0:0:0:0:
68,12,72442,1,0,0:0:0:0:
24,46,72521,1,0,0:0:0:0:
6,99,72600,1,10,0:0:0:0:
23,151,72679,1,0,0:0:0:0:
69,185,72758,1,0,0:0:0:0:
125,184,72837,1,0,0:0:0:0:
170,150,72916,5,2,0:0:0:0:
153,138,72995,1,0,0:0:0:0:
137,126,73074,1,0,0:0:0:0:
121,115,73153,1,0,0:0:0:0:
103,105,73232,2,0,L|125:184,1,81.4999999378204,10|0,0:0|0:0,0:0:0:0:
232,355,73390,2,0,L|253:276,1,81.4999999378204
314,82,73548,5,6,0:0:0:0:
349,32,73627,1,0,0:0:0:0:
408,14,73706,1,0,0:0:0:0:
467,33,73785,1,0,0:0:0:0:
503,82,73863,1,10,0:0:0:0:
502,144,73942,1,0,0:0:0:0:
468,193,74021,1,0,0:0:0:0:
409,213,74100,1,0,0:0:0:0:
350,194,74179,1,2,0:0:0:0:
291,175,74258,1,0,0:0:0:0:
233,194,74337,1,0,0:0:0:0:
196,244,74416,1,0,0:0:0:0:
196,305,74495,1,10,0:0:0:0:
232,355,74574,1,0,0:0:0:0:
291,374,74653,1,0,0:0:0:0:
349,355,74732,1,0,0:0:0:0:
387,306,74811,1,2,0:0:0:0:
386,244,74890,1,0,0:0:0:0:
350,194,74969,1,0,0:0:0:0:
291,175,75048,1,0,0:0:0:0:
233,194,75127,1,10,0:0:0:0:
172,212,75206,1,0,0:0:0:0:
115,192,75285,1,0,0:0:0:0:
79,143,75363,1,0,0:0:0:0:
80,82,75442,1,2,0:0:0:0:
116,33,75521,1,0,0:0:0:0:
174,15,75600,1,0,0:0:0:0:
233,31,75679,1,0,0:0:0:0:
269,82,75758,2,0,P|280:120|274:159,1,80,10|0,0:0|0:0,0:0:0:0:
386,244,75916,2,0,P|359:272|322:286,1,80
105,384,76074,5,6,0:0:0:0:
48,373,76153,1,0,0:0:0:0:
9,333,76232,1,0,0:0:0:0:
2,277,76311,1,0,0:0:0:0:
26,228,76390,1,10,0:0:0:0:
75,203,76469,1,0,0:0:0:0:
131,211,76548,5,0,0:0:0:0:
124,224,76627,1,0,0:0:0:0:
118,237,76706,1,2,0:0:0:0:
112,250,76785,1,0,0:0:0:0:
106,263,76863,1,0,0:0:0:0:
100,276,76942,1,0,0:0:0:0:
94,289,77021,2,0,L|171:268,1,80,10|0,0:0|0:0,0:0:0:0:
351,139,77179,2,0,L|273:159,1,80
452,384,77337,5,2,0:0:0:0:
500,343,77416,1,0,0:0:0:0:
509,279,77495,1,0,0:0:0:0:
470,228,77574,1,0,0:0:0:0:
407,221,77653,1,10,0:0:0:0:
356,259,77732,1,0,0:0:0:0:
347,323,77811,1,0,0:0:0:0:
387,374,77890,1,0,0:0:0:0:
452,384,77969,5,0,0:0:0:0:
445,358,78048,1,0,0:0:0:0:
438,332,78127,1,0,0:0:0:0:
431,306,78206,1,0,0:0:0:0:
356,259,78285,5,0,0:0:0:0:
363,233,78363,1,0,0:0:0:0:
370,207,78442,1,0,0:0:0:0:
377,181,78521,1,0,0:0:0:0:
470,180,78600,5,6,0:0:0:0:
449,124,78679,1,0,0:0:0:0:
399,92,78758,1,0,0:0:0:0:
341,97,78837,1,0,0:0:0:0:
295,135,78916,1,10,0:0:0:0:
250,174,78995,1,0,0:0:0:0:
191,178,79074,1,0,0:0:0:0:
143,148,79153,1,0,0:0:0:0:
121,96,79232,5,2,0:0:0:0:
110,134,79311,1,0,0:0:0:0:
100,173,79390,1,0,0:0:0:0:
90,212,79469,1,0,0:0:0:0:
155,262,79548,5,10,0:0:0:0:
149,281,79627,1,0,0:0:0:0:
144,299,79706,1,0,0:0:0:0:
139,318,79785,1,0,0:0:0:0:
70,383,79863,5,2,0:0:0:0:
38,339,79942,1,0,0:0:0:0:
27,286,80021,1,0,0:0:0:0:
40,233,80100,1,0,0:0:0:0:
74,191,80179,1,10,0:0:0:0:
108,149,80258,1,0,0:0:0:0:
121,96,80337,1,0,0:0:0:0:
110,43,80416,1,0,0:0:0:0:
76,0,80495,5,6,0:0:0:0:
52,75,80574,1,0,0:0:0:0:
69,152,80653,1,0,0:0:0:0:
124,209,80732,1,0,0:0:0:0:
200,230,80811,1,10,0:0:0:0:
276,210,80890,1,0,0:0:0:0:
331,153,80969,1,0,0:0:0:0:
349,76,81048,1,0,0:0:0:0:
326,1,81127,5,6,0:0:0:0:
300,26,81206,1,0,0:0:0:0:
275,52,81285,1,0,0:0:0:0:
249,79,81363,1,0,0:0:0:0:
224,105,81442,1,10,0:0:0:0:
199,131,81521,1,0,0:0:0:0:
174,157,81600,1,0,0:0:0:0:
149,183,81679,1,0,0:0:0:0:
124,209,81758,2,0,L|103:131,3,80,2|0|0|0,0:0|0:0|0:0|0:0,0:0:0:0:
24,0,82074,2,0,L|3:77,3,80,10|0|0|0,0:0|0:0|0:0|0:0,0:0:0:0:
2,253,82390,5,4,0:0:0:0:
51,314,82469,1,0,0:0:0:0:
126,336,82548,1,0,0:0:0:0:
201,310,82627,1,0,0:0:0:0:
247,246,82706,1,0,0:0:0:0:
293,183,82785,1,0,0:0:0:0:
368,157,82863,1,0,0:0:0:0:
444,180,82942,1,0,0:0:0:0:
496,242,83021,5,0,0:0:0:0:
448,261,83100,1,0,0:0:0:0:
400,247,83179,1,0,0:0:0:0:
368,207,83258,1,0,0:0:0:0:
368,157,83337,2,0,P|389:123|423:103,1,80,8|8,0:0|0:0,0:0:0:0:
494,46,83495,2,0,P|512:81|513:120,1,80,8|8,0:0|0:0,0:0:0:0:
394,336,83653,6,0,B|257:275|257:396|122:334,1,279.000008727265,4|0,1:3|0:0,0:0:0:0:
226,143,84285,2,0,P|220:319|128:168,1,472.500001802445,4|0,0:0|0:0,0:0:0:0:
196,231,84916,5,4,0:0:0:0:
133,0,85232,1,0,0:0:0:0:
52,321,85548,1,8,1:3:0:0:
43,352,85627,1,8,0:0:0:0:
34,384,85706,1,8,0:0:0:0:
196,231,85863,1,8,0:0:0:0:
205,262,85942,1,8,0:0:0:0:
214,294,86021,1,8,0:0:0:0:
487,384,86179,6,0,B|531:341|545:287|530:229|475:191|475:191|428:229|434:273,1,320,4|0,1:3|0:0,0:0:0:0:
434,273,86653,1,0,0:0:0:0:
293,5,86811,2,0,B|249:48|235:102|250:160|305:198|305:198|352:160|346:116,1,320,4|0,0:0|0:0,0:0:0:0:
346,116,87285,1,0,0:0:0:0:
214,294,87442,2,0,P|139:319|66:293,2,160,4|0|0,0:0|0:0|0:0,0:0:0:0:
346,116,88074,5,10,0:0:0:0:
345,284,88232,1,8,0:0:0:0:
132,100,88390,1,8,0:0:0:0:
512,0,88548,1,8,0:0:0:0:
147,3,88706,5,6,0:0:0:0:
88,12,88785,1,0,0:0:0:0:
45,55,88863,1,0,0:0:0:0:
36,114,88942,1,0,0:0:0:0:
63,168,89021,1,10,0:0:0:0:
117,195,89100,1,0,0:0:0:0:
176,186,89179,1,0,0:0:0:0:
219,143,89258,1,0,0:0:0:0:
228,84,89337,5,2,0:0:0:0:
149,101,89416,1,0,0:0:0:0:
99,164,89495,1,0,0:0:0:0:
104,244,89574,1,0,0:0:0:0:
158,302,89653,1,10,0:0:0:0:
237,311,89732,1,0,0:0:0:0:
305,268,89811,1,0,0:0:0:0:
328,192,89890,1,0,0:0:0:0:
297,118,89969,1,2,0:0:0:0:
335,48,90048,1,0,0:0:0:0:
414,32,90127,1,0,0:0:0:0:
473,86,90206,1,0,0:0:0:0:
469,165,90285,2,0,P|442:193|404:206,3,80,10|0|0|0,0:0|0:0|0:0|0:0,0:0:0:0:
373,303,90600,2,0,P|334:294|305:268,3,80,6|0|0|0,0:0|0:0|0:0|0:0,0:0:0:0:
205,288,90916,2,0,P|193:249|201:211,3,80,10|0|0|0,0:0|0:0|0:0|0:0,0:0:0:0:
90,192,91232,5,6,0:0:0:0:
32,174,91311,1,0,0:0:0:0:
0,124,91390,1,0,0:0:0:0:
9,65,91469,1,0,0:0:0:0:
55,27,91548,1,10,0:0:0:0:
114,27,91627,1,0,0:0:0:0:
157,68,91706,2,0,P|166:106|158:145,1,80
157,357,91863,5,2,0:0:0:0:
210,384,91942,1,0,0:0:0:0:
270,384,92021,1,0,0:0:0:0:
323,357,92100,1,0,0:0:0:0:
376,330,92179,1,10,0:0:0:0:
436,330,92258,1,0,0:0:0:0:
489,357,92337,2,0,L|489:270,1,80
489,112,92495,5,2,0:0:0:0:
479,52,92574,1,0,0:0:0:0:
437,9,92653,1,0,0:0:0:0:
377,0,92732,1,0,0:0:0:0:
323,27,92811,1,10,0:0:0:0:
296,81,92890,1,0,0:0:0:0:
306,140,92969,1,0,0:0:0:0:
348,183,93048,1,0,0:0:0:0:
408,192,93127,5,6,0:0:0:0:
384,115,93206,1,0,0:0:0:0:
323,62,93285,1,0,0:0:0:0:
243,58,93363,1,0,0:0:0:0:
176,101,93442,1,10,0:0:0:0:
148,175,93521,1,0,0:0:0:0:
168,253,93600,1,0,0:0:0:0:
229,305,93679,1,0,0:0:0:0:
309,310,93758,5,6,0:0:0:0:
285,316,93837,1,0,0:0:0:0:
262,322,93916,1,0,0:0:0:0:
239,328,93995,1,0,0:0:0:0:
216,334,94074,1,10,0:0:0:0:
193,341,94153,1,0,0:0:0:0:
169,347,94232,1,0,0:0:0:0:
146,353,94311,1,0,0:0:0:0:
123,359,94390,5,2,0:0:0:0:
47,333,94469,1,0,0:0:0:0:
11,262,94548,1,0,0:0:0:0:
32,185,94627,1,0,0:0:0:0:
103,148,94706,1,10,0:0:0:0:
180,172,94785,1,0,0:0:0:0:
217,244,94863,1,0,0:0:0:0:
140,220,94942,1,0,0:0:0:0:
103,148,95021,1,2,0:0:0:0:
122,71,95100,1,0,0:0:0:0:
193,33,95179,1,0,0:0:0:0:
270,56,95258,1,0,0:0:0:0:
308,127,95337,2,0,P|308:166|289:201,3,80,10|0|0|0,0:0|0:0|0:0|0:0,0:0:0:0:
412,144,95653,2,0,P|446:124|485:122,3,80,6|0|0|0,0:0|0:0|0:0|0:0,0:0:0:0:
375,46,95969,2,0,P|341:26|320:-7,3,80,10|0|0|0,0:0|0:0|0:0|0:0,0:0:0:0:
509,200,96285,5,6,0:0:0:0:
501,259,96363,1,0,0:0:0:0:
453,296,96442,1,0,0:0:0:0:
393,288,96521,1,0,0:0:0:0:
357,240,96600,1,10,0:0:0:0:
364,181,96679,1,0,0:0:0:0:
412,144,96758,2,0,L|432:221,1,80
355,357,96916,5,2,0:0:0:0:
302,384,96995,1,0,0:0:0:0:
242,384,97074,1,0,0:0:0:0:
189,357,97153,1,0,0:0:0:0:
136,330,97232,1,10,0:0:0:0:
76,330,97311,1,0,0:0:0:0:
23,357,97390,1,0,0:0:0:0:
23,357,97469,1,0,0:0:0:0:
23,357,97548,2,0,L|2:279,1,80,2|0,0:0|0:0,0:0:0:0:
107,110,97706,2,0,L|86:188,1,80
189,357,97863,2,0,L|168:279,1,80,10|0,0:0|0:0,0:0:0:0:
273,110,98021,2,0,L|252:188,1,80
334,331,98179,5,2,0:0:0:0:
347,350,98258,1,0,0:0:0:0:
369,356,98337,1,0,0:0:0:0:
391,346,98416,1,0,0:0:0:0:
402,324,98495,1,10,0:0:0:0:
396,301,98574,1,0,0:0:0:0:
376,287,98653,1,0,0:0:0:0:
351,289,98732,1,0,0:0:0:0:
335,306,98811,5,6,0:0:0:0:
302,358,98890,1,0,0:0:0:0:
246,377,98969,1,0,0:0:0:0:
189,357,99048,1,0,0:0:0:0:
160,306,99127,1,10,0:0:0:0:
169,246,99206,1,0,0:0:0:0:
217,207,99285,1,0,0:0:0:0:
263,169,99363,1,0,0:0:0:0:
273,110,99442,1,2,0:0:0:0:
242,59,99521,1,0,0:0:0:0:
187,38,99600,1,0,0:0:0:0:
131,58,99679,1,0,0:0:0:0:
102,112,99758,2,0,P|104:151|125:185,3,80,10|0|0|0,0:0|0:0|0:0|0:0,0:0:0:0:
186,125,100074,5,2,0:0:0:0:
229,117,100153,1,0,0:0:0:0:
273,110,100232,1,0,0:0:0:0:
315,101,100311,1,0,0:0:0:0:
359,93,100390,1,10,0:0:0:0:
402,86,100469,1,0,0:0:0:0:
446,78,100548,5,0,0:0:0:0:
416,67,100627,1,0,0:0:0:0:
386,56,100706,1,6,0:0:0:0:
357,45,100785,1,0,0:0:0:0:
327,34,100863,1,0,0:0:0:0:
297,24,100942,1,0,0:0:0:0:
267,13,101021,2,0,L|345:0,1,80,10|0,0:0|0:0,0:0:0:0:
446,78,101179,2,0,L|367:91,1,80
175,242,101337,5,6,0:0:0:0:
209,296,101416,1,0,0:0:0:0:
272,310,101495,1,0,0:0:0:0:
325,275,101574,1,0,0:0:0:0:
339,213,101653,1,10,0:0:0:0:
305,159,101732,1,0,0:0:0:0:
242,145,101811,1,0,0:0:0:0:
188,179,101890,1,0,0:0:0:0:
175,242,101969,5,2,0:0:0:0:
205,216,102048,1,0,0:0:0:0:
243,202,102127,1,0,0:0:0:0:
282,202,102206,1,0,0:0:0:0:
320,215,102285,1,10,0:0:0:0:
358,228,102363,1,0,0:0:0:0:
398,227,102442,1,0,0:0:0:0:
436,213,102521,1,0,0:0:0:0:
467,188,102600,5,6,0:0:0:0:
460,211,102679,1,0,0:0:0:0:
454,234,102758,1,0,0:0:0:0:
448,257,102837,1,0,0:0:0:0:
442,280,102916,1,10,0:0:0:0:
435,303,102995,1,0,0:0:0:0:
429,327,103074,1,0,0:0:0:0:
423,350,103153,1,0,0:0:0:0:
417,373,103232,5,2,0:0:0:0:
413,361,103311,1,0,0:0:0:0:
410,349,103390,1,0,0:0:0:0:
407,338,103469,1,0,0:0:0:0:
404,326,103548,1,10,0:0:0:0:
401,315,103627,1,0,0:0:0:0:
398,303,103706,1,0,0:0:0:0:
395,291,103785,1,0,0:0:0:0:
392,280,103863,5,6,0:0:0:0:
377,334,103942,1,0,0:0:0:0:
330,366,104021,1,0,0:0:0:0:
275,360,104100,1,0,0:0:0:0:
234,320,104179,1,10,0:0:0:0:
230,264,104258,1,0,0:0:0:0:
262,218,104337,1,0,0:0:0:0:
294,172,104416,1,0,0:0:0:0:
288,117,104495,1,2,0:0:0:0:
249,77,104574,1,0,0:0:0:0:
194,72,104653,1,0,0:0:0:0:
147,104,104732,1,0,0:0:0:0:
134,158,104811,2,0,P|149:194|181:216,1,80,10|0,0:0|0:0,0:0:0:0:
79,0,104969,2,0,P|83:39|67:75,1,80
23,189,105127,5,2,0:0:0:0:
0,248,105206,1,0,0:0:0:0:
23,308,105285,1,0,0:0:0:0:
77,340,105363,1,0,0:0:0:0:
140,329,105442,1,10,0:0:0:0:
181,280,105521,1,0,0:0:0:0:
182,216,105600,5,0,0:0:0:0:
141,265,105679,1,0,0:0:0:0:
140,329,105758,1,6,0:0:0:0:
181,377,105837,1,0,0:0:0:0:
244,384,105916,1,0,0:0:0:0:
300,354,105995,1,0,0:0:0:0:
319,292,106074,2,0,P|310:254|286:222,1,80,10|0,0:0|0:0,0:0:0:0:
104,209,106232,2,0,P|142:220|182:216,1,80
474,164,106390,5,6,0:0:0:0:
512,117,106469,1,0,0:0:0:0:
512,57,106548,1,0,0:0:0:0:
473,10,106627,1,0,0:0:0:0:
414,0,106706,1,10,0:0:0:0:
362,30,106785,1,0,0:0:0:0:
341,86,106863,2,0,P|349:124|375:155,1,80
512,384,107021,5,2,0:0:0:0:
459,345,107100,1,0,0:0:0:0:
397,331,107179,1,0,0:0:0:0:
335,345,107258,1,0,0:0:0:0:
283,384,107337,5,10,0:0:0:0:
289,359,107416,1,0,0:0:0:0:
295,335,107495,1,0,0:0:0:0:
302,311,107574,1,0,0:0:0:0:
308,287,107653,5,4,0:0:0:0:
256,326,107732,1,0,0:0:0:0:
194,340,107811,1,0,0:0:0:0:
132,326,107890,1,0,0:0:0:0:
79,287,107969,5,0,0:0:0:0:
85,312,108048,1,0,0:0:0:0:
91,336,108127,1,0,0:0:0:0:
98,360,108206,1,0,0:0:0:0:
105,384,108285,5,0,0:0:0:0:
132,326,108363,1,0,0:0:0:0:
159,268,108442,1,0,0:0:0:0:
186,210,108521,1,0,0:0:0:0:
213,152,108600,2,0,L|137:179,1,80
3,259,108758,2,0,L|79:287,1,80
408,384,108916,5,6,0:0:0:0:
463,375,108995,1,0,0:0:0:0:
502,335,109074,1,0,0:0:0:0:
511,280,109153,1,0,0:0:0:0:
486,230,109232,1,10,0:0:0:0:
436,205,109311,1,0,0:0:0:0:
381,213,109390,1,0,0:0:0:0:
341,253,109469,1,0,0:0:0:0:
332,308,109548,5,2,0:0:0:0:
411,299,109627,1,0,0:0:0:0:
472,247,109706,1,0,0:0:0:0:
490,170,109785,1,0,0:0:0:0:
460,97,109863,1,10,0:0:0:0:
392,55,109942,1,0,0:0:0:0:
312,61,110021,1,0,0:0:0:0:
251,112,110100,1,0,0:0:0:0:
232,189,110179,1,2,0:0:0:0:
162,228,110258,1,0,0:0:0:0:
84,208,110337,1,0,0:0:0:0:
44,140,110416,1,0,0:0:0:0:
64,62,110495,2,0,P|92:35|130:23,3,80,10|0|0|0,0:0|0:0|0:0|0:0,0:0:0:0:
232,189,110811,2,0,P|260:216|298:228,3,80,6|0|0|0,0:0|0:0|0:0|0:0,0:0:0:0:
392,55,111127,2,0,P|420:27|458:15,3,80,10|0|0|0,0:0|0:0|0:0|0:0,0:0:0:0:
480,251,111442,5,6,0:0:0:0:
512,299,111521,1,0,0:0:0:0:
496,355,111600,1,0,0:0:0:0:
445,384,111679,1,0,0:0:0:0:
389,367,111758,1,10,0:0:0:0:
365,315,111837,1,0,0:0:0:0:
385,259,111916,2,0,P|390:219|378:181,1,80
130,22,112074,5,2,0:0:0:0:
72,18,112153,1,0,0:0:0:0:
32,60,112232,1,0,0:0:0:0:
32,118,112311,1,0,0:0:0:0:
75,158,112390,1,10,0:0:0:0:
132,153,112469,1,0,0:0:0:0:
170,108,112548,2,0,P|201:83|239:74,1,80
290,286,112706,5,2,0:0:0:0:
276,343,112785,1,0,0:0:0:0:
230,381,112863,1,0,0:0:0:0:
171,378,112942,1,0,0:0:0:0:
127,338,113021,1,10,0:0:0:0:
120,280,113100,1,0,0:0:0:0:
151,231,113179,1,0,0:0:0:0:
206,212,113258,1,0,0:0:0:0:
261,235,113337,5,6,0:0:0:0:
198,284,113416,1,0,0:0:0:0:
120,280,113495,1,0,0:0:0:0:
52,237,113574,1,0,0:0:0:0:
26,161,113653,1,10,0:0:0:0:
50,84,113732,1,0,0:0:0:0:
114,36,113811,1,0,0:0:0:0:
194,36,113890,1,0,0:0:0:0:
260,80,113969,5,6,0:0:0:0:
246,89,114048,1,0,0:0:0:0:
233,99,114127,1,0,0:0:0:0:
220,109,114206,1,0,0:0:0:0:
207,119,114285,1,10,0:0:0:0:
194,129,114363,1,0,0:0:0:0:
181,139,114442,1,0,0:0:0:0:
168,149,114521,1,0,0:0:0:0:
155,160,114600,5,2,0:0:0:0:
122,231,114679,1,0,0:0:0:0:
140,307,114758,1,0,0:0:0:0:
202,356,114837,1,0,0:0:0:0:
280,356,114916,1,10,0:0:0:0:
342,308,114995,1,0,0:0:0:0:
359,230,115074,1,0,0:0:0:0:
326,159,115153,1,0,0:0:0:0:
361,87,115232,1,2,0:0:0:0:
440,70,115311,1,0,0:0:0:0:
501,120,115390,1,0,0:0:0:0:
500,200,115469,1,0,0:0:0:0:
437,248,115548,2,0,P|396:248|360:231,3,82.5000007867813,10|0|0|0,0:0|0:0|0:0|0:0,0:0:0:0:
226,281,115863,2,0,P|246:245|279:222,3,82.5000007867813,6|0|0|0,0:0|0:0|0:0|0:0,0:0:0:0:
302,82,116179,2,0,P|322:117|325:157,3,82.5000007867813,10|0|0|0,0:0|0:0|0:0|0:0,0:0:0:0:
305,355,116495,5,6,0:0:0:0:
253,383,116574,1,0,0:0:0:0:
194,382,116653,1,0,0:0:0:0:
145,349,116732,1,0,0:0:0:0:
121,296,116811,1,10,0:0:0:0:
129,237,116890,1,0,0:0:0:0:
166,191,116969,2,0,P|186:156|189:116,1,82.5000007867813
91,0,117127,5,2,0:0:0:0:
39,29,117206,1,0,0:0:0:0:
18,85,117285,1,0,0:0:0:0:
39,143,117363,1,0,0:0:0:0:
89,171,117442,1,10,0:0:0:0:
150,162,117521,1,0,0:0:0:0:
189,115,117600,1,0,0:0:0:0:
189,56,117679,1,0,0:0:0:0:
150,11,117758,2,0,L|72:31,1,80,2|0,0:0|0:0,0:0:0:0:
286,89,117916,2,0,L|363:109,1,80
150,162,118074,2,0,L|72:182,1,80,10|0,0:0|0:0,0:0:0:0:
286,240,118232,2,0,L|363:260,1,80
150,313,118390,5,2,0:0:0:0:
113,322,118469,1,0,0:0:0:0:
77,332,118548,1,0,0:0:0:0:
40,342,118627,1,0,0:0:0:0:
4,352,118706,5,10,0:0:0:0:
30,358,118785,1,0,0:0:0:0:
56,365,118863,1,0,0:0:0:0:
82,371,118942,1,0,0:0:0:0:
150,313,119021,5,6,0:0:0:0:
196,277,119100,1,0,0:0:0:0:
254,270,119179,1,0,0:0:0:0:
308,294,119258,1,0,0:0:0:0:
343,343,119337,1,10,0:0:0:0:
399,363,119416,1,0,0:0:0:0:
457,350,119495,1,0,0:0:0:0:
498,306,119574,1,0,0:0:0:0:
512,248,119653,1,2,0:0:0:0:
489,192,119732,1,0,0:0:0:0:
441,156,119811,1,0,0:0:0:0:
381,153,119890,1,0,0:0:0:0:
328,181,119969,2,0,P|292:195|252:193,1,80,10|0,0:0|0:0,0:0:0:0:
417,68,120127,2,0,P|456:65|493:80,1,80
236,0,120285,5,6,0:0:0:0:
215,54,120363,1,0,0:0:0:0:
195,110,120442,1,0,0:0:0:0:
174,167,120521,1,0,0:0:0:0:
154,223,120600,5,10,0:0:0:0:
145,200,120679,1,0,0:0:0:0:
137,177,120758,1,0,0:0:0:0:
129,155,120837,1,0,0:0:0:0:
121,132,120916,5,4,0:0:0:0:
100,186,120995,1,0,0:0:0:0:
80,242,121074,1,0,0:0:0:0:
59,299,121153,1,0,0:0:0:0:
39,355,121232,5,10,0:0:0:0:
30,332,121311,1,0,0:0:0:0:
22,309,121390,1,0,0:0:0:0:
14,287,121469,1,0,0:0:0:0:
6,264,121548,5,4,0:0:0:0:
59,299,121627,1,0,0:0:0:0:
121,305,121706,1,0,0:0:0:0:
179,280,121785,1,0,0:0:0:0:
219,230,121863,1,10,0:0:0:0:
259,180,121942,1,0,0:0:0:0:
317,155,122021,1,0,0:0:0:0:
380,162,122100,1,0,0:0:0:0:
433,197,122179,2,0,L|510:176,3,80,2|0|0|0,0:0|0:0|0:0|0:0,0:0:0:0:
510,88,122495,2,0,L|432:67,3,80,10|0|0|0,0:0|0:0|0:0|0:0,0:0:0:0:
188,3,122811,5,12,0:0:0:0:
118,40,122890,1,8,0:0:0:0:
90,115,122969,1,8,0:0:0:0:
118,190,123048,1,8,0:0:0:0:
187,231,123127,1,8,0:0:0:0:
266,217,123206,1,8,0:0:0:0:
317,155,123285,2,0,P|326:117|318:78,1,80,8|8,0:0|0:0,0:0:0:0:
0,57,123442,5,0,0:0:0:0:
8,93,123521,1,0,0:0:0:0:
18,132,123600,1,0,0:0:0:0:
29,170,123679,1,0,0:0:0:0:
0,210,123758,5,0,0:0:0:0:
6,231,123837,1,0,0:0:0:0:
12,255,123916,1,0,0:0:0:0:
18,277,123995,1,0,0:0:0:0:
1,359,124074,6,0,P|40:358|75:339,3,80,14|0|0|0,0:0|0:0|0:0|0:0,0:0:0:0:
128,187,124390,2,0,P|108:221|107:260,3,80,10|0|0|0,0:0|0:0|0:0|0:0,0:0:0:0:
186,366,124706,5,10,0:0:0:0:
209,372,124785,1,0,0:0:0:0:
232,378,124863,1,0,0:0:0:0:
255,384,124942,1,0,0:0:0:0:
262,349,125021,5,10,0:0:0:0:
300,338,125100,1,0,0:0:0:0:
339,328,125179,1,0,0:0:0:0:
377,317,125258,1,0,0:0:0:0:
425,370,125337,5,10,0:0:0:0:
455,328,125416,1,0,0:0:0:0:
466,278,125495,1,0,0:0:0:0:
456,227,125574,1,0,0:0:0:0:
425,185,125653,5,10,0:0:0:0:
394,143,125732,1,0,0:0:0:0:
384,92,125811,1,0,0:0:0:0:
395,42,125890,1,0,0:0:0:0:
423,0,125969,5,14,0:0:0:0:
385,11,126048,1,8,0:0:0:0:
346,21,126127,1,8,0:0:0:0:
308,32,126206,1,0,0:0:0:0:
264,92,126285,5,10,0:0:0:0:
206,76,126363,1,8,0:0:0:0:
148,60,126442,1,8,0:0:0:0:
90,45,126521,1,0,0:0:0:0:
0,20,126600,5,12,0:0:0:0:
17,96,126679,1,8,0:0:0:0:
70,154,126758,1,8,0:0:0:0:
145,179,126837,1,8,0:0:0:0:
223,162,126916,1,8,0:0:0:0:
282,108,126995,1,8,0:0:0:0:
308,32,127074,1,8,0:0:0:0:
382,0,127153,1,8,0:0:0:0:
457,27,127232,1,8,0:0:0:0:
490,100,127311,1,8,0:0:0:0:
463,176,127390,1,8,0:0:0:0:
389,208,127469,1,8,0:0:0:0:
315,180,127548,1,8,0:0:0:0:
282,108,127627,1,8,0:0:0:0:
214,64,127706,1,8,0:0:0:0:
134,58,127785,1,8,0:0:0:0:
63,94,127863,1,8,0:0:0:0:
19,159,127942,1,8,0:0:0:0:
12,239,128021,1,8,0:0:0:0:
47,310,128100,1,8,0:0:0:0:
113,356,128179,1,8,0:0:0:0:
193,360,128258,1,8,0:0:0:0:
266,325,128337,1,8,0:0:0:0:
312,260,128416,1,8,0:0:0:0:
315,180,128495,2,0,P|280:185|237:229,1,89.9999972534181,8|8,0:0|0:0,0:0:0:0:
113,356,128653,2,0,P|127:323|113:264,1,89.9999972534181,8|8,0:0|0:0,0:0:0:0:
63,94,128811,2,0,P|92:128|135:140,1,89.9999972534181,8|8,0:0|0:0,0:0:0:0:
387,140,128969,1,8,0:0:0:0:
449,89,129048,1,8,0:0:0:0:
460,9,129127,1,8,0:0:0:0:
460,9,138285,5,0,0:0:0:0:
458,25,138363,1,0,0:0:0:0:
456,43,138442,1,0,0:0:0:0:
455,60,138521,1,0,0:0:0:0:
498,83,138600,5,0,0:0:0:0:
500,106,138679,1,0,0:0:0:0:
502,130,138758,1,0,0:0:0:0:
504,154,138837,1,0,0:0:0:0:
470,170,138916,5,0,0:0:0:0:
467,199,138995,1,0,0:0:0:0:
464,229,139074,1,0,0:0:0:0:
462,259,139153,1,0,0:0:0:0:
511,326,139232,5,2,0:0:0:0:
479,341,139311,1,0,0:0:0:0:
443,341,139390,1,0,0:0:0:0:
411,327,139469,1,2,0:0:0:0:
387,300,139548,1,0,0:0:0:0:
377,266,139627,1,0,0:0:0:0:
382,230,139706,2,0,L|324:245,1,59.9999981689454,2|0,0:0|0:0,0:0:0:0:
244,364,139863,2,0,B|219:349|219:349|308:326,1,119.999996337891,2|0,0:0|0:0,0:0:0:0:
224,248,140100,2,0,B|248:262|248:262|159:285,1,119.999996337891,2|0,0:0|0:0,0:0:0:0:
136,368,140337,2,0,L|78:383,1,59.9999981689454,2|0,0:0|0:0,0:0:0:0:
36,164,140495,5,2,0:0:0:0:
45,198,140574,1,0,0:0:0:0:
54,233,140653,1,0,0:0:0:0:
63,268,140732,1,2,0:0:0:0:
73,303,140811,5,0,0:0:0:0:
85,256,140890,1,0,0:0:0:0:
97,210,140969,1,2,0:0:0:0:
110,163,141048,1,0,0:0:0:0:
122,117,141127,2,0,L|137:174,1,59.9999981689454,2|0,0:0|0:0,0:0:0:0:
29,29,141285,2,0,L|13:86,1,59.9999981689454,0|2,0:0|0:0,0:0:0:0:
159,0,141442,2,0,L|242:86,1,119.999996337891,0|2,0:0|0:0,0:0:0:0:
222,202,141758,5,2,0:0:0:0:
256,192,141837,1,0,0:0:0:0:
291,182,141916,1,0,0:0:0:0:
326,172,141995,1,2,0:0:0:0:
335,138,142074,1,0,0:0:0:0:
345,104,142153,1,0,0:0:0:0:
354,69,142232,2,0,L|369:11,1,59.9999981689454,2|0,0:0|0:0,0:0:0:0:
432,236,142390,2,0,B|412:201|412:201|432:124,1,119.999996337891,2|0,0:0|0:0,0:0:0:0:
506,79,142627,1,2,0:0:0:0:
506,79,142706,2,0,B|526:113|526:113|506:191,1,119.999996337891,0|2,0:0|0:0,0:0:0:0:
512,384,143021,5,0,0:0:0:0:
495,367,143100,1,0,0:0:0:0:
478,350,143179,1,0,0:0:0:0:
461,333,143258,1,0,0:0:0:0:
444,316,143337,1,0,0:0:0:0:
420,322,143416,1,0,0:0:0:0:
397,328,143495,1,0,0:0:0:0:
374,335,143574,1,0,0:0:0:0:
351,342,143653,2,0,L|293:357,3,59.9999981689454
212,315,143969,2,0,L|154:330,3,59.9999981689454
0,371,144285,5,10,0:0:0:0:
11,328,144363,1,0,0:0:0:0:
22,285,144442,1,0,0:0:0:0:
34,243,144521,1,0,0:0:0:0:
45,200,144600,1,10,0:0:0:0:
56,158,144679,1,0,0:0:0:0:
67,119,144758,2,0,L|82:176,1,59.9999981689454
122,330,144916,1,10,0:0:0:0:
122,330,144995,6,0,B|142:295|142:295|219:274,1,119.999996337891
260,155,145232,1,10,0:0:0:0:
260,155,145311,2,0,B|240:189|240:189|162:210,1,119.999996337891
149,0,145548,2,0,L|180:115,1,119.999996337891,10|0,0:0|0:0,0:0:0:0:
254,66,145785,1,0,0:0:0:0:
254,66,145863,2,0,B|274:32|274:32|352:11,1,119.999996337891,10|0,0:0|0:0,0:0:0:0:
365,221,146100,1,0,0:0:0:0:
365,221,146179,2,0,L|334:106,1,119.999996337891,10|0,0:0|0:0,0:0:0:0:
469,252,146416,1,0,0:0:0:0:
469,252,146495,2,0,B|399:270|399:270|365:250|365:250|299:268,1,179.999994506836,10|8,0:0|0:0,0:0:0:0:
212,291,146811,1,6,0:0:0:0:
212,291,147285,5,0,0:0:0:0:
512,383,147442,1,2,0:0:0:0:
133,338,147758,1,0,0:0:0:0:
133,338,147837,1,0,0:0:0:0:
133,338,147916,2,0,B|113:303|113:303|134:225,1,119.999996337891,0|4,0:0|0:0,0:0:0:0:
418,97,148390,5,2,0:0:0:0:
418,97,148706,1,2,0:0:0:0:
418,97,149021,1,2,0:0:0:0:
427,194,149337,5,6,0:0:0:0:
482,170,149416,1,0,0:0:0:0:
512,117,149495,1,0,0:0:0:0:
506,58,149574,1,0,0:0:0:0:
466,13,149653,1,10,0:0:0:0:
407,0,149732,1,0,0:0:0:0:
352,25,149811,1,0,0:0:0:0:
322,77,149890,1,0,0:0:0:0:
328,137,149969,5,2,0:0:0:0:
288,126,150048,1,0,0:0:0:0:
248,115,150127,1,0,0:0:0:0:
209,105,150206,1,0,0:0:0:0:
170,95,150285,5,10,0:0:0:0:
190,83,150363,1,0,0:0:0:0:
211,71,150442,1,0,0:0:0:0:
232,59,150521,1,0,0:0:0:0:
253,47,150600,5,2,0:0:0:0:
263,101,150679,1,0,0:0:0:0:
239,151,150758,1,0,0:0:0:0:
192,181,150837,1,0,0:0:0:0:
136,175,150916,1,10,0:0:0:0:
93,138,150995,1,0,0:0:0:0:
80,83,151074,1,0,0:0:0:0:
104,32,151153,1,0,0:0:0:0:
150,2,151232,5,6,0:0:0:0:
168,79,151311,1,0,0:0:0:0:
187,157,151390,1,0,0:0:0:0:
206,235,151469,1,0,0:0:0:0:
225,313,151548,1,10,0:0:0:0:
295,348,151627,1,0,0:0:0:0:
366,314,151706,1,0,0:0:0:0:
384,236,151785,1,0,0:0:0:0:
337,174,151863,5,6,0:0:0:0:
309,214,151942,1,0,0:0:0:0:
310,263,152021,1,0,0:0:0:0:
341,301,152100,1,0,0:0:0:0:
389,314,152179,1,10,0:0:0:0:
434,295,152258,1,0,0:0:0:0:
460,253,152337,1,0,0:0:0:0:
455,203,152416,1,0,0:0:0:0:
419,165,152495,2,0,P|377:158|336:173,3,87.500000834465,2|0|0|0,0:0|0:0|0:0|0:0,0:0:0:0:
225,314,152811,2,0,P|184:329|141:321,3,87.500000834465,10|0|0|0,0:0|0:0|0:0|0:0,0:0:0:0:
20,152,153127,5,6,0:0:0:0:
2,92,153206,1,0,0:0:0:0:
24,35,153285,1,0,0:0:0:0:
73,1,153363,1,0,0:0:0:0:
132,3,153442,1,10,0:0:0:0:
180,41,153521,1,0,0:0:0:0:
197,98,153600,1,0,0:0:0:0:
176,156,153679,1,0,0:0:0:0:
127,189,153758,5,2,0:0:0:0:
120,165,153837,1,0,0:0:0:0:
113,141,153916,1,0,0:0:0:0:
106,117,153995,1,0,0:0:0:0:
100,92,154074,2,0,L|35:139,1,80,10|0,0:0|0:0,0:0:0:0:
11,370,154232,2,0,L|75:322,1,80
256,192,154390,5,6,0:0:0:0:
294,146,154469,1,0,0:0:0:0:
348,120,154548,1,0,0:0:0:0:
408,120,154627,1,0,0:0:0:0:
463,146,154706,1,10,0:0:0:0:
500,193,154785,1,0,0:0:0:0:
512,251,154863,1,0,0:0:0:0:
500,310,154942,1,0,0:0:0:0:
463,357,155021,1,2,0:0:0:0:
408,383,155100,1,0,0:0:0:0:
348,383,155179,1,0,0:0:0:0:
294,357,155258,1,0,0:0:0:0:
256,310,155337,1,10,0:0:0:0:
244,251,155416,1,0,0:0:0:0:
256,192,155495,1,0,0:0:0:0:
268,133,155574,1,0,0:0:0:0:
256,74,155653,1,2,0:0:0:0:
218,27,155732,1,0,0:0:0:0:
164,1,155811,1,0,0:0:0:0:
104,1,155890,1,0,0:0:0:0:
49,27,155969,1,10,0:0:0:0:
12,74,156048,1,0,0:0:0:0:
0,133,156127,1,0,0:0:0:0:
12,191,156206,1,0,0:0:0:0:
49,238,156285,1,2,0:0:0:0:
104,264,156363,1,0,0:0:0:0:
164,264,156442,1,0,0:0:0:0:
218,238,156521,1,0,0:0:0:0:
256,192,156600,2,0,P|267:154|264:115,1,80,10|0,0:0|0:0,0:0:0:0:
114,96,156758,2,0,P|141:125|177:143,1,80
420,178,156916,5,6,0:0:0:0:
478,162,156995,1,0,0:0:0:0:
512,113,157074,1,0,0:0:0:0:
507,53,157153,1,0,0:0:0:0:
464,10,157232,1,10,0:0:0:0:
404,5,157311,1,0,0:0:0:0:
355,39,157390,5,0,0:0:0:0:
366,47,157469,1,0,0:0:0:0:
378,55,157548,1,2,0:0:0:0:
389,64,157627,1,0,0:0:0:0:
401,72,157706,1,0,0:0:0:0:
412,81,157785,1,0,0:0:0:0:
424,89,157863,2,0,L|350:119,1,80,10|0,0:0|0:0,0:0:0:0:
144,207,158021,2,0,L|217:237,1,80
485,325,158179,5,2,0:0:0:0:
435,282,158258,1,0,0:0:0:0:
373,264,158337,1,0,0:0:0:0:
311,282,158416,1,0,0:0:0:0:
263,324,158495,1,10,0:0:0:0:
215,366,158574,1,0,0:0:0:0:
153,384,158653,1,0,0:0:0:0:
91,366,158732,1,0,0:0:0:0:
41,323,158811,5,0,0:0:0:0:
49,291,158890,1,0,0:0:0:0:
58,260,158969,1,0,0:0:0:0:
68,229,159048,1,0,0:0:0:0:
144,207,159127,5,0,0:0:0:0:
136,175,159206,1,0,0:0:0:0:
127,144,159285,1,0,0:0:0:0:
117,113,159363,1,0,0:0:0:0:
51,63,159442,5,6,0:0:0:0:
30,115,159521,1,0,0:0:0:0:
45,169,159600,1,0,0:0:0:0:
88,204,159679,1,0,0:0:0:0:
144,207,159758,1,10,0:0:0:0:
191,177,159837,1,0,0:0:0:0:
211,124,159916,1,0,0:0:0:0:
197,70,159995,1,0,0:0:0:0:
153,35,160074,5,2,0:0:0:0:
191,46,160153,1,0,0:0:0:0:
230,56,160232,1,0,0:0:0:0:
269,66,160311,1,0,0:0:0:0:
332,18,160390,5,10,0:0:0:0:
355,25,160469,1,0,0:0:0:0:
378,31,160548,1,0,0:0:0:0:
401,37,160627,1,0,0:0:0:0:
479,0,160706,5,2,0:0:0:0:
501,54,160785,1,0,0:0:0:0:
495,114,160863,1,0,0:0:0:0:
462,163,160942,1,0,0:0:0:0:
409,190,161021,1,10,0:0:0:0:
356,217,161100,1,0,0:0:0:0:
323,266,161179,1,0,0:0:0:0:
317,326,161258,1,0,0:0:0:0:
340,380,161337,5,6,0:0:0:0:
399,327,161416,1,0,0:0:0:0:
422,253,161495,1,0,0:0:0:0:
402,176,161574,1,0,0:0:0:0:
345,123,161653,1,10,0:0:0:0:
267,109,161732,1,0,0:0:0:0:
194,138,161811,1,0,0:0:0:0:
148,203,161890,1,0,0:0:0:0:
144,282,161969,5,6,0:0:0:0:
134,247,162048,1,0,0:0:0:0:
125,212,162127,1,0,0:0:0:0:
116,177,162206,1,0,0:0:0:0:
106,142,162285,1,10,0:0:0:0:
97,108,162363,1,0,0:0:0:0:
88,73,162442,1,0,0:0:0:0:
78,38,162521,1,0,0:0:0:0:
69,3,162600,2,0,L|48:80,3,80,2|0|0|0,0:0|0:0|0:0|0:0,0:0:0:0:
17,195,162916,2,0,L|-3:272,3,80,10|0|0|0,0:0|0:0|0:0|0:0,0:0:0:0:
140,384,163232,5,4,0:0:0:0:
200,332,163311,1,0,0:0:0:0:
278,313,163390,1,0,0:0:0:0:
355,332,163469,1,0,0:0:0:0:
415,384,163548,1,0,0:0:0:0:
492,360,163627,1,0,0:0:0:0:
507,281,163706,1,0,0:0:0:0:
448,227,163785,1,0,0:0:0:0:
372,252,163863,5,0,0:0:0:0:
401,278,163942,1,0,0:0:0:0:
431,305,164021,1,0,0:0:0:0:
461,332,164100,1,0,0:0:0:0:
492,360,164179,2,0,L|471:282,1,80,8|8,0:0|0:0,0:0:0:0:
403,31,164337,2,0,L|382:109,1,80,8|8,0:0|0:0,0:0:0:0:
278,313,164495,6,0,P|151:255|277:195,1,351.000001338959,4|0,1:3|0:0,0:0:0:0:
169,73,165127,2,0,B|88:35|28:114|28:114|88:190|171:155|171:155|165:166|165:166|233:130|299:171,1,472.500001802445,4|0,0:0|0:0,0:0:0:0:
372,252,165758,5,4,0:0:0:0:
256,0,166074,1,0,0:0:0:0:
99,381,166390,1,8,1:3:0:0:
91,350,166469,1,8,0:3:0:0:
82,319,166548,1,8,0:3:0:0:
413,381,166706,1,8,0:3:0:0:
421,350,166785,1,8,0:3:0:0:
430,319,166863,1,8,0:3:0:0:
183,192,167021,6,0,P|209:330|341:281,1,320,4|0,1:3|0:0,0:0:0:0:
430,65,167495,1,0,0:0:0:0:
256,250,167653,2,0,B|335:142|256:43|256:43|219:84|251:149,1,320,4|0,0:0|0:0,0:0:0:0:
243,384,168127,1,0,0:0:0:0:
43,192,168285,2,0,P|113:159|183:191,2,160,4|0|0,0:0|0:0|0:0,0:0:0:0:
430,65,168916,5,10,0:0:0:0:
114,251,169074,1,8,0:0:0:0:
430,319,169232,1,8,0:0:0:0:
114,0,169390,1,8,0:0:0:0:
0,314,169548,5,6,0:0:0:0:
49,350,169627,1,0,0:0:0:0:
107,362,169706,1,0,0:0:0:0:
166,351,169785,1,0,0:0:0:0:
215,317,169863,1,10,0:0:0:0:
264,283,169942,1,0,0:0:0:0:
323,272,170021,1,0,0:0:0:0:
381,284,170100,1,0,0:0:0:0:
430,319,170179,5,2,0:0:0:0:
361,360,170258,1,0,0:0:0:0:
281,361,170337,1,0,0:0:0:0:
215,317,170416,1,0,0:0:0:0:
192,241,170495,1,10,0:0:0:0:
217,164,170574,1,0,0:0:0:0:
283,118,170653,1,0,0:0:0:0:
363,116,170732,1,0,0:0:0:0:
430,159,170811,1,2,0:0:0:0:
364,205,170890,1,0,0:0:0:0:
284,207,170969,1,0,0:0:0:0:
217,164,171048,1,0,0:0:0:0:
185,90,171127,2,0,P|187:51|203:15,3,80,10|0|0|0,0:0|0:0|0:0|0:0,0:0:0:0:
341,40,171442,2,0,P|376:21|415:17,3,80,6|0|0|0,0:0|0:0|0:0|0:0,0:0:0:0:
430,159,171758,2,0,P|463:179|487:212,3,80,10|0|0|0,0:0|0:0|0:0|0:0,0:0:0:0:
348,384,172074,5,6,0:0:0:0:
288,370,172153,1,0,0:0:0:0:
252,322,172232,1,0,0:0:0:0:
254,262,172311,1,0,0:0:0:0:
293,217,172390,1,10,0:0:0:0:
353,209,172469,1,0,0:0:0:0:
405,240,172548,2,0,L|344:296,1,80
96,384,172706,5,2,0:0:0:0:
36,370,172785,1,0,0:0:0:0:
0,322,172863,1,0,0:0:0:0:
2,262,172942,1,0,0:0:0:0:
41,217,173021,1,10,0:0:0:0:
101,209,173100,1,0,0:0:0:0:
153,240,173179,2,0,L|213:183,1,80
449,29,173337,5,2,0:0:0:0:
491,64,173416,1,0,0:0:0:0:
506,117,173495,1,0,0:0:0:0:
491,170,173574,1,0,0:0:0:0:
449,206,173653,1,10,0:0:0:0:
405,240,173732,1,0,0:0:0:0:
390,293,173811,1,0,0:0:0:0:
405,346,173890,1,0,0:0:0:0:
448,382,173969,5,6,0:0:0:0:
473,307,174048,1,0,0:0:0:0:
456,229,174127,1,0,0:0:0:0:
402,171,174206,1,0,0:0:0:0:
326,150,174285,1,10,0:0:0:0:
250,171,174363,1,0,0:0:0:0:
195,228,174442,1,0,0:0:0:0:
178,305,174521,1,0,0:0:0:0:
203,379,174600,5,6,0:0:0:0:
224,367,174679,1,0,0:0:0:0:
240,348,174758,1,0,0:0:0:0:
250,325,174837,1,0,0:0:0:0:
253,301,174916,1,10,0:0:0:0:
248,276,174995,1,0,0:0:0:0:
236,255,175074,1,0,0:0:0:0:
217,238,175153,1,0,0:0:0:0:
195,228,175232,5,2,0:0:0:0:
119,202,175311,1,0,0:0:0:0:
82,131,175390,1,0,0:0:0:0:
104,56,175469,1,0,0:0:0:0:
176,19,175548,1,10,0:0:0:0:
253,43,175627,1,0,0:0:0:0:
289,114,175706,1,0,0:0:0:0:
326,185,175785,1,0,0:0:0:0:
403,209,175863,1,2,0:0:0:0:
474,172,175942,1,0,0:0:0:0:
497,97,176021,1,0,0:0:0:0:
460,25,176100,1,0,0:0:0:0:
384,0,176179,2,0,L|390:79,3,80,10|0|0|0,0:0|0:0|0:0|0:0,0:0:0:0:
405,240,176495,5,6,0:0:0:0:
410,299,176574,1,0,0:0:0:0:
375,348,176653,1,0,0:0:0:0:
317,364,176732,1,0,0:0:0:0:
262,339,176811,1,10,0:0:0:0:
237,284,176890,1,0,0:0:0:0:
252,225,176969,2,0,P|260:187|251:148,1,80
56,27,177127,5,6,0:0:0:0:
11,65,177206,1,0,0:0:0:0:
0,123,177285,1,0,0:0:0:0:
30,177,177363,1,0,0:0:0:0:
86,198,177442,1,10,0:0:0:0:
142,176,177521,1,0,0:0:0:0:
173,125,177600,2,0,P|194:91|227:70,1,80
323,276,177758,5,2,0:0:0:0:
330,330,177837,1,0,0:0:0:0:
295,375,177916,1,0,0:0:0:0:
240,382,177995,1,0,0:0:0:0:
195,348,178074,1,10,0:0:0:0:
189,292,178153,1,0,0:0:0:0:
222,248,178232,1,0,0:0:0:0:
278,241,178311,1,0,0:0:0:0:
323,276,178390,2,0,P|361:283|399:272,1,80,2|0,0:0|0:0,0:0:0:0:
455,342,178548,2,0,P|482:312|490:273,1,80
354,191,178706,2,0,P|325:164|313:126,1,80,10|0,0:0|0:0,0:0:0:0:
402,113,178863,2,0,P|410:74|437:45,1,80
254,28,179021,5,2,0:0:0:0:
229,23,179100,1,0,0:0:0:0:
205,20,179179,1,0,0:0:0:0:
181,16,179258,1,0,0:0:0:0:
158,13,179337,1,10,0:0:0:0:
134,10,179416,1,0,0:0:0:0:
110,6,179495,1,0,0:0:0:0:
86,3,179574,1,0,0:0:0:0:
63,0,179653,5,6,0:0:0:0:
111,30,179732,1,0,0:0:0:0:
136,81,179811,1,0,0:0:0:0:
131,138,179890,1,0,0:0:0:0:
96,184,179969,1,10,0:0:0:0:
56,229,180048,1,0,0:0:0:0:
48,287,180127,1,0,0:0:0:0:
74,342,180206,1,0,0:0:0:0:
124,375,180285,1,2,0:0:0:0:
185,372,180363,1,0,0:0:0:0:
235,340,180442,1,0,0:0:0:0:
259,284,180521,1,0,0:0:0:0:
247,224,180600,2,0,P|226:191|191:172,3,80,10|0|0|0,0:0|0:0|0:0|0:0,0:0:0:0:
153,271,180916,5,2,0:0:0:0:
139,282,180995,1,0,0:0:0:0:
126,294,181074,1,0,0:0:0:0:
113,306,181153,1,0,0:0:0:0:
100,318,181232,1,10,0:0:0:0:
86,329,181311,1,0,0:0:0:0:
74,342,181390,5,0,0:0:0:0:
120,328,181469,1,0,0:0:0:0:
168,328,181548,1,6,0:0:0:0:
213,342,181627,1,0,0:0:0:0:
258,356,181706,1,0,0:0:0:0:
306,356,181785,1,0,0:0:0:0:
352,341,181863,2,0,L|329:265,1,80,10|0,0:0|0:0,0:0:0:0:
190,171,182021,2,0,L|210:93,1,80
430,57,182179,5,6,0:0:0:0:
473,92,182258,1,0,0:0:0:0:
481,148,182337,1,0,0:0:0:0:
446,191,182416,1,0,0:0:0:0:
391,199,182495,1,10,0:0:0:0:
347,165,182574,1,0,0:0:0:0:
339,110,182653,1,0,0:0:0:0:
374,65,182732,1,0,0:0:0:0:
430,57,182811,5,2,0:0:0:0:
420,92,182890,1,0,0:0:0:0:
410,128,182969,1,0,0:0:0:0:
400,163,183048,1,0,0:0:0:0:
391,199,183127,1,10,0:0:0:0:
381,234,183206,1,0,0:0:0:0:
371,270,183285,1,0,0:0:0:0:
362,305,183363,1,0,0:0:0:0:
352,340,183442,5,6,0:0:0:0:
368,325,183521,1,0,0:0:0:0:
387,313,183600,1,0,0:0:0:0:
408,305,183679,1,0,0:0:0:0:
430,303,183758,1,10,0:0:0:0:
452,305,183837,1,0,0:0:0:0:
474,312,183916,1,0,0:0:0:0:
493,324,183995,1,0,0:0:0:0:
510,340,184074,5,2,0:0:0:0:
500,344,184153,1,0,0:0:0:0:
491,347,184232,1,0,0:0:0:0:
481,349,184311,1,0,0:0:0:0:
471,350,184390,1,10,0:0:0:0:
461,349,184469,1,0,0:0:0:0:
451,347,184548,1,0,0:0:0:0:
442,345,184627,1,0,0:0:0:0:
433,341,184706,5,6,0:0:0:0:
385,309,184785,1,0,0:0:0:0:
332,291,184863,1,0,0:0:0:0:
278,308,184942,1,0,0:0:0:0:
232,341,185021,1,10,0:0:0:0:
187,375,185100,1,0,0:0:0:0:
132,381,185179,1,0,0:0:0:0:
82,356,185258,1,0,0:0:0:0:
54,308,185337,1,2,0:0:0:0:
55,252,185416,1,0,0:0:0:0:
87,206,185495,1,0,0:0:0:0:
139,184,185574,1,0,0:0:0:0:
194,194,185653,2,0,P|226:217|245:251,1,80,10|0,0:0|0:0,0:0:0:0:
132,381,185811,2,0,P|129:341|143:304,1,80
282,45,185969,5,2,0:0:0:0:
332,20,186048,1,0,0:0:0:0:
386,35,186127,1,0,0:0:0:0:
418,81,186206,1,0,0:0:0:0:
413,136,186285,1,10,0:0:0:0:
373,176,186363,1,0,0:0:0:0:
318,181,186442,2,0,P|286:156|265:122,1,80
142,0,186600,5,6,0:0:0:0:
128,51,186679,1,0,0:0:0:0:
114,102,186758,1,0,0:0:0:0:
100,154,186837,1,0,0:0:0:0:
87,206,186916,2,0,L|66:283,1,80,10|0,0:0|0:0,0:0:0:0:
8,65,187074,2,0,L|-12:-12,1,80
1,353,187232,5,6,0:0:0:0:
49,377,187311,1,0,0:0:0:0:
103,371,187390,1,0,0:0:0:0:
145,336,187469,1,0,0:0:0:0:
160,284,187548,1,10,0:0:0:0:
202,249,187627,1,0,0:0:0:0:
256,243,187706,2,0,P|292:257|321:285,1,80
461,384,187863,5,2,0:0:0:0:
499,333,187942,1,0,0:0:0:0:
512,270,188021,1,0,0:0:0:0:
499,207,188100,1,0,0:0:0:0:
460,155,188179,5,10,0:0:0:0:
443,174,188258,1,0,0:0:0:0:
428,192,188337,1,0,0:0:0:0:
413,210,188416,1,0,0:0:0:0:
397,229,188495,5,4,0:0:0:0:
358,177,188574,1,0,0:0:0:0:
345,114,188653,1,0,0:0:0:0:
358,51,188732,1,0,0:0:0:0:
396,0,188811,5,0,0:0:0:0:
413,19,188890,1,0,0:0:0:0:
428,37,188969,1,0,0:0:0:0:
443,55,189048,1,0,0:0:0:0:
459,74,189127,5,0,0:0:0:0:
396,57,189206,1,0,0:0:0:0:
333,40,189285,1,0,0:0:0:0:
271,23,189363,1,0,0:0:0:0:
208,6,189442,2,0,L|130:-14,1,80
318,211,189600,2,0,L|396:228,1,80
80,59,189758,5,6,0:0:0:0:
27,81,189837,1,0,0:0:0:0:
1,129,189916,1,0,0:0:0:0:
6,185,189995,1,0,0:0:0:0:
43,227,190074,1,10,0:0:0:0:
98,238,190153,1,0,0:0:0:0:
149,216,190232,1,0,0:0:0:0:
177,167,190311,1,0,0:0:0:0:
171,105,190390,5,2,0:0:0:0:
112,159,190469,1,0,0:0:0:0:
98,238,190548,1,0,0:0:0:0:
134,310,190627,1,0,0:0:0:0:
204,348,190706,1,10,0:0:0:0:
284,338,190785,1,0,0:0:0:0:
340,281,190863,1,0,0:0:0:0:
355,203,190942,1,0,0:0:0:0:
322,132,191021,1,2,0:0:0:0:
353,59,191100,1,0,0:0:0:0:
431,41,191179,1,0,0:0:0:0:
494,90,191258,1,0,0:0:0:0:
493,169,191337,2,0,P|472:202|437:221,3,80,10|0|0|0,0:0|0:0|0:0|0:0,0:0:0:0:
348,378,191653,2,0,P|310:366|283:337,3,80,6|0|0|0,0:0|0:0|0:0|0:0,0:0:0:0:
108,292,191969,2,0,P|109:252|130:218,3,80,10|0|0|0,0:0|0:0|0:0|0:0,0:0:0:0:
257,4,192285,5,6,0:0:0:0:
316,11,192363,1,0,0:0:0:0:
353,59,192442,1,0,0:0:0:0:
345,119,192521,1,0,0:0:0:0:
297,155,192600,1,10,0:0:0:0:
238,148,192679,1,0,0:0:0:0:
200,100,192758,2,0,L|277:79,1,80
510,15,192916,5,2,0:0:0:0:
494,72,192995,1,0,0:0:0:0:
478,130,193074,1,0,0:0:0:0:
463,188,193153,1,0,0:0:0:0:
447,246,193232,1,10,0:0:0:0:
432,303,193311,1,0,0:0:0:0:
417,361,193390,2,0,L|396:283,1,80
200,100,193548,5,2,0:0:0:0:
140,91,193627,1,0,0:0:0:0:
92,128,193706,1,0,0:0:0:0:
84,188,193785,1,0,0:0:0:0:
121,235,193863,1,10,0:0:0:0:
180,243,193942,1,0,0:0:0:0:
228,206,194021,1,0,0:0:0:0:
238,148,194100,1,0,0:0:0:0:
200,100,194179,5,6,0:0:0:0:
162,168,194258,1,0,0:0:0:0:
180,243,194337,1,0,0:0:0:0:
233,299,194416,1,0,0:0:0:0:
310,308,194495,1,10,0:0:0:0:
380,272,194574,1,0,0:0:0:0:
412,203,194653,1,0,0:0:0:0:
400,126,194732,1,0,0:0:0:0:
343,72,194811,5,6,0:0:0:0:
338,101,194890,1,0,0:0:0:0:
334,131,194969,1,0,0:0:0:0:
330,161,195048,1,0,0:0:0:0:
326,190,195127,1,10,0:0:0:0:
322,220,195206,1,0,0:0:0:0:
318,250,195285,1,0,0:0:0:0:
314,279,195363,1,0,0:0:0:0:
310,308,195442,5,2,0:0:0:0:
240,348,195521,1,0,0:0:0:0:
161,334,195600,1,0,0:0:0:0:
110,272,195679,1,0,0:0:0:0:
109,194,195758,1,10,0:0:0:0:
161,132,195837,1,0,0:0:0:0:
240,117,195916,1,0,0:0:0:0:
238,197,195995,1,0,0:0:0:0:
187,258,196074,1,2,0:0:0:0:
110,272,196153,1,0,0:0:0:0:
40,232,196232,1,0,0:0:0:0:
12,156,196311,1,0,0:0:0:0:
39,81,196390,2,0,P|71:55|113:42,3,80,10|0|0|0,0:0|0:0|0:0|0:0,0:0:0:0:
109,194,196706,2,0,P|102:233|110:273,3,80,6|0|0|0,0:0|0:0|0:0|0:0,0:0:0:0:
242,268,197021,2,0,P|272:294|310:308,3,80,10|0|0|0,0:0|0:0|0:0|0:0,0:0:0:0:
441,149,197337,5,6,0:0:0:0:
470,96,197416,1,0,0:0:0:0:
460,37,197495,1,0,0:0:0:0:
414,0,197574,1,0,0:0:0:0:
353,0,197653,1,10,0:0:0:0:
307,37,197732,1,0,0:0:0:0:
296,96,197811,2,0,L|318:181,1,80
464,378,197969,5,2,0:0:0:0:
507,336,198048,1,0,0:0:0:0:
512,276,198127,1,0,0:0:0:0:
478,226,198206,1,0,0:0:0:0:
420,211,198285,1,10,0:0:0:0:
365,236,198363,1,0,0:0:0:0:
340,291,198442,1,0,0:0:0:0:
355,349,198521,1,0,0:0:0:0:
405,384,198600,6,0,L|427:299,1,87.500000834465,2|0,0:0|0:0,0:0:0:0:
339,88,198758,2,0,L|316:172,1,87.500000834465
419,378,198916,2,0,L|441:293,1,87.500000834465,10|0,0:0|0:0,0:0:0:0:
353,82,199074,2,0,L|330:166,1,87.500000834465
204,384,199232,5,2,0:0:0:0:
192,341,199311,1,0,0:0:0:0:
181,299,199390,1,0,0:0:0:0:
170,257,199469,1,0,0:0:0:0:
158,214,199548,5,10,0:0:0:0:
151,240,199627,1,0,0:0:0:0:
144,265,199706,1,0,0:0:0:0:
138,291,199785,1,0,0:0:0:0:
118,367,199863,5,6,0:0:0:0:
54,351,199942,1,0,0:0:0:0:
20,294,200021,1,0,0:0:0:0:
37,231,200100,1,0,0:0:0:0:
95,197,200179,1,10,0:0:0:0:
158,214,200258,1,0,0:0:0:0:
192,270,200337,1,0,0:0:0:0:
225,328,200416,1,0,0:0:0:0:
289,344,200495,1,2,0:0:0:0:
346,310,200574,1,0,0:0:0:0:
361,247,200653,1,0,0:0:0:0:
328,190,200732,1,0,0:0:0:0:
264,174,200811,2,0,L|275:253,1,80,10|0,0:0|0:0,0:0:0:0:
453,372,200969,2,0,L|441:292,1,80
512,50,201127,5,6,0:0:0:0:
461,17,201206,1,0,0:0:0:0:
401,11,201285,1,0,0:0:0:0:
347,33,201363,1,0,0:0:0:0:
307,78,201442,5,10,0:0:0:0:
302,61,201521,1,0,0:0:0:0:
297,45,201600,1,0,0:0:0:0:
292,28,201679,1,0,0:0:0:0:
288,12,201758,5,6,0:0:0:0:
248,57,201837,1,0,0:0:0:0:
194,79,201916,1,0,0:0:0:0:
134,73,201995,1,0,0:0:0:0:
83,40,202074,5,10,0:0:0:0:
79,56,202153,1,0,0:0:0:0:
74,73,202232,1,0,0:0:0:0:
69,89,202311,1,0,0:0:0:0:
64,106,202390,5,6,0:0:0:0:
83,162,202469,1,0,0:0:0:0:
102,218,202548,1,0,0:0:0:0:
121,274,202627,1,0,0:0:0:0:
138,331,202706,1,10,0:0:0:0:
192,359,202785,1,0,0:0:0:0:
250,341,202863,1,0,0:0:0:0:
278,288,202942,1,0,0:0:0:0:
259,230,203021,2,0,P|225:212|185:209,3,80,2|0|0|0,0:0|0:0|0:0|0:0,0:0:0:0:
331,354,203337,2,0,P|370:351|405:332,3,80,10|0|0|0,0:0|0:0|0:0|0:0,0:0:0:0:
479,197,203653,5,14,0:0:0:0:
476,117,203732,1,8,0:0:0:0:
411,69,203811,1,8,0:0:0:0:
334,90,203890,1,8,0:0:0:0:
302,163,203969,1,8,0:0:0:0:
339,234,204048,1,8,0:0:0:0:
418,249,204127,2,0,L|394:162,1,89.9999972534181,8|8,0:0|0:0,0:0:0:0:
169,2,204285,5,0,0:0:0:0:
158,40,204363,1,0,0:0:0:0:
148,79,204442,1,0,0:0:0:0:
137,117,204521,1,0,0:0:0:0:
75,148,204600,5,0,0:0:0:0:
69,171,204679,1,0,0:0:0:0:
63,194,204758,1,0,0:0:0:0:
56,218,204837,1,0,0:0:0:0:
0,281,204916,6,0,P|30:297|66:301,3,69.0000001052856,14|0|0|0,0:0|0:0|0:0|0:0,0:0:0:0:
187,188,205232,2,0,P|158:206|136:235,3,69.0000001052856,10|0|0|0,0:0|0:0|0:0|0:0,0:0:0:0:
178,384,205548,5,10,0:0:0:0:
216,373,205627,1,0,0:0:0:0:
255,363,205706,1,0,0:0:0:0:
293,352,205785,1,0,0:0:0:0:
342,304,205863,5,10,0:0:0:0:
365,310,205942,1,0,0:0:0:0:
388,316,206021,1,0,0:0:0:0:
411,322,206100,1,0,0:0:0:0:
473,380,206179,5,10,0:0:0:0:
495,324,206258,1,0,0:0:0:0:
477,266,206337,1,0,0:0:0:0:
423,238,206416,1,0,0:0:0:0:
376,199,206495,5,10,0:0:0:0:
362,140,206574,1,0,0:0:0:0:
400,93,206653,1,0,0:0:0:0:
460,93,206732,1,0,0:0:0:0:
497,140,206811,5,14,0:0:0:0:
475,151,206890,1,8,0:0:0:0:
453,162,206969,1,8,0:0:0:0:
431,173,207048,1,0,0:0:0:0:
362,140,207127,5,10,0:0:0:0:
320,119,207206,1,8,0:0:0:0:
278,98,207285,1,8,0:0:0:0:
236,77,207363,1,0,0:0:0:0:
175,0,207442,5,6,0:0:0:0:
97,20,207521,1,0,0:0:0:0:
51,86,207600,1,0,0:0:0:0:
57,164,207679,1,0,0:0:0:0:
115,220,207758,1,0,0:0:0:0:
195,229,207837,1,0,0:0:0:0:
260,183,207916,1,0,0:0:0:0:
202,127,207995,1,0,0:0:0:0:
122,118,208074,1,12,0:0:0:0:
57,164,208153,1,0,0:0:0:0:
36,241,208232,1,0,0:0:0:0:
70,314,208311,1,0,0:0:0:0:
143,349,208390,1,0,0:0:0:0:
220,328,208469,1,0,0:0:0:0:
266,263,208548,1,0,0:0:0:0:
260,183,208627,1,0,0:0:0:0:
306,118,208706,1,12,0:0:0:0:
383,97,208785,1,8,0:0:0:0:
456,132,208863,1,8,0:0:0:0:
490,205,208942,1,8,0:0:0:0:
469,282,209021,1,8,0:0:0:0:
404,328,209100,1,8,0:0:0:0:
324,319,209179,1,8,0:0:0:0:
266,263,209258,1,8,0:0:0:0:
260,183,209337,2,0,L|327:201,1,68.0000004150391,8|8,0:0|0:0,0:0:0:0:
36,241,209495,2,0,L|-31:222,1,68.0000004150391,8|8,0:0|0:0,0:0:0:0:
119,100,209653,2,0,L|137:32,1,68.0000004150391,8|8,0:0|0:0,0:0:0:0:
177,324,209811,2,0,L|158:391,1,68.0000004150391,8|8,0:0|0:0,0:0:0:0:
0,152,209969,6,0,B|61:116|61:116|162:143|162:143|187:141|187:141|167:153|167:153|192:151|192:151|292:178|292:178|352:144,1,419.999987182618,4|2,0:0|0:0,0:0:0:0:
368,43,210521,1,0,0:0:0:0:
368,43,210600,2,0,B|284:91|284:91|242:80,1,139.999995727539,0|10,0:0|0:0,0:0:0:0:
482,167,210916,1,0,0:0:0:0:
482,167,210995,1,0,0:0:0:0:
482,167,211074,2,0,L|447:106,1,69.9999978637696,10|0,0:0|0:0,0:0:0:0:
409,249,211232,6,0,L|372:384,1,139.999995727539,0|10,0:0|0:0,0:0:0:0:
351,145,211469,2,0,L|314:280,1,139.999995727539
399,384,211706,2,0,L|466:365,1,69.9999978637696,10|0,0:0|0:0,0:0:0:0:
293,265,211863,2,0,L|151:303,1,139.999995727539,0|10,0:0|0:0,0:0:0:0:
84,358,212100,1,0,0:0:0:0:
84,358,212179,2,0,P|68:326|68:287,1,69.9999978637696
0,232,212337,2,0,P|19:202|47:182,1,69.9999978637696,10|0,0:0|0:0,0:0:0:0:
63,94,212495,6,0,P|121:128|137:194,1,139.999995727539,0|10,0:0|0:0,0:0:0:0:
157,301,212732,1,0,0:0:0:0:
157,301,212811,2,0,P|157:232|206:186,1,139.999995727539,0|10,0:0|0:0,0:0:0:0:
345,103,213127,1,0,0:0:0:0:
47,182,213285,1,10,0:0:0:0:
228,0,213442,2,0,L|246:67,1,69.9999978637696
384,177,213600,2,0,L|366:110,1,69.9999978637696,10|0,0:0|0:0,0:0:0:0:
243,270,213758,6,0,L|378:306,1,139.999995727539,0|10,0:0|0:0,0:0:0:0:
507,166,213995,1,0,0:0:0:0:
507,166,214074,2,0,L|371:202,1,139.999995727539,0|10,0:0|0:0,0:0:0:0:
480,330,214390,1,0,0:0:0:0:
393,5,214548,1,10,0:0:0:0:
474,84,214706,2,0,L|541:65,2,69.9999978637696,0|0|10,0:0|0:0|0:0,0:0:0:0:
210,156,215021,1,0,0:0:0:0:
193,160,215100,1,0,0:0:0:0:
176,164,215179,6,0,P|134:109|145:42,1,139.999995727539,10|0,0:0|0:0,0:0:0:0:
300,160,215416,1,0,0:0:0:0:
300,160,215495,2,0,P|273:222|210:246,1,139.999995727539,10|0,0:0|0:0,0:0:0:0:
33,163,215811,1,10,0:0:0:0:
170,384,215969,1,0,0:0:0:0:
170,384,216048,1,0,0:0:0:0:
170,384,216127,1,10,0:0:0:0:
235,55,216285,5,0,0:0:0:0:
235,55,216363,1,0,0:0:0:0:
235,55,216442,1,10,0:0:0:0:
235,55,216521,1,0,0:0:0:0:
235,55,216600,1,0,0:0:0:0:
235,55,216679,1,0,0:0:0:0:
235,55,216758,1,10,0:0:0:0:
235,55,216837,1,0,0:0:0:0:
235,55,216916,6,0,L|312:75,1,80
512,156,217074,2,0,L|434:176,1,80,10|0,0:0|0:0,0:0:0:0:
235,257,217232,2,0,L|312:277,1,80
512,358,217390,2,0,L|434:378,1,80,10|0,0:0|0:0,0:0:0:0:
109,375,217548,5,0,0:0:0:0:
50,350,217627,1,0,0:0:0:0:
13,297,217706,1,10,0:0:0:0:
11,233,217785,1,0,0:0:0:0:
44,178,217863,1,0,0:0:0:0:
101,150,217942,1,0,0:0:0:0:
164,157,218021,1,10,0:0:0:0:
213,196,218100,1,0,0:0:0:0:
235,257,218179,1,0,0:0:0:0:
291,289,218258,1,0,0:0:0:0:
354,277,218337,1,10,0:0:0:0:
395,228,218416,1,0,0:0:0:0:
395,164,218495,1,0,0:0:0:0:
353,115,218574,1,0,0:0:0:0:
290,103,218653,1,10,0:0:0:0:
236,136,218732,1,0,0:0:0:0:
213,196,218811,5,8,0:0:0:0:
196,133,218890,1,8,0:0:0:0:
179,70,218969,2,0,L|158:-7,1,80
122,260,219127,5,8,0:0:0:0:
115,283,219206,1,8,0:0:0:0:
109,306,219285,1,8,0:0:0:0:
103,329,219363,1,8,0:0:0:0:
97,352,219442,5,8,0:0:0:0:
120,330,219521,1,8,0:0:0:0:
156,313,219600,1,8,0:0:0:0:
203,304,219679,1,8,0:0:0:0:
259,304,219758,1,8,0:0:0:0:
320,322,219837,1,8,0:0:0:0:
383,356,219916,1,8,0:0:0:0:
463,357,219995,1,8,0:0:0:0:
512,294,220074,6,0,B|564:209|499:92|499:92|517:153|484:194,1,320,4|0,0:0|0:0,0:0:0:0:
327,131,220469,1,0,0:0:0:0:
327,131,220548,2,0,P|366:123|405:130,1,80,10|0,0:0|0:0,0:0:0:0:
366,216,220706,2,0,P|288:214|237:154,1,160,0|10,0:0|0:0,0:0:0:0:
171,23,221021,1,0,0:0:0:0:
171,23,221100,1,0,0:0:0:0:
171,23,221179,2,0,L|150:100,1,80,10|0,0:0|0:0,0:0:0:0:
0,206,221337,2,0,B|48:178|48:178|148:204,1,160,0|10,0:0|0:0,0:0:0:0:
215,337,221574,1,0,0:0:0:0:
215,337,221653,2,0,L|235:259,1,80
341,23,221811,5,10,0:0:0:0:
349,53,221890,1,0,0:0:0:0:
360,91,221969,1,0,0:0:0:0:
373,137,222048,1,0,0:0:0:0:
415,98,222127,1,10,0:0:0:0:
461,53,222206,1,0,0:0:0:0:
512,0,222285,2,0,L|532:77,1,80
483,166,222442,2,0,L|503:243,1,80,10|0,0:0|0:0,0:0:0:0:
399,341,222600,6,0,B|333:379|274:332|274:332|239:366|239:366|184:317|112:357,1,320,4|0,0:0|0:0,0:0:0:0:
17,199,222995,1,0,0:0:0:0:
17,199,223074,2,0,P|28:237|55:267,1,80,10|0,0:0|0:0,0:0:0:0:
112,357,223232,2,0,P|158:294|149:216,1,160,0|10,0:0|0:0,0:0:0:0:
22,40,223548,1,0,0:0:0:0:
22,40,223627,1,0,0:0:0:0:
22,40,223706,2,0,L|99:60,1,80,10|0,0:0|0:0,0:0:0:0:
428,26,223863,6,0,B|464:4|464:4|435:113|435:113|376:146|376:146|347:254|347:254|387:232,1,379.999989852906
410,217,224258,1,0,0:0:0:0:
435,203,224337,1,10,0:0:0:0:
228,93,224495,1,0,0:0:0:0:
334,383,224653,1,10,0:0:0:0:
460,189,224811,1,0,0:0:0:0:
484,175,224890,1,0,0:0:0:0:
509,161,224969,2,0,L|488:238,1,80,10|0,0:0|0:0,0:0:0:0:
455,358,225127,5,0,0:0:0:0:
228,93,225285,1,0,0:0:0:0:
334,383,225442,5,10,0:0:0:0:
290,143,225600,1,0,0:0:0:0:
241,364,225758,5,0,0:0:0:0:
298,202,225916,1,0,0:0:0:0:
176,317,226074,5,10,0:0:0:0:
267,238,226232,1,0,0:0:0:0:
124,260,226390,5,0,0:0:0:0:
410,217,226548,1,0,0:0:0:0:
107,185,226706,5,10,0:0:0:0:
420,306,226863,1,0,0:0:0:0:
130,111,227021,5,0,0:0:0:0:
104,96,227100,1,0,0:0:0:0:
80,82,227179,1,0,0:0:0:0:
55,68,227258,1,0,0:0:0:0:
31,54,227337,2,0,L|110:32,1,80,10|0,0:0|0:0,0:0:0:0:
367,123,227495,2,0,L|289:143,1,80
19,323,227653,5,12,0:0:0:0:
75,353,227732,1,0,0:0:0:0:
137,364,227811,1,0,0:0:0:0:
200,354,227890,1,0,0:0:0:0:
257,325,227969,1,12,0:0:0:0:
314,296,228048,1,0,0:0:0:0:
377,286,228127,1,0,0:0:0:0:
439,297,228206,1,0,0:0:0:0:
495,327,228285,5,12,0:0:0:0:
431,350,228363,1,0,0:0:0:0:
364,342,228442,1,0,0:0:0:0:
314,296,228521,1,0,0:0:0:0:
296,231,228600,1,12,0:0:0:0:
315,166,228679,1,0,0:0:0:0:
367,123,228758,1,0,0:0:0:0:
434,116,228837,1,0,0:0:0:0:
496,144,228916,5,4,0:0:0:0:
431,191,228995,1,0,0:0:0:0:
352,207,229074,1,0,0:0:0:0:
273,191,229153,1,0,0:0:0:0:
209,145,229232,1,0,0:0:0:0:
158,83,229311,1,0,0:0:0:0:
78,78,229390,1,0,0:0:0:0:
17,129,229469,1,0,0:0:0:0:
10,207,229548,1,0,0:0:0:0:
59,269,229627,1,0,0:0:0:0:
138,276,229706,1,0,0:0:0:0:
200,225,229785,1,0,0:0:0:0:
209,145,229863,2,0,P|232:113|238:74,1,80,8|8,0:0|0:0,0:0:0:0:
352,0,230021,2,0,P|357:39|381:70,1,80,8|8,0:0|0:0,0:0:0:0:
499,377,230179,6,0,B|552:303|499:234|499:234|561:158|513:77|513:77|477:121|506:180,1,419.999987182618,2|0,0:0|0:0,0:0:0:0:
418,305,230653,5,10,0:0:0:0:
368,318,230732,1,0,0:0:0:0:
319,331,230811,1,2,0:0:0:0:
270,344,230890,1,0,0:0:0:0:
220,357,230969,1,8,0:0:0:0:
171,370,231048,1,2,0:0:0:0:
122,384,231127,2,0,L|142:306,1,80
413,163,231285,2,0,L|335:184,1,80,10|0,0:0|0:0,0:0:0:0:
43,225,231442,5,2,0:0:0:0:
9,185,231521,1,0,0:0:0:0:
1,134,231600,1,8,0:0:0:0:
23,87,231679,1,2,0:0:0:0:
66,59,231758,1,0,0:0:0:0:
118,59,231837,1,0,0:0:0:0:
162,87,231916,1,10,0:0:0:0:
183,134,231995,1,0,0:0:0:0:
176,185,232074,2,0,P|152:216|116:234,3,80,2|0|8|2,0:0|0:0|0:0|0:0,0:0:0:0:
336,185,232390,2,0,P|360:216|396:234,3,80,0|0|8|0,0:0|0:0|0:0|0:0,0:0:0:0:
331,370,232706,5,12,0:0:0:0:
181,14,232863,1,0,0:0:0:0:
181,370,233021,5,12,0:0:0:0:
331,14,233179,1,0,0:0:0:0:
336,383,233337,5,12,0:0:0:0:
175,0,233495,1,0,0:0:0:0:
176,383,233653,5,12,0:0:0:0:
337,0,233811,1,0,0:0:0:0:
512,216,233969,5,0,0:0:0:0:
453,231,234048,1,0,0:0:0:0:
394,247,234127,1,0,0:0:0:0:
335,263,234206,1,0,0:0:0:0:
276,279,234285,5,0,0:0:0:0:
322,291,234363,1,0,0:0:0:0:
368,303,234442,1,0,0:0:0:0:
415,316,234521,1,0,0:0:0:0:
461,328,234600,5,0,0:0:0:0:
426,337,234679,1,0,0:0:0:0:
391,346,234758,1,0,0:0:0:0:
356,355,234837,1,0,0:0:0:0:
321,364,234916,5,0,0:0:0:0:
340,369,234995,1,0,0:0:0:0:
359,374,235074,1,0,0:0:0:0:
378,379,235153,1,0,0:0:0:0:
397,384,235232,5,2,0:0:0:0:
415,316,235311,1,0,0:0:0:0:
433,248,235390,1,8,0:0:0:0:
451,180,235469,1,2,0:0:0:0:
469,112,235548,6,0,L|489:189,1,80
276,18,235706,1,10,0:0:0:0:
311,9,235785,1,0,0:0:0:0:
346,0,235863,2,0,L|325:77,1,80,2|0,0:0|0:0,0:0:0:0:
132,171,236021,1,8,0:0:0:0:
167,180,236100,1,2,0:0:0:0:
202,189,236179,2,0,L|181:111,1,80
57,0,236337,5,10,0:0:0:0:
46,38,236416,1,0,0:0:0:0:
36,77,236495,2,0,L|113:56,1,80,2|0,0:0|0:0,0:0:0:0:
412,214,236653,1,8,0:0:0:0:
422,176,236732,1,2,0:0:0:0:
433,137,236811,2,0,L|355:157,1,80
160,363,236969,5,10,0:0:0:0:
122,373,237048,1,0,0:0:0:0:
83,384,237127,2,0,L|103:306,1,80,2|0,0:0|0:0,0:0:0:0:
352,363,237285,1,8,0:0:0:0:
390,373,237363,1,2,0:0:0:0:
429,384,237442,2,0,L|408:306,1,80
34,111,237600,1,10,0:0:0:0:
34,111,237679,1,0,0:0:0:0:
34,111,237758,5,12,0:0:0:0:
478,273,237916,1,0,0:0:0:0:
34,273,238074,5,12,0:0:0:0:
478,111,238232,1,0,0:0:0:0:
11,102,238390,5,12,0:0:0:0:
500,282,238548,1,0,0:0:0:0:
11,282,238706,5,12,0:0:0:0:
500,102,238863,1,0,0:0:0:0:
195,261,239021,5,0,0:0:0:0:
182,309,239100,1,0,0:0:0:0:
199,356,239179,1,0,0:0:0:0:
242,383,239258,1,0,0:0:0:0:
292,380,239337,1,0,0:0:0:0:
331,349,239416,1,0,0:0:0:0:
344,300,239495,1,0,0:0:0:0:
326,254,239574,1,0,0:0:0:0:
284,225,239653,6,0,L|261:305,1,80,8|8,0:0|0:0,0:0:0:0:
415,76,239811,2,0,L|393:-1,1,80,8|8,0:0|0:0,0:0:0:0:
198,62,239969,2,0,L|274:84,1,80,8|8,0:0|0:0,0:0:0:0:
500,194,240127,2,0,L|422:215,1,80,8|8,0:0|0:0,0:0:0:0:
60,384,240285,5,4,0:0:0:0:
30,329,240363,1,0,0:0:0:0:
30,266,240442,1,10,0:0:0:0:
62,211,240521,1,0,0:0:0:0:
94,156,240600,1,0,0:0:0:0:
94,93,240679,1,0,0:0:0:0:
60,38,240758,5,10,0:0:0:0:
28,93,240837,1,0,0:0:0:0:
28,156,240916,1,0,0:0:0:0:
62,211,240995,1,0,0:0:0:0:
117,240,241074,1,10,0:0:0:0:
180,238,241153,1,0,0:0:0:0:
233,203,241232,2,0,P|256:171|263:132,1,80
385,4,241390,2,0,P|391:43|414:75,1,80,10|0,0:0|0:0,0:0:0:0:
512,322,241548,5,0,0:0:0:0:
447,291,241627,1,0,0:0:0:0:
375,293,241706,1,10,0:0:0:0:
312,327,241785,1,0,0:0:0:0:
270,384,241863,2,0,P|230:381|195:362,1,80
351,197,242021,2,0,P|385:177|425:175,1,80,10|0,0:0|0:0,0:0:0:0:
57,297,242179,5,4,0:0:0:0:
7,246,242258,1,0,0:0:0:0:
0,174,242337,1,10,0:0:0:0:
42,115,242416,1,0,0:0:0:0:
111,96,242495,1,0,0:0:0:0:
176,127,242574,1,0,0:0:0:0:
207,192,242653,1,10,0:0:0:0:
188,261,242732,1,0,0:0:0:0:
129,303,242811,5,4,0:0:0:0:
126,290,242890,1,0,0:0:0:0:
123,278,242969,1,10,0:0:0:0:
120,266,243048,1,0,0:0:0:0:
117,254,243127,1,0,0:0:0:0:
113,242,243206,1,0,0:0:0:0:
110,230,243285,1,10,0:0:0:0:
107,218,243363,1,0,0:0:0:0:
104,206,243442,5,0,0:0:0:0:
93,244,243521,1,0,0:0:0:0:
83,283,243600,1,10,0:0:0:0:
72,321,243679,1,0,0:0:0:0:
62,360,243758,2,0,L|42:282,1,80
91,18,243916,2,0,L|111:96,1,80,10|0,0:0|0:0,0:0:0:0:
305,339,244074,5,8,0:0:0:0:
380,363,244153,1,8,0:0:0:0:
456,336,244232,1,8,0:0:0:0:
503,272,244311,1,8,0:0:0:0:
502,192,244390,1,8,0:0:0:0:
456,127,244469,1,8,0:0:0:0:
380,103,244548,1,8,0:0:0:0:
304,127,244627,1,8,0:0:0:0:
256,192,244706,1,8,0:0:0:0:
211,256,244785,1,8,0:0:0:0:
134,281,244863,1,8,0:0:0:0:
58,257,244942,1,8,0:0:0:0:
12,191,245021,1,8,0:0:0:0:
11,112,245100,1,8,0:0:0:0:
58,47,245179,1,8,0:0:0:0:
134,21,245258,1,8,0:0:0:0:
210,45,245337,6,0,P|257:111|256:192,1,165.000001573563,4|10,0:0|0:0,0:0:0:0:
14,326,245653,5,0,0:0:0:0:
70,292,245732,1,0,0:0:0:0:
134,281,245811,1,10,0:0:0:0:
198,292,245890,1,0,0:0:0:0:
255,326,245969,1,0,0:0:0:0:
312,360,246048,1,0,0:0:0:0:
376,371,246127,1,10,0:0:0:0:
440,360,246206,1,0,0:0:0:0:
496,325,246285,2,0,P|505:286|497:246,1,82.5000007867813
376,218,246442,2,0,P|366:178|375:137,1,82.5000007867813,10|0,0:0|0:0,0:0:0:0:
512,0,246600,5,0,0:0:0:0:
471,10,246679,1,0,0:0:0:0:
430,21,246758,1,10,0:0:0:0:
390,32,246837,1,0,0:0:0:0:
349,43,246916,1,0,0:0:0:0:
309,54,246995,1,0,0:0:0:0:
268,65,247074,1,10,0:0:0:0:
228,76,247153,1,0,0:0:0:0:
187,86,247232,5,4,0:0:0:0:
142,27,247311,1,0,0:0:0:0:
68,17,247390,1,10,0:0:0:0:
9,62,247469,1,0,0:0:0:0:
0,136,247548,1,0,0:0:0:0:
45,195,247627,1,0,0:0:0:0:
119,205,247706,1,10,0:0:0:0:
178,160,247785,1,0,0:0:0:0:
187,86,247863,1,4,0:0:0:0:
187,86,248337,5,0,0:0:0:0:
0,271,248495,1,4,0:0:0:0:
68,17,248653,1,0,0:0:0:0:
256,192,248969,5,0,0:0:0:0:
95,148,249127,1,4,0:0:0:0:
373,74,249285,1,0,0:0:0:0:
299,352,249442,1,0,0:0:0:0:
298,31,249758,5,12,0:0:0:0:
415,234,249916,1,8,0:0:0:0:
212,351,250074,1,8,0:0:0:0:
95,148,250232,1,8,0:0:0:0:
483,168,250390,5,6,0:0:0:0:
509,222,250469,1,0,0:0:0:0:
498,281,250548,1,0,0:0:0:0:
455,323,250627,1,0,0:0:0:0:
396,332,250706,1,10,0:0:0:0:
343,303,250785,1,0,0:0:0:0:
316,249,250863,1,0,0:0:0:0:
326,190,250942,1,0,0:0:0:0:
369,149,251021,5,2,0:0:0:0:
396,224,251100,1,0,0:0:0:0:
368,300,251179,1,0,0:0:0:0:
298,339,251258,1,0,0:0:0:0:
220,325,251337,1,10,0:0:0:0:
168,264,251416,1,0,0:0:0:0:
168,184,251495,1,0,0:0:0:0:
220,122,251574,1,0,0:0:0:0:
203,44,251653,1,2,0:0:0:0:
130,10,251732,1,0,0:0:0:0:
57,41,251811,1,0,0:0:0:0:
40,119,251890,1,0,0:0:0:0:
87,183,251969,5,10,0:0:0:0:
97,161,252048,1,0,0:0:0:0:
108,140,252127,1,0,0:0:0:0:
119,119,252206,1,0,0:0:0:0:
131,99,252285,5,6,0:0:0:0:
146,156,252363,1,0,0:0:0:0:
162,214,252442,1,0,0:0:0:0:
177,272,252521,1,0,0:0:0:0:
193,330,252600,2,0,L|213:252,1,80,10|0,0:0|0:0,0:0:0:0:
280,0,252758,2,0,L|300:77,1,80
352,286,252916,5,6,0:0:0:0:
385,330,252995,1,0,0:0:0:0:
440,343,253074,1,0,0:0:0:0:
490,317,253153,1,0,0:0:0:0:
512,266,253232,1,10,0:0:0:0:
495,212,253311,1,0,0:0:0:0:
448,182,253390,2,0,P|408:182|374:202,1,80
58,369,253548,5,2,0:0:0:0:
70,324,253627,1,0,0:0:0:0:
82,279,253706,1,0,0:0:0:0:
94,234,253785,1,0,0:0:0:0:
106,189,253863,1,10,0:0:0:0:
118,144,253942,1,0,0:0:0:0:
131,99,254021,2,0,L|151:21,1,80
8,183,254179,5,2,0:0:0:0:
14,206,254258,1,0,0:0:0:0:
20,229,254337,1,0,0:0:0:0:
26,253,254416,1,0,0:0:0:0:
33,276,254495,1,10,0:0:0:0:
39,299,254574,1,0,0:0:0:0:
45,322,254653,1,0,0:0:0:0:
51,345,254732,1,0,0:0:0:0:
58,369,254811,5,6,0:0:0:0:
80,293,254890,1,0,0:0:0:0:
145,249,254969,1,0,0:0:0:0:
223,255,255048,1,0,0:0:0:0:
279,310,255127,1,10,0:0:0:0:
335,366,255206,1,0,0:0:0:0:
413,371,255285,1,0,0:0:0:0:
478,327,255363,1,0,0:0:0:0:
502,253,255442,5,6,0:0:0:0:
477,248,255521,1,0,0:0:0:0:
453,250,255600,1,0,0:0:0:0:
430,261,255679,1,0,0:0:0:0:
412,278,255758,1,10,0:0:0:0:
400,300,255837,1,0,0:0:0:0:
397,325,255916,1,0,0:0:0:0:
401,349,255995,1,0,0:0:0:0:
413,370,256074,5,2,0:0:0:0:
359,311,256153,1,0,0:0:0:0:
279,310,256232,1,0,0:0:0:0:
218,362,256311,1,0,0:0:0:0:
138,368,256390,1,10,0:0:0:0:
69,326,256469,1,0,0:0:0:0:
38,253,256548,1,0,0:0:0:0:
56,175,256627,1,0,0:0:0:0:
117,123,256706,1,2,0:0:0:0:
196,115,256785,1,0,0:0:0:0:
265,157,256863,1,0,0:0:0:0:
296,231,256942,1,0,0:0:0:0:
279,310,257021,2,0,P|244:293|221:259,3,80,10|0|0|0,0:0|0:0|0:0|0:0,0:0:0:0:
138,367,257337,2,0,P|135:327|153:292,3,80,6|0|0|0,0:0|0:0|0:0|0:0,0:0:0:0:
38,253,257653,2,0,P|70:231|110:228,3,80,10|0|0|0,0:0|0:0|0:0|0:0,0:0:0:0:
296,231,257969,5,6,0:0:0:0:
354,238,258048,1,0,0:0:0:0:
406,208,258127,1,0,0:0:0:0:
426,152,258206,1,0,0:0:0:0:
406,96,258285,1,10,0:0:0:0:
353,66,258363,1,0,0:0:0:0:
293,75,258442,2,0,P|262:100|247:137,1,80
420,293,258600,5,2,0:0:0:0:
467,259,258679,1,0,0:0:0:0:
499,208,258758,1,0,0:0:0:0:
510,150,258837,1,0,0:0:0:0:
498,91,258916,1,10,0:0:0:0:
466,41,258995,1,0,0:0:0:0:
415,2,259074,2,0,P|381:-16|342:-20,1,80
88,0,259232,5,2,0:0:0:0:
77,38,259311,1,0,0:0:0:0:
67,77,259390,1,0,0:0:0:0:
56,115,259469,1,0,0:0:0:0:
28,124,259548,5,10,0:0:0:0:
36,154,259627,1,0,0:0:0:0:
44,185,259706,1,0,0:0:0:0:
52,216,259785,1,0,0:0:0:0:
80,225,259863,5,2,0:0:0:0:
75,240,259942,1,0,0:0:0:0:
71,255,260021,1,0,0:0:0:0:
67,271,260100,1,0,0:0:0:0:
63,286,260179,1,10,0:0:0:0:
59,302,260258,1,0,0:0:0:0:
55,317,260337,1,0,0:0:0:0:
51,333,260416,1,0,0:0:0:0:
45,348,260495,5,6,0:0:0:0:
89,307,260574,1,0,0:0:0:0:
144,284,260653,1,0,0:0:0:0:
203,291,260732,1,0,0:0:0:0:
256,318,260811,1,10,0:0:0:0:
306,350,260890,1,0,0:0:0:0:
367,350,260969,1,0,0:0:0:0:
417,317,261048,1,0,0:0:0:0:
443,263,261127,1,2,0:0:0:0:
434,204,261206,1,0,0:0:0:0:
395,158,261285,1,0,0:0:0:0:
338,141,261363,1,0,0:0:0:0:
278,158,261442,5,10,0:0:0:0:
293,180,261521,1,0,0:0:0:0:
307,203,261600,1,0,0:0:0:0:
321,225,261679,1,0,0:0:0:0:
336,248,261758,5,2,0:0:0:0:
297,237,261837,1,0,0:0:0:0:
258,227,261916,1,0,0:0:0:0:
220,216,261995,1,0,0:0:0:0:
181,206,262074,1,10,0:0:0:0:
142,196,262153,1,0,0:0:0:0:
104,185,262232,5,0,0:0:0:0:
49,172,262311,1,0,0:0:0:0:
14,129,262390,1,6,0:0:0:0:
16,72,262469,1,0,0:0:0:0:
55,31,262548,1,0,0:0:0:0:
111,23,262627,1,0,0:0:0:0:
158,53,262706,2,0,P|169:90|164:130,1,80,10|0,0:0|0:0,0:0:0:0:
49,172,262863,2,0,P|38:209|43:249,1,80
208,358,263021,5,6,0:0:0:0:
262,372,263100,1,0,0:0:0:0:
312,348,263179,1,0,0:0:0:0:
336,298,263258,1,0,0:0:0:0:
322,243,263337,1,10,0:0:0:0:
276,211,263416,1,0,0:0:0:0:
220,216,263495,1,0,0:0:0:0:
180,256,263574,1,0,0:0:0:0:
175,312,263653,5,2,0:0:0:0:
212,302,263732,1,0,0:0:0:0:
247,293,263811,1,0,0:0:0:0:
282,283,263890,1,0,0:0:0:0:
317,274,263969,1,10,0:0:0:0:
351,265,264048,1,0,0:0:0:0:
386,255,264127,1,0,0:0:0:0:
421,246,264206,1,0,0:0:0:0:
474,314,264285,5,6,0:0:0:0:
490,295,264363,1,0,0:0:0:0:
501,273,264442,1,0,0:0:0:0:
505,248,264521,1,0,0:0:0:0:
502,223,264600,1,10,0:0:0:0:
492,201,264679,1,0,0:0:0:0:
476,182,264758,1,0,0:0:0:0:
455,168,264837,1,0,0:0:0:0:
431,160,264916,5,2,0:0:0:0:
423,169,264995,1,0,0:0:0:0:
417,179,265074,1,0,0:0:0:0:
413,190,265153,1,0,0:0:0:0:
411,201,265232,1,10,0:0:0:0:
410,213,265311,1,0,0:0:0:0:
412,224,265390,1,0,0:0:0:0:
416,235,265469,1,0,0:0:0:0:
421,246,265548,5,6,0:0:0:0:
371,211,265627,1,0,0:0:0:0:
314,196,265706,1,0,0:0:0:0:
256,211,265785,1,0,0:0:0:0:
207,245,265863,1,10,0:0:0:0:
162,284,265942,1,0,0:0:0:0:
102,292,266021,1,0,0:0:0:0:
48,267,266100,1,0,0:0:0:0:
15,217,266179,1,2,0:0:0:0:
15,157,266258,1,0,0:0:0:0:
47,106,266337,1,0,0:0:0:0:
102,81,266416,1,0,0:0:0:0:
163,90,266495,2,0,P|195:112|216:146,3,80,10|0|0|0,0:0|0:0|0:0|0:0,0:0:0:0:
119,187,266811,5,2,0:0:0:0:
151,231,266890,1,0,0:0:0:0:
202,253,266969,1,0,0:0:0:0:
257,247,267048,1,0,0:0:0:0:
301,214,267127,1,10,0:0:0:0:
323,163,267206,1,0,0:0:0:0:
316,108,267285,2,0,L|285:24,1,80
94,184,267442,5,6,0:0:0:0:
134,237,267521,1,0,0:0:0:0:
195,264,267600,1,0,0:0:0:0:
261,256,267679,1,0,0:0:0:0:
314,216,267758,1,10,0:0:0:0:
340,155,267837,1,0,0:0:0:0:
332,89,267916,2,0,L|300:5,1,80
80,182,268074,5,6,0:0:0:0:
123,241,268153,1,0,0:0:0:0:
190,270,268232,1,0,0:0:0:0:
263,262,268311,1,0,0:0:0:0:
322,218,268390,1,10,0:0:0:0:
364,160,268469,1,0,0:0:0:0:
436,157,268548,1,0,0:0:0:0:
484,211,268627,1,0,0:0:0:0:
471,282,268706,5,2,0:0:0:0:
462,250,268785,1,0,0:0:0:0:
452,219,268863,1,0,0:0:0:0:
444,188,268942,1,0,0:0:0:0:
436,157,269021,5,10,0:0:0:0:
420,213,269100,1,0,0:0:0:0:
405,269,269179,1,0,0:0:0:0:
390,325,269258,1,0,0:0:0:0:
375,381,269337,5,4,0:0:0:0:
372,348,269416,1,0,0:0:0:0:
359,319,269495,1,0,0:0:0:0:
336,296,269574,1,0,0:0:0:0:
307,283,269653,1,0,0:0:0:0:
276,281,269732,1,0,0:0:0:0:
245,289,269811,1,0,0:0:0:0:
219,308,269890,1,0,0:0:0:0:
202,335,269969,5,0,0:0:0:0:
276,340,270048,1,0,0:0:0:0:
336,296,270127,1,0,0:0:0:0:
354,224,270206,1,0,0:0:0:0:
321,157,270285,2,0,P|287:132|246:126,1,80
154,0,270442,2,0,P|116:17|90:49,1,80
20,281,270600,5,6,0:0:0:0:
68,309,270679,1,0,0:0:0:0:
123,299,270758,1,0,0:0:0:0:
159,256,270837,1,0,0:0:0:0:
158,200,270916,1,10,0:0:0:0:
122,157,270995,1,0,0:0:0:0:
68,148,271074,1,0,0:0:0:0:
19,175,271153,1,0,0:0:0:0:
0,228,271232,5,2,0:0:0:0:
26,303,271311,1,0,0:0:0:0:
93,346,271390,1,0,0:0:0:0:
173,344,271469,1,0,0:0:0:0:
241,300,271548,1,10,0:0:0:0:
269,224,271627,1,0,0:0:0:0:
261,144,271706,1,0,0:0:0:0:
310,81,271785,1,0,0:0:0:0:
390,72,271863,1,2,0:0:0:0:
452,122,271942,1,0,0:0:0:0:
462,202,272021,1,0,0:0:0:0:
412,264,272100,1,0,0:0:0:0:
333,274,272179,5,10,0:0:0:0:
340,248,272258,1,0,0:0:0:0:
347,223,272337,1,0,0:0:0:0:
354,198,272416,1,0,0:0:0:0:
361,172,272495,2,0,L|381:94,3,80,6|0|0|0,0:0|0:0|0:0|0:0,0:0:0:0:
506,285,272811,2,0,L|486:207,3,80,10|0|0|0,0:0|0:0|0:0|0:0,0:0:0:0:
430,5,273127,5,6,0:0:0:0:
371,20,273206,1,0,0:0:0:0:
312,36,273285,1,0,0:0:0:0:
254,52,273363,1,0,0:0:0:0:
195,67,273442,1,10,0:0:0:0:
136,83,273521,1,0,0:0:0:0:
77,99,273600,2,0,L|96:21,1,80
345,146,273758,5,2,0:0:0:0:
370,200,273837,1,0,0:0:0:0:
354,258,273916,1,0,0:0:0:0:
305,293,273995,1,0,0:0:0:0:
245,287,274074,1,10,0:0:0:0:
203,245,274153,1,0,0:0:0:0:
197,185,274232,2,0,P|215:149|247:126,1,80
436,261,274390,5,2,0:0:0:0:
419,297,274469,1,0,0:0:0:0:
394,328,274548,1,0,0:0:0:0:
362,352,274627,1,0,0:0:0:0:
326,367,274706,1,10,0:0:0:0:
286,372,274785,1,0,0:0:0:0:
246,368,274863,1,0,0:0:0:0:
209,353,274942,1,0,0:0:0:0:
176,328,275021,5,6,0:0:0:0:
256,335,275100,1,0,0:0:0:0:
322,289,275179,1,0,0:0:0:0:
342,211,275258,1,0,0:0:0:0:
308,139,275337,1,10,0:0:0:0:
236,106,275416,1,0,0:0:0:0:
158,126,275495,1,0,0:0:0:0:
113,191,275574,1,0,0:0:0:0:
119,270,275653,5,6,0:0:0:0:
142,264,275732,1,0,0:0:0:0:
162,252,275811,1,0,0:0:0:0:
178,233,275890,1,0,0:0:0:0:
188,211,275969,1,10,0:0:0:0:
190,187,276048,1,0,0:0:0:0:
186,164,276127,1,0,0:0:0:0:
174,142,276206,1,0,0:0:0:0:
158,126,276285,5,2,0:0:0:0:
113,191,276363,1,0,0:0:0:0:
119,270,276442,1,0,0:0:0:0:
176,327,276521,1,0,0:0:0:0:
256,335,276600,1,10,0:0:0:0:
328,302,276679,1,0,0:0:0:0:
354,226,276758,1,0,0:0:0:0:
329,149,276837,1,0,0:0:0:0:
374,83,276916,1,2,0:0:0:0:
454,80,276995,1,0,0:0:0:0:
508,135,277074,1,0,0:0:0:0:
495,214,277153,1,0,0:0:0:0:
427,257,277232,2,0,P|386:252|353:225,3,85.0000016212464,10|0|0|0,0:0|0:0|0:0|0:0,0:0:0:0:
213,115,277548,2,0,P|237:81|277:66,3,85.0000016212464,6|0|0|0,0:0|0:0|0:0|0:0,0:0:0:0:
444,0,277863,2,0,P|460:38|454:79,3,85.0000016212464,10|0|0|0,0:0|0:0|0:0|0:0,0:0:0:0:
427,257,278179,5,6,0:0:0:0:
390,304,278258,1,0,0:0:0:0:
330,312,278337,1,0,0:0:0:0:
283,276,278416,1,0,0:0:0:0:
275,216,278495,1,10,0:0:0:0:
311,168,278574,1,0,0:0:0:0:
371,160,278653,2,0,L|350:238,1,80
152,329,278811,5,2,0:0:0:0:
115,376,278890,1,0,0:0:0:0:
55,384,278969,1,0,0:0:0:0:
8,348,279048,1,0,0:0:0:0:
0,288,279127,1,10,0:0:0:0:
36,240,279206,1,0,0:0:0:0:
96,232,279285,1,0,0:0:0:0:
90,251,279363,1,0,0:0:0:0:
85,270,279442,2,0,L|64:192,1,80,2|0,0:0|0:0,0:0:0:0:
192,37,279600,2,0,L|213:115,1,80
79,288,279758,2,0,L|58:210,1,80,10|0,0:0|0:0,0:0:0:0:
186,55,279916,2,0,L|207:133,1,80
273,383,280074,5,2,0:0:0:0:
283,344,280153,1,0,0:0:0:0:
293,305,280232,1,0,0:0:0:0:
304,267,280311,1,0,0:0:0:0:
314,228,280390,5,10,0:0:0:0:
321,251,280469,1,0,0:0:0:0:
327,274,280548,1,0,0:0:0:0:
333,297,280627,1,0,0:0:0:0:
353,374,280706,5,6,0:0:0:0:
405,343,280785,1,0,0:0:0:0:
435,291,280863,1,0,0:0:0:0:
435,231,280942,1,0,0:0:0:0:
405,179,281021,1,10,0:0:0:0:
353,149,281100,1,0,0:0:0:0:
292,149,281179,1,0,0:0:0:0:
240,179,281258,1,0,0:0:0:0:
210,231,281337,1,2,0:0:0:0:
210,291,281416,1,0,0:0:0:0:
240,343,281495,1,0,0:0:0:0:
292,374,281574,1,0,0:0:0:0:
353,374,281653,2,0,L|332:296,1,80,10|0,0:0|0:0,0:0:0:0:
199,40,281811,2,0,L|178:117,1,80
112,368,281969,5,6,0:0:0:0:
55,375,282048,1,0,0:0:0:0:
11,341,282127,1,0,0:0:0:0:
3,285,282206,1,0,0:0:0:0:
37,241,282285,1,10,0:0:0:0:
93,233,282363,1,0,0:0:0:0:
138,268,282442,1,0,0:0:0:0:
145,323,282521,1,0,0:0:0:0:
74,305,282600,5,6,0:0:0:0:
70,274,282679,1,0,0:0:0:0:
65,241,282758,1,0,0:0:0:0:
61,210,282837,1,0,0:0:0:0:
56,178,282916,1,10,0:0:0:0:
52,147,282995,1,0,0:0:0:0:
47,115,283074,1,0,0:0:0:0:
42,83,283153,1,0,0:0:0:0:
37,51,283232,5,6,0:0:0:0:
60,92,283311,1,0,0:0:0:0:
101,113,283390,1,0,0:0:0:0:
148,121,283469,1,0,0:0:0:0:
194,107,283548,1,10,0:0:0:0:
240,94,283627,1,0,0:0:0:0:
287,101,283706,1,0,0:0:0:0:
329,123,283785,1,0,0:0:0:0:
352,164,283863,2,0,L|372:86,3,80,2|0|0|0,0:0|0:0|0:0|0:0,0:0:0:0:
512,0,284179,2,0,L|491:77,3,80,10|0|0|0,0:0|0:0|0:0|0:0,0:0:0:0:
434,289,284495,5,12,0:0:0:0:
385,353,284574,1,8,0:0:0:0:
306,369,284653,1,8,0:0:0:0:
235,331,284732,1,8,0:0:0:0:
208,255,284811,1,8,0:0:0:0:
238,180,284890,1,8,0:0:0:0:
250,100,284969,1,8,0:0:0:0:
210,31,285048,1,8,0:0:0:0:
136,4,285127,1,0,0:0:0:0:
61,31,285206,1,0,0:0:0:0:
21,100,285285,1,0,0:0:0:0:
35,179,285363,1,0,0:0:0:0:
96,230,285442,2,0,P|136:237|175:229,1,80
367,31,285600,2,0,P|327:23|288:30,1,80
28,282,285758,5,14,0:0:0:0:
77,315,285837,1,0,0:0:0:0:
135,327,285916,1,0,0:0:0:0:
193,316,285995,1,0,0:0:0:0:
243,283,286074,1,10,0:0:0:0:
293,250,286153,1,0,0:0:0:0:
351,239,286232,1,0,0:0:0:0:
409,251,286311,1,0,0:0:0:0:
458,284,286390,2,0,L|431:208,3,80,10|0|0|0,0:0|0:0|0:0|0:0,0:0:0:0:
367,31,286706,2,0,L|340:106,3,80,10|0|0|0,0:0|0:0|0:0|0:0,0:0:0:0:
293,250,287021,5,10,0:0:0:0:
273,303,287100,1,0,0:0:0:0:
227,334,287179,1,0,0:0:0:0:
171,332,287258,1,0,0:0:0:0:
127,298,287337,1,10,0:0:0:0:
111,244,287416,1,0,0:0:0:0:
131,192,287495,1,0,0:0:0:0:
177,160,287574,1,0,0:0:0:0:
233,162,287653,2,0,L|205:237,1,80,14|0,0:0|0:0,0:0:0:0:
114,0,287811,2,0,L|141:75,1,80
243,352,287969,5,8,0:0:0:0:
316,375,288048,1,8,0:0:0:0:
390,349,288127,1,8,0:0:0:0:
431,283,288206,1,8,0:0:0:0:
424,204,288285,6,0,B|340:115|424:23|424:23|462:89,1,279.999991455078,6|0,0:0|0:0,0:0:0:0:
461,88,288758,1,0,0:0:0:0:
243,352,288916,2,0,B|327:263|243:171|243:171|205:237,1,279.999991455078,4|0,0:0|0:0,0:0:0:0:
205,237,289390,1,0,0:0:0:0:
0,384,289548,5,0,0:0:0:0:
20,306,289627,1,0,0:0:0:0:
41,229,289706,1,0,0:0:0:0:
62,152,289785,1,0,0:0:0:0:
83,75,289863,5,0,0:0:0:0:
93,113,289942,1,0,0:0:0:0:
103,152,290021,1,0,0:0:0:0:
114,190,290100,1,0,0:0:0:0:
124,229,290179,6,0,L|144:151,1,80
260,0,290337,2,0,L|280:77,1,80
306,182,290495,2,0,L|229:203,1,80
73,37,290653,2,0,L|150:57,1,80
497,150,290811,5,0,0:0:0:0:
456,0,290969,1,0,0:0:0:0:
69,377,291285,1,0,0:0:0:0:
3,293,291442,6,0,B|70:247|137:294|137:294|158:274|158:274|227:328|296:275,1,320,4|0,0:0|0:0,0:0:0:0:
208,125,291837,1,0,0:0:0:0:
208,125,291916,2,0,L|228:202,1,80
399,365,292074,1,0,0:0:0:0:
463,124,292232,1,8,0:0:0:0:
399,89,292311,1,8,0:0:0:0:
336,124,292390,2,0,P|322:150|319:180,1,59.9999981689454,8|8,0:0|0:0,0:0:0:0:
476,371,292548,2,0,P|471:339|452:309,1,59.9999981689454,8|8,0:0|0:0,0:0:0:0:
208,125,292706,5,0,0:0:0:0:
200,153,292785,1,0,0:0:0:0:
192,182,292863,1,0,0:0:0:0:
184,211,292942,1,0,0:0:0:0:
176,240,293021,1,0,0:0:0:0:
169,269,293100,1,0,0:0:0:0:
161,298,293179,1,0,0:0:0:0:
153,327,293258,1,0,0:0:0:0:
145,356,293337,6,0,L|129:298,3,59.9999981689454,10|0|0|0,0:0|0:0|0:0|0:0,0:0:0:0:
0,260,293653,2,0,L|15:202,3,59.9999981689454,10|0|0|0,0:0|0:0|0:0|0:0,0:0:0:0:
145,164,293969,2,0,L|129:106,3,59.9999981689454,10|0|0|0,0:0|0:0|0:0|0:0,0:0:0:0:
0,68,294285,2,0,L|15:10,3,59.9999981689454,10|0|0|0,0:0|0:0|0:0|0:0,0:0:0:0:
208,19,294600,5,10,0:0:0:0:
239,36,294679,1,0,0:0:0:0:
264,61,294758,1,0,0:0:0:0:
279,95,294837,1,0,0:0:0:0:
282,130,294916,1,10,0:0:0:0:
273,165,294995,1,0,0:0:0:0:
254,196,295074,1,0,0:0:0:0:
235,226,295153,1,0,0:0:0:0:
226,261,295232,1,10,0:0:0:0:
229,296,295311,1,0,0:0:0:0:
244,330,295390,1,0,0:0:0:0:
269,355,295469,1,0,0:0:0:0:
300,372,295548,2,0,P|305:343|300:314,1,59.9999981689454,10|0,0:0|0:0,0:0:0:0:
430,244,295706,2,0,P|407:224|379:214,1,59.9999981689454
145,164,295863,5,10,0:0:0:0:
109,156,295942,1,0,0:0:0:0:
81,179,296021,1,0,0:0:0:0:
81,215,296100,1,0,0:0:0:0:
109,237,296179,1,10,0:0:0:0:
145,229,296258,1,0,0:0:0:0:
160,197,296337,2,0,P|154:167|159:138,1,59.9999981689454
373,28,296495,5,10,0:0:0:0:
387,82,296574,1,0,0:0:0:0:
401,136,296653,1,0,0:0:0:0:
416,190,296732,1,0,0:0:0:0:
430,244,296811,2,0,L|461:128,1,119.999996337891,4|0,0:0|0:0,0:0:0:0:
512,34,297048,1,0,0:0:0:0:
512,34,297127,2,0,L|480:149,1,119.999996337891,4|0,0:0|0:0,0:0:0:0:
421,377,297442,1,10,0:0:0:0:
421,377,297521,2,0,B|389:359|389:359|308:380,1,119.999996337891
180,368,297758,2,0,B|211:386|211:386|292:364,1,119.999996337891,10|0,0:0|0:0,0:0:0:0:
208,238,297995,1,0,0:0:0:0:
208,238,298074,2,0,L|223:295,1,59.9999981689454,10|0,0:0|0:0,0:0:0:0:
158,384,298232,2,0,L|142:326,1,59.9999981689454
117,233,298390,5,10,0:0:0:0:
134,182,298469,1,0,0:0:0:0:
178,150,298548,1,0,0:0:0:0:
232,150,298627,1,0,0:0:0:0:
275,182,298706,1,10,0:0:0:0:
318,214,298785,1,0,0:0:0:0:
372,214,298863,1,0,0:0:0:0:
416,182,298942,1,0,0:0:0:0:
433,131,299021,1,10,0:0:0:0:
416,80,299100,1,0,0:0:0:0:
372,48,299179,1,0,0:0:0:0:
318,48,299258,1,0,0:0:0:0:
275,78,299337,2,0,P|269:108|274:137,3,59.9999981689454,10|0|0|0,0:0|0:0|0:0|0:0,0:0:0:0:
312,230,299653,5,14,0:0:0:0:
377,230,299732,1,0,0:0:0:0:
430,192,299811,1,0,0:0:0:0:
450,131,299890,1,0,0:0:0:0:
430,69,299969,1,10,0:0:0:0:
377,31,300048,1,0,0:0:0:0:
312,31,300127,1,0,0:0:0:0:
260,69,300206,1,0,0:0:0:0:
237,130,300285,1,14,0:0:0:0:
184,168,300363,1,0,0:0:0:0:
119,168,300442,1,0,0:0:0:0:
66,130,300521,1,0,0:0:0:0:
43,69,300600,2,0,P|38:40|44:10,1,59.9999981689454,14|0,0:0|0:0,0:0:0:0:
153,11,300758,2,0,P|157:40|152:69,1,59.9999981689454
0,326,300916,5,10,0:0:0:0:
47,300,300995,1,0,0:0:0:0:
100,291,301074,1,0,0:0:0:0:
153,299,301153,1,0,0:0:0:0:
201,324,301232,1,10,0:0:0:0:
249,349,301311,1,0,0:0:0:0:
302,357,301390,1,0,0:0:0:0:
355,348,301469,1,0,0:0:0:0:
402,322,301548,2,0,L|417:379,1,59.9999981689454,10|0,0:0|0:0,0:0:0:0:
512,384,301706,2,0,L|496:326,1,59.9999981689454
363,68,301863,5,12,0:0:0:0:
319,11,301942,1,0,0:0:0:0:
248,1,302021,1,0,0:0:0:0:
191,45,302100,1,0,0:0:0:0:
181,116,302179,1,8,0:0:0:0:
225,174,302258,1,0,0:0:0:0:
297,183,302337,1,0,0:0:0:0:
368,195,302416,1,0,0:0:0:0:
412,251,302495,1,10,0:0:0:0:
402,322,302574,1,0,0:0:0:0:
346,367,302653,1,0,0:0:0:0:
274,357,302732,1,0,0:0:0:0:
230,300,302811,2,0,P|227:270|232:240,1,59.9999981689454,10|0,0:0|0:0,0:0:0:0:
363,68,302969,2,0,P|338:85|310:95,1,59.9999981689454
108,66,303127,5,10,0:0:0:0:
84,59,303206,1,0,0:0:0:0:
61,53,303285,1,0,0:0:0:0:
38,47,303363,1,0,0:0:0:0:
15,41,303442,5,10,0:0:0:0:
26,83,303521,1,0,0:0:0:0:
37,126,303600,1,0,0:0:0:0:
49,168,303679,1,0,0:0:0:0:
60,211,303758,1,10,0:0:0:0:
71,253,303837,1,0,0:0:0:0:
83,296,303916,1,0,0:0:0:0:
101,351,303995,1,0,0:0:0:0:
154,376,304074,1,10,0:0:0:0:
208,354,304153,1,0,0:0:0:0:
230,300,304232,1,0,0:0:0:0:
205,247,304311,1,0,0:0:0:0:
148,228,304390,2,0,L|91:246,1,59.9999981689454,10|0,0:0|0:0,0:0:0:0:
180,115,304548,2,0,L|237:132,1,59.9999981689454
408,240,304706,5,0,0:0:0:0:
411,252,304785,1,0,0:0:0:0:
414,264,304863,1,0,0:0:0:0:
417,276,304942,1,0,0:0:0:0:
420,288,305021,1,0,0:0:0:0:
424,300,305100,1,0,0:0:0:0:
427,312,305179,1,0,0:0:0:0:
430,324,305258,1,0,0:0:0:0:
433,336,305337,1,0,0:0:0:0:
437,348,305416,1,0,0:0:0:0:
440,360,305495,1,0,0:0:0:0:
443,372,305574,1,0,0:0:0:0:
448,384,305653,2,0,L|463:326,1,59.9999981689454
328,344,305811,2,0,L|312:286,1,59.9999981689454
469,174,305969,5,10,0:0:0:0:
512,116,306048,1,0,0:0:0:0:
503,45,306127,1,0,0:0:0:0:
446,1,306206,1,0,0:0:0:0:
374,11,306285,1,10,0:0:0:0:
331,68,306363,1,0,0:0:0:0:
340,139,306442,2,0,L|360:216,1,80
107,384,306600,5,10,0:0:0:0:
39,358,306679,1,0,0:0:0:0:
0,297,306758,1,0,0:0:0:0:
4,225,306837,1,0,0:0:0:0:
49,169,306916,2,0,P|85:153|125:153,1,80,10|0,0:0|0:0,0:0:0:0:
187,281,307074,2,0,P|147:281|111:266,1,80
0,97,307232,5,10,0:0:0:0:
56,55,307311,1,0,0:0:0:0:
124,39,307390,1,0,0:0:0:0:
195,50,307469,1,0,0:0:0:0:
254,86,307548,1,10,0:0:0:0:
315,124,307627,1,0,0:0:0:0:
385,135,307706,1,0,0:0:0:0:
454,119,307785,1,0,0:0:0:0:
510,77,307863,1,10,0:0:0:0:
438,86,307942,1,0,0:0:0:0:
385,135,308021,1,0,0:0:0:0:
373,206,308100,1,0,0:0:0:0:
402,271,308179,2,0,P|433:294|472:300,1,80,10|0,0:0|0:0,0:0:0:0:
329,355,308337,2,0,P|289:360|258:384,1,80
108,366,308495,5,0,0:0:0:0:
34,334,308574,1,0,0:0:0:0:
2,261,308653,1,0,0:0:0:0:
33,187,308732,1,0,0:0:0:0:
107,156,308811,1,0,0:0:0:0:
181,187,308890,1,0,0:0:0:0:
211,261,308969,1,0,0:0:0:0:
271,311,309048,1,0,0:0:0:0:
351,323,309127,1,0,0:0:0:0:
426,295,309206,1,0,0:0:0:0:
477,234,309285,1,0,0:0:0:0:
488,154,309363,1,0,0:0:0:0:
461,80,309442,1,0,0:0:0:0:
399,29,309521,1,0,0:0:0:0:
319,17,309600,1,0,0:0:0:0:
244,46,309679,1,0,0:0:0:0:
194,108,309758,5,8,0:0:0:0:
271,169,309837,1,8,0:0:0:0:
348,231,309916,1,8,0:0:0:0:
426,295,309995,1,8,0:0:0:0:
503,355,310074,1,8,0:0:0:0:
167,108,310232,5,8,0:0:0:0:
244,169,310311,1,8,0:0:0:0:
321,231,310390,1,8,0:0:0:0:
399,295,310469,1,8,0:0:0:0:
476,355,310548,1,8,0:0:0:0:
2,261,310706,1,8,0:0:0:0:
