osu file format v14

[General]
AudioFilename: audio.ogg
AudioLeadIn: 0
PreviewTime: 196169
Countdown: 0
SampleSet: Normal
StackLeniency: 0.7
Mode: 1
LetterboxInBreaks: 0
WidescreenStoryboard: 0

[Editor]
Bookmarks: 1084,2455,17541,18912,21655,23026,24398,46341,55941,57312,79255,90226,94341,95712,100169,101198,134112,142341,151941,153312,161541,164284,172512,173884,175255,186226,191712,194455,196169,197198,238341,241084,261998,263026,273998,282226,283598,304169,305541
DistanceSpacing: 0.1
BeatDivisor: 4
GridSize: 32
TimelineZoom: 2.3

[Metadata]
Title:Mahou no Sho
TitleUnicode:魔法の書
Artist:Dragon Guardian
ArtistUnicode:Dragon Guardian
Creator:YaniFR
Version:Magical Obsession
Source:
Tags:kalon kalon. カロン power heavy symphonic rpg metal rock japanese female vocal jrock j-rock jmetal j-metal 勇者アーサー arthur brave the best of dragon guardian saga book of the magic 聖邪のドラゴン seija no dragon ドラゴンガーディアン ドラゴン・ガーディアン deathstream stream
BeatmapID:4502043
BeatmapSetID:2139170

[Difficulty]
HPDrainRate:5
CircleSize:5
OverallDifficulty:7
ApproachRate:5
SliderMultiplier:1.4
SliderTickRate:1

[Events]
//Background and Video events
0,0,"96273458_p00.jpg",0,95
//Break Periods
//Storyboard Layer 0 (Background)
//Storyboard Layer 1 (Fail)
//Storyboard Layer 2 (Pass)
//Storyboard Layer 3 (Foreground)
//Storyboard Layer 4 (Overlay)
//Storyboard Sound Samples

[TimingPoints]
1084,342.857142857143,4,1,0,75,1,0
2112,-99.009900990099,4,1,0,75,0,0
2198,-98.0392156862745,4,1,0,75,0,0
2284,-97.0873786407767,4,1,0,75,0,0
2369,-96.1538461538461,4,1,0,75,0,0
2455,342.857142857143,4,1,0,85,1,1
2455,-95.2380952380952,4,1,0,85,0,1
18226,-96.1538461538461,4,1,0,85,0,1
18312,-96.6183574879227,4,1,0,85,0,1
18397,-97.0873786407767,4,1,0,85,0,1
18483,-97.5609756097561,4,1,0,85,0,1
18569,-98.0392156862745,4,1,0,85,0,1
18655,-98.5221674876847,4,1,0,85,0,1
18740,-99.009900990099,4,1,0,85,0,1
18826,-99.502487562189,4,1,0,85,0,1
18912,-100,4,1,0,70,0,0
21655,-95.2380952380952,4,1,0,85,0,1
22340,-96.1538461538461,4,1,0,85,0,1
22426,-96.6183574879227,4,1,0,85,0,1
22512,-97.0873786407767,4,1,0,85,0,1
22597,-97.5609756097561,4,1,0,85,0,1
22683,-98.0392156862745,4,1,0,85,0,1
22769,-98.5221674876847,4,1,0,85,0,1
22855,-99.009900990099,4,1,0,85,0,1
22940,-99.502487562189,4,1,0,85,0,1
23026,-100,4,1,0,75,0,0
24397,-100,4,1,0,80,0,0
44969,-100,4,1,0,80,0,0
45055,-99.6875681174162,4,1,0,80,0,0
45140,-99.3770824279299,4,1,0,80,0,0
45226,-99.0721016716612,4,1,0,80,0,0
45312,-98.7654320987654,4,1,0,80,0,0
45397,-98.460655208296,4,1,0,80,0,0
45483,-98.1577535324629,4,1,0,80,0,0
45569,-97.8601997146933,4,1,0,80,0,0
45655,-97.5609756097561,4,1,0,80,0,0
45740,-97.2635757833546,4,1,0,80,0,0
45826,-96.9714103968619,4,1,0,80,0,0
45912,-96.6775886974597,4,1,0,80,0,0
45997,-96.3855421686747,4,1,0,80,0,0
46083,-96.0952547714936,4,1,0,80,0,0
46169,-95.8100558659218,4,1,0,80,0,0
46255,-95.5232193831372,4,1,0,80,0,0
46340,-95.2380952380952,4,1,0,85,0,1
54569,-95.2380952380952,4,1,0,85,0,1
54655,-95.5232193831372,4,1,0,85,0,1
54740,-95.8100558659218,4,1,0,85,0,1
54826,-96.0952547714936,4,1,0,85,0,1
54912,-96.3855421686747,4,1,0,85,0,1
54997,-96.6775886974597,4,1,0,85,0,1
55083,-96.9714103968619,4,1,0,85,0,1
55169,-97.2635757833546,4,1,0,85,0,1
55255,-97.5609756097561,4,1,0,85,0,1
55340,-97.8601997146933,4,1,0,85,0,1
55426,-98.1577535324629,4,1,0,85,0,1
55512,-98.460655208296,4,1,0,85,0,1
55597,-98.7654320987654,4,1,0,85,0,1
55683,-99.0721016716612,4,1,0,85,0,1
55769,-99.3770824279299,4,1,0,85,0,1
55855,-99.6875681174162,4,1,0,85,0,1
55940,-100,4,1,0,75,0,0
57312,-100,4,1,0,80,0,0
79255,-100,4,1,0,75,0,0
90226,-100,4,1,0,80,0,0
100169,-100,4,1,0,80,0,0
100255,-99.5838575437917,4,1,0,80,0,0
100340,-99.1711642251349,4,1,0,80,0,0
100426,-98.7666170753947,4,1,0,80,0,0
100512,-98.3606557377049,4,1,0,80,0,0
100597,-97.958017992289,4,1,0,80,0,0
100683,-97.5586631903295,4,1,0,80,0,0
100769,-97.1671388101983,4,1,0,80,0,0
100855,-96.7741935483871,4,1,0,80,0,0
100940,-96.3844136380667,4,1,0,80,0,0
101026,-96.0022391192798,4,1,0,80,0,0
101112,-95.6186405240905,4,1,0,80,0,0
101197,-95.2380952380952,4,1,0,90,0,1
140969,-95.2380952380952,4,1,0,90,0,1
141055,-95.5232193831372,4,1,0,90,0,1
141140,-95.8100558659218,4,1,0,90,0,1
141226,-96.0952547714936,4,1,0,90,0,1
141312,-96.3855421686747,4,1,0,90,0,1
141397,-96.6775886974597,4,1,0,90,0,1
141483,-96.9714103968619,4,1,0,90,0,1
141569,-97.2635757833546,4,1,0,90,0,1
141655,-97.5609756097561,4,1,0,90,0,1
141740,-97.8601997146933,4,1,0,90,0,1
141826,-98.1577535324629,4,1,0,90,0,1
141912,-98.460655208296,4,1,0,90,0,1
141997,-98.7654320987654,4,1,0,90,0,1
142083,-99.0721016716612,4,1,0,90,0,1
142169,-99.3770824279299,4,1,0,90,0,1
142254,-99.6875681174162,4,1,0,90,0,1
142340,342.857142857143,4,1,0,80,1,0
142340,-100,4,1,0,80,0,0
151940,-100,4,1,0,80,0,0
152025,-99.6909652790402,4,1,0,80,0,0
152111,-99.3802326845711,4,1,0,80,0,0
152197,-99.0714311522203,4,1,0,80,0,0
152282,-98.7645427367359,4,1,0,80,0,0
152368,-98.4630853203103,4,1,0,80,0,0
152454,-98.1599484499177,4,1,0,80,0,0
152540,-97.8586723768737,4,1,0,80,0,0
152625,-97.5627112613414,4,1,0,80,0,0
152711,-97.2650846014686,4,1,0,80,0,0
152797,-96.9692683099339,4,1,0,80,0,0
152882,-96.6752459189789,4,1,0,80,0,0
152968,-96.3863892013498,4,1,0,80,0,0
153054,-96.0958856101493,4,1,0,80,0,0
153140,-95.8071278825996,4,1,0,80,0,0
153225,-95.5234279742205,4,1,0,80,0,0
153311,-95.2380952380952,4,1,0,85,0,1
172511,-95.2380952380952,4,1,0,85,0,1
172597,-95.5232193831372,4,1,0,85,0,1
172682,-95.8100558659218,4,1,0,85,0,1
172768,-96.0952547714936,4,1,0,85,0,1
172854,-96.3855421686747,4,1,0,85,0,1
172940,-96.6775886974597,4,1,0,85,0,1
173025,-96.9679836030815,4,1,0,85,0,1
173111,-97.2635757833546,4,1,0,85,0,1
173197,-97.5609756097561,4,1,0,85,0,1
173282,-97.8601997146933,4,1,0,85,0,1
173368,-98.1577535324629,4,1,0,85,0,1
173454,-98.460655208296,4,1,0,85,0,1
173540,-98.7654320987654,4,1,0,85,0,1
173625,-99.0685248032349,4,1,0,85,0,1
173711,-99.3770824279299,4,1,0,85,0,1
173797,-99.6875681174162,4,1,0,85,0,1
173882,-100,4,1,0,80,0,1
175254,-100,4,1,0,75,0,0
186225,-100,4,1,0,80,0,0
196169,-99.5838575437917,4,1,0,80,0,0
196255,-99.1711642251349,4,1,0,80,0,0
196340,-98.7666170753947,4,1,0,80,0,0
196425,-98.3606557377049,4,1,0,80,0,0
196511,-97.958017992289,4,1,0,80,0,0
196597,-97.5586631903295,4,1,0,80,0,0
196682,-97.1671388101983,4,1,0,80,0,0
196768,-96.7741935483871,4,1,0,80,0,0
196854,-96.3844136380667,4,1,0,80,0,0
196940,-96.0022391192798,4,1,0,80,0,0
197025,-95.6186405240905,4,1,0,80,0,0
197111,-95.2380952380952,4,1,0,90,0,1
197197,-95.2380952380952,4,1,0,90,0,1
240054,-95.2380952380952,4,1,0,90,0,1
240140,-94.8605669509103,4,1,0,90,0,1
240225,-94.4903581267218,4,1,0,90,0,1
240311,-94.1187231318028,4,1,0,90,0,1
240397,-93.75,4,1,0,90,0,1
240482,-93.384154641982,4,1,0,90,0,1
240568,-93.0253582244723,4,1,0,90,0,1
240654,-92.6651357557747,4,1,0,90,0,1
240740,-92.3076923076923,4,1,0,90,0,1
240825,-91.9571045576407,4,1,0,90,0,1
240911,-91.6050921392326,4,1,0,90,0,1
240997,-91.2557644554807,4,1,0,90,0,1
241082,-90.9090909090909,4,1,0,90,0,1
261997,-90.9090909090909,4,1,0,90,0,1
262082,-90.5647079552462,4,1,0,90,0,1
262168,-90.2268837495063,4,1,0,90,0,1
262254,-89.8876404494382,4,1,0,90,0,1
262340,-89.5509386297313,4,1,0,90,0,1
262425,-89.2206214198924,4,1,0,90,0,1
262511,-88.8888888888889,4,1,0,90,0,1
262597,-88.5596140592695,4,1,0,90,0,1
262682,-88.2327697193374,4,1,0,90,0,1
262768,-87.9120879120879,4,1,0,90,0,1
262854,-87.5899970178503,4,1,0,90,0,1
262940,-87.2702576510039,4,1,0,90,0,1
263025,-86.9565217391304,4,1,0,95,0,1
283254,-95.2380952380952,4,1,0,90,0,1
283597,342.857142857143,4,1,0,90,1,1
283597,-95.2380952380952,4,1,0,90,0,1
302797,-95.2380952380952,4,1,0,90,0,1
302882,-95.5423476968796,4,1,0,90,0,1
302968,-95.8449785727595,4,1,0,90,0,1
303054,-96.1567219979064,4,1,0,90,0,1
303140,-96.4632636987586,4,1,0,90,0,1
303225,-96.7717661223568,4,1,0,90,0,1
303311,-97.0895775923899,4,1,0,90,0,1
303397,-97.4021055820647,4,1,0,90,0,1
303482,-97.7203647416413,4,1,0,90,0,1
303568,-98.0369735086716,4,1,0,90,0,1
303654,-98.3594018891736,4,1,0,90,0,1
303740,-98.6839581015232,4,1,0,90,0,1
303825,-99.0068519516514,4,1,0,90,0,1
303911,-99.3357021473814,4,1,0,90,0,1
303997,-99.6667441680229,4,1,0,90,0,1
304082,-100,4,1,0,90,0,1
304168,342.857142857143,4,1,0,90,1,0
304168,-100,4,1,0,90,0,0
304339,-100,4,1,0,70,0,0

[HitObjects]
256,192,1084,5,8,0:0:0:0:
256,192,1169,1,8,0:0:0:0:
256,192,1255,1,0,0:0:0:0:
256,192,1341,1,8,0:0:0:0:
256,192,1426,1,0,0:0:0:0:
256,192,1512,1,0,0:0:0:0:
256,192,1598,1,8,0:0:0:0:
256,192,1684,1,0,0:0:0:0:
256,192,1769,1,8,0:0:0:0:
256,192,1855,1,8,0:0:0:0:
256,192,1941,1,8,0:0:0:0:
256,192,2026,1,0,0:0:0:0:
256,192,2112,1,8,0:0:0:0:
256,192,2198,1,8,0:0:0:0:
256,192,2284,1,0,0:0:0:0:
256,192,2369,1,0,0:0:0:0:
256,192,2455,1,8,0:0:0:0:
256,192,2540,1,8,0:0:0:0:
256,192,2626,1,8,0:0:0:0:
256,192,2712,1,8,0:0:0:0:
256,192,2797,1,0,0:0:0:0:
256,192,2883,1,0,0:0:0:0:
256,192,2969,1,8,0:0:0:0:
256,192,3055,1,0,0:0:0:0:
256,192,3140,1,8,0:0:0:0:
256,192,3226,1,8,0:0:0:0:
256,192,3312,1,0,0:0:0:0:
256,192,3397,1,0,0:0:0:0:
256,192,3483,1,8,0:0:0:0:
256,192,3569,1,0,0:0:0:0:
256,192,3655,1,8,0:0:0:0:
256,192,3740,1,0,0:0:0:0:
256,192,3826,1,8,0:0:0:0:
256,192,3912,1,8,0:0:0:0:
256,192,3997,1,8,0:0:0:0:
256,192,4083,1,0,0:0:0:0:
256,192,4169,1,8,0:0:0:0:
256,192,4255,1,0,0:0:0:0:
256,192,4340,1,0,0:0:0:0:
256,192,4426,1,0,0:0:0:0:
256,192,4512,1,8,0:0:0:0:
256,192,4597,1,8,0:0:0:0:
256,192,4683,1,0,0:0:0:0:
256,192,4769,1,0,0:0:0:0:
256,192,4855,1,8,0:0:0:0:
256,192,4940,1,0,0:0:0:0:
256,192,5026,1,0,0:0:0:0:
256,192,5112,1,0,0:0:0:0:
256,192,5197,1,8,0:0:0:0:
256,192,5283,1,8,0:0:0:0:
256,192,5369,1,8,0:0:0:0:
256,192,5455,1,8,0:0:0:0:
256,192,5540,1,0,0:0:0:0:
256,192,5626,1,0,0:0:0:0:
256,192,5712,1,8,0:0:0:0:
256,192,5797,1,0,0:0:0:0:
256,192,5883,1,8,0:0:0:0:
256,192,5969,1,0,0:0:0:0:
256,192,6055,1,0,0:0:0:0:
256,192,6140,1,0,0:0:0:0:
256,192,6226,1,8,0:0:0:0:
256,192,6312,1,8,0:0:0:0:
256,192,6397,1,8,0:0:0:0:
256,192,6483,1,0,0:0:0:0:
256,192,6569,1,8,0:0:0:0:
256,192,6655,1,0,0:0:0:0:
256,192,6740,1,0,0:0:0:0:
256,192,6826,1,0,0:0:0:0:
256,192,6912,1,8,0:0:0:0:
256,192,6997,1,8,0:0:0:0:
256,192,7083,1,0,0:0:0:0:
256,192,7169,1,0,0:0:0:0:
256,192,7255,1,8,0:0:0:0:
256,192,7340,1,0,0:0:0:0:
256,192,7426,1,0,0:0:0:0:
256,192,7512,1,0,0:0:0:0:
256,192,7597,1,8,0:0:0:0:
256,192,7683,1,8,0:0:0:0:
256,192,7769,1,8,0:0:0:0:
256,192,7855,1,0,0:0:0:0:
256,192,7940,1,8,0:0:0:0:
256,192,8026,1,8,0:0:0:0:
256,192,8112,1,0,0:0:0:0:
256,192,8197,1,0,0:0:0:0:
256,192,8283,1,0,0:0:0:0:
256,192,8369,1,0,0:0:0:0:
256,192,8455,1,8,0:0:0:0:
256,192,8540,1,0,0:0:0:0:
256,192,8626,1,8,0:0:0:0:
256,192,8712,1,0,0:0:0:0:
256,192,8797,1,0,0:0:0:0:
256,192,8883,1,0,0:0:0:0:
256,192,8969,1,8,0:0:0:0:
256,192,9055,1,0,0:0:0:0:
256,192,9140,1,8,0:0:0:0:
256,192,9226,1,0,0:0:0:0:
256,192,9312,1,8,0:0:0:0:
256,192,9397,1,8,0:0:0:0:
256,192,9483,1,8,0:0:0:0:
256,192,9569,1,8,0:0:0:0:
256,192,9655,1,0,0:0:0:0:
256,192,9740,1,0,0:0:0:0:
256,192,9826,1,8,0:0:0:0:
256,192,9912,1,0,0:0:0:0:
256,192,9997,1,8,0:0:0:0:
256,192,10083,1,0,0:0:0:0:
256,192,10169,1,0,0:0:0:0:
256,192,10255,1,0,0:0:0:0:
256,192,10340,1,8,0:0:0:0:
256,192,10426,1,8,0:0:0:0:
256,192,10512,1,0,0:0:0:0:
256,192,10597,1,0,0:0:0:0:
256,192,10683,1,8,0:0:0:0:
256,192,10769,1,8,0:0:0:0:
256,192,10855,1,8,0:0:0:0:
256,192,10940,1,8,0:0:0:0:
256,192,11026,1,0,0:0:0:0:
256,192,11112,1,0,0:0:0:0:
256,192,11197,1,0,0:0:0:0:
256,192,11283,1,0,0:0:0:0:
256,192,11369,1,8,0:0:0:0:
256,192,11455,1,8,0:0:0:0:
256,192,11540,1,0,0:0:0:0:
256,192,11626,1,0,0:0:0:0:
256,192,11712,1,8,0:0:0:0:
256,192,11797,1,8,0:0:0:0:
256,192,11883,1,8,0:0:0:0:
256,192,11969,1,0,0:0:0:0:
256,192,12055,1,8,0:0:0:0:
256,192,12140,1,8,0:0:0:0:
256,192,12226,1,0,0:0:0:0:
256,192,12312,1,8,0:0:0:0:
256,192,12397,1,0,0:0:0:0:
256,192,12483,1,0,0:0:0:0:
256,192,12569,1,8,0:0:0:0:
256,192,12655,1,0,0:0:0:0:
256,192,12740,1,0,0:0:0:0:
256,192,12826,1,8,0:0:0:0:
256,192,12912,1,0,0:0:0:0:
256,192,12997,1,0,0:0:0:0:
256,192,13083,1,8,0:0:0:0:
256,192,13169,1,8,0:0:0:0:
256,192,13255,1,0,0:0:0:0:
256,192,13340,1,0,0:0:0:0:
256,192,13426,1,8,0:0:0:0:
256,192,13512,1,8,0:0:0:0:
256,192,13597,1,8,0:0:0:0:
256,192,13683,1,8,0:0:0:0:
256,192,13769,1,0,0:0:0:0:
256,192,13855,1,0,0:0:0:0:
256,192,13940,1,8,0:0:0:0:
256,192,14026,1,0,0:0:0:0:
256,192,14112,1,8,0:0:0:0:
256,192,14197,1,8,0:0:0:0:
256,192,14283,1,0,0:0:0:0:
256,192,14369,1,0,0:0:0:0:
256,192,14455,1,8,0:0:0:0:
256,192,14540,1,8,0:0:0:0:
256,192,14626,1,8,0:0:0:0:
256,192,14712,1,0,0:0:0:0:
256,192,14797,1,8,0:0:0:0:
256,192,14883,1,8,0:0:0:0:
256,192,14969,1,0,0:0:0:0:
256,192,15055,1,0,0:0:0:0:
256,192,15140,1,8,0:0:0:0:
256,192,15226,1,0,0:0:0:0:
256,192,15312,1,0,0:0:0:0:
256,192,15397,1,0,0:0:0:0:
256,192,15483,1,8,0:0:0:0:
256,192,15569,1,8,0:0:0:0:
256,192,15655,1,0,0:0:0:0:
256,192,15740,1,0,0:0:0:0:
256,192,15826,1,8,0:0:0:0:
256,192,15912,1,8,0:0:0:0:
256,192,15997,1,0,0:0:0:0:
256,192,16083,1,0,0:0:0:0:
256,192,16169,1,8,0:0:0:0:
256,192,16255,1,8,0:0:0:0:
256,192,16340,1,8,0:0:0:0:
256,192,16426,1,8,0:0:0:0:
256,192,16512,1,0,0:0:0:0:
256,192,16597,1,0,0:0:0:0:
256,192,16683,1,8,0:0:0:0:
256,192,16769,1,0,0:0:0:0:
256,192,16855,1,8,0:0:0:0:
256,192,16940,1,8,0:0:0:0:
256,192,17026,1,0,0:0:0:0:
256,192,17112,1,0,0:0:0:0:
256,192,17197,1,8,0:0:0:0:
256,192,17283,1,0,0:0:0:0:
256,192,17369,1,8,0:0:0:0:
256,192,17455,1,0,0:0:0:0:
256,192,17540,1,8,0:0:0:0:
256,192,17626,1,8,0:0:0:0:
256,192,17712,1,0,0:0:0:0:
256,192,17797,1,8,0:0:0:0:
256,192,17883,1,0,0:0:0:0:
256,192,17969,1,0,0:0:0:0:
256,192,18055,1,8,0:0:0:0:
256,192,18140,1,0,0:0:0:0:
256,192,18226,1,8,0:0:0:0:
256,192,18312,1,8,0:0:0:0:
256,192,18397,1,8,0:0:0:0:
256,192,18483,1,0,0:0:0:0:
256,192,18569,1,8,0:0:0:0:
256,192,18655,1,8,0:0:0:0:
256,192,18740,1,0,0:0:0:0:
256,192,18826,1,0,0:0:0:0:
256,192,18912,1,12,0:0:0:0:
256,192,19597,1,8,0:0:0:0:
256,192,19855,1,8,0:0:0:0:
256,192,20112,1,8,0:0:0:0:
256,192,20283,1,12,0:0:0:0:
256,192,20969,1,8,0:0:0:0:
256,192,21226,1,8,0:0:0:0:
256,192,21483,1,8,0:0:0:0:
256,192,21655,1,8,0:0:0:0:
256,192,21740,1,8,0:0:0:0:
256,192,21826,1,8,0:0:0:0:
256,192,21912,1,0,0:0:0:0:
256,192,21997,1,8,0:0:0:0:
256,192,22083,1,0,0:0:0:0:
256,192,22169,1,0,0:0:0:0:
256,192,22255,1,0,0:0:0:0:
256,192,22340,1,8,0:0:0:0:
256,192,22426,1,8,0:0:0:0:
256,192,22512,1,0,0:0:0:0:
256,192,22597,1,0,0:0:0:0:
256,192,22683,1,8,0:0:0:0:
256,192,22769,1,0,0:0:0:0:
256,192,22855,1,0,0:0:0:0:
256,192,22940,1,0,0:0:0:0:
256,192,23026,1,8,0:0:0:0:
256,192,23112,1,0,0:0:0:0:
256,192,23197,1,8,0:0:0:0:
256,192,23283,1,8,0:0:0:0:
256,192,23369,1,0,0:0:0:0:
256,192,23455,1,0,0:0:0:0:
256,192,23540,1,8,0:0:0:0:
256,192,23626,1,0,0:0:0:0:
256,192,23712,1,8,0:0:0:0:
256,192,24055,1,12,0:0:0:0:
256,192,24397,1,8,0:0:0:0:
256,192,24483,1,8,0:0:0:0:
256,192,24569,1,0,0:0:0:0:
256,192,24655,1,0,0:0:0:0:
256,192,24740,1,8,0:0:0:0:
256,192,24826,1,0,0:0:0:0:
256,192,24912,1,8,0:0:0:0:
256,192,25083,1,8,0:0:0:0:
256,192,25255,1,0,0:0:0:0:
256,192,25426,1,8,0:0:0:0:
256,192,25512,1,0,0:0:0:0:
256,192,25597,1,8,0:0:0:0:
256,192,25683,1,0,0:0:0:0:
256,192,25769,1,8,0:0:0:0:
256,192,25855,1,8,0:0:0:0:
256,192,25940,1,0,0:0:0:0:
256,192,26112,1,8,0:0:0:0:
256,192,26197,1,8,0:0:0:0:
256,192,26283,1,0,0:0:0:0:
256,192,26455,1,8,0:0:0:0:
256,192,26626,1,0,0:0:0:0:
256,192,26797,1,0,0:0:0:0:
256,192,26883,1,0,0:0:0:0:
256,192,26969,1,8,0:0:0:0:
256,192,27055,1,0,0:0:0:0:
256,192,27140,1,8,0:0:0:0:
256,192,27226,1,8,0:0:0:0:
256,192,27312,1,0,0:0:0:0:
256,192,27483,1,0,0:0:0:0:
256,192,27569,1,0,0:0:0:0:
256,192,27655,1,8,0:0:0:0:
256,192,27826,1,0,0:0:0:0:
256,192,27997,1,8,0:0:0:0:
256,192,28169,1,8,0:0:0:0:
256,192,28255,1,0,0:0:0:0:
256,192,28340,1,8,0:0:0:0:
256,192,28512,1,0,0:0:0:0:
256,192,28683,1,8,0:0:0:0:
256,192,28855,1,0,0:0:0:0:
256,192,28940,1,0,0:0:0:0:
256,192,29026,1,8,0:0:0:0:
256,192,29197,1,0,0:0:0:0:
256,192,29283,1,0,0:0:0:0:
256,192,29369,1,8,0:0:0:0:
256,192,29455,1,0,0:0:0:0:
256,192,29540,1,8,0:0:0:0:
256,192,29626,1,8,0:0:0:0:
256,192,29712,1,8,0:0:0:0:
256,192,29797,1,0,0:0:0:0:
256,192,29883,1,8,0:0:0:0:
256,192,30055,1,0,0:0:0:0:
256,192,30226,1,0,0:0:0:0:
256,192,30312,1,0,0:0:0:0:
256,192,30397,1,8,0:0:0:0:
256,192,30483,1,8,0:0:0:0:
256,192,30569,1,0,0:0:0:0:
256,192,30740,1,8,0:0:0:0:
256,192,30912,1,8,0:0:0:0:
256,192,30997,1,8,0:0:0:0:
256,192,31083,1,0,0:0:0:0:
256,192,31255,1,8,0:0:0:0:
256,192,31340,1,0,0:0:0:0:
256,192,31426,1,0,0:0:0:0:
256,192,31512,1,0,0:0:0:0:
256,192,31597,1,8,0:0:0:0:
256,192,31683,1,0,0:0:0:0:
256,192,31769,1,8,0:0:0:0:
256,192,31940,1,0,0:0:0:0:
256,192,32112,1,0,0:0:0:0:
256,192,32283,1,8,0:0:0:0:
256,192,32369,1,0,0:0:0:0:
256,192,32455,1,0,0:0:0:0:
256,192,32626,1,8,0:0:0:0:
256,192,32712,1,8,0:0:0:0:
256,192,32797,1,0,0:0:0:0:
256,192,32883,1,0,0:0:0:0:
256,192,32969,1,8,0:0:0:0:
256,192,33055,1,0,0:0:0:0:
256,192,33140,1,8,0:0:0:0:
256,192,33226,1,0,0:0:0:0:
256,192,33312,1,8,0:0:0:0:
256,192,33397,1,8,0:0:0:0:
256,192,33483,1,0,0:0:0:0:
256,192,33569,1,0,0:0:0:0:
256,192,33655,1,8,0:0:0:0:
256,192,33740,1,0,0:0:0:0:
256,192,33826,1,0,0:0:0:0:
256,192,33912,1,0,0:0:0:0:
256,192,33997,1,8,0:0:0:0:
256,192,34169,1,8,0:0:0:0:
256,192,34340,1,8,0:0:0:0:
256,192,34512,1,8,0:0:0:0:
256,192,34855,1,0,0:0:0:0:
256,192,35026,1,12,0:0:0:0:
256,192,35369,1,8,0:0:0:0:
256,192,35455,1,0,0:0:0:0:
256,192,35540,1,0,0:0:0:0:
256,192,35626,1,0,0:0:0:0:
256,192,35712,1,8,0:0:0:0:
256,192,35797,1,8,0:0:0:0:
256,192,35883,1,0,0:0:0:0:
256,192,36055,1,8,0:0:0:0:
256,192,36226,1,0,0:0:0:0:
256,192,36397,1,8,0:0:0:0:
256,192,36483,1,0,0:0:0:0:
256,192,36569,1,8,0:0:0:0:
256,192,36655,1,0,0:0:0:0:
256,192,36740,1,8,0:0:0:0:
256,192,36826,1,8,0:0:0:0:
256,192,36912,1,0,0:0:0:0:
256,192,37083,1,8,0:0:0:0:
256,192,37169,1,8,0:0:0:0:
256,192,37255,1,0,0:0:0:0:
256,192,37426,1,8,0:0:0:0:
256,192,37597,1,0,0:0:0:0:
256,192,37769,1,0,0:0:0:0:
256,192,37855,1,0,0:0:0:0:
256,192,37940,1,8,0:0:0:0:
256,192,38026,1,0,0:0:0:0:
256,192,38112,1,8,0:0:0:0:
256,192,38197,1,8,0:0:0:0:
256,192,38283,1,0,0:0:0:0:
256,192,38455,1,0,0:0:0:0:
256,192,38540,1,0,0:0:0:0:
256,192,38626,1,8,0:0:0:0:
256,192,38712,1,8,0:0:0:0:
256,192,38797,1,0,0:0:0:0:
256,192,38969,1,8,0:0:0:0:
256,192,39140,1,8,0:0:0:0:
256,192,39226,1,0,0:0:0:0:
256,192,39312,1,0,0:0:0:0:
256,192,39397,1,0,0:0:0:0:
256,192,39483,1,8,0:0:0:0:
256,192,39655,1,8,0:0:0:0:
256,192,39826,1,0,0:0:0:0:
256,192,39912,1,0,0:0:0:0:
256,192,39997,1,8,0:0:0:0:
256,192,40169,1,0,0:0:0:0:
256,192,40255,1,0,0:0:0:0:
256,192,40340,1,8,0:0:0:0:
256,192,40426,1,0,0:0:0:0:
256,192,40512,1,8,0:0:0:0:
256,192,40597,1,8,0:0:0:0:
256,192,40683,1,0,0:0:0:0:
256,192,40769,1,0,0:0:0:0:
256,192,40855,1,8,0:0:0:0:
256,192,41026,1,0,0:0:0:0:
256,192,41197,1,0,0:0:0:0:
256,192,41283,1,0,0:0:0:0:
256,192,41369,1,8,0:0:0:0:
256,192,41455,1,8,0:0:0:0:
256,192,41540,1,0,0:0:0:0:
256,192,41712,1,8,0:0:0:0:
256,192,41883,1,8,0:0:0:0:
256,192,41969,1,0,0:0:0:0:
256,192,42055,1,0,0:0:0:0:
256,192,42226,1,8,0:0:0:0:
256,192,42312,1,8,0:0:0:0:
256,192,42397,1,0,0:0:0:0:
256,192,42483,1,0,0:0:0:0:
256,192,42569,1,8,0:0:0:0:
256,192,42655,1,0,0:0:0:0:
256,192,42740,1,8,0:0:0:0:
256,192,42912,1,8,0:0:0:0:
256,192,43083,1,0,0:0:0:0:
256,192,43255,1,8,0:0:0:0:
256,192,43340,1,0,0:0:0:0:
256,192,43426,1,0,0:0:0:0:
256,192,43597,1,8,0:0:0:0:
256,192,43683,1,8,0:0:0:0:
256,192,43769,1,0,0:0:0:0:
256,192,43855,1,0,0:0:0:0:
256,192,43940,1,8,0:0:0:0:
256,192,44026,1,0,0:0:0:0:
256,192,44112,1,8,0:0:0:0:
256,192,44197,1,8,0:0:0:0:
256,192,44283,1,0,0:0:0:0:
256,192,44369,1,0,0:0:0:0:
256,192,44455,1,0,0:0:0:0:
256,192,44540,1,0,0:0:0:0:
256,192,44626,1,8,0:0:0:0:
256,192,44712,1,0,0:0:0:0:
256,192,44797,1,0,0:0:0:0:
256,192,44883,1,0,0:0:0:0:
256,192,44969,1,8,0:0:0:0:
256,192,45055,1,8,0:0:0:0:
256,192,45140,1,0,0:0:0:0:
256,192,45226,1,8,0:0:0:0:
256,192,45312,1,0,0:0:0:0:
256,192,45397,1,0,0:0:0:0:
256,192,45483,1,8,0:0:0:0:
256,192,45569,1,0,0:0:0:0:
256,192,45655,1,8,0:0:0:0:
256,192,45740,1,8,0:0:0:0:
256,192,45826,1,8,0:0:0:0:
256,192,45912,1,0,0:0:0:0:
256,192,45997,1,8,0:0:0:0:
256,192,46083,1,8,0:0:0:0:
256,192,46169,1,0,0:0:0:0:
256,192,46255,1,0,0:0:0:0:
256,192,46340,1,8,0:0:0:0:
256,192,46426,1,0,0:0:0:0:
256,192,46512,1,8,0:0:0:0:
256,192,46597,1,0,0:0:0:0:
256,192,46683,1,8,0:0:0:0:
256,192,46769,1,8,0:0:0:0:
256,192,46855,1,8,0:0:0:0:
256,192,46940,1,0,0:0:0:0:
256,192,47026,1,8,0:0:0:0:
256,192,47112,1,0,0:0:0:0:
256,192,47197,1,8,0:0:0:0:
256,192,47283,1,0,0:0:0:0:
256,192,47369,1,8,0:0:0:0:
256,192,47455,1,8,0:0:0:0:
256,192,47540,1,0,0:0:0:0:
256,192,47626,1,0,0:0:0:0:
256,192,47712,1,8,0:0:0:0:
256,192,47797,1,8,0:0:0:0:
256,192,47883,1,8,0:0:0:0:
256,192,47969,1,0,0:0:0:0:
256,192,48055,1,8,0:0:0:0:
256,192,48140,1,0,0:0:0:0:
256,192,48226,1,0,0:0:0:0:
256,192,48312,1,0,0:0:0:0:
256,192,48397,1,8,0:0:0:0:
256,192,48483,1,0,0:0:0:0:
256,192,48569,1,8,0:0:0:0:
256,192,48655,1,0,0:0:0:0:
256,192,48740,1,8,0:0:0:0:
256,192,48826,1,8,0:0:0:0:
256,192,48912,1,0,0:0:0:0:
256,192,48997,1,0,0:0:0:0:
256,192,49083,1,8,0:0:0:0:
256,192,49169,1,8,0:0:0:0:
256,192,49255,1,8,0:0:0:0:
256,192,49340,1,0,0:0:0:0:
256,192,49426,1,8,0:0:0:0:
256,192,49512,1,0,0:0:0:0:
256,192,49597,1,8,0:0:0:0:
256,192,49683,1,0,0:0:0:0:
256,192,49769,1,8,0:0:0:0:
256,192,49855,1,8,0:0:0:0:
256,192,49940,1,8,0:0:0:0:
256,192,50026,1,0,0:0:0:0:
256,192,50112,1,8,0:0:0:0:
256,192,50197,1,8,0:0:0:0:
256,192,50283,1,8,0:0:0:0:
256,192,50369,1,8,0:0:0:0:
256,192,50455,1,0,0:0:0:0:
256,192,50540,1,0,0:0:0:0:
256,192,50626,1,0,0:0:0:0:
256,192,50712,1,0,0:0:0:0:
256,192,50797,1,8,0:0:0:0:
256,192,50883,1,8,0:0:0:0:
256,192,50969,1,0,0:0:0:0:
256,192,51055,1,0,0:0:0:0:
256,192,51140,1,8,0:0:0:0:
256,192,51226,1,0,0:0:0:0:
256,192,51312,1,8,0:0:0:0:
256,192,51397,1,0,0:0:0:0:
256,192,51483,1,8,0:0:0:0:
256,192,51569,1,8,0:0:0:0:
256,192,51655,1,0,0:0:0:0:
256,192,51740,1,0,0:0:0:0:
256,192,51826,1,8,0:0:0:0:
256,192,51912,1,0,0:0:0:0:
256,192,51997,1,8,0:0:0:0:
256,192,52083,1,0,0:0:0:0:
256,192,52169,1,8,0:0:0:0:
256,192,52255,1,8,0:0:0:0:
256,192,52340,1,8,0:0:0:0:
256,192,52426,1,0,0:0:0:0:
256,192,52512,1,8,0:0:0:0:
256,192,52597,1,0,0:0:0:0:
256,192,52683,1,8,0:0:0:0:
256,192,52769,1,8,0:0:0:0:
256,192,52855,1,0,0:0:0:0:
256,192,52940,1,0,0:0:0:0:
256,192,53026,1,8,0:0:0:0:
256,192,53112,1,0,0:0:0:0:
256,192,53197,1,8,0:0:0:0:
256,192,53283,1,8,0:0:0:0:
256,192,53369,1,0,0:0:0:0:
256,192,53455,1,0,0:0:0:0:
256,192,53540,1,8,0:0:0:0:
256,192,53626,1,0,0:0:0:0:
256,192,53712,1,0,0:0:0:0:
256,192,53797,1,0,0:0:0:0:
256,192,53883,1,8,0:0:0:0:
256,192,53969,1,0,0:0:0:0:
256,192,54055,1,8,0:0:0:0:
256,192,54140,1,0,0:0:0:0:
256,192,54226,1,8,0:0:0:0:
256,192,54312,1,8,0:0:0:0:
256,192,54397,1,0,0:0:0:0:
256,192,54483,1,0,0:0:0:0:
256,192,54569,1,8,0:0:0:0:
256,192,54655,1,8,0:0:0:0:
256,192,54740,1,8,0:0:0:0:
256,192,54826,1,0,0:0:0:0:
256,192,54912,1,8,0:0:0:0:
256,192,54997,1,0,0:0:0:0:
256,192,55083,1,8,0:0:0:0:
256,192,55169,1,0,0:0:0:0:
256,192,55255,1,8,0:0:0:0:
256,192,55340,1,8,0:0:0:0:
256,192,55426,1,0,0:0:0:0:
256,192,55512,1,0,0:0:0:0:
256,192,55597,1,8,0:0:0:0:
256,192,55683,1,8,0:0:0:0:
256,192,55769,1,8,0:0:0:0:
256,192,55855,1,8,0:0:0:0:
256,192,55940,1,0,0:0:0:0:
256,192,56026,1,0,0:0:0:0:
256,192,56112,1,8,0:0:0:0:
256,192,56197,1,8,0:0:0:0:
256,192,56283,1,0,0:0:0:0:
256,192,56369,1,0,0:0:0:0:
256,192,56455,1,8,0:0:0:0:
256,192,56540,1,0,0:0:0:0:
256,192,56626,1,8,0:0:0:0:
256,192,56969,1,12,0:0:0:0:
256,192,57312,1,8,0:0:0:0:
256,192,57397,1,8,0:0:0:0:
256,192,57483,1,0,0:0:0:0:
256,192,57569,1,0,0:0:0:0:
256,192,57655,1,8,0:0:0:0:
256,192,57740,1,8,0:0:0:0:
256,192,57826,1,0,0:0:0:0:
256,192,57997,1,8,0:0:0:0:
256,192,58169,1,0,0:0:0:0:
256,192,58340,1,8,0:0:0:0:
256,192,58426,1,0,0:0:0:0:
256,192,58512,1,8,0:0:0:0:
256,192,58597,1,0,0:0:0:0:
256,192,58683,1,8,0:0:0:0:
256,192,58769,1,8,0:0:0:0:
256,192,58855,1,0,0:0:0:0:
256,192,59026,1,8,0:0:0:0:
256,192,59112,1,8,0:0:0:0:
256,192,59197,1,0,0:0:0:0:
256,192,59369,1,8,0:0:0:0:
256,192,59540,1,0,0:0:0:0:
256,192,59712,1,0,0:0:0:0:
256,192,59797,1,0,0:0:0:0:
256,192,59883,1,8,0:0:0:0:
256,192,59969,1,0,0:0:0:0:
256,192,60055,1,8,0:0:0:0:
256,192,60140,1,8,0:0:0:0:
256,192,60226,1,0,0:0:0:0:
256,192,60397,1,0,0:0:0:0:
256,192,60483,1,0,0:0:0:0:
256,192,60569,1,8,0:0:0:0:
256,192,60740,1,0,0:0:0:0:
256,192,60912,1,8,0:0:0:0:
256,192,61083,1,8,0:0:0:0:
256,192,61169,1,0,0:0:0:0:
256,192,61255,1,8,0:0:0:0:
256,192,61426,1,0,0:0:0:0:
256,192,61597,1,8,0:0:0:0:
256,192,61769,1,0,0:0:0:0:
256,192,61855,1,0,0:0:0:0:
256,192,61940,1,8,0:0:0:0:
256,192,62112,1,0,0:0:0:0:
256,192,62197,1,0,0:0:0:0:
256,192,62283,1,8,0:0:0:0:
256,192,62369,1,0,0:0:0:0:
256,192,62455,1,8,0:0:0:0:
256,192,62540,1,8,0:0:0:0:
256,192,62626,1,8,0:0:0:0:
256,192,62712,1,0,0:0:0:0:
256,192,62797,1,8,0:0:0:0:
256,192,62969,1,0,0:0:0:0:
256,192,63140,1,0,0:0:0:0:
256,192,63226,1,0,0:0:0:0:
256,192,63312,1,8,0:0:0:0:
256,192,63397,1,8,0:0:0:0:
256,192,63483,1,0,0:0:0:0:
256,192,63655,1,8,0:0:0:0:
256,192,63826,1,8,0:0:0:0:
256,192,63912,1,8,0:0:0:0:
256,192,63997,1,0,0:0:0:0:
256,192,64169,1,8,0:0:0:0:
256,192,64255,1,0,0:0:0:0:
256,192,64340,1,0,0:0:0:0:
256,192,64426,1,0,0:0:0:0:
256,192,64512,1,8,0:0:0:0:
256,192,64597,1,0,0:0:0:0:
256,192,64683,1,8,0:0:0:0:
256,192,64855,1,0,0:0:0:0:
256,192,65026,1,0,0:0:0:0:
256,192,65197,1,8,0:0:0:0:
256,192,65283,1,0,0:0:0:0:
256,192,65369,1,0,0:0:0:0:
256,192,65540,1,8,0:0:0:0:
256,192,65626,1,8,0:0:0:0:
256,192,65712,1,0,0:0:0:0:
256,192,65797,1,0,0:0:0:0:
256,192,65883,1,8,0:0:0:0:
256,192,65969,1,0,0:0:0:0:
256,192,66055,1,8,0:0:0:0:
256,192,66140,1,0,0:0:0:0:
256,192,66226,1,8,0:0:0:0:
256,192,66312,1,8,0:0:0:0:
256,192,66397,1,0,0:0:0:0:
256,192,66483,1,0,0:0:0:0:
256,192,66569,1,8,0:0:0:0:
256,192,66655,1,0,0:0:0:0:
256,192,66740,1,0,0:0:0:0:
256,192,66826,1,0,0:0:0:0:
256,192,66912,1,8,0:0:0:0:
256,192,67083,1,8,0:0:0:0:
256,192,67255,1,8,0:0:0:0:
256,192,67426,1,8,0:0:0:0:
256,192,67769,1,0,0:0:0:0:
256,192,67940,1,12,0:0:0:0:
256,192,68283,1,8,0:0:0:0:
256,192,68369,1,0,0:0:0:0:
256,192,68455,1,8,0:0:0:0:
256,192,68540,1,0,0:0:0:0:
256,192,68626,1,8,0:0:0:0:
256,192,68712,1,8,0:0:0:0:
256,192,68797,1,0,0:0:0:0:
256,192,68883,1,0,0:0:0:0:
256,192,68969,1,8,0:0:0:0:
256,192,69140,1,0,0:0:0:0:
256,192,69312,1,8,0:0:0:0:
256,192,69397,1,8,0:0:0:0:
256,192,69483,1,0,0:0:0:0:
256,192,69569,1,0,0:0:0:0:
256,192,69655,1,8,0:0:0:0:
256,192,69740,1,8,0:0:0:0:
256,192,69826,1,0,0:0:0:0:
256,192,69912,1,0,0:0:0:0:
256,192,69997,1,8,0:0:0:0:
256,192,70083,1,0,0:0:0:0:
256,192,70169,1,0,0:0:0:0:
256,192,70255,1,0,0:0:0:0:
256,192,70340,1,8,0:0:0:0:
256,192,70512,1,0,0:0:0:0:
256,192,70683,1,0,0:0:0:0:
256,192,70769,1,0,0:0:0:0:
256,192,70855,1,8,0:0:0:0:
256,192,70940,1,0,0:0:0:0:
256,192,71026,1,8,0:0:0:0:
256,192,71112,1,8,0:0:0:0:
256,192,71197,1,0,0:0:0:0:
256,192,71283,1,0,0:0:0:0:
256,192,71369,1,0,0:0:0:0:
256,192,71455,1,0,0:0:0:0:
256,192,71540,1,8,0:0:0:0:
256,192,71626,1,8,0:0:0:0:
256,192,71712,1,0,0:0:0:0:
256,192,71797,1,0,0:0:0:0:
256,192,71883,1,8,0:0:0:0:
256,192,72055,1,8,0:0:0:0:
256,192,72140,1,0,0:0:0:0:
256,192,72226,1,0,0:0:0:0:
256,192,72312,1,0,0:0:0:0:
256,192,72397,1,8,0:0:0:0:
256,192,72483,1,8,0:0:0:0:
256,192,72569,1,8,0:0:0:0:
256,192,72655,1,8,0:0:0:0:
256,192,72740,1,0,0:0:0:0:
256,192,72826,1,0,0:0:0:0:
256,192,72912,1,8,0:0:0:0:
256,192,73083,1,0,0:0:0:0:
256,192,73169,1,0,0:0:0:0:
256,192,73255,1,8,0:0:0:0:
256,192,73340,1,0,0:0:0:0:
256,192,73426,1,8,0:0:0:0:
256,192,73512,1,8,0:0:0:0:
256,192,73597,1,0,0:0:0:0:
256,192,73683,1,0,0:0:0:0:
256,192,73769,1,8,0:0:0:0:
256,192,73940,1,0,0:0:0:0:
256,192,74112,1,0,0:0:0:0:
256,192,74197,1,0,0:0:0:0:
256,192,74283,1,8,0:0:0:0:
256,192,74369,1,8,0:0:0:0:
256,192,74455,1,0,0:0:0:0:
256,192,74540,1,0,0:0:0:0:
256,192,74626,1,8,0:0:0:0:
256,192,74797,1,8,0:0:0:0:
256,192,74883,1,0,0:0:0:0:
256,192,74969,1,0,0:0:0:0:
256,192,75055,1,0,0:0:0:0:
256,192,75140,1,8,0:0:0:0:
256,192,75226,1,8,0:0:0:0:
256,192,75312,1,0,0:0:0:0:
256,192,75397,1,0,0:0:0:0:
256,192,75483,1,8,0:0:0:0:
256,192,75569,1,0,0:0:0:0:
256,192,75655,1,8,0:0:0:0:
256,192,75826,1,8,0:0:0:0:
256,192,75912,1,8,0:0:0:0:
256,192,75997,1,0,0:0:0:0:
256,192,76083,1,0,0:0:0:0:
256,192,76169,1,8,0:0:0:0:
256,192,76255,1,0,0:0:0:0:
256,192,76340,1,0,0:0:0:0:
256,192,76426,1,0,0:0:0:0:
256,192,76512,1,8,0:0:0:0:
256,192,76597,1,8,0:0:0:0:
256,192,76683,1,0,0:0:0:0:
256,192,76769,1,0,0:0:0:0:
256,192,76855,1,8,0:0:0:0:
256,192,76940,1,8,0:0:0:0:
256,192,77026,1,8,0:0:0:0:
256,192,77112,1,0,0:0:0:0:
256,192,77197,1,8,0:0:0:0:
256,192,77283,1,8,0:0:0:0:
256,192,77369,1,0,0:0:0:0:
256,192,77455,1,0,0:0:0:0:
256,192,77540,1,8,0:0:0:0:
256,192,77626,1,0,0:0:0:0:
256,192,77712,1,0,0:0:0:0:
256,192,77797,1,0,0:0:0:0:
256,192,77883,1,8,0:0:0:0:
256,192,77969,1,0,0:0:0:0:
256,192,78055,1,8,0:0:0:0:
256,192,78140,1,0,0:0:0:0:
256,192,78226,1,8,0:0:0:0:
256,192,78312,1,8,0:0:0:0:
256,192,78397,1,8,0:0:0:0:
256,192,78483,1,0,0:0:0:0:
256,192,78569,1,8,0:0:0:0:
256,192,78655,1,0,0:0:0:0:
256,192,78740,1,0,0:0:0:0:
256,192,78826,1,0,0:0:0:0:
256,192,78912,1,8,0:0:0:0:
256,192,78997,1,8,0:0:0:0:
256,192,79083,1,0,0:0:0:0:
256,192,79169,1,0,0:0:0:0:
256,192,79255,1,8,0:0:0:0:
256,192,79597,1,8,0:0:0:0:
256,192,79769,1,0,0:0:0:0:
256,192,79940,1,0,0:0:0:0:
256,192,80112,1,8,0:0:0:0:
256,192,80283,1,0,0:0:0:0:
256,192,80369,1,0,0:0:0:0:
256,192,80455,1,8,0:0:0:0:
256,192,80540,1,8,0:0:0:0:
256,192,80626,1,0,0:0:0:0:
256,192,80797,1,0,0:0:0:0:
256,192,80969,1,8,0:0:0:0:
256,192,81140,1,0,0:0:0:0:
256,192,81312,1,8,0:0:0:0:
256,192,81483,1,0,0:0:0:0:
256,192,81655,1,8,0:0:0:0:
256,192,81826,1,0,0:0:0:0:
256,192,81912,1,0,0:0:0:0:
256,192,81997,1,8,0:0:0:0:
256,192,82340,1,8,0:0:0:0:
256,192,82512,1,0,0:0:0:0:
256,192,82683,1,0,0:0:0:0:
256,192,82855,1,8,0:0:0:0:
256,192,83026,1,0,0:0:0:0:
256,192,83112,1,0,0:0:0:0:
256,192,83197,1,8,0:0:0:0:
256,192,83283,1,0,0:0:0:0:
256,192,83369,1,8,0:0:0:0:
256,192,83540,1,0,0:0:0:0:
256,192,83712,1,0,0:0:0:0:
256,192,83883,1,8,0:0:0:0:
256,192,84055,1,0,0:0:0:0:
256,192,84226,1,0,0:0:0:0:
256,192,84397,1,8,0:0:0:0:
256,192,84483,1,8,0:0:0:0:
256,192,84569,1,0,0:0:0:0:
256,192,84740,1,8,0:0:0:0:
256,192,85083,1,0,0:0:0:0:
256,192,85255,1,8,0:0:0:0:
256,192,85426,1,8,0:0:0:0:
256,192,85597,1,0,0:0:0:0:
256,192,85769,1,8,0:0:0:0:
256,192,85855,1,8,0:0:0:0:
256,192,85940,1,0,0:0:0:0:
256,192,86026,1,0,0:0:0:0:
256,192,86112,1,8,0:0:0:0:
256,192,86283,1,0,0:0:0:0:
256,192,86455,1,8,0:0:0:0:
256,192,86626,1,0,0:0:0:0:
256,192,86797,1,8,0:0:0:0:
256,192,86969,1,0,0:0:0:0:
256,192,87140,1,8,0:0:0:0:
256,192,87226,1,0,0:0:0:0:
256,192,87312,1,8,0:0:0:0:
256,192,87483,1,8,0:0:0:0:
256,192,87826,1,0,0:0:0:0:
256,192,87997,1,8,0:0:0:0:
256,192,88169,1,8,0:0:0:0:
256,192,88340,1,0,0:0:0:0:
256,192,88512,1,8,0:0:0:0:
256,192,88597,1,0,0:0:0:0:
256,192,88683,1,0,0:0:0:0:
256,192,88769,1,0,0:0:0:0:
256,192,88855,1,8,0:0:0:0:
256,192,89026,1,0,0:0:0:0:
256,192,89197,1,8,0:0:0:0:
256,192,89369,1,0,0:0:0:0:
256,192,89540,1,8,0:0:0:0:
256,192,89712,1,0,0:0:0:0:
256,192,89883,1,8,0:0:0:0:
256,192,89969,1,8,0:0:0:0:
256,192,90055,1,0,0:0:0:0:
256,192,90140,1,0,0:0:0:0:
256,192,90226,1,8,0:0:0:0:
256,192,90397,1,0,0:0:0:0:
256,192,90483,1,0,0:0:0:0:
256,192,90569,1,8,0:0:0:0:
256,192,90655,1,8,0:0:0:0:
256,192,90740,1,0,0:0:0:0:
256,192,90826,1,0,0:0:0:0:
256,192,90912,1,8,0:0:0:0:
256,192,91083,1,8,0:0:0:0:
256,192,91169,1,0,0:0:0:0:
256,192,91255,1,0,0:0:0:0:
256,192,91426,1,8,0:0:0:0:
256,192,91512,1,8,0:0:0:0:
256,192,91597,1,0,0:0:0:0:
256,192,91683,1,0,0:0:0:0:
256,192,91769,1,0,0:0:0:0:
256,192,91855,1,0,0:0:0:0:
256,192,91940,1,8,0:0:0:0:
256,192,92112,1,0,0:0:0:0:
256,192,92197,1,0,0:0:0:0:
256,192,92283,1,8,0:0:0:0:
256,192,92455,1,8,0:0:0:0:
256,192,92540,1,8,0:0:0:0:
256,192,92626,1,0,0:0:0:0:
256,192,92797,1,8,0:0:0:0:
256,192,92883,1,0,0:0:0:0:
256,192,92969,1,8,0:0:0:0:
256,192,93055,1,8,0:0:0:0:
256,192,93140,1,0,0:0:0:0:
256,192,93226,1,0,0:0:0:0:
256,192,93312,1,8,0:0:0:0:
256,192,93483,1,8,0:0:0:0:
256,192,93569,1,0,0:0:0:0:
256,192,93655,1,0,0:0:0:0:
256,192,93826,1,8,0:0:0:0:
256,192,93912,1,8,0:0:0:0:
256,192,93997,1,0,0:0:0:0:
256,192,94169,1,0,0:0:0:0:
256,192,94340,1,8,0:0:0:0:
256,192,94426,1,8,0:0:0:0:
256,192,94512,1,0,0:0:0:0:
256,192,94597,1,0,0:0:0:0:
256,192,94683,1,8,0:0:0:0:
256,192,94769,1,0,0:0:0:0:
256,192,94855,1,8,0:0:0:0:
256,192,94940,1,8,0:0:0:0:
256,192,95026,1,0,0:0:0:0:
256,192,95112,1,0,0:0:0:0:
256,192,95197,1,0,0:0:0:0:
256,192,95283,1,0,0:0:0:0:
256,192,95369,1,8,0:0:0:0:
256,192,95455,1,8,0:0:0:0:
256,192,95540,1,8,0:0:0:0:
256,192,95626,1,0,0:0:0:0:
256,192,95712,1,8,0:0:0:0:
256,192,95883,1,0,0:0:0:0:
256,192,95969,1,0,0:0:0:0:
256,192,96055,1,8,0:0:0:0:
256,192,96226,1,0,0:0:0:0:
256,192,96312,1,0,0:0:0:0:
256,192,96397,1,0,0:0:0:0:
256,192,96569,1,8,0:0:0:0:
256,192,96655,1,8,0:0:0:0:
256,192,96740,1,0,0:0:0:0:
256,192,96912,1,8,0:0:0:0:
256,192,96997,1,0,0:0:0:0:
256,192,97083,1,8,0:0:0:0:
256,192,97255,1,0,0:0:0:0:
256,192,97340,1,0,0:0:0:0:
256,192,97426,1,8,0:0:0:0:
256,192,97512,1,0,0:0:0:0:
256,192,97597,1,8,0:0:0:0:
256,192,97683,1,8,0:0:0:0:
256,192,97769,1,0,0:0:0:0:
256,192,97940,1,8,0:0:0:0:
256,192,98026,1,8,0:0:0:0:
256,192,98112,1,0,0:0:0:0:
256,192,98283,1,0,0:0:0:0:
256,192,98455,1,8,0:0:0:0:
256,192,98540,1,8,0:0:0:0:
256,192,98626,1,8,0:0:0:0:
256,192,98712,1,8,0:0:0:0:
256,192,98797,1,0,0:0:0:0:
256,192,98883,1,0,0:0:0:0:
256,192,98969,1,8,0:0:0:0:
256,192,99055,1,8,0:0:0:0:
256,192,99140,1,8,0:0:0:0:
256,192,99226,1,8,0:0:0:0:
256,192,99312,1,0,0:0:0:0:
256,192,99397,1,0,0:0:0:0:
256,192,99483,1,8,0:0:0:0:
256,192,99655,1,0,0:0:0:0:
256,192,99826,1,8,0:0:0:0:
256,192,99912,1,8,0:0:0:0:
256,192,99997,1,8,0:0:0:0:
256,192,100083,1,0,0:0:0:0:
256,192,100169,1,8,0:0:0:0:
256,192,100255,1,0,0:0:0:0:
256,192,100340,1,0,0:0:0:0:
256,192,100426,1,0,0:0:0:0:
256,192,100512,1,8,0:0:0:0:
256,192,100597,1,8,0:0:0:0:
256,192,100683,1,0,0:0:0:0:
256,192,100769,1,0,0:0:0:0:
256,192,100855,1,8,0:0:0:0:
256,192,100940,1,8,0:0:0:0:
256,192,101026,1,8,0:0:0:0:
256,192,101112,1,0,0:0:0:0:
256,192,101197,1,8,0:0:0:0:
256,192,101283,1,8,0:0:0:0:
256,192,101369,1,8,0:0:0:0:
256,192,101455,1,8,0:0:0:0:
256,192,101540,1,0,0:0:0:0:
256,192,101626,1,0,0:0:0:0:
256,192,101712,1,8,0:0:0:0:
256,192,101797,1,0,0:0:0:0:
256,192,101883,1,8,0:0:0:0:
256,192,101969,1,8,0:0:0:0:
256,192,102055,1,8,0:0:0:0:
256,192,102140,1,0,0:0:0:0:
256,192,102226,1,8,0:0:0:0:
256,192,102312,1,0,0:0:0:0:
256,192,102397,1,0,0:0:0:0:
256,192,102483,1,0,0:0:0:0:
256,192,102569,1,8,0:0:0:0:
256,192,102655,1,8,0:0:0:0:
256,192,102740,1,0,0:0:0:0:
256,192,102826,1,0,0:0:0:0:
256,192,102912,1,8,0:0:0:0:
256,192,102997,1,0,0:0:0:0:
256,192,103083,1,0,0:0:0:0:
256,192,103169,1,0,0:0:0:0:
256,192,103255,1,8,0:0:0:0:
256,192,103340,1,8,0:0:0:0:
256,192,103426,1,0,0:0:0:0:
256,192,103512,1,0,0:0:0:0:
256,192,103597,1,8,0:0:0:0:
256,192,103683,1,8,0:0:0:0:
256,192,103769,1,8,0:0:0:0:
256,192,103855,1,0,0:0:0:0:
256,192,103940,1,8,0:0:0:0:
256,192,104026,1,8,0:0:0:0:
256,192,104112,1,8,0:0:0:0:
256,192,104197,1,8,0:0:0:0:
256,192,104283,1,0,0:0:0:0:
256,192,104369,1,0,0:0:0:0:
256,192,104455,1,8,0:0:0:0:
256,192,104540,1,8,0:0:0:0:
256,192,104626,1,8,0:0:0:0:
256,192,104712,1,8,0:0:0:0:
256,192,104797,1,0,0:0:0:0:
256,192,104883,1,0,0:0:0:0:
256,192,104969,1,8,0:0:0:0:
256,192,105055,1,8,0:0:0:0:
256,192,105140,1,8,0:0:0:0:
256,192,105226,1,0,0:0:0:0:
256,192,105312,1,8,0:0:0:0:
256,192,105397,1,8,0:0:0:0:
256,192,105483,1,8,0:0:0:0:
256,192,105569,1,8,0:0:0:0:
256,192,105655,1,0,0:0:0:0:
256,192,105740,1,0,0:0:0:0:
256,192,105826,1,8,0:0:0:0:
256,192,105912,1,8,0:0:0:0:
256,192,105997,1,8,0:0:0:0:
256,192,106083,1,8,0:0:0:0:
256,192,106169,1,0,0:0:0:0:
256,192,106255,1,0,0:0:0:0:
256,192,106340,1,8,0:0:0:0:
256,192,106426,1,0,0:0:0:0:
256,192,106512,1,0,0:0:0:0:
256,192,106597,1,0,0:0:0:0:
256,192,106683,1,8,0:0:0:0:
256,192,106769,1,8,0:0:0:0:
256,192,106855,1,0,0:0:0:0:
256,192,106940,1,0,0:0:0:0:
256,192,107026,1,8,0:0:0:0:
256,192,107112,1,0,0:0:0:0:
256,192,107197,1,0,0:0:0:0:
256,192,107283,1,0,0:0:0:0:
256,192,107369,1,8,0:0:0:0:
256,192,107455,1,8,0:0:0:0:
256,192,107540,1,0,0:0:0:0:
256,192,107626,1,0,0:0:0:0:
256,192,107712,1,8,0:0:0:0:
256,192,107797,1,0,0:0:0:0:
256,192,107883,1,0,0:0:0:0:
256,192,107969,1,0,0:0:0:0:
256,192,108055,1,8,0:0:0:0:
256,192,108140,1,8,0:0:0:0:
256,192,108226,1,8,0:0:0:0:
256,192,108312,1,8,0:0:0:0:
256,192,108397,1,0,0:0:0:0:
256,192,108483,1,0,0:0:0:0:
256,192,108569,1,0,0:0:0:0:
256,192,108655,1,0,0:0:0:0:
256,192,108740,1,8,0:0:0:0:
256,192,108826,1,8,0:0:0:0:
256,192,108912,1,0,0:0:0:0:
256,192,108997,1,0,0:0:0:0:
256,192,109083,1,8,0:0:0:0:
256,192,109169,1,8,0:0:0:0:
256,192,109255,1,8,0:0:0:0:
256,192,109340,1,0,0:0:0:0:
256,192,109426,1,8,0:0:0:0:
256,192,109512,1,8,0:0:0:0:
256,192,109597,1,8,0:0:0:0:
256,192,109683,1,8,0:0:0:0:
256,192,109769,1,0,0:0:0:0:
256,192,109855,1,0,0:0:0:0:
256,192,109940,1,8,0:0:0:0:
256,192,110026,1,0,0:0:0:0:
256,192,110112,1,8,0:0:0:0:
256,192,110197,1,0,0:0:0:0:
256,192,110283,1,0,0:0:0:0:
256,192,110369,1,0,0:0:0:0:
256,192,110455,1,8,0:0:0:0:
256,192,110540,1,8,0:0:0:0:
256,192,110626,1,8,0:0:0:0:
256,192,110712,1,0,0:0:0:0:
256,192,110797,1,8,0:0:0:0:
256,192,110883,1,8,0:0:0:0:
256,192,110969,1,0,0:0:0:0:
256,192,111055,1,8,0:0:0:0:
256,192,111140,1,0,0:0:0:0:
256,192,111226,1,0,0:0:0:0:
256,192,111312,1,8,0:0:0:0:
256,192,111397,1,8,0:0:0:0:
256,192,111483,1,8,0:0:0:0:
256,192,111569,1,8,0:0:0:0:
256,192,111655,1,0,0:0:0:0:
256,192,111740,1,0,0:0:0:0:
256,192,111826,1,8,0:0:0:0:
256,192,111912,1,8,0:0:0:0:
256,192,111997,1,0,0:0:0:0:
256,192,112083,1,0,0:0:0:0:
256,192,112169,1,8,0:0:0:0:
256,192,112340,1,8,0:0:0:0:
256,192,112512,1,0,0:0:0:0:
256,192,112597,1,0,0:0:0:0:
256,192,112683,1,8,0:0:0:0:
256,192,112855,1,0,0:0:0:0:
256,192,113026,1,8,0:0:0:0:
256,192,113197,1,8,0:0:0:0:
256,192,113283,1,8,0:0:0:0:
256,192,113369,1,0,0:0:0:0:
256,192,113455,1,0,0:0:0:0:
256,192,113540,1,8,0:0:0:0:
256,192,113712,1,0,0:0:0:0:
256,192,113883,1,0,0:0:0:0:
256,192,113969,1,0,0:0:0:0:
256,192,114055,1,8,0:0:0:0:
256,192,114140,1,0,0:0:0:0:
256,192,114226,1,0,0:0:0:0:
256,192,114312,1,0,0:0:0:0:
256,192,114397,1,8,0:0:0:0:
256,192,114569,1,8,0:0:0:0:
256,192,114655,1,8,0:0:0:0:
256,192,114740,1,8,0:0:0:0:
256,192,114826,1,0,0:0:0:0:
256,192,114912,1,8,0:0:0:0:
256,192,115083,1,8,0:0:0:0:
256,192,115255,1,0,0:0:0:0:
256,192,115340,1,0,0:0:0:0:
256,192,115426,1,8,0:0:0:0:
256,192,115597,1,8,0:0:0:0:
256,192,115683,1,0,0:0:0:0:
256,192,115769,1,8,0:0:0:0:
256,192,115855,1,8,0:0:0:0:
256,192,115940,1,0,0:0:0:0:
256,192,116026,1,0,0:0:0:0:
256,192,116112,1,8,0:0:0:0:
256,192,116283,1,8,0:0:0:0:
256,192,116369,1,0,0:0:0:0:
256,192,116455,1,0,0:0:0:0:
256,192,116540,1,0,0:0:0:0:
256,192,116626,1,8,0:0:0:0:
256,192,116712,1,0,0:0:0:0:
256,192,116797,1,8,0:0:0:0:
256,192,116883,1,8,0:0:0:0:
256,192,116969,1,0,0:0:0:0:
256,192,117140,1,8,0:0:0:0:
256,192,117312,1,8,0:0:0:0:
256,192,117397,1,0,0:0:0:0:
256,192,117483,1,0,0:0:0:0:
256,192,117569,1,0,0:0:0:0:
256,192,117655,1,8,0:0:0:0:
256,192,117740,1,8,0:0:0:0:
256,192,117826,1,0,0:0:0:0:
256,192,117912,1,0,0:0:0:0:
256,192,117997,1,8,0:0:0:0:
256,192,118083,1,8,0:0:0:0:
256,192,118169,1,8,0:0:0:0:
256,192,118255,1,0,0:0:0:0:
256,192,118340,1,8,0:0:0:0:
256,192,118426,1,0,0:0:0:0:
256,192,118512,1,0,0:0:0:0:
256,192,118597,1,0,0:0:0:0:
256,192,118683,1,8,0:0:0:0:
256,192,118769,1,8,0:0:0:0:
256,192,118855,1,0,0:0:0:0:
256,192,118940,1,0,0:0:0:0:
256,192,119026,1,8,0:0:0:0:
256,192,119112,1,8,0:0:0:0:
256,192,119197,1,8,0:0:0:0:
256,192,119283,1,0,0:0:0:0:
256,192,119369,1,8,0:0:0:0:
256,192,119455,1,8,0:0:0:0:
256,192,119540,1,0,0:0:0:0:
256,192,119626,1,0,0:0:0:0:
256,192,119712,1,8,0:0:0:0:
256,192,119797,1,0,0:0:0:0:
256,192,119883,1,0,0:0:0:0:
256,192,119969,1,0,0:0:0:0:
256,192,120055,1,8,0:0:0:0:
256,192,120140,1,8,0:0:0:0:
256,192,120226,1,8,0:0:0:0:
256,192,120312,1,0,0:0:0:0:
256,192,120397,1,8,0:0:0:0:
256,192,120483,1,8,0:0:0:0:
256,192,120569,1,0,0:0:0:0:
256,192,120655,1,8,0:0:0:0:
256,192,120740,1,0,0:0:0:0:
256,192,120826,1,0,0:0:0:0:
256,192,120912,1,8,0:0:0:0:
256,192,120997,1,8,0:0:0:0:
256,192,121083,1,0,0:0:0:0:
256,192,121169,1,8,0:0:0:0:
256,192,121255,1,0,0:0:0:0:
256,192,121340,1,0,0:0:0:0:
256,192,121426,1,8,0:0:0:0:
256,192,121512,1,8,0:0:0:0:
256,192,121597,1,8,0:0:0:0:
256,192,121683,1,0,0:0:0:0:
256,192,121769,1,8,0:0:0:0:
256,192,121855,1,0,0:0:0:0:
256,192,121940,1,0,0:0:0:0:
256,192,122026,1,0,0:0:0:0:
256,192,122112,1,8,0:0:0:0:
256,192,122197,1,8,0:0:0:0:
256,192,122283,1,0,0:0:0:0:
256,192,122369,1,0,0:0:0:0:
256,192,122455,1,8,0:0:0:0:
256,192,122540,1,0,0:0:0:0:
256,192,122626,1,0,0:0:0:0:
256,192,122712,1,0,0:0:0:0:
256,192,122797,1,8,0:0:0:0:
256,192,122883,1,8,0:0:0:0:
256,192,122969,1,0,0:0:0:0:
256,192,123055,1,0,0:0:0:0:
256,192,123140,1,8,0:0:0:0:
256,192,123226,1,8,0:0:0:0:
256,192,123312,1,8,0:0:0:0:
256,192,123397,1,8,0:0:0:0:
256,192,123483,1,0,0:0:0:0:
256,192,123569,1,0,0:0:0:0:
256,192,123655,1,8,0:0:0:0:
256,192,123740,1,0,0:0:0:0:
256,192,123826,1,8,0:0:0:0:
256,192,123912,1,8,0:0:0:0:
256,192,123997,1,8,0:0:0:0:
256,192,124083,1,0,0:0:0:0:
256,192,124169,1,8,0:0:0:0:
256,192,124255,1,0,0:0:0:0:
256,192,124340,1,0,0:0:0:0:
256,192,124426,1,0,0:0:0:0:
256,192,124512,1,8,0:0:0:0:
256,192,124597,1,8,0:0:0:0:
256,192,124683,1,0,0:0:0:0:
256,192,124769,1,0,0:0:0:0:
256,192,124855,1,8,0:0:0:0:
256,192,124940,1,0,0:0:0:0:
256,192,125026,1,0,0:0:0:0:
256,192,125112,1,0,0:0:0:0:
256,192,125197,1,8,0:0:0:0:
256,192,125283,1,8,0:0:0:0:
256,192,125369,1,0,0:0:0:0:
256,192,125455,1,0,0:0:0:0:
256,192,125540,1,8,0:0:0:0:
256,192,125626,1,8,0:0:0:0:
256,192,125712,1,8,0:0:0:0:
256,192,125797,1,0,0:0:0:0:
256,192,125883,1,8,0:0:0:0:
256,192,125969,1,8,0:0:0:0:
256,192,126055,1,8,0:0:0:0:
256,192,126140,1,8,0:0:0:0:
256,192,126226,1,0,0:0:0:0:
256,192,126312,1,0,0:0:0:0:
256,192,126397,1,8,0:0:0:0:
256,192,126483,1,8,0:0:0:0:
256,192,126569,1,8,0:0:0:0:
256,192,126655,1,8,0:0:0:0:
256,192,126740,1,0,0:0:0:0:
256,192,126826,1,0,0:0:0:0:
256,192,126912,1,8,0:0:0:0:
256,192,126997,1,8,0:0:0:0:
256,192,127083,1,8,0:0:0:0:
256,192,127169,1,0,0:0:0:0:
256,192,127255,1,8,0:0:0:0:
256,192,127340,1,8,0:0:0:0:
256,192,127426,1,8,0:0:0:0:
256,192,127512,1,8,0:0:0:0:
256,192,127597,1,0,0:0:0:0:
256,192,127683,1,0,0:0:0:0:
256,192,127769,1,8,0:0:0:0:
256,192,127855,1,8,0:0:0:0:
256,192,127940,1,8,0:0:0:0:
256,192,128026,1,8,0:0:0:0:
256,192,128112,1,0,0:0:0:0:
256,192,128197,1,0,0:0:0:0:
256,192,128283,1,8,0:0:0:0:
256,192,128369,1,0,0:0:0:0:
256,192,128455,1,0,0:0:0:0:
256,192,128540,1,0,0:0:0:0:
256,192,128626,1,8,0:0:0:0:
256,192,128712,1,8,0:0:0:0:
256,192,128797,1,0,0:0:0:0:
256,192,128883,1,0,0:0:0:0:
256,192,128969,1,8,0:0:0:0:
256,192,129055,1,8,0:0:0:0:
256,192,129140,1,8,0:0:0:0:
256,192,129226,1,0,0:0:0:0:
256,192,129312,1,8,0:0:0:0:
256,192,129397,1,0,0:0:0:0:
256,192,129483,1,0,0:0:0:0:
256,192,129569,1,0,0:0:0:0:
256,192,129655,1,8,0:0:0:0:
256,192,129740,1,8,0:0:0:0:
256,192,129826,1,0,0:0:0:0:
256,192,129912,1,0,0:0:0:0:
256,192,129997,1,8,0:0:0:0:
256,192,130083,1,8,0:0:0:0:
256,192,130169,1,8,0:0:0:0:
256,192,130255,1,8,0:0:0:0:
256,192,130340,1,0,0:0:0:0:
256,192,130426,1,0,0:0:0:0:
256,192,130512,1,0,0:0:0:0:
256,192,130597,1,0,0:0:0:0:
256,192,130683,1,8,0:0:0:0:
256,192,130769,1,8,0:0:0:0:
256,192,130855,1,0,0:0:0:0:
256,192,130940,1,0,0:0:0:0:
256,192,131026,1,8,0:0:0:0:
256,192,131112,1,8,0:0:0:0:
256,192,131197,1,8,0:0:0:0:
256,192,131283,1,0,0:0:0:0:
256,192,131369,1,8,0:0:0:0:
256,192,131455,1,8,0:0:0:0:
256,192,131540,1,8,0:0:0:0:
256,192,131626,1,8,0:0:0:0:
256,192,131712,1,0,0:0:0:0:
256,192,131797,1,0,0:0:0:0:
256,192,131883,1,0,0:0:0:0:
256,192,131969,1,0,0:0:0:0:
256,192,132055,1,8,0:0:0:0:
256,192,132140,1,0,0:0:0:0:
256,192,132226,1,8,0:0:0:0:
256,192,132312,1,8,0:0:0:0:
256,192,132397,1,0,0:0:0:0:
256,192,132483,1,0,0:0:0:0:
256,192,132569,1,0,0:0:0:0:
256,192,132655,1,0,0:0:0:0:
256,192,132740,1,8,0:0:0:0:
256,192,132826,1,8,0:0:0:0:
256,192,132912,1,0,0:0:0:0:
256,192,132997,1,0,0:0:0:0:
256,192,133083,1,8,0:0:0:0:
256,192,133169,1,0,0:0:0:0:
256,192,133255,1,0,0:0:0:0:
256,192,133340,1,0,0:0:0:0:
256,192,133426,1,8,0:0:0:0:
256,192,133512,1,8,0:0:0:0:
256,192,133597,1,0,0:0:0:0:
256,192,133683,1,0,0:0:0:0:
256,192,133769,1,8,0:0:0:0:
256,192,133855,1,8,0:0:0:0:
256,192,133940,1,8,0:0:0:0:
256,192,134026,1,0,0:0:0:0:
256,192,134112,1,8,0:0:0:0:
256,192,134283,1,0,0:0:0:0:
256,192,134455,1,0,0:0:0:0:
256,192,134540,1,0,0:0:0:0:
256,192,134626,1,8,0:0:0:0:
256,192,134797,1,8,0:0:0:0:
256,192,134969,1,0,0:0:0:0:
256,192,135140,1,8,0:0:0:0:
256,192,135226,1,8,0:0:0:0:
256,192,135312,1,0,0:0:0:0:
256,192,135397,1,0,0:0:0:0:
256,192,135483,1,8,0:0:0:0:
256,192,135655,1,8,0:0:0:0:
256,192,135826,1,0,0:0:0:0:
256,192,135912,1,0,0:0:0:0:
256,192,135997,1,8,0:0:0:0:
256,192,136169,1,0,0:0:0:0:
256,192,136340,1,0,0:0:0:0:
256,192,136512,1,8,0:0:0:0:
256,192,136597,1,8,0:0:0:0:
256,192,136683,1,8,0:0:0:0:
256,192,136769,1,0,0:0:0:0:
256,192,136855,1,8,0:0:0:0:
256,192,137026,1,0,0:0:0:0:
256,192,137197,1,8,0:0:0:0:
256,192,137283,1,8,0:0:0:0:
256,192,137369,1,0,0:0:0:0:
256,192,137540,1,8,0:0:0:0:
256,192,137712,1,0,0:0:0:0:
256,192,137883,1,8,0:0:0:0:
256,192,137969,1,0,0:0:0:0:
256,192,138055,1,0,0:0:0:0:
256,192,138140,1,0,0:0:0:0:
256,192,138226,1,8,0:0:0:0:
256,192,138312,1,0,0:0:0:0:
256,192,138397,1,8,0:0:0:0:
256,192,138483,1,8,0:0:0:0:
256,192,138569,1,0,0:0:0:0:
256,192,138655,1,0,0:0:0:0:
256,192,138740,1,8,0:0:0:0:
256,192,138826,1,0,0:0:0:0:
256,192,138912,1,8,0:0:0:0:
256,192,138997,1,8,0:0:0:0:
256,192,139083,1,0,0:0:0:0:
256,192,139169,1,0,0:0:0:0:
256,192,139255,1,8,0:0:0:0:
256,192,139340,1,0,0:0:0:0:
256,192,139426,1,0,0:0:0:0:
256,192,139512,1,0,0:0:0:0:
256,192,139597,1,8,0:0:0:0:
256,192,139769,1,0,0:0:0:0:
256,192,139940,1,8,0:0:0:0:
256,192,140026,1,0,0:0:0:0:
256,192,140112,1,8,0:0:0:0:
256,192,140197,1,0,0:0:0:0:
256,192,140283,1,8,0:0:0:0:
256,192,140455,1,0,0:0:0:0:
256,192,140626,1,8,0:0:0:0:
256,192,140712,1,8,0:0:0:0:
256,192,140797,1,8,0:0:0:0:
256,192,140883,1,0,0:0:0:0:
256,192,140969,1,8,0:0:0:0:
256,192,141055,1,8,0:0:0:0:
256,192,141140,1,0,0:0:0:0:
256,192,141226,1,0,0:0:0:0:
256,192,141312,1,8,0:0:0:0:
256,192,141397,1,0,0:0:0:0:
256,192,141483,1,0,0:0:0:0:
256,192,141569,1,0,0:0:0:0:
256,192,141655,1,8,0:0:0:0:
256,192,141740,1,8,0:0:0:0:
256,192,141826,1,0,0:0:0:0:
256,192,141912,1,0,0:0:0:0:
256,192,141997,1,8,0:0:0:0:
256,192,142083,1,8,0:0:0:0:
256,192,142169,1,8,0:0:0:0:
256,192,142255,1,0,0:0:0:0:
256,192,142340,1,8,0:0:0:0:
256,192,143711,1,8,0:0:0:0:
256,192,145082,1,0,0:0:0:0:
256,192,145168,1,0,0:0:0:0:
256,192,145254,1,8,0:0:0:0:
256,192,145340,1,0,0:0:0:0:
256,192,145425,1,8,0:0:0:0:
256,192,145511,1,0,0:0:0:0:
256,192,145597,1,8,0:0:0:0:
256,192,145682,1,8,0:0:0:0:
256,192,145768,1,0,0:0:0:0:
256,192,145854,1,0,0:0:0:0:
256,192,145940,1,8,0:0:0:0:
256,192,146025,1,0,0:0:0:0:
256,192,146111,1,8,0:0:0:0:
256,192,146197,1,8,0:0:0:0:
256,192,146282,1,0,0:0:0:0:
256,192,146368,1,0,0:0:0:0:
256,192,146454,1,8,0:0:0:0:
256,192,146540,1,8,0:0:0:0:
256,192,146625,1,8,0:0:0:0:
256,192,146711,1,0,0:0:0:0:
256,192,146797,1,8,0:0:0:0:
256,192,146882,1,0,0:0:0:0:
256,192,146968,1,8,0:0:0:0:
256,192,147054,1,8,0:0:0:0:
256,192,147140,1,0,0:0:0:0:
256,192,147225,1,0,0:0:0:0:
256,192,147311,1,8,0:0:0:0:
256,192,147397,1,8,0:0:0:0:
256,192,147482,1,0,0:0:0:0:
256,192,147568,1,0,0:0:0:0:
256,192,147654,1,0,0:0:0:0:
256,192,147740,1,0,0:0:0:0:
256,192,147825,1,8,0:0:0:0:
256,192,149197,1,8,0:0:0:0:
256,192,150568,1,8,0:0:0:0:
256,192,150654,1,8,0:0:0:0:
256,192,150740,1,8,0:0:0:0:
256,192,150825,1,8,0:0:0:0:
256,192,150911,1,0,0:0:0:0:
256,192,150997,1,0,0:0:0:0:
256,192,151082,1,8,0:0:0:0:
256,192,151168,1,8,0:0:0:0:
256,192,151254,1,8,0:0:0:0:
256,192,151340,1,8,0:0:0:0:
256,192,151425,1,0,0:0:0:0:
256,192,151511,1,0,0:0:0:0:
256,192,151597,1,8,0:0:0:0:
256,192,151682,1,0,0:0:0:0:
256,192,151768,1,8,0:0:0:0:
256,192,151854,1,0,0:0:0:0:
256,192,151940,1,8,0:0:0:0:
256,192,152025,1,8,0:0:0:0:
256,192,152111,1,0,0:0:0:0:
256,192,152197,1,8,0:0:0:0:
256,192,152282,1,0,0:0:0:0:
256,192,152368,1,0,0:0:0:0:
256,192,152454,1,8,0:0:0:0:
256,192,152540,1,0,0:0:0:0:
256,192,152625,1,8,0:0:0:0:
256,192,152711,1,8,0:0:0:0:
256,192,152797,1,8,0:0:0:0:
256,192,152882,1,0,0:0:0:0:
256,192,152968,1,8,0:0:0:0:
256,192,153054,1,8,0:0:0:0:
256,192,153140,1,8,0:0:0:0:
256,192,153225,1,8,0:0:0:0:
256,192,153311,1,0,0:0:0:0:
256,192,153397,1,0,0:0:0:0:
256,192,153482,1,8,0:0:0:0:
256,192,153568,1,0,0:0:0:0:
256,192,153654,1,8,0:0:0:0:
256,192,153740,1,8,0:0:0:0:
256,192,153825,1,8,0:0:0:0:
256,192,153911,1,0,0:0:0:0:
256,192,153997,1,8,0:0:0:0:
256,192,154082,1,0,0:0:0:0:
256,192,154168,1,0,0:0:0:0:
256,192,154254,1,0,0:0:0:0:
256,192,154340,1,8,0:0:0:0:
256,192,154425,1,8,0:0:0:0:
256,192,154511,1,0,0:0:0:0:
256,192,154597,1,0,0:0:0:0:
256,192,154682,1,8,0:0:0:0:
256,192,154768,1,0,0:0:0:0:
256,192,154854,1,0,0:0:0:0:
256,192,154940,1,0,0:0:0:0:
256,192,155025,1,8,0:0:0:0:
256,192,155111,1,8,0:0:0:0:
256,192,155197,1,0,0:0:0:0:
256,192,155282,1,0,0:0:0:0:
256,192,155368,1,8,0:0:0:0:
256,192,155454,1,0,0:0:0:0:
256,192,155540,1,0,0:0:0:0:
256,192,155625,1,0,0:0:0:0:
256,192,155711,1,8,0:0:0:0:
256,192,155797,1,8,0:0:0:0:
256,192,155882,1,8,0:0:0:0:
256,192,155968,1,0,0:0:0:0:
256,192,156054,1,8,0:0:0:0:
256,192,156140,1,0,0:0:0:0:
256,192,156225,1,8,0:0:0:0:
256,192,156311,1,8,0:0:0:0:
256,192,156397,1,8,0:0:0:0:
256,192,156482,1,0,0:0:0:0:
256,192,156568,1,8,0:0:0:0:
256,192,156654,1,0,0:0:0:0:
256,192,156740,1,8,0:0:0:0:
256,192,156825,1,8,0:0:0:0:
256,192,156911,1,0,0:0:0:0:
256,192,156997,1,0,0:0:0:0:
256,192,157082,1,8,0:0:0:0:
256,192,157168,1,8,0:0:0:0:
256,192,157254,1,8,0:0:0:0:
256,192,157340,1,0,0:0:0:0:
256,192,157425,1,8,0:0:0:0:
256,192,157511,1,0,0:0:0:0:
256,192,157597,1,8,0:0:0:0:
256,192,157682,1,0,0:0:0:0:
256,192,157768,1,8,0:0:0:0:
256,192,157854,1,8,0:0:0:0:
256,192,157940,1,0,0:0:0:0:
256,192,158025,1,0,0:0:0:0:
256,192,158111,1,8,0:0:0:0:
256,192,158197,1,8,0:0:0:0:
256,192,158282,1,8,0:0:0:0:
256,192,158368,1,0,0:0:0:0:
256,192,158454,1,8,0:0:0:0:
256,192,158540,1,0,0:0:0:0:
256,192,158625,1,0,0:0:0:0:
256,192,158711,1,0,0:0:0:0:
256,192,158797,1,8,0:0:0:0:
256,192,158882,1,8,0:0:0:0:
256,192,158968,1,8,0:0:0:0:
256,192,159054,1,8,0:0:0:0:
256,192,159140,1,0,0:0:0:0:
256,192,159225,1,0,0:0:0:0:
256,192,159311,1,8,0:0:0:0:
256,192,159397,1,0,0:0:0:0:
256,192,159482,1,8,0:0:0:0:
256,192,159568,1,8,0:0:0:0:
256,192,159654,1,0,0:0:0:0:
256,192,159740,1,8,0:0:0:0:
256,192,159825,1,0,0:0:0:0:
256,192,159911,1,0,0:0:0:0:
256,192,159997,1,8,0:0:0:0:
256,192,160082,1,0,0:0:0:0:
256,192,160168,1,8,0:0:0:0:
256,192,160254,1,8,0:0:0:0:
256,192,160340,1,0,0:0:0:0:
256,192,160425,1,8,0:0:0:0:
256,192,160511,1,0,0:0:0:0:
256,192,160597,1,0,0:0:0:0:
256,192,160682,1,8,0:0:0:0:
256,192,160768,1,0,0:0:0:0:
256,192,160854,1,8,0:0:0:0:
256,192,160940,1,0,0:0:0:0:
256,192,161025,1,0,0:0:0:0:
256,192,161111,1,8,0:0:0:0:
256,192,161197,1,8,0:0:0:0:
256,192,161282,1,0,0:0:0:0:
256,192,161368,1,8,0:0:0:0:
256,192,161454,1,0,0:0:0:0:
256,192,161540,1,8,0:0:0:0:
256,192,161625,1,8,0:0:0:0:
256,192,161711,1,0,0:0:0:0:
256,192,161797,1,8,0:0:0:0:
256,192,161882,1,0,0:0:0:0:
256,192,161968,1,0,0:0:0:0:
256,192,162054,1,8,0:0:0:0:
256,192,162140,1,0,0:0:0:0:
256,192,162225,1,8,0:0:0:0:
256,192,162311,1,0,0:0:0:0:
256,192,162397,1,0,0:0:0:0:
256,192,162482,1,8,0:0:0:0:
256,192,162568,1,8,0:0:0:0:
256,192,162654,1,0,0:0:0:0:
256,192,162740,1,8,0:0:0:0:
256,192,162825,1,0,0:0:0:0:
256,192,162911,1,8,0:0:0:0:
256,192,162997,1,0,0:0:0:0:
256,192,163082,1,0,0:0:0:0:
256,192,163168,1,8,0:0:0:0:
256,192,163254,1,8,0:0:0:0:
256,192,163340,1,0,0:0:0:0:
256,192,163425,1,8,0:0:0:0:
256,192,163511,1,0,0:0:0:0:
256,192,163597,1,8,0:0:0:0:
256,192,163682,1,8,0:0:0:0:
256,192,163768,1,0,0:0:0:0:
256,192,163854,1,0,0:0:0:0:
256,192,163940,1,8,0:0:0:0:
256,192,164025,1,0,0:0:0:0:
256,192,164111,1,0,0:0:0:0:
256,192,164197,1,0,0:0:0:0:
256,192,164282,1,8,0:0:0:0:
256,192,164368,1,8,0:0:0:0:
256,192,164454,1,0,0:0:0:0:
256,192,164540,1,0,0:0:0:0:
256,192,164625,1,8,0:0:0:0:
256,192,164711,1,8,0:0:0:0:
256,192,164797,1,8,0:0:0:0:
256,192,164882,1,0,0:0:0:0:
256,192,164968,1,8,0:0:0:0:
256,192,165054,1,0,0:0:0:0:
256,192,165140,1,8,0:0:0:0:
256,192,165225,1,0,0:0:0:0:
256,192,165311,1,8,0:0:0:0:
256,192,165397,1,0,0:0:0:0:
256,192,165482,1,0,0:0:0:0:
256,192,165568,1,0,0:0:0:0:
256,192,165654,1,8,0:0:0:0:
256,192,165740,1,8,0:0:0:0:
256,192,165825,1,0,0:0:0:0:
256,192,165911,1,0,0:0:0:0:
256,192,165997,1,8,0:0:0:0:
256,192,166082,1,0,0:0:0:0:
256,192,166168,1,0,0:0:0:0:
256,192,166254,1,0,0:0:0:0:
256,192,166340,1,8,0:0:0:0:
256,192,166425,1,8,0:0:0:0:
256,192,166511,1,8,0:0:0:0:
256,192,166597,1,0,0:0:0:0:
256,192,166682,1,8,0:0:0:0:
256,192,166768,1,0,0:0:0:0:
256,192,166854,1,8,0:0:0:0:
256,192,166940,1,0,0:0:0:0:
256,192,167025,1,8,0:0:0:0:
256,192,167111,1,8,0:0:0:0:
256,192,167197,1,0,0:0:0:0:
256,192,167282,1,0,0:0:0:0:
256,192,167368,1,8,0:0:0:0:
256,192,167454,1,8,0:0:0:0:
256,192,167540,1,8,0:0:0:0:
256,192,167625,1,0,0:0:0:0:
256,192,167711,1,8,0:0:0:0:
256,192,167797,1,8,0:0:0:0:
256,192,167882,1,8,0:0:0:0:
256,192,167968,1,0,0:0:0:0:
256,192,168054,1,8,0:0:0:0:
256,192,168140,1,8,0:0:0:0:
256,192,168225,1,0,0:0:0:0:
256,192,168311,1,0,0:0:0:0:
256,192,168397,1,8,0:0:0:0:
256,192,168482,1,0,0:0:0:0:
256,192,168568,1,0,0:0:0:0:
256,192,168654,1,0,0:0:0:0:
256,192,168740,1,8,0:0:0:0:
256,192,168825,1,0,0:0:0:0:
256,192,168911,1,8,0:0:0:0:
256,192,168997,1,0,0:0:0:0:
256,192,169082,1,8,0:0:0:0:
256,192,169168,1,8,0:0:0:0:
256,192,169254,1,8,0:0:0:0:
256,192,169340,1,0,0:0:0:0:
256,192,169425,1,8,0:0:0:0:
256,192,169511,1,0,0:0:0:0:
256,192,169597,1,0,0:0:0:0:
256,192,169682,1,0,0:0:0:0:
256,192,169768,1,8,0:0:0:0:
256,192,169854,1,0,0:0:0:0:
256,192,169940,1,8,0:0:0:0:
256,192,170025,1,8,0:0:0:0:
256,192,170111,1,0,0:0:0:0:
256,192,170197,1,0,0:0:0:0:
256,192,170282,1,8,0:0:0:0:
256,192,170368,1,0,0:0:0:0:
256,192,170454,1,8,0:0:0:0:
256,192,170540,1,0,0:0:0:0:
256,192,170625,1,8,0:0:0:0:
256,192,170711,1,8,0:0:0:0:
256,192,170797,1,0,0:0:0:0:
256,192,170882,1,0,0:0:0:0:
256,192,170968,1,8,0:0:0:0:
256,192,171054,1,0,0:0:0:0:
256,192,171140,1,8,0:0:0:0:
256,192,171225,1,0,0:0:0:0:
256,192,171311,1,8,0:0:0:0:
256,192,171397,1,8,0:0:0:0:
256,192,171482,1,0,0:0:0:0:
256,192,171568,1,0,0:0:0:0:
256,192,171654,1,8,0:0:0:0:
256,192,171740,1,0,0:0:0:0:
256,192,171825,1,8,0:0:0:0:
256,192,171911,1,8,0:0:0:0:
256,192,171997,1,8,0:0:0:0:
256,192,172082,1,0,0:0:0:0:
256,192,172168,1,8,0:0:0:0:
256,192,172254,1,8,0:0:0:0:
256,192,172340,1,8,0:0:0:0:
256,192,172425,1,0,0:0:0:0:
256,192,172511,1,8,0:0:0:0:
256,192,172597,1,8,0:0:0:0:
256,192,172682,1,0,0:0:0:0:
256,192,172768,1,0,0:0:0:0:
256,192,172854,1,8,0:0:0:0:
256,192,172940,1,0,0:0:0:0:
256,192,173025,1,0,0:0:0:0:
256,192,173111,1,0,0:0:0:0:
256,192,173197,1,8,0:0:0:0:
256,192,173282,1,0,0:0:0:0:
256,192,173368,1,8,0:0:0:0:
256,192,173454,1,8,0:0:0:0:
256,192,173540,1,0,0:0:0:0:
256,192,173625,1,0,0:0:0:0:
256,192,173711,1,8,0:0:0:0:
256,192,173797,1,8,0:0:0:0:
256,192,173882,1,0,0:0:0:0:
256,192,174054,1,0,0:0:0:0:
256,192,174225,1,8,0:0:0:0:
256,192,174311,1,8,0:0:0:0:
256,192,174397,1,0,0:0:0:0:
256,192,174568,1,8,0:0:0:0:
256,192,174654,1,0,0:0:0:0:
256,192,174740,1,0,0:0:0:0:
256,192,174825,1,0,0:0:0:0:
256,192,174911,1,8,0:0:0:0:
256,192,174997,1,8,0:0:0:0:
256,192,175082,1,0,0:0:0:0:
256,192,175168,1,0,0:0:0:0:
256,192,175254,1,8,0:0:0:0:
256,192,175597,1,8,0:0:0:0:
256,192,175768,1,0,0:0:0:0:
256,192,175940,1,0,0:0:0:0:
256,192,176111,1,8,0:0:0:0:
256,192,176282,1,8,0:0:0:0:
256,192,176368,1,8,0:0:0:0:
256,192,176454,1,0,0:0:0:0:
256,192,176540,1,0,0:0:0:0:
256,192,176625,1,8,0:0:0:0:
256,192,176797,1,0,0:0:0:0:
256,192,176968,1,8,0:0:0:0:
256,192,177140,1,0,0:0:0:0:
256,192,177311,1,8,0:0:0:0:
256,192,177482,1,0,0:0:0:0:
256,192,177654,1,8,0:0:0:0:
256,192,177825,1,0,0:0:0:0:
256,192,177911,1,0,0:0:0:0:
256,192,177997,1,8,0:0:0:0:
256,192,178340,1,8,0:0:0:0:
256,192,178511,1,0,0:0:0:0:
256,192,178682,1,0,0:0:0:0:
256,192,178854,1,8,0:0:0:0:
256,192,179025,1,0,0:0:0:0:
256,192,179111,1,0,0:0:0:0:
256,192,179197,1,8,0:0:0:0:
256,192,179282,1,0,0:0:0:0:
256,192,179368,1,8,0:0:0:0:
256,192,179540,1,0,0:0:0:0:
256,192,179711,1,0,0:0:0:0:
256,192,179882,1,8,0:0:0:0:
256,192,180054,1,0,0:0:0:0:
256,192,180225,1,0,0:0:0:0:
256,192,180397,1,8,0:0:0:0:
256,192,180482,1,8,0:0:0:0:
256,192,180568,1,0,0:0:0:0:
256,192,180740,1,8,0:0:0:0:
256,192,181082,1,0,0:0:0:0:
256,192,181254,1,8,0:0:0:0:
256,192,181425,1,8,0:0:0:0:
256,192,181597,1,0,0:0:0:0:
256,192,181768,1,8,0:0:0:0:
256,192,181854,1,8,0:0:0:0:
256,192,181940,1,0,0:0:0:0:
256,192,182025,1,0,0:0:0:0:
256,192,182111,1,8,0:0:0:0:
256,192,182282,1,0,0:0:0:0:
256,192,182454,1,8,0:0:0:0:
256,192,182625,1,0,0:0:0:0:
256,192,182797,1,8,0:0:0:0:
256,192,182968,1,0,0:0:0:0:
256,192,183140,1,8,0:0:0:0:
256,192,183225,1,0,0:0:0:0:
256,192,183311,1,8,0:0:0:0:
256,192,183482,1,8,0:0:0:0:
256,192,183825,1,0,0:0:0:0:
256,192,183997,1,8,0:0:0:0:
256,192,184168,1,8,0:0:0:0:
256,192,184340,1,0,0:0:0:0:
256,192,184511,1,8,0:0:0:0:
256,192,184597,1,0,0:0:0:0:
256,192,184682,1,0,0:0:0:0:
256,192,184768,1,0,0:0:0:0:
256,192,184854,1,8,0:0:0:0:
256,192,185025,1,0,0:0:0:0:
256,192,185197,1,8,0:0:0:0:
256,192,185368,1,0,0:0:0:0:
256,192,185540,1,8,0:0:0:0:
256,192,185711,1,0,0:0:0:0:
256,192,185882,1,8,0:0:0:0:
256,192,185968,1,8,0:0:0:0:
256,192,186054,1,0,0:0:0:0:
256,192,186140,1,0,0:0:0:0:
256,192,186225,1,8,0:0:0:0:
256,192,186397,1,0,0:0:0:0:
256,192,186482,1,0,0:0:0:0:
256,192,186568,1,8,0:0:0:0:
256,192,186654,1,8,0:0:0:0:
256,192,186740,1,0,0:0:0:0:
256,192,186825,1,0,0:0:0:0:
256,192,186911,1,8,0:0:0:0:
256,192,187082,1,8,0:0:0:0:
256,192,187168,1,0,0:0:0:0:
256,192,187254,1,0,0:0:0:0:
256,192,187425,1,8,0:0:0:0:
256,192,187511,1,8,0:0:0:0:
256,192,187597,1,8,0:0:0:0:
256,192,187682,1,8,0:0:0:0:
256,192,187768,1,0,0:0:0:0:
256,192,187854,1,0,0:0:0:0:
256,192,187940,1,8,0:0:0:0:
256,192,188111,1,0,0:0:0:0:
256,192,188197,1,0,0:0:0:0:
256,192,188282,1,8,0:0:0:0:
256,192,188454,1,8,0:0:0:0:
256,192,188540,1,8,0:0:0:0:
256,192,188625,1,0,0:0:0:0:
256,192,188797,1,8,0:0:0:0:
256,192,188882,1,0,0:0:0:0:
256,192,188968,1,8,0:0:0:0:
256,192,189054,1,8,0:0:0:0:
256,192,189140,1,0,0:0:0:0:
256,192,189225,1,0,0:0:0:0:
256,192,189311,1,8,0:0:0:0:
256,192,189482,1,8,0:0:0:0:
256,192,189568,1,0,0:0:0:0:
256,192,189654,1,0,0:0:0:0:
256,192,189825,1,8,0:0:0:0:
256,192,189911,1,8,0:0:0:0:
256,192,189997,1,0,0:0:0:0:
256,192,190168,1,0,0:0:0:0:
256,192,190340,1,8,0:0:0:0:
256,192,190425,1,8,0:0:0:0:
256,192,190511,1,0,0:0:0:0:
256,192,190597,1,0,0:0:0:0:
256,192,190682,1,8,0:0:0:0:
256,192,190768,1,0,0:0:0:0:
256,192,190854,1,8,0:0:0:0:
256,192,190940,1,8,0:0:0:0:
256,192,191025,1,0,0:0:0:0:
256,192,191111,1,0,0:0:0:0:
256,192,191197,1,0,0:0:0:0:
256,192,191282,1,0,0:0:0:0:
256,192,191368,1,8,0:0:0:0:
256,192,191454,1,8,0:0:0:0:
256,192,191540,1,8,0:0:0:0:
256,192,191625,1,0,0:0:0:0:
256,192,191711,1,8,0:0:0:0:
256,192,191882,1,0,0:0:0:0:
256,192,191968,1,0,0:0:0:0:
256,192,192054,1,8,0:0:0:0:
256,192,192225,1,0,0:0:0:0:
256,192,192311,1,0,0:0:0:0:
256,192,192397,1,0,0:0:0:0:
256,192,192568,1,8,0:0:0:0:
256,192,192654,1,8,0:0:0:0:
256,192,192740,1,0,0:0:0:0:
256,192,192911,1,8,0:0:0:0:
256,192,192997,1,0,0:0:0:0:
256,192,193082,1,8,0:0:0:0:
256,192,193254,1,0,0:0:0:0:
256,192,193340,1,0,0:0:0:0:
256,192,193425,1,8,0:0:0:0:
256,192,193511,1,0,0:0:0:0:
256,192,193597,1,8,0:0:0:0:
256,192,193682,1,8,0:0:0:0:
256,192,193768,1,0,0:0:0:0:
256,192,193940,1,8,0:0:0:0:
256,192,194025,1,8,0:0:0:0:
256,192,194111,1,0,0:0:0:0:
256,192,194282,1,0,0:0:0:0:
256,192,194454,1,8,0:0:0:0:
256,192,194540,1,8,0:0:0:0:
256,192,194625,1,8,0:0:0:0:
256,192,194711,1,8,0:0:0:0:
256,192,194797,1,0,0:0:0:0:
256,192,194882,1,0,0:0:0:0:
256,192,194968,1,8,0:0:0:0:
256,192,195054,1,8,0:0:0:0:
256,192,195140,1,8,0:0:0:0:
256,192,195225,1,8,0:0:0:0:
256,192,195311,1,0,0:0:0:0:
256,192,195397,1,0,0:0:0:0:
256,192,195482,1,8,0:0:0:0:
256,192,195654,1,0,0:0:0:0:
256,192,195825,1,8,0:0:0:0:
256,192,195911,1,8,0:0:0:0:
256,192,195997,1,8,0:0:0:0:
256,192,196082,1,0,0:0:0:0:
256,192,196168,1,8,0:0:0:0:
256,192,196254,1,0,0:0:0:0:
256,192,196340,1,0,0:0:0:0:
256,192,196425,1,0,0:0:0:0:
256,192,196511,1,8,0:0:0:0:
256,192,196597,1,8,0:0:0:0:
256,192,196682,1,0,0:0:0:0:
256,192,196768,1,0,0:0:0:0:
256,192,196854,1,8,0:0:0:0:
256,192,196940,1,8,0:0:0:0:
256,192,197025,1,8,0:0:0:0:
256,192,197111,1,0,0:0:0:0:
256,192,197197,1,8,0:0:0:0:
256,192,197282,1,8,0:0:0:0:
256,192,197368,1,8,0:0:0:0:
256,192,197454,1,8,0:0:0:0:
256,192,197540,1,0,0:0:0:0:
256,192,197625,1,0,0:0:0:0:
256,192,197711,1,8,0:0:0:0:
256,192,197797,1,0,0:0:0:0:
256,192,197882,1,8,0:0:0:0:
256,192,197968,1,8,0:0:0:0:
256,192,198054,1,8,0:0:0:0:
256,192,198140,1,0,0:0:0:0:
256,192,198225,1,8,0:0:0:0:
256,192,198311,1,0,0:0:0:0:
256,192,198397,1,0,0:0:0:0:
256,192,198482,1,0,0:0:0:0:
256,192,198568,1,8,0:0:0:0:
256,192,198654,1,8,0:0:0:0:
256,192,198740,1,0,0:0:0:0:
256,192,198825,1,0,0:0:0:0:
256,192,198911,1,8,0:0:0:0:
256,192,198997,1,0,0:0:0:0:
256,192,199082,1,0,0:0:0:0:
256,192,199168,1,0,0:0:0:0:
256,192,199254,1,8,0:0:0:0:
256,192,199340,1,8,0:0:0:0:
256,192,199425,1,0,0:0:0:0:
256,192,199511,1,0,0:0:0:0:
256,192,199597,1,8,0:0:0:0:
256,192,199682,1,8,0:0:0:0:
256,192,199768,1,8,0:0:0:0:
256,192,199854,1,0,0:0:0:0:
256,192,199940,1,8,0:0:0:0:
256,192,200025,1,8,0:0:0:0:
256,192,200111,1,8,0:0:0:0:
256,192,200197,1,8,0:0:0:0:
256,192,200282,1,0,0:0:0:0:
256,192,200368,1,0,0:0:0:0:
256,192,200454,1,8,0:0:0:0:
256,192,200540,1,8,0:0:0:0:
256,192,200625,1,8,0:0:0:0:
256,192,200711,1,8,0:0:0:0:
256,192,200797,1,0,0:0:0:0:
256,192,200882,1,0,0:0:0:0:
256,192,200968,1,8,0:0:0:0:
256,192,201054,1,8,0:0:0:0:
256,192,201140,1,8,0:0:0:0:
256,192,201225,1,0,0:0:0:0:
256,192,201311,1,8,0:0:0:0:
256,192,201397,1,8,0:0:0:0:
256,192,201482,1,8,0:0:0:0:
256,192,201568,1,8,0:0:0:0:
256,192,201654,1,0,0:0:0:0:
256,192,201740,1,0,0:0:0:0:
256,192,201825,1,8,0:0:0:0:
256,192,201911,1,8,0:0:0:0:
256,192,201997,1,8,0:0:0:0:
256,192,202082,1,8,0:0:0:0:
256,192,202168,1,0,0:0:0:0:
256,192,202254,1,0,0:0:0:0:
256,192,202340,1,8,0:0:0:0:
256,192,202425,1,0,0:0:0:0:
256,192,202511,1,0,0:0:0:0:
256,192,202597,1,0,0:0:0:0:
256,192,202682,1,8,0:0:0:0:
256,192,202768,1,8,0:0:0:0:
256,192,202854,1,0,0:0:0:0:
256,192,202940,1,0,0:0:0:0:
256,192,203025,1,8,0:0:0:0:
256,192,203111,1,0,0:0:0:0:
256,192,203197,1,0,0:0:0:0:
256,192,203282,1,0,0:0:0:0:
256,192,203368,1,8,0:0:0:0:
256,192,203454,1,8,0:0:0:0:
256,192,203540,1,0,0:0:0:0:
256,192,203625,1,0,0:0:0:0:
256,192,203711,1,8,0:0:0:0:
256,192,203797,1,0,0:0:0:0:
256,192,203882,1,0,0:0:0:0:
256,192,203968,1,0,0:0:0:0:
256,192,204054,1,8,0:0:0:0:
256,192,204140,1,8,0:0:0:0:
256,192,204225,1,8,0:0:0:0:
256,192,204311,1,8,0:0:0:0:
256,192,204397,1,0,0:0:0:0:
256,192,204482,1,0,0:0:0:0:
256,192,204568,1,0,0:0:0:0:
256,192,204654,1,0,0:0:0:0:
256,192,204740,1,8,0:0:0:0:
256,192,204825,1,8,0:0:0:0:
256,192,204911,1,0,0:0:0:0:
256,192,204997,1,0,0:0:0:0:
256,192,205082,1,8,0:0:0:0:
256,192,205168,1,8,0:0:0:0:
256,192,205254,1,8,0:0:0:0:
256,192,205340,1,0,0:0:0:0:
256,192,205425,1,8,0:0:0:0:
256,192,205511,1,8,0:0:0:0:
256,192,205597,1,8,0:0:0:0:
256,192,205682,1,8,0:0:0:0:
256,192,205768,1,0,0:0:0:0:
256,192,205854,1,0,0:0:0:0:
256,192,205940,1,0,0:0:0:0:
256,192,206025,1,0,0:0:0:0:
256,192,206111,1,8,0:0:0:0:
256,192,206197,1,0,0:0:0:0:
256,192,206282,1,0,0:0:0:0:
256,192,206368,1,0,0:0:0:0:
256,192,206454,1,8,0:0:0:0:
256,192,206540,1,8,0:0:0:0:
256,192,206625,1,8,0:0:0:0:
256,192,206711,1,0,0:0:0:0:
256,192,206797,1,8,0:0:0:0:
256,192,206882,1,0,0:0:0:0:
256,192,206968,1,0,0:0:0:0:
256,192,207054,1,8,0:0:0:0:
256,192,207140,1,0,0:0:0:0:
256,192,207225,1,0,0:0:0:0:
256,192,207311,1,8,0:0:0:0:
256,192,207397,1,8,0:0:0:0:
256,192,207482,1,8,0:0:0:0:
256,192,207568,1,8,0:0:0:0:
256,192,207654,1,0,0:0:0:0:
256,192,207740,1,0,0:0:0:0:
256,192,207825,1,8,0:0:0:0:
256,192,207911,1,8,0:0:0:0:
256,192,207997,1,0,0:0:0:0:
256,192,208082,1,0,0:0:0:0:
256,192,208168,1,8,0:0:0:0:
256,192,208340,1,8,0:0:0:0:
256,192,208511,1,0,0:0:0:0:
256,192,208597,1,0,0:0:0:0:
256,192,208682,1,8,0:0:0:0:
256,192,208854,1,0,0:0:0:0:
256,192,209025,1,8,0:0:0:0:
256,192,209197,1,8,0:0:0:0:
256,192,209282,1,0,0:0:0:0:
256,192,209368,1,0,0:0:0:0:
256,192,209454,1,0,0:0:0:0:
256,192,209540,1,8,0:0:0:0:
256,192,209711,1,8,0:0:0:0:
256,192,209882,1,0,0:0:0:0:
256,192,209968,1,0,0:0:0:0:
256,192,210054,1,8,0:0:0:0:
256,192,210140,1,8,0:0:0:0:
256,192,210225,1,0,0:0:0:0:
256,192,210311,1,0,0:0:0:0:
256,192,210397,1,8,0:0:0:0:
256,192,210568,1,8,0:0:0:0:
256,192,210654,1,8,0:0:0:0:
256,192,210740,1,8,0:0:0:0:
256,192,210825,1,0,0:0:0:0:
256,192,210911,1,8,0:0:0:0:
256,192,211082,1,8,0:0:0:0:
256,192,211254,1,0,0:0:0:0:
256,192,211340,1,0,0:0:0:0:
256,192,211425,1,8,0:0:0:0:
256,192,211597,1,8,0:0:0:0:
256,192,211682,1,0,0:0:0:0:
256,192,211768,1,8,0:0:0:0:
256,192,211854,1,8,0:0:0:0:
256,192,211940,1,0,0:0:0:0:
256,192,212025,1,0,0:0:0:0:
256,192,212111,1,8,0:0:0:0:
256,192,212282,1,8,0:0:0:0:
256,192,212368,1,8,0:0:0:0:
256,192,212454,1,0,0:0:0:0:
256,192,212540,1,0,0:0:0:0:
256,192,212625,1,8,0:0:0:0:
256,192,212711,1,0,0:0:0:0:
256,192,212797,1,8,0:0:0:0:
256,192,212882,1,8,0:0:0:0:
256,192,212968,1,0,0:0:0:0:
256,192,213140,1,8,0:0:0:0:
256,192,213311,1,8,0:0:0:0:
256,192,213397,1,0,0:0:0:0:
256,192,213482,1,0,0:0:0:0:
256,192,213568,1,0,0:0:0:0:
256,192,213654,1,8,0:0:0:0:
256,192,213740,1,8,0:0:0:0:
256,192,213825,1,0,0:0:0:0:
256,192,213911,1,0,0:0:0:0:
256,192,213997,1,8,0:0:0:0:
256,192,214082,1,8,0:0:0:0:
256,192,214168,1,8,0:0:0:0:
256,192,214254,1,0,0:0:0:0:
256,192,214340,1,8,0:0:0:0:
256,192,214425,1,0,0:0:0:0:
256,192,214511,1,0,0:0:0:0:
256,192,214597,1,0,0:0:0:0:
256,192,214682,1,8,0:0:0:0:
256,192,214768,1,8,0:0:0:0:
256,192,214854,1,0,0:0:0:0:
256,192,214940,1,0,0:0:0:0:
256,192,215025,1,8,0:0:0:0:
256,192,215111,1,8,0:0:0:0:
256,192,215197,1,8,0:0:0:0:
256,192,215282,1,0,0:0:0:0:
256,192,215368,1,8,0:0:0:0:
256,192,215454,1,8,0:0:0:0:
256,192,215540,1,0,0:0:0:0:
256,192,215625,1,0,0:0:0:0:
256,192,215711,1,8,0:0:0:0:
256,192,215797,1,0,0:0:0:0:
256,192,215882,1,0,0:0:0:0:
256,192,215968,1,0,0:0:0:0:
256,192,216054,1,8,0:0:0:0:
256,192,216140,1,8,0:0:0:0:
256,192,216225,1,8,0:0:0:0:
256,192,216311,1,0,0:0:0:0:
256,192,216397,1,8,0:0:0:0:
256,192,216482,1,8,0:0:0:0:
256,192,216568,1,0,0:0:0:0:
256,192,216654,1,8,0:0:0:0:
256,192,216740,1,0,0:0:0:0:
256,192,216825,1,0,0:0:0:0:
256,192,216911,1,8,0:0:0:0:
256,192,216997,1,8,0:0:0:0:
256,192,217082,1,0,0:0:0:0:
256,192,217168,1,8,0:0:0:0:
256,192,217254,1,0,0:0:0:0:
256,192,217340,1,0,0:0:0:0:
256,192,217425,1,8,0:0:0:0:
256,192,217511,1,8,0:0:0:0:
256,192,217597,1,8,0:0:0:0:
256,192,217682,1,0,0:0:0:0:
256,192,217768,1,8,0:0:0:0:
256,192,217854,1,0,0:0:0:0:
256,192,217940,1,0,0:0:0:0:
256,192,218025,1,0,0:0:0:0:
256,192,218111,1,8,0:0:0:0:
256,192,218197,1,8,0:0:0:0:
256,192,218282,1,0,0:0:0:0:
256,192,218368,1,0,0:0:0:0:
256,192,218454,1,8,0:0:0:0:
256,192,218540,1,0,0:0:0:0:
256,192,218625,1,0,0:0:0:0:
256,192,218711,1,0,0:0:0:0:
256,192,218797,1,8,0:0:0:0:
256,192,218882,1,8,0:0:0:0:
256,192,218968,1,0,0:0:0:0:
256,192,219054,1,0,0:0:0:0:
256,192,219140,1,8,0:0:0:0:
256,192,219225,1,8,0:0:0:0:
256,192,219311,1,8,0:0:0:0:
256,192,219397,1,8,0:0:0:0:
256,192,219482,1,0,0:0:0:0:
256,192,219568,1,0,0:0:0:0:
256,192,219654,1,8,0:0:0:0:
256,192,219740,1,0,0:0:0:0:
256,192,219825,1,8,0:0:0:0:
256,192,219911,1,8,0:0:0:0:
256,192,219997,1,8,0:0:0:0:
256,192,220082,1,0,0:0:0:0:
256,192,220168,1,8,0:0:0:0:
256,192,220254,1,0,0:0:0:0:
256,192,220340,1,0,0:0:0:0:
256,192,220425,1,0,0:0:0:0:
256,192,220511,1,8,0:0:0:0:
256,192,220597,1,8,0:0:0:0:
256,192,220682,1,0,0:0:0:0:
256,192,220768,1,0,0:0:0:0:
256,192,220854,1,8,0:0:0:0:
256,192,220940,1,0,0:0:0:0:
256,192,221025,1,0,0:0:0:0:
256,192,221111,1,0,0:0:0:0:
256,192,221197,1,8,0:0:0:0:
256,192,221282,1,8,0:0:0:0:
256,192,221368,1,0,0:0:0:0:
256,192,221454,1,0,0:0:0:0:
256,192,221540,1,8,0:0:0:0:
256,192,221625,1,8,0:0:0:0:
256,192,221711,1,8,0:0:0:0:
256,192,221797,1,0,0:0:0:0:
256,192,221882,1,8,0:0:0:0:
256,192,221968,1,8,0:0:0:0:
256,192,222054,1,8,0:0:0:0:
256,192,222140,1,8,0:0:0:0:
256,192,222225,1,0,0:0:0:0:
256,192,222311,1,0,0:0:0:0:
256,192,222397,1,8,0:0:0:0:
256,192,222482,1,8,0:0:0:0:
256,192,222568,1,8,0:0:0:0:
256,192,222654,1,8,0:0:0:0:
256,192,222740,1,0,0:0:0:0:
256,192,222825,1,0,0:0:0:0:
256,192,222911,1,8,0:0:0:0:
256,192,222997,1,8,0:0:0:0:
256,192,223082,1,8,0:0:0:0:
256,192,223168,1,0,0:0:0:0:
256,192,223254,1,8,0:0:0:0:
256,192,223340,1,8,0:0:0:0:
256,192,223425,1,8,0:0:0:0:
256,192,223511,1,8,0:0:0:0:
256,192,223597,1,0,0:0:0:0:
256,192,223682,1,0,0:0:0:0:
256,192,223768,1,8,0:0:0:0:
256,192,223854,1,8,0:0:0:0:
256,192,223940,1,8,0:0:0:0:
256,192,224025,1,8,0:0:0:0:
256,192,224111,1,0,0:0:0:0:
256,192,224197,1,0,0:0:0:0:
256,192,224282,1,8,0:0:0:0:
256,192,224368,1,0,0:0:0:0:
256,192,224454,1,0,0:0:0:0:
256,192,224540,1,0,0:0:0:0:
256,192,224625,1,8,0:0:0:0:
256,192,224711,1,8,0:0:0:0:
256,192,224797,1,0,0:0:0:0:
256,192,224882,1,0,0:0:0:0:
256,192,224968,1,8,0:0:0:0:
256,192,225054,1,8,0:0:0:0:
256,192,225140,1,8,0:0:0:0:
256,192,225225,1,0,0:0:0:0:
256,192,225311,1,8,0:0:0:0:
256,192,225397,1,0,0:0:0:0:
256,192,225482,1,0,0:0:0:0:
256,192,225568,1,0,0:0:0:0:
256,192,225654,1,8,0:0:0:0:
256,192,225740,1,8,0:0:0:0:
256,192,225825,1,0,0:0:0:0:
256,192,225911,1,0,0:0:0:0:
256,192,225997,1,8,0:0:0:0:
256,192,226082,1,8,0:0:0:0:
256,192,226168,1,8,0:0:0:0:
256,192,226254,1,8,0:0:0:0:
256,192,226340,1,0,0:0:0:0:
256,192,226425,1,0,0:0:0:0:
256,192,226511,1,0,0:0:0:0:
256,192,226597,1,0,0:0:0:0:
256,192,226682,1,8,0:0:0:0:
256,192,226768,1,8,0:0:0:0:
256,192,226854,1,0,0:0:0:0:
256,192,226940,1,0,0:0:0:0:
256,192,227025,1,8,0:0:0:0:
256,192,227111,1,8,0:0:0:0:
256,192,227197,1,8,0:0:0:0:
256,192,227282,1,0,0:0:0:0:
256,192,227368,1,8,0:0:0:0:
256,192,227454,1,8,0:0:0:0:
256,192,227540,1,8,0:0:0:0:
256,192,227625,1,8,0:0:0:0:
256,192,227711,1,0,0:0:0:0:
256,192,227797,1,0,0:0:0:0:
256,192,227882,1,0,0:0:0:0:
256,192,227968,1,0,0:0:0:0:
256,192,228054,1,8,0:0:0:0:
256,192,228140,1,0,0:0:0:0:
256,192,228225,1,8,0:0:0:0:
256,192,228311,1,8,0:0:0:0:
256,192,228397,1,0,0:0:0:0:
256,192,228482,1,0,0:0:0:0:
256,192,228568,1,0,0:0:0:0:
256,192,228654,1,0,0:0:0:0:
256,192,228740,1,8,0:0:0:0:
256,192,228825,1,8,0:0:0:0:
256,192,228911,1,0,0:0:0:0:
256,192,228997,1,8,0:0:0:0:
256,192,229082,1,0,0:0:0:0:
256,192,229168,1,0,0:0:0:0:
256,192,229254,1,8,0:0:0:0:
256,192,229340,1,0,0:0:0:0:
256,192,229425,1,8,0:0:0:0:
256,192,229511,1,8,0:0:0:0:
256,192,229597,1,0,0:0:0:0:
256,192,229682,1,0,0:0:0:0:
256,192,229768,1,8,0:0:0:0:
256,192,229854,1,8,0:0:0:0:
256,192,229940,1,8,0:0:0:0:
256,192,230025,1,0,0:0:0:0:
256,192,230111,1,8,0:0:0:0:
256,192,230282,1,0,0:0:0:0:
256,192,230454,1,0,0:0:0:0:
256,192,230540,1,0,0:0:0:0:
256,192,230625,1,8,0:0:0:0:
256,192,230797,1,8,0:0:0:0:
256,192,230968,1,0,0:0:0:0:
256,192,231140,1,8,0:0:0:0:
256,192,231225,1,8,0:0:0:0:
256,192,231311,1,0,0:0:0:0:
256,192,231397,1,0,0:0:0:0:
256,192,231482,1,8,0:0:0:0:
256,192,231654,1,8,0:0:0:0:
256,192,231825,1,0,0:0:0:0:
256,192,231911,1,0,0:0:0:0:
256,192,231997,1,8,0:0:0:0:
256,192,232168,1,0,0:0:0:0:
256,192,232340,1,0,0:0:0:0:
256,192,232511,1,8,0:0:0:0:
256,192,232597,1,8,0:0:0:0:
256,192,232682,1,8,0:0:0:0:
256,192,232768,1,0,0:0:0:0:
256,192,232854,1,8,0:0:0:0:
256,192,233025,1,0,0:0:0:0:
256,192,233197,1,8,0:0:0:0:
256,192,233282,1,8,0:0:0:0:
256,192,233368,1,0,0:0:0:0:
256,192,233540,1,8,0:0:0:0:
256,192,233711,1,0,0:0:0:0:
256,192,233882,1,8,0:0:0:0:
256,192,233968,1,0,0:0:0:0:
256,192,234054,1,0,0:0:0:0:
256,192,234140,1,0,0:0:0:0:
256,192,234225,1,8,0:0:0:0:
256,192,234311,1,0,0:0:0:0:
256,192,234397,1,8,0:0:0:0:
256,192,234482,1,8,0:0:0:0:
256,192,234568,1,0,0:0:0:0:
256,192,234654,1,0,0:0:0:0:
256,192,234740,1,8,0:0:0:0:
256,192,234825,1,0,0:0:0:0:
256,192,234911,1,8,0:0:0:0:
256,192,234997,1,8,0:0:0:0:
256,192,235082,1,0,0:0:0:0:
256,192,235168,1,0,0:0:0:0:
256,192,235254,1,8,0:0:0:0:
256,192,235340,1,0,0:0:0:0:
256,192,235425,1,0,0:0:0:0:
256,192,235511,1,0,0:0:0:0:
256,192,235597,1,8,0:0:0:0:
256,192,235768,1,0,0:0:0:0:
256,192,235940,1,8,0:0:0:0:
256,192,236025,1,8,0:0:0:0:
256,192,236111,1,8,0:0:0:0:
256,192,236197,1,0,0:0:0:0:
256,192,236282,1,8,0:0:0:0:
256,192,236454,1,0,0:0:0:0:
256,192,236625,1,8,0:0:0:0:
256,192,236711,1,0,0:0:0:0:
256,192,236797,1,8,0:0:0:0:
256,192,236882,1,0,0:0:0:0:
256,192,236968,1,8,0:0:0:0:
256,192,237054,1,8,0:0:0:0:
256,192,237140,1,0,0:0:0:0:
256,192,237225,1,0,0:0:0:0:
256,192,237311,1,8,0:0:0:0:
256,192,237397,1,0,0:0:0:0:
256,192,237482,1,0,0:0:0:0:
256,192,237568,1,0,0:0:0:0:
256,192,237654,1,8,0:0:0:0:
256,192,237740,1,8,0:0:0:0:
256,192,237825,1,0,0:0:0:0:
256,192,237911,1,0,0:0:0:0:
256,192,237997,1,8,0:0:0:0:
256,192,238082,1,8,0:0:0:0:
256,192,238168,1,8,0:0:0:0:
256,192,238254,1,0,0:0:0:0:
256,192,238340,1,8,0:0:0:0:
256,192,238425,1,0,0:0:0:0:
256,192,238511,1,8,0:0:0:0:
256,192,238597,1,8,0:0:0:0:
256,192,238682,1,0,0:0:0:0:
256,192,238768,1,0,0:0:0:0:
256,192,238854,1,8,0:0:0:0:
256,192,238940,1,0,0:0:0:0:
256,192,239025,1,8,0:0:0:0:
256,192,239111,1,8,0:0:0:0:
256,192,239197,1,0,0:0:0:0:
256,192,239282,1,0,0:0:0:0:
256,192,239368,1,8,0:0:0:0:
256,192,239454,1,8,0:0:0:0:
256,192,239540,1,8,0:0:0:0:
256,192,239625,1,8,0:0:0:0:
256,192,239711,1,0,0:0:0:0:
256,192,239797,1,0,0:0:0:0:
256,192,239882,1,0,0:0:0:0:
256,192,239968,1,0,0:0:0:0:
256,192,240054,1,8,0:0:0:0:
256,192,240140,1,0,0:0:0:0:
256,192,240225,1,0,0:0:0:0:
256,192,240311,1,0,0:0:0:0:
256,192,240397,1,8,0:0:0:0:
256,192,240482,1,8,0:0:0:0:
256,192,240568,1,0,0:0:0:0:
256,192,240654,1,0,0:0:0:0:
256,192,240740,1,8,0:0:0:0:
256,192,240825,1,8,0:0:0:0:
256,192,240911,1,8,0:0:0:0:
256,192,240997,1,0,0:0:0:0:
256,192,241082,1,8,0:0:0:0:
256,192,241168,1,8,0:0:0:0:
256,192,241254,1,8,0:0:0:0:
256,192,241340,1,8,0:0:0:0:
256,192,241425,1,0,0:0:0:0:
256,192,241511,1,0,0:0:0:0:
256,192,241597,1,8,0:0:0:0:
256,192,241682,1,0,0:0:0:0:
256,192,241768,1,8,0:0:0:0:
256,192,241854,1,8,0:0:0:0:
256,192,241940,1,8,0:0:0:0:
256,192,242025,1,8,0:0:0:0:
256,192,242111,1,0,0:0:0:0:
256,192,242197,1,0,0:0:0:0:
256,192,242282,1,8,0:0:0:0:
256,192,242368,1,0,0:0:0:0:
256,192,242454,1,8,0:0:0:0:
256,192,242540,1,8,0:0:0:0:
256,192,242625,1,0,0:0:0:0:
256,192,242711,1,0,0:0:0:0:
256,192,242797,1,8,0:0:0:0:
256,192,242882,1,0,0:0:0:0:
256,192,242968,1,0,0:0:0:0:
256,192,243054,1,0,0:0:0:0:
256,192,243140,1,8,0:0:0:0:
256,192,243225,1,8,0:0:0:0:
256,192,243311,1,0,0:0:0:0:
256,192,243397,1,0,0:0:0:0:
256,192,243482,1,8,0:0:0:0:
256,192,243568,1,8,0:0:0:0:
256,192,243654,1,8,0:0:0:0:
256,192,243740,1,0,0:0:0:0:
256,192,243825,1,8,0:0:0:0:
256,192,243911,1,8,0:0:0:0:
256,192,243997,1,8,0:0:0:0:
256,192,244082,1,8,0:0:0:0:
256,192,244168,1,0,0:0:0:0:
256,192,244254,1,0,0:0:0:0:
256,192,244340,1,8,0:0:0:0:
256,192,244425,1,8,0:0:0:0:
256,192,244511,1,8,0:0:0:0:
256,192,244597,1,8,0:0:0:0:
256,192,244682,1,0,0:0:0:0:
256,192,244768,1,0,0:0:0:0:
256,192,244854,1,8,0:0:0:0:
256,192,244940,1,8,0:0:0:0:
256,192,245025,1,8,0:0:0:0:
256,192,245111,1,0,0:0:0:0:
256,192,245197,1,8,0:0:0:0:
256,192,245282,1,8,0:0:0:0:
256,192,245368,1,8,0:0:0:0:
256,192,245454,1,8,0:0:0:0:
256,192,245540,1,0,0:0:0:0:
256,192,245625,1,0,0:0:0:0:
256,192,245711,1,8,0:0:0:0:
256,192,245797,1,8,0:0:0:0:
256,192,245882,1,8,0:0:0:0:
256,192,245968,1,8,0:0:0:0:
256,192,246054,1,0,0:0:0:0:
256,192,246140,1,0,0:0:0:0:
256,192,246225,1,8,0:0:0:0:
256,192,246311,1,8,0:0:0:0:
256,192,246397,1,8,0:0:0:0:
256,192,246482,1,0,0:0:0:0:
256,192,246568,1,8,0:0:0:0:
256,192,246654,1,0,0:0:0:0:
256,192,246740,1,0,0:0:0:0:
256,192,246825,1,0,0:0:0:0:
256,192,246911,1,8,0:0:0:0:
256,192,246997,1,8,0:0:0:0:
256,192,247082,1,0,0:0:0:0:
256,192,247168,1,0,0:0:0:0:
256,192,247254,1,8,0:0:0:0:
256,192,247340,1,8,0:0:0:0:
256,192,247425,1,8,0:0:0:0:
256,192,247511,1,0,0:0:0:0:
256,192,247597,1,8,0:0:0:0:
256,192,247682,1,8,0:0:0:0:
256,192,247768,1,8,0:0:0:0:
256,192,247854,1,0,0:0:0:0:
256,192,247940,1,8,0:0:0:0:
256,192,248025,1,8,0:0:0:0:
256,192,248111,1,8,0:0:0:0:
256,192,248197,1,8,0:0:0:0:
256,192,248282,1,0,0:0:0:0:
256,192,248368,1,0,0:0:0:0:
256,192,248454,1,0,0:0:0:0:
256,192,248540,1,0,0:0:0:0:
256,192,248625,1,8,0:0:0:0:
256,192,248711,1,8,0:0:0:0:
256,192,248797,1,0,0:0:0:0:
256,192,248882,1,0,0:0:0:0:
256,192,248968,1,8,0:0:0:0:
256,192,249054,1,8,0:0:0:0:
256,192,249140,1,8,0:0:0:0:
256,192,249225,1,0,0:0:0:0:
256,192,249311,1,8,0:0:0:0:
256,192,249397,1,8,0:0:0:0:
256,192,249482,1,0,0:0:0:0:
256,192,249568,1,0,0:0:0:0:
256,192,249654,1,8,0:0:0:0:
256,192,249740,1,0,0:0:0:0:
256,192,249825,1,8,0:0:0:0:
256,192,249911,1,0,0:0:0:0:
256,192,249997,1,0,0:0:0:0:
256,192,250082,1,0,0:0:0:0:
256,192,250168,1,8,0:0:0:0:
256,192,250254,1,0,0:0:0:0:
256,192,250340,1,8,0:0:0:0:
256,192,250425,1,8,0:0:0:0:
256,192,250511,1,8,0:0:0:0:
256,192,250597,1,0,0:0:0:0:
256,192,250682,1,8,0:0:0:0:
256,192,250768,1,8,0:0:0:0:
256,192,250854,1,0,0:0:0:0:
256,192,250940,1,0,0:0:0:0:
256,192,251025,1,8,0:0:0:0:
256,192,251111,1,0,0:0:0:0:
256,192,251197,1,8,0:0:0:0:
256,192,251282,1,8,0:0:0:0:
256,192,251368,1,8,0:0:0:0:
256,192,251454,1,8,0:0:0:0:
256,192,251540,1,0,0:0:0:0:
256,192,251625,1,0,0:0:0:0:
256,192,251711,1,8,0:0:0:0:
256,192,251797,1,0,0:0:0:0:
256,192,251882,1,0,0:0:0:0:
256,192,251968,1,0,0:0:0:0:
256,192,252054,1,8,0:0:0:0:
256,192,252140,1,8,0:0:0:0:
256,192,252225,1,0,0:0:0:0:
256,192,252311,1,0,0:0:0:0:
256,192,252397,1,0,0:0:0:0:
256,192,252482,1,0,0:0:0:0:
256,192,252568,1,8,0:0:0:0:
256,192,252654,1,0,0:0:0:0:
256,192,252740,1,0,0:0:0:0:
256,192,252825,1,0,0:0:0:0:
256,192,252911,1,8,0:0:0:0:
256,192,252997,1,0,0:0:0:0:
256,192,253082,1,8,0:0:0:0:
256,192,253168,1,8,0:0:0:0:
256,192,253254,1,8,0:0:0:0:
256,192,253340,1,0,0:0:0:0:
256,192,253425,1,8,0:0:0:0:
256,192,253511,1,8,0:0:0:0:
256,192,253597,1,0,0:0:0:0:
256,192,253682,1,0,0:0:0:0:
256,192,253768,1,0,0:0:0:0:
256,192,253854,1,0,0:0:0:0:
256,192,253940,1,8,0:0:0:0:
256,192,254025,1,0,0:0:0:0:
256,192,254111,1,0,0:0:0:0:
256,192,254197,1,0,0:0:0:0:
256,192,254282,1,8,0:0:0:0:
256,192,254368,1,0,0:0:0:0:
256,192,254454,1,8,0:0:0:0:
256,192,254540,1,8,0:0:0:0:
256,192,254625,1,8,0:0:0:0:
256,192,254711,1,0,0:0:0:0:
256,192,254797,1,8,0:0:0:0:
256,192,254882,1,8,0:0:0:0:
256,192,254968,1,0,0:0:0:0:
256,192,255054,1,0,0:0:0:0:
256,192,255140,1,0,0:0:0:0:
256,192,255225,1,0,0:0:0:0:
256,192,255311,1,8,0:0:0:0:
256,192,255397,1,0,0:0:0:0:
256,192,255482,1,8,0:0:0:0:
256,192,255568,1,8,0:0:0:0:
256,192,255654,1,0,0:0:0:0:
256,192,255740,1,0,0:0:0:0:
256,192,255825,1,0,0:0:0:0:
256,192,255911,1,0,0:0:0:0:
256,192,255997,1,8,0:0:0:0:
256,192,256082,1,0,0:0:0:0:
256,192,256168,1,8,0:0:0:0:
256,192,256254,1,8,0:0:0:0:
256,192,256340,1,8,0:0:0:0:
256,192,256425,1,0,0:0:0:0:
256,192,256511,1,0,0:0:0:0:
256,192,256597,1,0,0:0:0:0:
256,192,256682,1,8,0:0:0:0:
256,192,256768,1,8,0:0:0:0:
256,192,256854,1,8,0:0:0:0:
256,192,256940,1,8,0:0:0:0:
256,192,257025,1,0,0:0:0:0:
256,192,257111,1,0,0:0:0:0:
256,192,257197,1,8,0:0:0:0:
256,192,257282,1,8,0:0:0:0:
256,192,257368,1,0,0:0:0:0:
256,192,257454,1,0,0:0:0:0:
256,192,257540,1,8,0:0:0:0:
256,192,257625,1,8,0:0:0:0:
256,192,257711,1,8,0:0:0:0:
256,192,257797,1,8,0:0:0:0:
256,192,257882,1,0,0:0:0:0:
256,192,257968,1,0,0:0:0:0:
256,192,258054,1,8,0:0:0:0:
256,192,258140,1,8,0:0:0:0:
256,192,258225,1,0,0:0:0:0:
256,192,258311,1,0,0:0:0:0:
256,192,258397,1,8,0:0:0:0:
256,192,258482,1,0,0:0:0:0:
256,192,258568,1,0,0:0:0:0:
256,192,258654,1,0,0:0:0:0:
256,192,258740,1,8,0:0:0:0:
256,192,258825,1,0,0:0:0:0:
256,192,258911,1,8,0:0:0:0:
256,192,258997,1,8,0:0:0:0:
256,192,259082,1,0,0:0:0:0:
256,192,259168,1,8,0:0:0:0:
256,192,259254,1,0,0:0:0:0:
256,192,259340,1,0,0:0:0:0:
256,192,259425,1,8,0:0:0:0:
256,192,259511,1,0,0:0:0:0:
256,192,259597,1,0,0:0:0:0:
256,192,259682,1,0,0:0:0:0:
256,192,259768,1,8,0:0:0:0:
256,192,259854,1,0,0:0:0:0:
256,192,259940,1,8,0:0:0:0:
256,192,260025,1,8,0:0:0:0:
256,192,260111,1,8,0:0:0:0:
256,192,260197,1,0,0:0:0:0:
256,192,260282,1,8,0:0:0:0:
256,192,260368,1,8,0:0:0:0:
256,192,260454,1,8,0:0:0:0:
256,192,260540,1,8,0:0:0:0:
256,192,260625,1,0,0:0:0:0:
256,192,260711,1,0,0:0:0:0:
256,192,260797,1,8,0:0:0:0:
256,192,260882,1,8,0:0:0:0:
256,192,260968,1,0,0:0:0:0:
256,192,261054,1,0,0:0:0:0:
256,192,261140,1,0,0:0:0:0:
256,192,261225,1,0,0:0:0:0:
256,192,261311,1,8,0:0:0:0:
256,192,261397,1,8,0:0:0:0:
256,192,261482,1,8,0:0:0:0:
256,192,261568,1,0,0:0:0:0:
256,192,261654,1,8,0:0:0:0:
256,192,261740,1,8,0:0:0:0:
256,192,261825,1,0,0:0:0:0:
256,192,261911,1,0,0:0:0:0:
256,192,261997,1,8,0:0:0:0:
256,192,262082,1,0,0:0:0:0:
256,192,262168,1,0,0:0:0:0:
256,192,262254,1,0,0:0:0:0:
256,192,262340,1,8,0:0:0:0:
256,192,262425,1,8,0:0:0:0:
256,192,262511,1,0,0:0:0:0:
256,192,262597,1,0,0:0:0:0:
256,192,262682,1,8,0:0:0:0:
256,192,262768,1,8,0:0:0:0:
256,192,262854,1,8,0:0:0:0:
256,192,262940,1,0,0:0:0:0:
256,192,263025,1,8,0:0:0:0:
256,192,263111,1,8,0:0:0:0:
256,192,263197,1,8,0:0:0:0:
256,192,263282,1,8,0:0:0:0:
256,192,263368,1,0,0:0:0:0:
256,192,263454,1,0,0:0:0:0:
256,192,263540,1,8,0:0:0:0:
256,192,263625,1,0,0:0:0:0:
256,192,263711,1,8,0:0:0:0:
256,192,263797,1,8,0:0:0:0:
256,192,263882,1,8,0:0:0:0:
256,192,263968,1,8,0:0:0:0:
256,192,264054,1,0,0:0:0:0:
256,192,264140,1,0,0:0:0:0:
256,192,264225,1,8,0:0:0:0:
256,192,264311,1,0,0:0:0:0:
256,192,264397,1,0,0:0:0:0:
256,192,264482,1,0,0:0:0:0:
256,192,264568,1,8,0:0:0:0:
256,192,264654,1,0,0:0:0:0:
256,192,264740,1,8,0:0:0:0:
256,192,264825,1,8,0:0:0:0:
256,192,264911,1,8,0:0:0:0:
256,192,264997,1,0,0:0:0:0:
256,192,265082,1,8,0:0:0:0:
256,192,265168,1,8,0:0:0:0:
256,192,265254,1,0,0:0:0:0:
256,192,265340,1,0,0:0:0:0:
256,192,265425,1,8,0:0:0:0:
256,192,265511,1,8,0:0:0:0:
256,192,265597,1,8,0:0:0:0:
256,192,265682,1,0,0:0:0:0:
256,192,265768,1,8,0:0:0:0:
256,192,265854,1,8,0:0:0:0:
256,192,265940,1,8,0:0:0:0:
256,192,266025,1,8,0:0:0:0:
256,192,266111,1,0,0:0:0:0:
256,192,266197,1,0,0:0:0:0:
256,192,266282,1,8,0:0:0:0:
256,192,266368,1,8,0:0:0:0:
256,192,266454,1,8,0:0:0:0:
256,192,266540,1,8,0:0:0:0:
256,192,266625,1,0,0:0:0:0:
256,192,266711,1,0,0:0:0:0:
256,192,266797,1,8,0:0:0:0:
256,192,266882,1,8,0:0:0:0:
256,192,266968,1,8,0:0:0:0:
256,192,267054,1,0,0:0:0:0:
256,192,267140,1,8,0:0:0:0:
256,192,267225,1,8,0:0:0:0:
256,192,267311,1,8,0:0:0:0:
256,192,267397,1,8,0:0:0:0:
256,192,267482,1,0,0:0:0:0:
256,192,267568,1,0,0:0:0:0:
256,192,267654,1,8,0:0:0:0:
256,192,267740,1,8,0:0:0:0:
256,192,267825,1,8,0:0:0:0:
256,192,267911,1,8,0:0:0:0:
256,192,267997,1,0,0:0:0:0:
256,192,268082,1,0,0:0:0:0:
256,192,268168,1,8,0:0:0:0:
256,192,268254,1,0,0:0:0:0:
256,192,268340,1,8,0:0:0:0:
256,192,268425,1,8,0:0:0:0:
256,192,268511,1,0,0:0:0:0:
256,192,268597,1,0,0:0:0:0:
256,192,268682,1,0,0:0:0:0:
256,192,268768,1,0,0:0:0:0:
256,192,268854,1,8,0:0:0:0:
256,192,268940,1,8,0:0:0:0:
256,192,269025,1,8,0:0:0:0:
256,192,269111,1,0,0:0:0:0:
256,192,269197,1,8,0:0:0:0:
256,192,269282,1,8,0:0:0:0:
256,192,269368,1,0,0:0:0:0:
256,192,269454,1,0,0:0:0:0:
256,192,269540,1,8,0:0:0:0:
256,192,269625,1,8,0:0:0:0:
256,192,269711,1,8,0:0:0:0:
256,192,269797,1,0,0:0:0:0:
256,192,269882,1,8,0:0:0:0:
256,192,269968,1,8,0:0:0:0:
256,192,270054,1,8,0:0:0:0:
256,192,270140,1,8,0:0:0:0:
256,192,270225,1,0,0:0:0:0:
256,192,270311,1,0,0:0:0:0:
256,192,270397,1,0,0:0:0:0:
256,192,270482,1,0,0:0:0:0:
256,192,270568,1,8,0:0:0:0:
256,192,270654,1,8,0:0:0:0:
256,192,270740,1,0,0:0:0:0:
256,192,270825,1,0,0:0:0:0:
256,192,270911,1,8,0:0:0:0:
256,192,270997,1,8,0:0:0:0:
256,192,271082,1,8,0:0:0:0:
256,192,271168,1,0,0:0:0:0:
256,192,271254,1,8,0:0:0:0:
256,192,271340,1,8,0:0:0:0:
256,192,271425,1,8,0:0:0:0:
256,192,271511,1,8,0:0:0:0:
256,192,271597,1,0,0:0:0:0:
256,192,271682,1,0,0:0:0:0:
256,192,271768,1,8,0:0:0:0:
256,192,271854,1,0,0:0:0:0:
256,192,271940,1,0,0:0:0:0:
256,192,272025,1,0,0:0:0:0:
256,192,272111,1,8,0:0:0:0:
256,192,272197,1,0,0:0:0:0:
256,192,272282,1,8,0:0:0:0:
256,192,272368,1,8,0:0:0:0:
256,192,272454,1,0,0:0:0:0:
256,192,272540,1,0,0:0:0:0:
256,192,272625,1,8,0:0:0:0:
256,192,272711,1,8,0:0:0:0:
256,192,272797,1,8,0:0:0:0:
256,192,272882,1,8,0:0:0:0:
256,192,272968,1,0,0:0:0:0:
256,192,273054,1,0,0:0:0:0:
256,192,273140,1,8,0:0:0:0:
256,192,273225,1,0,0:0:0:0:
256,192,273311,1,0,0:0:0:0:
256,192,273397,1,0,0:0:0:0:
256,192,273482,1,8,0:0:0:0:
256,192,273568,1,8,0:0:0:0:
256,192,273654,1,0,0:0:0:0:
256,192,273740,1,0,0:0:0:0:
256,192,273825,1,8,0:0:0:0:
256,192,273911,1,0,0:0:0:0:
256,192,273997,1,8,0:0:0:0:
256,192,274082,1,0,0:0:0:0:
256,192,274168,1,8,0:0:0:0:
256,192,274254,1,8,0:0:0:0:
256,192,274340,1,0,0:0:0:0:
256,192,274425,1,0,0:0:0:0:
256,192,274511,1,8,0:0:0:0:
256,192,274597,1,0,0:0:0:0:
256,192,274682,1,8,0:0:0:0:
256,192,274768,1,8,0:0:0:0:
256,192,274854,1,8,0:0:0:0:
256,192,274940,1,0,0:0:0:0:
256,192,275025,1,8,0:0:0:0:
256,192,275111,1,0,0:0:0:0:
256,192,275197,1,8,0:0:0:0:
256,192,275282,1,8,0:0:0:0:
256,192,275368,1,0,0:0:0:0:
256,192,275454,1,0,0:0:0:0:
256,192,275540,1,8,0:0:0:0:
256,192,275625,1,8,0:0:0:0:
256,192,275711,1,0,0:0:0:0:
256,192,275797,1,0,0:0:0:0:
256,192,275882,1,8,0:0:0:0:
256,192,275968,1,0,0:0:0:0:
256,192,276054,1,8,0:0:0:0:
256,192,276140,1,8,0:0:0:0:
256,192,276225,1,8,0:0:0:0:
256,192,276311,1,8,0:0:0:0:
256,192,276397,1,0,0:0:0:0:
256,192,276482,1,0,0:0:0:0:
256,192,276568,1,8,0:0:0:0:
256,192,276654,1,0,0:0:0:0:
256,192,276740,1,8,0:0:0:0:
256,192,276825,1,8,0:0:0:0:
256,192,276911,1,8,0:0:0:0:
256,192,276997,1,8,0:0:0:0:
256,192,277082,1,0,0:0:0:0:
256,192,277168,1,0,0:0:0:0:
256,192,277254,1,8,0:0:0:0:
256,192,277340,1,0,0:0:0:0:
256,192,277425,1,8,0:0:0:0:
256,192,277511,1,0,0:0:0:0:
256,192,277597,1,8,0:0:0:0:
256,192,277682,1,8,0:0:0:0:
256,192,277768,1,0,0:0:0:0:
256,192,277854,1,0,0:0:0:0:
256,192,277940,1,8,0:0:0:0:
256,192,278025,1,0,0:0:0:0:
256,192,278111,1,8,0:0:0:0:
256,192,278197,1,8,0:0:0:0:
256,192,278282,1,8,0:0:0:0:
256,192,278368,1,8,0:0:0:0:
256,192,278454,1,0,0:0:0:0:
256,192,278540,1,0,0:0:0:0:
256,192,278625,1,8,0:0:0:0:
256,192,278711,1,0,0:0:0:0:
256,192,278797,1,0,0:0:0:0:
256,192,278882,1,0,0:0:0:0:
256,192,278968,1,8,0:0:0:0:
256,192,279054,1,8,0:0:0:0:
256,192,279140,1,0,0:0:0:0:
256,192,279225,1,0,0:0:0:0:
256,192,279311,1,8,0:0:0:0:
256,192,279397,1,0,0:0:0:0:
256,192,279482,1,8,0:0:0:0:
256,192,279568,1,8,0:0:0:0:
256,192,279654,1,0,0:0:0:0:
256,192,279740,1,0,0:0:0:0:
256,192,279825,1,8,0:0:0:0:
256,192,279911,1,8,0:0:0:0:
256,192,279997,1,8,0:0:0:0:
256,192,280082,1,0,0:0:0:0:
256,192,280168,1,8,0:0:0:0:
256,192,280254,1,8,0:0:0:0:
256,192,280340,1,0,0:0:0:0:
256,192,280425,1,0,0:0:0:0:
256,192,280511,1,8,0:0:0:0:
256,192,280597,1,0,0:0:0:0:
256,192,280682,1,0,0:0:0:0:
256,192,280768,1,0,0:0:0:0:
256,192,280854,1,8,0:0:0:0:
256,192,280940,1,8,0:0:0:0:
256,192,281025,1,0,0:0:0:0:
256,192,281111,1,8,0:0:0:0:
256,192,281197,1,0,0:0:0:0:
256,192,281282,1,0,0:0:0:0:
256,192,281368,1,8,0:0:0:0:
256,192,281454,1,0,0:0:0:0:
256,192,281540,1,8,0:0:0:0:
256,192,281625,1,8,0:0:0:0:
256,192,281711,1,8,0:0:0:0:
256,192,281797,1,0,0:0:0:0:
256,192,281882,1,8,0:0:0:0:
256,192,281968,1,8,0:0:0:0:
256,192,282054,1,0,0:0:0:0:
256,192,283254,1,12,0:0:0:0:
256,192,283597,1,8,0:0:0:0:
256,192,283682,1,0,0:0:0:0:
256,192,283768,1,8,0:0:0:0:
256,192,283854,1,8,0:0:0:0:
256,192,283939,1,8,0:0:0:0:
256,192,284025,1,0,0:0:0:0:
256,192,284111,1,0,0:0:0:0:
256,192,284197,1,0,0:0:0:0:
256,192,284282,1,8,0:0:0:0:
256,192,284368,1,8,0:0:0:0:
256,192,284454,1,0,0:0:0:0:
256,192,284539,1,8,0:0:0:0:
256,192,284625,1,0,0:0:0:0:
256,192,284711,1,0,0:0:0:0:
256,192,284797,1,8,0:0:0:0:
256,192,284882,1,0,0:0:0:0:
256,192,284968,1,8,0:0:0:0:
256,192,285054,1,8,0:0:0:0:
256,192,285139,1,0,0:0:0:0:
256,192,285225,1,8,0:0:0:0:
256,192,285311,1,0,0:0:0:0:
256,192,285397,1,0,0:0:0:0:
256,192,285482,1,8,0:0:0:0:
256,192,285568,1,0,0:0:0:0:
256,192,285654,1,8,0:0:0:0:
256,192,285739,1,0,0:0:0:0:
256,192,285825,1,0,0:0:0:0:
256,192,285911,1,8,0:0:0:0:
256,192,285997,1,0,0:0:0:0:
256,192,286082,1,0,0:0:0:0:
256,192,286168,1,8,0:0:0:0:
256,192,286254,1,0,0:0:0:0:
256,192,286339,1,8,0:0:0:0:
256,192,286425,1,0,0:0:0:0:
256,192,286511,1,8,0:0:0:0:
256,192,286597,1,8,0:0:0:0:
256,192,286682,1,0,0:0:0:0:
256,192,286768,1,8,0:0:0:0:
256,192,286854,1,8,0:0:0:0:
256,192,286939,1,0,0:0:0:0:
256,192,287025,1,8,0:0:0:0:
256,192,287111,1,8,0:0:0:0:
256,192,287197,1,0,0:0:0:0:
256,192,287282,1,8,0:0:0:0:
256,192,287368,1,0,0:0:0:0:
256,192,287454,1,0,0:0:0:0:
256,192,287539,1,8,0:0:0:0:
256,192,287625,1,0,0:0:0:0:
256,192,287711,1,8,0:0:0:0:
256,192,287797,1,0,0:0:0:0:
256,192,287882,1,0,0:0:0:0:
256,192,287968,1,8,0:0:0:0:
256,192,288054,1,0,0:0:0:0:
256,192,288139,1,0,0:0:0:0:
256,192,288225,1,8,0:0:0:0:
256,192,288311,1,0,0:0:0:0:
256,192,288397,1,8,0:0:0:0:
256,192,288482,1,8,0:0:0:0:
256,192,288568,1,0,0:0:0:0:
256,192,288654,1,8,0:0:0:0:
256,192,288739,1,0,0:0:0:0:
256,192,288825,1,0,0:0:0:0:
256,192,288911,1,8,0:0:0:0:
256,192,288997,1,0,0:0:0:0:
256,192,289082,1,8,0:0:0:0:
256,192,289168,1,0,0:0:0:0:
256,192,289254,1,8,0:0:0:0:
256,192,289339,1,8,0:0:0:0:
256,192,289425,1,0,0:0:0:0:
256,192,289511,1,8,0:0:0:0:
256,192,289597,1,8,0:0:0:0:
256,192,289682,1,0,0:0:0:0:
256,192,289768,1,8,0:0:0:0:
256,192,289854,1,0,0:0:0:0:
256,192,289939,1,0,0:0:0:0:
256,192,290025,1,8,0:0:0:0:
256,192,290111,1,8,0:0:0:0:
256,192,290197,1,0,0:0:0:0:
256,192,290282,1,8,0:0:0:0:
256,192,290368,1,0,0:0:0:0:
256,192,290454,1,8,0:0:0:0:
256,192,290539,1,0,0:0:0:0:
256,192,290625,1,0,0:0:0:0:
256,192,290711,1,8,0:0:0:0:
256,192,290797,1,0,0:0:0:0:
256,192,290882,1,0,0:0:0:0:
256,192,290968,1,8,0:0:0:0:
256,192,291054,1,0,0:0:0:0:
256,192,291139,1,8,0:0:0:0:
256,192,291225,1,8,0:0:0:0:
256,192,291311,1,0,0:0:0:0:
256,192,291397,1,8,0:0:0:0:
256,192,291482,1,0,0:0:0:0:
256,192,291568,1,0,0:0:0:0:
256,192,291654,1,8,0:0:0:0:
256,192,291739,1,0,0:0:0:0:
256,192,291825,1,8,0:0:0:0:
256,192,291911,1,8,0:0:0:0:
256,192,291997,1,0,0:0:0:0:
256,192,292082,1,8,0:0:0:0:
256,192,292168,1,0,0:0:0:0:
256,192,292254,1,0,0:0:0:0:
256,192,292339,1,8,0:0:0:0:
256,192,292425,1,0,0:0:0:0:
256,192,292511,1,0,0:0:0:0:
256,192,292597,1,8,0:0:0:0:
256,192,292682,1,8,0:0:0:0:
256,192,292768,1,0,0:0:0:0:
256,192,292854,1,8,0:0:0:0:
256,192,292939,1,0,0:0:0:0:
256,192,293025,1,0,0:0:0:0:
256,192,293111,1,0,0:0:0:0:
256,192,293197,1,8,0:0:0:0:
256,192,293282,1,8,0:0:0:0:
256,192,293368,1,0,0:0:0:0:
256,192,293454,1,8,0:0:0:0:
256,192,293539,1,8,0:0:0:0:
256,192,293625,1,0,0:0:0:0:
256,192,293711,1,8,0:0:0:0:
256,192,293797,1,8,0:0:0:0:
256,192,293882,1,0,0:0:0:0:
256,192,293968,1,8,0:0:0:0:
256,192,294054,1,8,0:0:0:0:
256,192,294139,1,0,0:0:0:0:
256,192,294225,1,8,0:0:0:0:
256,192,294311,1,8,0:0:0:0:
256,192,294397,1,0,0:0:0:0:
256,192,294482,1,0,0:0:0:0:
256,192,294568,1,8,0:0:0:0:
256,192,294654,1,0,0:0:0:0:
256,192,294739,1,8,0:0:0:0:
256,192,294825,1,8,0:0:0:0:
256,192,294911,1,0,0:0:0:0:
256,192,294997,1,8,0:0:0:0:
256,192,295082,1,0,0:0:0:0:
256,192,295168,1,0,0:0:0:0:
256,192,295254,1,8,0:0:0:0:
256,192,295339,1,8,0:0:0:0:
256,192,295425,1,0,0:0:0:0:
256,192,295511,1,8,0:0:0:0:
256,192,295597,1,0,0:0:0:0:
256,192,295682,1,0,0:0:0:0:
256,192,295768,1,8,0:0:0:0:
256,192,295854,1,0,0:0:0:0:
256,192,295939,1,8,0:0:0:0:
256,192,296025,1,8,0:0:0:0:
256,192,296111,1,0,0:0:0:0:
256,192,296197,1,8,0:0:0:0:
256,192,296282,1,0,0:0:0:0:
256,192,296368,1,0,0:0:0:0:
256,192,296454,1,8,0:0:0:0:
256,192,296539,1,0,0:0:0:0:
256,192,296625,1,8,0:0:0:0:
256,192,296711,1,0,0:0:0:0:
256,192,296797,1,0,0:0:0:0:
256,192,296882,1,8,0:0:0:0:
256,192,296968,1,0,0:0:0:0:
256,192,297054,1,0,0:0:0:0:
256,192,297139,1,8,0:0:0:0:
256,192,297225,1,0,0:0:0:0:
256,192,297311,1,8,0:0:0:0:
256,192,297397,1,0,0:0:0:0:
256,192,297482,1,8,0:0:0:0:
256,192,297568,1,8,0:0:0:0:
256,192,297654,1,0,0:0:0:0:
256,192,297739,1,8,0:0:0:0:
256,192,297825,1,0,0:0:0:0:
256,192,297911,1,0,0:0:0:0:
256,192,297997,1,8,0:0:0:0:
256,192,298082,1,8,0:0:0:0:
256,192,298168,1,0,0:0:0:0:
256,192,298254,1,8,0:0:0:0:
256,192,298339,1,0,0:0:0:0:
256,192,298425,1,0,0:0:0:0:
256,192,298511,1,8,0:0:0:0:
256,192,298597,1,0,0:0:0:0:
256,192,298682,1,8,0:0:0:0:
256,192,298768,1,0,0:0:0:0:
256,192,298854,1,0,0:0:0:0:
256,192,298939,1,8,0:0:0:0:
256,192,299025,1,0,0:0:0:0:
256,192,299111,1,0,0:0:0:0:
256,192,299197,1,8,0:0:0:0:
256,192,299282,1,0,0:0:0:0:
256,192,299368,1,8,0:0:0:0:
256,192,299454,1,8,0:0:0:0:
256,192,299539,1,0,0:0:0:0:
256,192,299625,1,8,0:0:0:0:
256,192,299711,1,0,0:0:0:0:
256,192,299797,1,0,0:0:0:0:
256,192,299882,1,8,0:0:0:0:
256,192,299968,1,0,0:0:0:0:
256,192,300054,1,8,0:0:0:0:
256,192,300139,1,0,0:0:0:0:
256,192,300225,1,8,0:0:0:0:
256,192,300311,1,8,0:0:0:0:
256,192,300397,1,0,0:0:0:0:
256,192,300482,1,8,0:0:0:0:
256,192,300568,1,0,0:0:0:0:
256,192,300654,1,0,0:0:0:0:
256,192,300739,1,8,0:0:0:0:
256,192,300825,1,8,0:0:0:0:
256,192,300911,1,0,0:0:0:0:
256,192,300997,1,8,0:0:0:0:
256,192,301082,1,0,0:0:0:0:
256,192,301168,1,0,0:0:0:0:
256,192,301254,1,8,0:0:0:0:
256,192,301339,1,0,0:0:0:0:
256,192,301425,1,8,0:0:0:0:
256,192,301511,1,0,0:0:0:0:
256,192,301597,1,8,0:0:0:0:
256,192,301682,1,0,0:0:0:0:
256,192,301768,1,0,0:0:0:0:
256,192,301854,1,8,0:0:0:0:
256,192,301939,1,8,0:0:0:0:
256,192,302025,1,0,0:0:0:0:
256,192,302111,1,8,0:0:0:0:
256,192,302197,1,8,0:0:0:0:
256,192,302282,1,0,0:0:0:0:
256,192,302368,1,8,0:0:0:0:
256,192,302454,1,8,0:0:0:0:
256,192,302539,1,0,0:0:0:0:
256,192,302625,1,8,0:0:0:0:
256,192,302711,1,0,0:0:0:0:
256,192,302797,1,8,0:0:0:0:
256,192,302882,1,8,0:0:0:0:
256,192,302968,1,0,0:0:0:0:
256,192,303054,1,8,0:0:0:0:
256,192,303139,1,0,0:0:0:0:
256,192,303225,1,0,0:0:0:0:
256,192,303311,1,8,0:0:0:0:
256,192,303397,1,0,0:0:0:0:
256,192,303482,1,0,0:0:0:0:
256,192,303568,1,0,0:0:0:0:
256,192,303654,1,8,0:0:0:0:
256,192,303739,1,0,0:0:0:0:
256,192,303825,1,8,0:0:0:0:
256,192,303911,1,8,0:0:0:0:
256,192,303997,1,8,0:0:0:0:
256,192,304082,1,0,0:0:0:0:
256,192,304168,1,8,0:0:0:0:
256,192,304339,12,0,305539,0:0:0:0:
