osu file format v14

[General]
AudioFilename: audio.ogg
AudioLeadIn: 0
PreviewTime: 272909
Countdown: 0
SampleSet: Normal
StackLeniency: 0.7
Mode: 1
LetterboxInBreaks: 0
WidescreenStoryboard: 0

[Editor]
Bookmarks: 1067,22324,23009,33981,44952,55924,64152,66895,80609,86095,88838,99809,108038,110781,129981,132724,147809,150552,153295,164267,175238,184838,186209,197181,202667,217752,219124,228724,230095,238324,241067,249295,250667,252038,271238,273981,289067,291809,294552,297295,308267,319238,330209,335695,339809
DistanceSpacing: 1.3
BeatDivisor: 4
GridSize: 32
TimelineZoom: 2.899999

[Metadata]
Title:Ankoku Butoukai
TitleUnicode:暗黒舞踏会
Artist:Dragon Guardian
ArtistUnicode:Dragon Guardian
Creator:YaniFR
Version:Dancing in the Night under the Black Moon
Source:
Tags:fuki fuyuki tenge 天外 冬黄 female vocal dragonvarius power heavy symphonic rpg metal rock japanese jrock j-rock jmetal j-metal 勇者アーサー arthur brave ドラゴンヴァリウス ドラゴンガーディアン ドラゴン・ガーディアン
BeatmapID:4179585
BeatmapSetID:2009040

[Difficulty]
HPDrainRate:5
CircleSize:4
OverallDifficulty:7
ApproachRate:10
SliderMultiplier:1.4
SliderTickRate:1

[Events]
//Background and Video events
0,0,"73375784_p0.jpg",0,50
//Break Periods
2,148009,149759
2,197381,202217
2,289267,291017
//Storyboard Layer 0 (Background)
//Storyboard Layer 1 (Fail)
//Storyboard Layer 2 (Pass)
//Storyboard Layer 3 (Foreground)
//Storyboard Layer 4 (Overlay)
//Storyboard Sound Samples

[TimingPoints]
1067,342.857142857143,4,1,0,100,1,0
1067,-95.2380952380952,4,1,0,100,0,1
21633,-95.2380952380952,4,1,0,100,0,1
21719,-95.6186405240905,4,1,0,100,0,1
21804,-95.9977609851665,4,1,0,100,0,1
21890,-96.3844136380667,4,1,0,100,0,1
21976,-96.7741935483871,4,1,0,100,0,1
22062,-97.1671388101983,4,1,0,100,0,1
22147,-97.5586631903295,4,1,0,100,0,1
22233,-97.958017992289,4,1,0,100,0,1
22319,-98.3606557377049,4,1,0,100,0,1
22404,-98.761877339476,4,1,0,100,0,1
22490,-99.1711642251349,4,1,0,100,0,1
22576,-99.5838575437917,4,1,0,100,0,1
22662,-100,4,1,0,100,0,1
23009,-100,4,1,0,90,0,0
44262,-100,4,1,0,90,0,0
44347,-99.383387740297,4,1,0,90,0,0
44433,-98.767212169274,4,1,0,90,0,0
44519,-98.158630078097,4,1,0,90,0,0
44604,-97.564449508617,4,1,0,90,0,0
44690,-96.970554926387,4,1,0,90,0,0
44776,-96.383846911496,4,1,0,90,0,0
44862,-95.804195804196,4,1,0,90,0,0
44952,-95.2380952380952,4,1,0,100,0,1
55924,-100,4,1,0,90,0,0
65862,-100,4,1,0,90,0,0
65947,-99.5882780334221,4,1,0,90,0,0
66033,-99.17514832859,4,1,0,90,0,0
66119,-98.7654320987654,4,1,0,90,0,0
66204,-98.3637929384748,4,1,0,90,0,0
66290,-97.9607394701734,4,1,0,90,0,0
66376,-97.5609756097561,4,1,0,90,0,0
66462,-97.164461247637,4,1,0,90,0,0
66547,-96.7757119322193,4,1,0,90,0,0
66633,-96.3855421686747,4,1,0,90,0,0
66719,-95.998505859831,4,1,0,90,0,0
66804,-95.619012184913,4,1,0,90,0,0
66895,-95.2380952380952,4,1,0,100,0,1
85747,-95.2380952380952,4,1,0,100,0,1
85833,-95.6186405240905,4,1,0,100,0,1
85919,-96.0022391192798,4,1,0,100,0,1
86004,-96.3844136380667,4,1,0,100,0,1
86095,-96.7741935483871,4,1,0,90,0,0
86176,-97.1671388101983,4,1,0,90,0,0
86262,-97.5632881388072,4,1,0,90,0,0
86347,-97.958017992289,4,1,0,90,0,0
86433,-98.3606557377049,4,1,0,90,0,0
86604,-99.1711642251349,4,1,0,90,0,0
86776,-100,4,1,0,90,0,0
88147,-100,4,1,0,90,0,0
88233,-99.3770824279299,4,1,0,90,0,0
88319,-98.761877339476,4,1,0,90,0,0
88404,-98.1612649352508,4,1,0,90,0,0
88490,-97.5609756097561,4,1,0,90,0,0
88576,-96.9679836030815,4,1,0,90,0,0
88662,-96.3821566561293,4,1,0,90,0,0
88747,-95.8100558659218,4,1,0,90,0,0
88838,-95.2380952380952,4,1,0,100,0,1
98433,-95.2380952380952,4,1,0,100,0,1
98519,-95.5234279742205,4,1,0,100,0,1
98604,-95.8071278825996,4,1,0,100,0,1
98690,-96.0958856101493,4,1,0,100,0,1
98776,-96.3863892013498,4,1,0,100,0,1
98862,-96.6786545377618,4,1,0,100,0,1
98947,-96.9692683099339,4,1,0,100,0,1
99033,-97.2650846014686,4,1,0,100,0,1
99119,-97.5627112613414,4,1,0,100,0,1
99204,-97.8586723768737,4,1,0,100,0,1
99290,-98.1599484499177,4,1,0,100,0,1
99376,-98.4630853203103,4,1,0,100,0,1
99462,-98.7681002809596,4,1,0,100,0,1
99633,-99.3802326845711,4,1,0,100,0,1
99809,-100,4,1,0,90,0,0
109747,-100,4,1,0,90,0,0
109832,-99.5882780334221,4,1,0,90,0,0
109918,-99.17514832859,4,1,0,90,0,0
110004,-98.7654320987654,4,1,0,90,0,0
110089,-98.3637929384748,4,1,0,90,0,0
110175,-97.9607394701734,4,1,0,90,0,0
110261,-97.5609756097561,4,1,0,90,0,0
110347,-97.164461247637,4,1,0,90,0,0
110432,-96.7757119322193,4,1,0,90,0,0
110518,-96.3855421686747,4,1,0,90,0,0
110604,-95.998505859831,4,1,0,90,0,0
110689,-95.619012184913,4,1,0,90,0,0
110781,-95.2380952380952,4,1,0,100,0,1
129633,-95.2380952380952,4,1,0,100,0,1
129719,-95.6186405240905,4,1,0,100,0,1
129804,-95.9977609851665,4,1,0,100,0,1
129890,-96.3844136380667,4,1,0,100,0,1
129981,-96.7741935483871,4,1,0,90,0,0
130062,-97.1671388101983,4,1,0,90,0,0
130147,-97.5586631903295,4,1,0,90,0,0
130233,-97.958017992289,4,1,0,90,0,0
130319,-98.3606557377049,4,1,0,90,0,0
130404,-98.761877339476,4,1,0,90,0,0
130490,-99.1711642251349,4,1,0,90,0,0
130576,-99.5838575437917,4,1,0,90,0,0
130662,-100,4,1,0,100,0,0
131690,-100,4,1,0,90,0,0
131776,-99.5838575437917,4,1,0,90,0,0
131862,-99.1711642251349,4,1,0,90,0,0
131947,-98.7666170753947,4,1,0,90,0,0
132033,-98.3606557377049,4,1,0,90,0,0
132119,-97.958017992289,4,1,0,90,0,0
132204,-97.5632881388072,4,1,0,90,0,0
132290,-97.1671388101983,4,1,0,90,0,0
132376,-96.7741935483871,4,1,0,90,0,0
132462,-96.3844136380667,4,1,0,90,0,0
132547,-96.0022391192798,4,1,0,90,0,0
132633,-95.6186405240905,4,1,0,90,0,0
132724,-95.2380952380952,4,1,0,100,0,1
146433,-95.2380952380952,4,1,0,100,0,1
146519,-95.5234279742205,4,1,0,100,0,1
146604,-95.8071278825996,4,1,0,100,0,1
146690,-96.0958856101493,4,1,0,100,0,1
146776,-96.3863892013498,4,1,0,100,0,1
146862,-96.6786545377618,4,1,0,100,0,1
146947,-96.9692683099339,4,1,0,100,0,1
147033,-97.2650846014686,4,1,0,100,0,1
147119,-97.5627112613414,4,1,0,100,0,1
147204,-97.8586723768737,4,1,0,100,0,1
147290,-98.1599484499177,4,1,0,100,0,1
147376,-98.4630853203103,4,1,0,100,0,1
147462,-98.7681002809596,4,1,0,100,0,1
147547,-99.0714311522203,4,1,0,100,0,1
147633,-99.3802326845711,4,1,0,100,0,1
147719,-99.6909652790402,4,1,0,100,0,1
147809,-100,4,1,0,90,0,0
150204,-117.647058823529,4,1,0,90,0,0
150552,-95.2380952380952,4,1,0,100,0,1
152947,-96.1538461538461,4,1,0,100,0,1
153033,-97.0873786407767,4,1,0,100,0,1
153119,-98.0392156862745,4,1,0,100,0,1
153204,-99.009900990099,4,1,0,100,0,1
153295,-100,4,1,0,90,0,0
184833,-100,4,1,0,90,0,0
184890,-99.792553772246,4,1,0,90,0,0
184947,-99.585966441491,4,1,0,90,0,0
185004,-99.380232684571,4,1,0,90,0,0
185062,-99.171760280661,4,1,0,90,0,0
185119,-98.967732621093,4,1,0,90,0,0
185176,-98.764542736736,4,1,0,90,0,0
185290,-98.360655737705,4,1,0,90,0,0
185404,-97.960058590261,4,1,0,90,0,0
185462,-97.757495810902,4,1,0,90,0,0
185519,-97.559240019925,4,1,0,90,0,0
185633,-97.165131112686,4,1,0,90,0,0
185747,-96.774193548387,4,1,0,90,0,0
185804,-96.579902081646,4,1,0,90,0,0
185862,-96.38300115997,4,1,0,90,0,0
185976,-95.998319504254,4,1,0,90,0,0
186090,-95.616696307145,4,1,0,90,0,0
186147,-95.42702025475,4,1,0,90,0,0
186209,-95.238095238095,4,1,0,100,0,1
195462,-95.2380952380952,4,1,0,100,0,1
195547,-95.2916652880257,4,1,0,100,0,1
195633,-95.3459269411835,4,1,0,100,0,1
195719,-95.4002504256574,4,1,0,100,0,1
195804,-95.4540031022551,4,1,0,100,0,1
195890,-95.5084498447988,4,1,0,100,0,1
195976,-95.5629587353835,4,1,0,100,0,1
196147,-95.6715277547088,4,1,0,100,0,1
196319,-95.7809808238495,4,1,0,100,0,1
196490,-95.8900460804944,4,1,0,100,0,1
196662,-96,4,1,0,100,0,1
196833,-96.1095649039906,4,1,0,100,0,1
197004,-96.219380186826,4,1,0,100,0,1
197181,-96.3300911122112,4,1,0,90,0,0
199752,-96.3300911122112,4,1,0,20,0,0
202581,-100,4,1,0,50,0,0
219124,-100,4,1,0,60,0,0
221138,-100,4,1,0,30,0,0
221824,-100,4,1,0,60,0,0
223881,-100,4,1,0,30,0,0
224567,-100,4,1,0,60,0,0
225938,-100,4,1,0,30,0,0
227309,-100,4,1,0,60,0,0
228719,-100,4,1,0,95,0,0
228804,-99.6909652790402,4,1,0,95,0,0
228890,-99.3802326845711,4,1,0,95,0,0
228976,-99.0714311522203,4,1,0,95,0,0
229062,-98.7645427367359,4,1,0,95,0,0
229147,-98.4630853203103,4,1,0,95,0,0
229233,-98.1599484499177,4,1,0,95,0,0
229319,-97.8586723768737,4,1,0,95,0,0
229404,-97.5627112613414,4,1,0,95,0,0
229490,-97.2650846014686,4,1,0,95,0,0
229576,-96.9692683099339,4,1,0,95,0,0
229662,-96.6752459189789,4,1,0,95,0,0
229747,-96.3863892013498,4,1,0,95,0,0
229833,-96.0958856101493,4,1,0,95,0,0
229919,-95.8071278825996,4,1,0,95,0,0
230004,-95.5234279742205,4,1,0,95,0,0
230095,-95.2380952380952,4,1,0,100,0,1
247919,-95.2380952380952,4,1,0,100,0,1
248004,-95.5201003274577,4,1,0,100,0,1
248090,-95.8071278825996,4,1,0,100,0,1
248176,-96.0958856101493,4,1,0,100,0,1
248262,-96.3863892013498,4,1,0,100,0,1
248347,-96.6752459189789,4,1,0,100,0,1
248433,-96.9692683099339,4,1,0,100,0,1
248519,-97.2650846014686,4,1,0,100,0,1
248604,-97.5592400199246,4,1,0,100,0,1
248690,-97.8586723768737,4,1,0,100,0,1
248776,-98.1599484499177,4,1,0,100,0,1
248862,-98.4630853203103,4,1,0,100,0,1
248947,-98.7645427367359,4,1,0,100,0,1
249033,-99.0714311522203,4,1,0,100,0,1
249119,-99.3802326845711,4,1,0,100,0,1
249204,-99.6873409437941,4,1,0,100,0,1
249295,-100,4,1,0,90,0,0
272947,-100,4,1,0,90,0,0
273032,-99.5882780334221,4,1,0,90,0,0
273118,-99.17514832859,4,1,0,90,0,0
273204,-98.7654320987654,4,1,0,90,0,0
273289,-98.3637929384748,4,1,0,90,0,0
273375,-97.9607394701734,4,1,0,90,0,0
273461,-97.5609756097561,4,1,0,90,0,0
273547,-97.164461247637,4,1,0,90,0,0
273632,-96.7757119322193,4,1,0,90,0,0
273718,-96.3855421686747,4,1,0,90,0,0
273804,-95.998505859831,4,1,0,90,0,0
273889,-95.619012184913,4,1,0,90,0,0
273981,-95.2380952380952,4,1,0,100,0,1
287690,-95.2380952380952,4,1,0,100,0,1
287776,-94.9546681431241,4,1,0,100,0,1
287862,-94.6729229919956,4,1,0,100,0,1
287947,-94.3960920568303,4,1,0,100,0,1
288033,-94.1176470588235,4,1,0,100,0,1
288119,-93.8408399165555,4,1,0,100,0,1
288204,-93.5688467571438,4,1,0,100,0,1
288290,-93.2952536379709,4,1,0,100,0,1
288376,-93.0232558139535,4,1,0,100,0,1
288462,-92.7528393726339,4,1,0,100,0,1
288547,-92.4871077555698,4,1,0,100,0,1
288633,-92.2197949924382,4,1,0,100,0,1
288719,-91.9540229885057,4,1,0,100,0,1
288804,-91.6928423444496,4,1,0,100,0,1
288890,-91.4300946288151,4,1,0,100,0,1
288976,-91.168848428467,4,1,0,100,0,1
289067,-90.9090909090909,4,1,0,90,0,0
291462,-117.647058823529,4,1,0,90,0,0
291809,-95.2380952380952,4,1,0,100,0,1
294204,-95.2380952380952,4,1,0,100,0,1
294290,-95.6186405240905,4,1,0,100,0,1
294376,-96.0022391192798,4,1,0,100,0,1
294462,-96.388927919067,4,1,0,100,0,1
294552,-96.7741935483871,4,1,0,90,0,0
294633,-97.1671388101983,4,1,0,90,0,0
294719,-97.5632881388072,4,1,0,90,0,0
294804,-97.958017992289,4,1,0,90,0,0
294890,-98.3606557377049,4,1,0,90,0,0
294976,-98.7666170753947,4,1,0,90,0,0
295062,-99.1759433280324,4,1,0,90,0,0
295147,-99.5838575437917,4,1,0,90,0,0
295233,-100,4,1,0,90,0,0
295919,-100,4,1,0,90,0,0
296004,-99.6909652790402,4,1,0,90,0,0
296090,-99.3802326845711,4,1,0,90,0,0
296176,-99.0714311522203,4,1,0,90,0,0
296262,-98.7645427367359,4,1,0,90,0,0
296347,-98.4630853203103,4,1,0,90,0,0
296433,-98.1599484499177,4,1,0,90,0,0
296519,-97.8586723768737,4,1,0,90,0,0
296604,-97.5627112613414,4,1,0,90,0,0
296690,-97.2650846014686,4,1,0,90,0,0
296776,-96.9692683099339,4,1,0,90,0,0
296862,-96.6752459189789,4,1,0,90,0,0
296947,-96.3863892013498,4,1,0,90,0,0
297033,-96.0958856101493,4,1,0,90,0,0
297119,-95.8071278825996,4,1,0,90,0,0
297204,-95.5234279742205,4,1,0,90,0,0
297295,-95.2380952380952,4,1,0,100,0,1
318376,-95.2380952380952,4,1,0,100,0,1
318462,-94.785157330089,4,1,0,100,0,1
318547,-94.3416996917657,4,1,0,100,0,1
318633,-93.8972280048208,4,1,0,100,0,1
318719,-93.4569247546347,4,1,0,100,0,1
318804,-93.0257801899593,4,1,0,100,0,1
318890,-92.5935929987575,4,1,0,100,0,1
318976,-92.1654030219928,4,1,0,100,0,1
319062,-91.7411550607504,4,1,0,100,0,1
319147,-91.3256606990622,4,1,0,100,0,1
319238,-90.9090909090909,4,1,0,100,0,1
334319,-90.9090909090909,4,1,0,100,0,1
334404,-91.4243798346226,4,1,0,100,0,1
334490,-91.9517102615694,4,1,0,100,0,1
334576,-92.4851592012952,4,1,0,100,0,1
334662,-93.0248337630615,4,1,0,100,0,1
334747,-93.5644577902136,4,1,0,100,0,1
334833,-94.116839431592,4,1,0,100,0,1
334919,-94.67578205925,4,1,0,100,0,1
335004,-95.2347874409558,4,1,0,100,0,1
335090,-95.8071278825996,4,1,0,100,0,1
335176,-96.3863892013498,4,1,0,100,0,1
335262,-96.9726976941576,4,1,0,100,0,1
335347,-97.5592400199246,4,1,0,100,0,1
335433,-98.1599484499177,4,1,0,100,0,1
335519,-98.7681002809596,4,1,0,100,0,1
335604,-99.3766309075094,4,1,0,100,0,1
335695,-100,4,1,0,90,0,0
339119,-100,4,1,0,90,0,0
339204,-99.3833877402974,4,1,0,90,0,0
339290,-98.767212169274,4,1,0,90,0,0
339376,-98.158630078097,4,1,0,90,0,0
339462,-97.557501958271,4,1,0,90,0,0
339547,-96.9705549263873,4,1,0,90,0,0
339633,-96.3838469114957,4,1,0,90,0,0
339719,-95.8041958041958,4,1,0,90,0,0
339809,-95.2380952380952,4,1,0,90,0,0

[HitObjects]
256,192,38,5,8,0:0:0:0:
256,192,381,1,8,0:0:0:0:
256,192,724,1,8,0:0:0:0:
256,192,1067,1,8,0:0:0:0:
256,192,1152,1,8,0:0:0:0:
256,192,1238,1,0,0:0:0:0:
256,192,1324,1,0,0:0:0:0:
256,192,1409,1,8,0:0:0:0:
256,192,1495,1,0,0:0:0:0:
256,192,1581,1,8,0:0:0:0:
256,192,1667,1,0,0:0:0:0:
256,192,1752,1,8,0:0:0:0:
256,192,1838,1,8,0:0:0:0:
256,192,1924,1,0,0:0:0:0:
256,192,2009,1,0,0:0:0:0:
256,192,2095,1,0,0:0:0:0:
256,192,2181,1,0,0:0:0:0:
256,192,2267,1,8,0:0:0:0:
256,192,2352,1,0,0:0:0:0:
256,192,2438,1,0,0:0:0:0:
256,192,2524,1,0,0:0:0:0:
256,192,2609,1,8,0:0:0:0:
256,192,2695,1,8,0:0:0:0:
256,192,2781,1,0,0:0:0:0:
256,192,2867,1,0,0:0:0:0:
256,192,2952,1,8,0:0:0:0:
256,192,3038,1,0,0:0:0:0:
256,192,3124,1,8,0:0:0:0:
256,192,3209,1,8,0:0:0:0:
256,192,3295,1,8,0:0:0:0:
256,192,3381,1,0,0:0:0:0:
256,192,3467,1,8,0:0:0:0:
256,192,3552,1,8,0:0:0:0:
256,192,3638,1,0,0:0:0:0:
256,192,3724,1,0,0:0:0:0:
256,192,3809,1,8,0:0:0:0:
256,192,3895,1,8,0:0:0:0:
256,192,3981,1,8,0:0:0:0:
256,192,4067,1,8,0:0:0:0:
256,192,4152,1,0,0:0:0:0:
256,192,4238,1,0,0:0:0:0:
256,192,4324,1,8,0:0:0:0:
256,192,4409,1,0,0:0:0:0:
256,192,4495,1,8,0:0:0:0:
256,192,4581,1,0,0:0:0:0:
256,192,4667,1,8,0:0:0:0:
256,192,4752,1,8,0:0:0:0:
256,192,4838,1,0,0:0:0:0:
256,192,4924,1,0,0:0:0:0:
256,192,5009,1,8,0:0:0:0:
256,192,5095,1,8,0:0:0:0:
256,192,5181,1,8,0:0:0:0:
256,192,5267,1,8,0:0:0:0:
256,192,5352,1,0,0:0:0:0:
256,192,5438,1,0,0:0:0:0:
256,192,5524,1,8,0:0:0:0:
256,192,5609,1,8,0:0:0:0:
256,192,5695,1,8,0:0:0:0:
256,192,5781,1,0,0:0:0:0:
256,192,5867,1,8,0:0:0:0:
256,192,5952,1,8,0:0:0:0:
256,192,6038,1,0,0:0:0:0:
256,192,6124,1,8,0:0:0:0:
256,192,6209,1,0,0:0:0:0:
256,192,6295,1,0,0:0:0:0:
256,192,6381,1,8,0:0:0:0:
256,192,6467,1,0,0:0:0:0:
256,192,6552,1,8,0:0:0:0:
256,192,6638,1,8,0:0:0:0:
256,192,6724,1,0,0:0:0:0:
256,192,6809,1,0,0:0:0:0:
256,192,6895,1,8,0:0:0:0:
256,192,6981,1,0,0:0:0:0:
256,192,7067,1,8,0:0:0:0:
256,192,7152,1,8,0:0:0:0:
256,192,7238,1,8,0:0:0:0:
256,192,7324,1,8,0:0:0:0:
256,192,7409,1,0,0:0:0:0:
256,192,7495,1,0,0:0:0:0:
256,192,7581,1,0,0:0:0:0:
256,192,7667,1,0,0:0:0:0:
256,192,7752,1,8,0:0:0:0:
256,192,7838,1,0,0:0:0:0:
256,192,7924,1,8,0:0:0:0:
256,192,8009,1,0,0:0:0:0:
256,192,8095,1,8,0:0:0:0:
256,192,8181,1,8,0:0:0:0:
256,192,8267,1,0,0:0:0:0:
256,192,8352,1,0,0:0:0:0:
256,192,8438,1,8,0:0:0:0:
256,192,8524,1,8,0:0:0:0:
256,192,8609,1,0,0:0:0:0:
256,192,8695,1,0,0:0:0:0:
256,192,8781,1,8,0:0:0:0:
256,192,8867,1,0,0:0:0:0:
256,192,8952,1,8,0:0:0:0:
256,192,9038,1,8,0:0:0:0:
256,192,9124,1,8,0:0:0:0:
256,192,9209,1,0,0:0:0:0:
256,192,9295,1,8,0:0:0:0:
256,192,9381,1,8,0:0:0:0:
256,192,9467,1,8,0:0:0:0:
256,192,9552,1,8,0:0:0:0:
256,192,9638,1,0,0:0:0:0:
256,192,9724,1,0,0:0:0:0:
256,192,9809,1,8,0:0:0:0:
256,192,9895,1,0,0:0:0:0:
256,192,9981,1,8,0:0:0:0:
256,192,10067,1,8,0:0:0:0:
256,192,10152,1,8,0:0:0:0:
256,192,10238,1,0,0:0:0:0:
256,192,10324,1,8,0:0:0:0:
256,192,10409,1,8,0:0:0:0:
256,192,10495,1,0,0:0:0:0:
256,192,10581,1,0,0:0:0:0:
256,192,10667,1,8,0:0:0:0:
256,192,10752,1,8,0:0:0:0:
256,192,10838,1,8,0:0:0:0:
256,192,10924,1,8,0:0:0:0:
256,192,11009,1,0,0:0:0:0:
256,192,11095,1,0,0:0:0:0:
256,192,11181,1,8,0:0:0:0:
256,192,11267,1,0,0:0:0:0:
256,192,11352,1,8,0:0:0:0:
256,192,11438,1,8,0:0:0:0:
256,192,11524,1,0,0:0:0:0:
256,192,11609,1,8,0:0:0:0:
256,192,11695,1,0,0:0:0:0:
256,192,11781,1,0,0:0:0:0:
256,192,11867,1,8,0:0:0:0:
256,192,11952,1,0,0:0:0:0:
256,192,12038,1,8,0:0:0:0:
256,192,12124,1,8,0:0:0:0:
256,192,12209,1,8,0:0:0:0:
256,192,12295,1,0,0:0:0:0:
256,192,12381,1,8,0:0:0:0:
256,192,12467,1,0,0:0:0:0:
256,192,12552,1,8,0:0:0:0:
256,192,12638,1,0,0:0:0:0:
256,192,12724,1,0,0:0:0:0:
256,192,12809,1,0,0:0:0:0:
256,192,12895,1,8,0:0:0:0:
256,192,12981,1,8,0:0:0:0:
256,192,13067,1,0,0:0:0:0:
256,192,13152,1,0,0:0:0:0:
256,192,13238,1,8,0:0:0:0:
256,192,13324,1,8,0:0:0:0:
256,192,13409,1,8,0:0:0:0:
256,192,13495,1,8,0:0:0:0:
256,192,13581,1,0,0:0:0:0:
256,192,13667,1,0,0:0:0:0:
256,192,13752,1,8,0:0:0:0:
256,192,13838,1,0,0:0:0:0:
256,192,13924,1,0,0:0:0:0:
256,192,14009,1,0,0:0:0:0:
256,192,14095,1,8,0:0:0:0:
256,192,14181,1,8,0:0:0:0:
256,192,14267,1,0,0:0:0:0:
256,192,14352,1,0,0:0:0:0:
256,192,14438,1,8,0:0:0:0:
256,192,14524,1,8,0:0:0:0:
256,192,14609,1,0,0:0:0:0:
256,192,14695,1,0,0:0:0:0:
256,192,14781,1,8,0:0:0:0:
256,192,14867,1,8,0:0:0:0:
256,192,14952,1,8,0:0:0:0:
256,192,15038,1,0,0:0:0:0:
256,192,15124,1,8,0:0:0:0:
256,192,15209,1,0,0:0:0:0:
256,192,15295,1,8,0:0:0:0:
256,192,15381,1,8,0:0:0:0:
256,192,15467,1,8,0:0:0:0:
256,192,15552,1,0,0:0:0:0:
256,192,15638,1,8,0:0:0:0:
256,192,15724,1,8,0:0:0:0:
256,192,15809,1,0,0:0:0:0:
256,192,15895,1,0,0:0:0:0:
256,192,15981,1,8,0:0:0:0:
256,192,16067,1,8,0:0:0:0:
256,192,16152,1,8,0:0:0:0:
256,192,16238,1,8,0:0:0:0:
256,192,16324,1,0,0:0:0:0:
256,192,16409,1,0,0:0:0:0:
256,192,16495,1,8,0:0:0:0:
256,192,16581,1,8,0:0:0:0:
256,192,16667,1,8,0:0:0:0:
256,192,16752,1,0,0:0:0:0:
256,192,16838,1,8,0:0:0:0:
256,192,16924,1,8,0:0:0:0:
256,192,17009,1,0,0:0:0:0:
256,192,17095,1,0,0:0:0:0:
256,192,17181,1,8,0:0:0:0:
256,192,17267,1,0,0:0:0:0:
256,192,17352,1,0,0:0:0:0:
256,192,17438,1,0,0:0:0:0:
256,192,17524,1,8,0:0:0:0:
256,192,17609,1,8,0:0:0:0:
256,192,17695,1,8,0:0:0:0:
256,192,17781,1,8,0:0:0:0:
256,192,17867,1,0,0:0:0:0:
256,192,17952,1,0,0:0:0:0:
256,192,18038,1,8,0:0:0:0:
256,192,18124,1,8,0:0:0:0:
256,192,18209,1,8,0:0:0:0:
256,192,18295,1,8,0:0:0:0:
256,192,18381,1,0,0:0:0:0:
256,192,18467,1,0,0:0:0:0:
256,192,18552,1,8,0:0:0:0:
256,192,18638,1,8,0:0:0:0:
256,192,18724,1,0,0:0:0:0:
256,192,18809,1,0,0:0:0:0:
256,192,18895,1,8,0:0:0:0:
256,192,18981,1,8,0:0:0:0:
256,192,19067,1,8,0:0:0:0:
256,192,19152,1,8,0:0:0:0:
256,192,19238,1,0,0:0:0:0:
256,192,19324,1,0,0:0:0:0:
256,192,19409,1,8,0:0:0:0:
256,192,19495,1,8,0:0:0:0:
256,192,19581,1,8,0:0:0:0:
256,192,19667,1,8,0:0:0:0:
256,192,19752,1,0,0:0:0:0:
256,192,19838,1,0,0:0:0:0:
256,192,19924,1,8,0:0:0:0:
256,192,20009,1,8,0:0:0:0:
256,192,20095,1,8,0:0:0:0:
256,192,20181,1,8,0:0:0:0:
256,192,20267,1,0,0:0:0:0:
256,192,20352,1,0,0:0:0:0:
256,192,20438,1,8,0:0:0:0:
256,192,20524,1,0,0:0:0:0:
256,192,20609,1,8,0:0:0:0:
256,192,20695,1,0,0:0:0:0:
256,192,20781,1,0,0:0:0:0:
256,192,20867,1,0,0:0:0:0:
256,192,20952,1,8,0:0:0:0:
256,192,21038,1,0,0:0:0:0:
256,192,21124,1,8,0:0:0:0:
256,192,21209,1,0,0:0:0:0:
256,192,21295,1,8,0:0:0:0:
256,192,21381,1,8,0:0:0:0:
256,192,21467,1,0,0:0:0:0:
256,192,21552,1,0,0:0:0:0:
256,192,21638,1,8,0:0:0:0:
256,192,21724,1,8,0:0:0:0:
256,192,21809,1,0,0:0:0:0:
256,192,21895,1,0,0:0:0:0:
256,192,21981,1,8,0:0:0:0:
256,192,22067,1,8,0:0:0:0:
256,192,22152,1,0,0:0:0:0:
256,192,22238,1,0,0:0:0:0:
256,192,22324,1,8,0:0:0:0:
256,192,22409,1,0,0:0:0:0:
256,192,22495,1,0,0:0:0:0:
256,192,22581,1,0,0:0:0:0:
256,192,22667,1,8,0:0:0:0:
256,192,22838,1,8,0:0:0:0:
256,192,22924,1,8,0:0:0:0:
256,192,23009,1,0,0:0:0:0:
256,192,23181,1,0,0:0:0:0:
256,192,23267,1,0,0:0:0:0:
256,192,23352,1,8,0:0:0:0:
256,192,23524,1,0,0:0:0:0:
256,192,23867,1,0,0:0:0:0:
256,192,23952,1,0,0:0:0:0:
256,192,24038,1,8,0:0:0:0:
256,192,24381,1,0,0:0:0:0:
256,192,24467,1,0,0:0:0:0:
256,192,24552,1,8,0:0:0:0:
256,192,24638,1,0,0:0:0:0:
256,192,24724,1,8,0:0:0:0:
256,192,24895,1,8,0:0:0:0:
256,192,25238,1,0,0:0:0:0:
256,192,25324,1,0,0:0:0:0:
256,192,25409,1,8,0:0:0:0:
256,192,25581,1,0,0:0:0:0:
256,192,25752,1,8,0:0:0:0:
256,192,25867,1,0,0:0:0:0:
256,192,25981,1,0,0:0:0:0:
256,192,26095,1,8,0:0:0:0:
256,192,26209,1,0,0:0:0:0:
256,192,26324,1,8,0:0:0:0:
256,192,26438,1,8,0:0:0:0:
256,192,26609,1,0,0:0:0:0:
256,192,26695,1,0,0:0:0:0:
256,192,26781,1,8,0:0:0:0:
256,192,26895,1,0,0:0:0:0:
256,192,27009,1,0,0:0:0:0:
256,192,27124,1,8,0:0:0:0:
256,192,27209,1,8,0:0:0:0:
256,192,27295,1,0,0:0:0:0:
256,192,27381,1,0,0:0:0:0:
256,192,27467,1,8,0:0:0:0:
256,192,27638,1,0,0:0:0:0:
256,192,27981,1,0,0:0:0:0:
256,192,28067,1,0,0:0:0:0:
256,192,28152,1,8,0:0:0:0:
256,192,28324,1,0,0:0:0:0:
256,192,28495,1,8,0:0:0:0:
256,192,28667,1,0,0:0:0:0:
256,192,28752,1,0,0:0:0:0:
256,192,28838,1,8,0:0:0:0:
256,192,29009,1,0,0:0:0:0:
256,192,29352,1,0,0:0:0:0:
256,192,29438,1,8,0:0:0:0:
256,192,29524,1,0,0:0:0:0:
256,192,29867,1,8,0:0:0:0:
256,192,29952,1,8,0:0:0:0:
256,192,30038,1,0,0:0:0:0:
256,192,30124,1,0,0:0:0:0:
256,192,30209,1,8,0:0:0:0:
256,192,30381,1,0,0:0:0:0:
256,192,30724,1,0,0:0:0:0:
256,192,30809,1,0,0:0:0:0:
256,192,30895,1,8,0:0:0:0:
256,192,31067,1,0,0:0:0:0:
256,192,31238,1,8,0:0:0:0:
256,192,31352,1,0,0:0:0:0:
256,192,31467,1,0,0:0:0:0:
256,192,31581,1,8,0:0:0:0:
256,192,31695,1,8,0:0:0:0:
256,192,31809,1,0,0:0:0:0:
256,192,31924,1,8,0:0:0:0:
256,192,32095,1,0,0:0:0:0:
256,192,32152,1,0,0:0:0:0:
256,192,32209,1,0,0:0:0:0:
256,192,32267,1,8,0:0:0:0:
256,192,32381,1,0,0:0:0:0:
256,192,32495,1,0,0:0:0:0:
256,192,32609,1,8,0:0:0:0:
256,192,32695,1,8,0:0:0:0:
256,192,32781,1,0,0:0:0:0:
256,192,32867,1,0,0:0:0:0:
256,192,32952,1,8,0:0:0:0:
256,192,33124,1,0,0:0:0:0:
256,192,33467,1,8,0:0:0:0:
256,192,33552,1,0,0:0:0:0:
256,192,33638,1,8,0:0:0:0:
256,192,33809,1,0,0:0:0:0:
256,192,33981,1,8,0:0:0:0:
256,192,34067,1,8,0:0:0:0:
256,192,34152,1,0,0:0:0:0:
256,192,34238,1,0,0:0:0:0:
256,192,34324,1,8,0:0:0:0:
256,192,34495,1,0,0:0:0:0:
256,192,34581,1,0,0:0:0:0:
256,192,34667,1,8,0:0:0:0:
256,192,34838,1,0,0:0:0:0:
256,192,35009,1,8,0:0:0:0:
256,192,35181,1,0,0:0:0:0:
256,192,35352,1,8,0:0:0:0:
256,192,35524,1,8,0:0:0:0:
256,192,35609,1,8,0:0:0:0:
256,192,35695,1,0,0:0:0:0:
256,192,35867,1,0,0:0:0:0:
256,192,36038,1,8,0:0:0:0:
256,192,36209,1,0,0:0:0:0:
256,192,36381,1,8,0:0:0:0:
256,192,36552,1,0,0:0:0:0:
256,192,36638,1,0,0:0:0:0:
256,192,36724,1,8,0:0:0:0:
256,192,36809,1,8,0:0:0:0:
256,192,36895,1,0,0:0:0:0:
256,192,36981,1,0,0:0:0:0:
256,192,37067,1,8,0:0:0:0:
256,192,37238,1,0,0:0:0:0:
256,192,37324,1,0,0:0:0:0:
256,192,37409,1,8,0:0:0:0:
256,192,37581,1,0,0:0:0:0:
256,192,37752,1,8,0:0:0:0:
256,192,37924,1,0,0:0:0:0:
256,192,38095,1,8,0:0:0:0:
256,192,38267,1,8,0:0:0:0:
256,192,38352,1,8,0:0:0:0:
256,192,38438,1,0,0:0:0:0:
256,192,38609,1,8,0:0:0:0:
256,192,38781,1,0,0:0:0:0:
256,192,38952,1,0,0:0:0:0:
256,192,39124,1,8,0:0:0:0:
256,192,39295,1,0,0:0:0:0:
256,192,39381,1,0,0:0:0:0:
256,192,39467,1,8,0:0:0:0:
256,192,39552,1,0,0:0:0:0:
256,192,39638,1,0,0:0:0:0:
256,192,39724,1,0,0:0:0:0:
256,192,39809,1,8,0:0:0:0:
256,192,39981,1,0,0:0:0:0:
256,192,40067,1,0,0:0:0:0:
256,192,40152,1,8,0:0:0:0:
256,192,40324,1,0,0:0:0:0:
256,192,40495,1,8,0:0:0:0:
256,192,40667,1,0,0:0:0:0:
256,192,40838,1,8,0:0:0:0:
256,192,41009,1,8,0:0:0:0:
256,192,41095,1,8,0:0:0:0:
256,192,41181,1,0,0:0:0:0:
256,192,41352,1,0,0:0:0:0:
256,192,41524,1,8,0:0:0:0:
256,192,41695,1,0,0:0:0:0:
256,192,41867,1,8,0:0:0:0:
256,192,42038,1,0,0:0:0:0:
256,192,42124,1,0,0:0:0:0:
256,192,42209,1,8,0:0:0:0:
256,192,42295,1,8,0:0:0:0:
256,192,42381,1,0,0:0:0:0:
256,192,42467,1,0,0:0:0:0:
256,192,42552,1,8,0:0:0:0:
256,192,42638,1,0,0:0:0:0:
256,192,42724,1,8,0:0:0:0:
256,192,42809,1,8,0:0:0:0:
256,192,42895,1,8,0:0:0:0:
256,192,42981,1,8,0:0:0:0:
256,192,43067,1,0,0:0:0:0:
256,192,43152,1,0,0:0:0:0:
256,192,43238,1,8,0:0:0:0:
256,192,43324,1,8,0:0:0:0:
256,192,43409,1,0,0:0:0:0:
256,192,43495,1,0,0:0:0:0:
256,192,43581,1,8,0:0:0:0:
256,192,43667,1,0,0:0:0:0:
256,192,43752,1,0,0:0:0:0:
256,192,43838,1,0,0:0:0:0:
256,192,43924,1,8,0:0:0:0:
256,192,44009,1,0,0:0:0:0:
256,192,44095,1,8,0:0:0:0:
256,192,44181,1,8,0:0:0:0:
256,192,44267,1,0,0:0:0:0:
256,192,44352,1,0,0:0:0:0:
256,192,44438,1,0,0:0:0:0:
256,192,44524,1,0,0:0:0:0:
256,192,44609,1,8,0:0:0:0:
256,192,44695,1,8,0:0:0:0:
256,192,44781,1,8,0:0:0:0:
256,192,44867,1,0,0:0:0:0:
256,192,44952,1,8,0:0:0:0:
256,192,45124,1,0,0:0:0:0:
256,192,45295,1,0,0:0:0:0:
256,192,45381,1,0,0:0:0:0:
256,192,45467,1,8,0:0:0:0:
256,192,45638,1,0,0:0:0:0:
256,192,45809,1,8,0:0:0:0:
256,192,45895,1,0,0:0:0:0:
256,192,45981,1,0,0:0:0:0:
256,192,46067,1,0,0:0:0:0:
256,192,46152,1,8,0:0:0:0:
256,192,46324,1,0,0:0:0:0:
256,192,46495,1,8,0:0:0:0:
256,192,46667,1,0,0:0:0:0:
256,192,46752,1,0,0:0:0:0:
256,192,46838,1,8,0:0:0:0:
256,192,47009,1,0,0:0:0:0:
256,192,47181,1,8,0:0:0:0:
256,192,47267,1,8,0:0:0:0:
256,192,47352,1,0,0:0:0:0:
256,192,47438,1,0,0:0:0:0:
256,192,47524,1,8,0:0:0:0:
256,192,47695,1,0,0:0:0:0:
256,192,47867,1,0,0:0:0:0:
256,192,48038,1,8,0:0:0:0:
256,192,48124,1,8,0:0:0:0:
256,192,48209,1,0,0:0:0:0:
256,192,48381,1,0,0:0:0:0:
256,192,48552,1,8,0:0:0:0:
256,192,48638,1,8,0:0:0:0:
256,192,48724,1,0,0:0:0:0:
256,192,48809,1,0,0:0:0:0:
256,192,48895,1,8,0:0:0:0:
256,192,49067,1,8,0:0:0:0:
256,192,49238,1,0,0:0:0:0:
256,192,49409,1,8,0:0:0:0:
256,192,49495,1,8,0:0:0:0:
256,192,49581,1,0,0:0:0:0:
256,192,49752,1,8,0:0:0:0:
256,192,49838,1,0,0:0:0:0:
256,192,49924,1,0,0:0:0:0:
256,192,50009,1,8,0:0:0:0:
256,192,50095,1,0,0:0:0:0:
256,192,50181,1,0,0:0:0:0:
256,192,50267,1,8,0:0:0:0:
256,192,50352,1,0,0:0:0:0:
256,192,50438,1,8,0:0:0:0:
256,192,50609,1,0,0:0:0:0:
256,192,50781,1,8,0:0:0:0:
256,192,50867,1,8,0:0:0:0:
256,192,50952,1,8,0:0:0:0:
256,192,51124,1,0,0:0:0:0:
256,192,51295,1,8,0:0:0:0:
256,192,51381,1,8,0:0:0:0:
256,192,51467,1,0,0:0:0:0:
256,192,51552,1,0,0:0:0:0:
256,192,51638,1,8,0:0:0:0:
256,192,51809,1,8,0:0:0:0:
256,192,51981,1,0,0:0:0:0:
256,192,52152,1,8,0:0:0:0:
256,192,52238,1,0,0:0:0:0:
256,192,52324,1,0,0:0:0:0:
256,192,52495,1,8,0:0:0:0:
256,192,52667,1,0,0:0:0:0:
256,192,52752,1,0,0:0:0:0:
256,192,52838,1,8,0:0:0:0:
256,192,52924,1,0,0:0:0:0:
256,192,53009,1,8,0:0:0:0:
256,192,53181,1,0,0:0:0:0:
256,192,53267,1,0,0:0:0:0:
256,192,53352,1,8,0:0:0:0:
256,192,53438,1,8,0:0:0:0:
256,192,53524,1,0,0:0:0:0:
256,192,53609,1,0,0:0:0:0:
256,192,53695,1,0,0:0:0:0:
256,192,53781,1,0,0:0:0:0:
256,192,53867,1,8,0:0:0:0:
256,192,53952,1,8,0:0:0:0:
256,192,54038,1,0,0:0:0:0:
256,192,54124,1,0,0:0:0:0:
256,192,54209,1,8,0:0:0:0:
256,192,54295,1,0,0:0:0:0:
256,192,54381,1,8,0:0:0:0:
256,192,54467,1,0,0:0:0:0:
256,192,54552,1,8,0:0:0:0:
256,192,54638,1,8,0:0:0:0:
256,192,54724,1,0,0:0:0:0:
256,192,54809,1,0,0:0:0:0:
256,192,54895,1,8,0:0:0:0:
256,192,54981,1,0,0:0:0:0:
256,192,55067,1,8,0:0:0:0:
256,192,55152,1,8,0:0:0:0:
256,192,55238,1,0,0:0:0:0:
256,192,55324,1,0,0:0:0:0:
256,192,55409,1,8,0:0:0:0:
256,192,55495,1,0,0:0:0:0:
256,192,55581,1,8,0:0:0:0:
256,192,55752,1,0,0:0:0:0:
256,192,55924,1,8,0:0:0:0:
256,192,56038,1,0,0:0:0:0:
256,192,56152,1,0,0:0:0:0:
256,192,56267,1,8,0:0:0:0:
256,192,56381,1,8,0:0:0:0:
256,192,56495,1,0,0:0:0:0:
256,192,56609,1,8,0:0:0:0:
256,192,56724,1,0,0:0:0:0:
256,192,56838,1,0,0:0:0:0:
256,192,56952,1,8,0:0:0:0:
256,192,57067,1,8,0:0:0:0:
256,192,57181,1,0,0:0:0:0:
256,192,57295,1,8,0:0:0:0:
256,192,57409,1,8,0:0:0:0:
256,192,57524,1,0,0:0:0:0:
256,192,57638,1,8,0:0:0:0:
256,192,57752,1,0,0:0:0:0:
256,192,57867,1,0,0:0:0:0:
256,192,57981,1,8,0:0:0:0:
256,192,58095,1,8,0:0:0:0:
256,192,58209,1,0,0:0:0:0:
256,192,58324,1,8,0:0:0:0:
256,192,58438,1,0,0:0:0:0:
256,192,58552,1,0,0:0:0:0:
256,192,58667,1,8,0:0:0:0:
256,192,58781,1,0,0:0:0:0:
256,192,58895,1,0,0:0:0:0:
256,192,59009,1,8,0:0:0:0:
256,192,59124,1,8,0:0:0:0:
256,192,59238,1,0,0:0:0:0:
256,192,59352,1,8,0:0:0:0:
256,192,59467,1,0,0:0:0:0:
256,192,59581,1,0,0:0:0:0:
256,192,59695,1,8,0:0:0:0:
256,192,59809,1,8,0:0:0:0:
256,192,59924,1,0,0:0:0:0:
256,192,60038,1,8,0:0:0:0:
256,192,60152,1,0,0:0:0:0:
256,192,60267,1,0,0:0:0:0:
256,192,60381,1,8,0:0:0:0:
256,192,60495,1,0,0:0:0:0:
256,192,60609,1,0,0:0:0:0:
256,192,60724,1,8,0:0:0:0:
256,192,60838,1,8,0:0:0:0:
256,192,60952,1,0,0:0:0:0:
256,192,61067,1,8,0:0:0:0:
256,192,61181,1,0,0:0:0:0:
256,192,61295,1,8,0:0:0:0:
256,192,61409,1,0,0:0:0:0:
256,192,61524,1,0,0:0:0:0:
256,192,61638,1,0,0:0:0:0:
256,192,61752,1,8,0:0:0:0:
256,192,61867,1,0,0:0:0:0:
256,192,61981,1,8,0:0:0:0:
256,192,62095,1,0,0:0:0:0:
256,192,62209,1,0,0:0:0:0:
256,192,62324,1,8,0:0:0:0:
256,192,62438,1,8,0:0:0:0:
256,192,62552,1,0,0:0:0:0:
256,192,62667,1,8,0:0:0:0:
256,192,62781,1,0,0:0:0:0:
256,192,62895,1,0,0:0:0:0:
256,192,63009,1,0,0:0:0:0:
256,192,63124,1,8,0:0:0:0:
256,192,63238,1,0,0:0:0:0:
256,192,63352,1,8,0:0:0:0:
256,192,63467,1,0,0:0:0:0:
256,192,63581,1,0,0:0:0:0:
256,192,63695,1,8,0:0:0:0:
256,192,63809,1,8,0:0:0:0:
256,192,63924,1,0,0:0:0:0:
256,192,64038,1,0,0:0:0:0:
256,192,64152,1,8,0:0:0:0:
256,192,64238,1,8,0:0:0:0:
256,192,64324,1,0,0:0:0:0:
256,192,64409,1,0,0:0:0:0:
256,192,64495,1,8,0:0:0:0:
256,192,64581,1,0,0:0:0:0:
256,192,64667,1,0,0:0:0:0:
256,192,64752,1,0,0:0:0:0:
256,192,64838,1,8,0:0:0:0:
256,192,64924,1,0,0:0:0:0:
256,192,65009,1,8,0:0:0:0:
256,192,65095,1,8,0:0:0:0:
256,192,65181,1,0,0:0:0:0:
256,192,65267,1,0,0:0:0:0:
256,192,65352,1,0,0:0:0:0:
256,192,65438,1,0,0:0:0:0:
256,192,65524,1,8,0:0:0:0:
256,192,65609,1,8,0:0:0:0:
256,192,65695,1,0,0:0:0:0:
256,192,65781,1,0,0:0:0:0:
256,192,65867,1,8,0:0:0:0:
256,192,65952,1,8,0:0:0:0:
256,192,66038,1,0,0:0:0:0:
256,192,66124,1,0,0:0:0:0:
256,192,66209,1,8,0:0:0:0:
256,192,66295,1,8,0:0:0:0:
256,192,66381,1,8,0:0:0:0:
256,192,66467,1,0,0:0:0:0:
256,192,66552,1,8,0:0:0:0:
256,192,66638,1,0,0:0:0:0:
256,192,66724,1,0,0:0:0:0:
256,192,66809,1,0,0:0:0:0:
256,192,66895,1,8,0:0:0:0:
256,192,66981,1,8,0:0:0:0:
256,192,67067,1,8,0:0:0:0:
256,192,67152,1,8,0:0:0:0:
256,192,67238,1,0,0:0:0:0:
256,192,67324,1,0,0:0:0:0:
256,192,67409,1,8,0:0:0:0:
256,192,67495,1,0,0:0:0:0:
256,192,67581,1,8,0:0:0:0:
256,192,67667,1,8,0:0:0:0:
256,192,67752,1,8,0:0:0:0:
256,192,67838,1,8,0:0:0:0:
256,192,67924,1,0,0:0:0:0:
256,192,68009,1,0,0:0:0:0:
256,192,68095,1,8,0:0:0:0:
256,192,68181,1,8,0:0:0:0:
256,192,68267,1,0,0:0:0:0:
256,192,68352,1,0,0:0:0:0:
256,192,68438,1,8,0:0:0:0:
256,192,68524,1,8,0:0:0:0:
256,192,68609,1,8,0:0:0:0:
256,192,68695,1,0,0:0:0:0:
256,192,68781,1,8,0:0:0:0:
256,192,68867,1,0,0:0:0:0:
256,192,68952,1,8,0:0:0:0:
256,192,69038,1,0,0:0:0:0:
256,192,69124,1,8,0:0:0:0:
256,192,69209,1,8,0:0:0:0:
256,192,69295,1,0,0:0:0:0:
256,192,69381,1,0,0:0:0:0:
256,192,69467,1,8,0:0:0:0:
256,192,69552,1,0,0:0:0:0:
256,192,69638,1,8,0:0:0:0:
256,192,69724,1,8,0:0:0:0:
256,192,69809,1,0,0:0:0:0:
256,192,69895,1,0,0:0:0:0:
256,192,69981,1,8,0:0:0:0:
256,192,70067,1,0,0:0:0:0:
256,192,70152,1,8,0:0:0:0:
256,192,70238,1,8,0:0:0:0:
256,192,70324,1,0,0:0:0:0:
256,192,70409,1,0,0:0:0:0:
256,192,70495,1,8,0:0:0:0:
256,192,70581,1,8,0:0:0:0:
256,192,70667,1,0,0:0:0:0:
256,192,70752,1,0,0:0:0:0:
256,192,70838,1,8,0:0:0:0:
256,192,70924,1,8,0:0:0:0:
256,192,71009,1,8,0:0:0:0:
256,192,71095,1,0,0:0:0:0:
256,192,71181,1,8,0:0:0:0:
256,192,71267,1,8,0:0:0:0:
256,192,71352,1,0,0:0:0:0:
256,192,71438,1,0,0:0:0:0:
256,192,71524,1,8,0:0:0:0:
256,192,71609,1,0,0:0:0:0:
256,192,71695,1,8,0:0:0:0:
256,192,71781,1,8,0:0:0:0:
256,192,71867,1,0,0:0:0:0:
256,192,71952,1,8,0:0:0:0:
256,192,72038,1,0,0:0:0:0:
256,192,72124,1,0,0:0:0:0:
256,192,72209,1,8,0:0:0:0:
256,192,72295,1,0,0:0:0:0:
256,192,72381,1,8,0:0:0:0:
256,192,72467,1,8,0:0:0:0:
256,192,72552,1,0,0:0:0:0:
256,192,72638,1,0,0:0:0:0:
256,192,72724,1,8,0:0:0:0:
256,192,72809,1,0,0:0:0:0:
256,192,72895,1,8,0:0:0:0:
256,192,72981,1,8,0:0:0:0:
256,192,73067,1,8,0:0:0:0:
256,192,73152,1,8,0:0:0:0:
256,192,73238,1,0,0:0:0:0:
256,192,73324,1,0,0:0:0:0:
256,192,73409,1,8,0:0:0:0:
256,192,73495,1,8,0:0:0:0:
256,192,73581,1,0,0:0:0:0:
256,192,73667,1,0,0:0:0:0:
256,192,73752,1,8,0:0:0:0:
256,192,73838,1,0,0:0:0:0:
256,192,73924,1,8,0:0:0:0:
256,192,74009,1,0,0:0:0:0:
256,192,74095,1,8,0:0:0:0:
256,192,74181,1,8,0:0:0:0:
256,192,74267,1,0,0:0:0:0:
256,192,74352,1,0,0:0:0:0:
256,192,74438,1,8,0:0:0:0:
256,192,74524,1,0,0:0:0:0:
256,192,74609,1,8,0:0:0:0:
256,192,74695,1,0,0:0:0:0:
256,192,74781,1,8,0:0:0:0:
256,192,74867,1,8,0:0:0:0:
256,192,74952,1,0,0:0:0:0:
256,192,75038,1,0,0:0:0:0:
256,192,75124,1,8,0:0:0:0:
256,192,75209,1,8,0:0:0:0:
256,192,75295,1,8,0:0:0:0:
256,192,75381,1,8,0:0:0:0:
256,192,75467,1,0,0:0:0:0:
256,192,75552,1,0,0:0:0:0:
256,192,75638,1,8,0:0:0:0:
256,192,75724,1,8,0:0:0:0:
256,192,75809,1,8,0:0:0:0:
256,192,75895,1,8,0:0:0:0:
256,192,75981,1,0,0:0:0:0:
256,192,76067,1,0,0:0:0:0:
256,192,76152,1,8,0:0:0:0:
256,192,76238,1,8,0:0:0:0:
256,192,76324,1,8,0:0:0:0:
256,192,76409,1,0,0:0:0:0:
256,192,76495,1,8,0:0:0:0:
256,192,76581,1,8,0:0:0:0:
256,192,76667,1,0,0:0:0:0:
256,192,76752,1,0,0:0:0:0:
256,192,76838,1,8,0:0:0:0:
256,192,76924,1,0,0:0:0:0:
256,192,77009,1,0,0:0:0:0:
256,192,77095,1,0,0:0:0:0:
256,192,77181,1,8,0:0:0:0:
256,192,77267,1,8,0:0:0:0:
256,192,77352,1,0,0:0:0:0:
256,192,77438,1,8,0:0:0:0:
256,192,77524,1,0,0:0:0:0:
256,192,77609,1,0,0:0:0:0:
256,192,77695,1,8,0:0:0:0:
256,192,77781,1,0,0:0:0:0:
256,192,77867,1,8,0:0:0:0:
256,192,77952,1,8,0:0:0:0:
256,192,78038,1,0,0:0:0:0:
256,192,78124,1,0,0:0:0:0:
256,192,78209,1,8,0:0:0:0:
256,192,78295,1,0,0:0:0:0:
256,192,78381,1,8,0:0:0:0:
256,192,78467,1,8,0:0:0:0:
256,192,78552,1,0,0:0:0:0:
256,192,78638,1,0,0:0:0:0:
256,192,78724,1,8,0:0:0:0:
256,192,78809,1,8,0:0:0:0:
256,192,78895,1,8,0:0:0:0:
256,192,78981,1,0,0:0:0:0:
256,192,79067,1,8,0:0:0:0:
256,192,79152,1,8,0:0:0:0:
256,192,79238,1,8,0:0:0:0:
256,192,79324,1,8,0:0:0:0:
256,192,79409,1,0,0:0:0:0:
256,192,79495,1,0,0:0:0:0:
256,192,79581,1,8,0:0:0:0:
256,192,79667,1,8,0:0:0:0:
256,192,79752,1,0,0:0:0:0:
256,192,79838,1,0,0:0:0:0:
256,192,79924,1,8,0:0:0:0:
256,192,80009,1,8,0:0:0:0:
256,192,80095,1,8,0:0:0:0:
256,192,80181,1,0,0:0:0:0:
256,192,80267,1,8,0:0:0:0:
256,192,80352,1,8,0:0:0:0:
256,192,80438,1,0,0:0:0:0:
256,192,80524,1,0,0:0:0:0:
256,192,80609,1,8,0:0:0:0:
256,192,80695,1,8,0:0:0:0:
256,192,80781,1,0,0:0:0:0:
256,192,80867,1,0,0:0:0:0:
256,192,80952,1,8,0:0:0:0:
256,192,81038,1,8,0:0:0:0:
256,192,81124,1,8,0:0:0:0:
256,192,81209,1,0,0:0:0:0:
256,192,81295,1,0,0:0:0:0:
256,192,81381,1,0,0:0:0:0:
256,192,81467,1,8,0:0:0:0:
256,192,81552,1,8,0:0:0:0:
256,192,81638,1,0,0:0:0:0:
256,192,81724,1,0,0:0:0:0:
256,192,81809,1,8,0:0:0:0:
256,192,81895,1,8,0:0:0:0:
256,192,81981,1,8,0:0:0:0:
256,192,82067,1,8,0:0:0:0:
256,192,82152,1,0,0:0:0:0:
256,192,82238,1,0,0:0:0:0:
256,192,82324,1,8,0:0:0:0:
256,192,82409,1,0,0:0:0:0:
256,192,82495,1,0,0:0:0:0:
256,192,82581,1,0,0:0:0:0:
256,192,82667,1,8,0:0:0:0:
256,192,82752,1,8,0:0:0:0:
256,192,82838,1,8,0:0:0:0:
256,192,82924,1,0,0:0:0:0:
256,192,83009,1,8,0:0:0:0:
256,192,83095,1,8,0:0:0:0:
256,192,83181,1,0,0:0:0:0:
256,192,83267,1,0,0:0:0:0:
256,192,83352,1,8,0:0:0:0:
256,192,83438,1,8,0:0:0:0:
256,192,83524,1,8,0:0:0:0:
256,192,83609,1,0,0:0:0:0:
256,192,83695,1,8,0:0:0:0:
256,192,83781,1,0,0:0:0:0:
256,192,83867,1,8,0:0:0:0:
256,192,83952,1,8,0:0:0:0:
256,192,84038,1,8,0:0:0:0:
256,192,84124,1,8,0:0:0:0:
256,192,84209,1,0,0:0:0:0:
256,192,84295,1,0,0:0:0:0:
256,192,84381,1,8,0:0:0:0:
256,192,84467,1,8,0:0:0:0:
256,192,84552,1,0,0:0:0:0:
256,192,84638,1,0,0:0:0:0:
256,192,84724,1,8,0:0:0:0:
256,192,84809,1,8,0:0:0:0:
256,192,84895,1,8,0:0:0:0:
256,192,84981,1,8,0:0:0:0:
256,192,85067,1,0,0:0:0:0:
256,192,85152,1,0,0:0:0:0:
256,192,85238,1,8,0:0:0:0:
256,192,85324,1,8,0:0:0:0:
256,192,85409,1,8,0:0:0:0:
256,192,85495,1,8,0:0:0:0:
256,192,85581,1,0,0:0:0:0:
256,192,85667,1,0,0:0:0:0:
256,192,85752,1,8,0:0:0:0:
256,192,85838,1,8,0:0:0:0:
256,192,85924,1,0,0:0:0:0:
256,192,86009,1,0,0:0:0:0:
256,192,86095,1,8,0:0:0:0:
256,192,86181,1,0,0:0:0:0:
256,192,86267,1,0,0:0:0:0:
256,192,86352,1,0,0:0:0:0:
256,192,86438,1,8,0:0:0:0:
256,192,86609,1,0,0:0:0:0:
256,192,86781,1,8,0:0:0:0:
256,192,86867,1,8,0:0:0:0:
256,192,86952,1,0,0:0:0:0:
256,192,87038,1,0,0:0:0:0:
256,192,87124,1,8,0:0:0:0:
256,192,87295,1,0,0:0:0:0:
256,192,87467,1,8,0:0:0:0:
256,192,87552,1,0,0:0:0:0:
256,192,87638,1,8,0:0:0:0:
256,192,87724,1,0,0:0:0:0:
256,192,87809,1,8,0:0:0:0:
256,192,87895,1,8,0:0:0:0:
256,192,87981,1,0,0:0:0:0:
256,192,88067,1,0,0:0:0:0:
256,192,88152,1,8,0:0:0:0:
256,192,88238,1,8,0:0:0:0:
256,192,88324,1,8,0:0:0:0:
256,192,88409,1,0,0:0:0:0:
256,192,88495,1,8,0:0:0:0:
256,192,88581,1,8,0:0:0:0:
256,192,88667,1,0,0:0:0:0:
256,192,88752,1,0,0:0:0:0:
256,192,88838,1,8,0:0:0:0:
256,192,89009,1,8,0:0:0:0:
256,192,89181,1,0,0:0:0:0:
256,192,89267,1,0,0:0:0:0:
256,192,89352,1,8,0:0:0:0:
256,192,89524,1,8,0:0:0:0:
256,192,89695,1,0,0:0:0:0:
256,192,89781,1,0,0:0:0:0:
256,192,89867,1,8,0:0:0:0:
256,192,89952,1,0,0:0:0:0:
256,192,90038,1,8,0:0:0:0:
256,192,90209,1,0,0:0:0:0:
256,192,90381,1,0,0:0:0:0:
256,192,90552,1,8,0:0:0:0:
256,192,90638,1,8,0:0:0:0:
256,192,90724,1,0,0:0:0:0:
256,192,90895,1,8,0:0:0:0:
256,192,91067,1,0,0:0:0:0:
256,192,91152,1,0,0:0:0:0:
256,192,91238,1,8,0:0:0:0:
256,192,91324,1,8,0:0:0:0:
256,192,91409,1,0,0:0:0:0:
256,192,91581,1,8,0:0:0:0:
256,192,91752,1,8,0:0:0:0:
256,192,91924,1,0,0:0:0:0:
256,192,92009,1,0,0:0:0:0:
256,192,92095,1,8,0:0:0:0:
256,192,92267,1,0,0:0:0:0:
256,192,92438,1,8,0:0:0:0:
256,192,92524,1,8,0:0:0:0:
256,192,92609,1,0,0:0:0:0:
256,192,92695,1,0,0:0:0:0:
256,192,92781,1,8,0:0:0:0:
256,192,92952,1,8,0:0:0:0:
256,192,93124,1,0,0:0:0:0:
256,192,93295,1,8,0:0:0:0:
256,192,93381,1,8,0:0:0:0:
256,192,93467,1,0,0:0:0:0:
256,192,93638,1,8,0:0:0:0:
256,192,93724,1,0,0:0:0:0:
256,192,93809,1,0,0:0:0:0:
256,192,93895,1,8,0:0:0:0:
256,192,93981,1,0,0:0:0:0:
256,192,94067,1,0,0:0:0:0:
256,192,94152,1,8,0:0:0:0:
256,192,94238,1,0,0:0:0:0:
256,192,94324,1,8,0:0:0:0:
256,192,94495,1,0,0:0:0:0:
256,192,94667,1,8,0:0:0:0:
256,192,94752,1,8,0:0:0:0:
256,192,94838,1,8,0:0:0:0:
256,192,95009,1,0,0:0:0:0:
256,192,95181,1,8,0:0:0:0:
256,192,95352,1,0,0:0:0:0:
256,192,95438,1,0,0:0:0:0:
256,192,95524,1,8,0:0:0:0:
256,192,95609,1,8,0:0:0:0:
256,192,95695,1,0,0:0:0:0:
256,192,95867,1,0,0:0:0:0:
256,192,96038,1,8,0:0:0:0:
256,192,96124,1,8,0:0:0:0:
256,192,96209,1,0,0:0:0:0:
256,192,96381,1,8,0:0:0:0:
256,192,96552,1,0,0:0:0:0:
256,192,96638,1,0,0:0:0:0:
256,192,96724,1,8,0:0:0:0:
256,192,96809,1,0,0:0:0:0:
256,192,96895,1,8,0:0:0:0:
256,192,97067,1,0,0:0:0:0:
256,192,97152,1,0,0:0:0:0:
256,192,97238,1,8,0:0:0:0:
256,192,97324,1,8,0:0:0:0:
256,192,97409,1,0,0:0:0:0:
256,192,97495,1,0,0:0:0:0:
256,192,97581,1,0,0:0:0:0:
256,192,97667,1,0,0:0:0:0:
256,192,97752,1,8,0:0:0:0:
256,192,97838,1,8,0:0:0:0:
256,192,97924,1,0,0:0:0:0:
256,192,98009,1,0,0:0:0:0:
256,192,98095,1,8,0:0:0:0:
256,192,98181,1,0,0:0:0:0:
256,192,98267,1,8,0:0:0:0:
256,192,98352,1,0,0:0:0:0:
256,192,98438,1,8,0:0:0:0:
256,192,98524,1,8,0:0:0:0:
256,192,98609,1,0,0:0:0:0:
256,192,98695,1,0,0:0:0:0:
256,192,98781,1,8,0:0:0:0:
256,192,98867,1,0,0:0:0:0:
256,192,98952,1,8,0:0:0:0:
256,192,99038,1,8,0:0:0:0:
256,192,99124,1,0,0:0:0:0:
256,192,99209,1,0,0:0:0:0:
256,192,99295,1,8,0:0:0:0:
256,192,99381,1,0,0:0:0:0:
256,192,99467,1,8,0:0:0:0:
256,192,99638,1,0,0:0:0:0:
256,192,99809,1,8,0:0:0:0:
256,192,99924,1,0,0:0:0:0:
256,192,100038,1,0,0:0:0:0:
256,192,100152,1,8,0:0:0:0:
256,192,100267,1,8,0:0:0:0:
256,192,100381,1,0,0:0:0:0:
256,192,100495,1,8,0:0:0:0:
256,192,100609,1,0,0:0:0:0:
256,192,100724,1,0,0:0:0:0:
256,192,100838,1,8,0:0:0:0:
256,192,100952,1,8,0:0:0:0:
256,192,101067,1,0,0:0:0:0:
256,192,101181,1,8,0:0:0:0:
256,192,101295,1,8,0:0:0:0:
256,192,101409,1,0,0:0:0:0:
256,192,101524,1,8,0:0:0:0:
256,192,101638,1,0,0:0:0:0:
256,192,101752,1,0,0:0:0:0:
256,192,101867,1,8,0:0:0:0:
256,192,101981,1,8,0:0:0:0:
256,192,102095,1,0,0:0:0:0:
256,192,102209,1,8,0:0:0:0:
256,192,102324,1,0,0:0:0:0:
256,192,102438,1,0,0:0:0:0:
256,192,102552,1,8,0:0:0:0:
256,192,102667,1,0,0:0:0:0:
256,192,102781,1,0,0:0:0:0:
256,192,102895,1,8,0:0:0:0:
256,192,103009,1,8,0:0:0:0:
256,192,103124,1,0,0:0:0:0:
256,192,103238,1,8,0:0:0:0:
256,192,103352,1,0,0:0:0:0:
256,192,103467,1,0,0:0:0:0:
256,192,103581,1,8,0:0:0:0:
256,192,103695,1,8,0:0:0:0:
256,192,103809,1,0,0:0:0:0:
256,192,103924,1,8,0:0:0:0:
256,192,104038,1,0,0:0:0:0:
256,192,104152,1,0,0:0:0:0:
256,192,104267,1,8,0:0:0:0:
256,192,104381,1,0,0:0:0:0:
256,192,104495,1,0,0:0:0:0:
256,192,104609,1,8,0:0:0:0:
256,192,104724,1,8,0:0:0:0:
256,192,104838,1,0,0:0:0:0:
256,192,104952,1,8,0:0:0:0:
256,192,105067,1,0,0:0:0:0:
256,192,105181,1,8,0:0:0:0:
256,192,105295,1,0,0:0:0:0:
256,192,105409,1,0,0:0:0:0:
256,192,105524,1,0,0:0:0:0:
256,192,105638,1,8,0:0:0:0:
256,192,105752,1,0,0:0:0:0:
256,192,105867,1,8,0:0:0:0:
256,192,105981,1,0,0:0:0:0:
256,192,106095,1,0,0:0:0:0:
256,192,106209,1,8,0:0:0:0:
256,192,106324,1,8,0:0:0:0:
256,192,106438,1,0,0:0:0:0:
256,192,106552,1,8,0:0:0:0:
256,192,106667,1,0,0:0:0:0:
256,192,106781,1,0,0:0:0:0:
256,192,106895,1,0,0:0:0:0:
256,192,107009,1,8,0:0:0:0:
256,192,107124,1,0,0:0:0:0:
256,192,107238,1,8,0:0:0:0:
256,192,107352,1,0,0:0:0:0:
256,192,107467,1,0,0:0:0:0:
256,192,107581,1,8,0:0:0:0:
256,192,107695,1,8,0:0:0:0:
256,192,107809,1,0,0:0:0:0:
256,192,107924,1,0,0:0:0:0:
256,192,108038,1,8,0:0:0:0:
256,192,108124,1,8,0:0:0:0:
256,192,108209,1,0,0:0:0:0:
256,192,108295,1,0,0:0:0:0:
256,192,108381,1,8,0:0:0:0:
256,192,108467,1,8,0:0:0:0:
256,192,108552,1,0,0:0:0:0:
256,192,108638,1,0,0:0:0:0:
256,192,108724,1,8,0:0:0:0:
256,192,108809,1,8,0:0:0:0:
256,192,108895,1,8,0:0:0:0:
256,192,108981,1,8,0:0:0:0:
256,192,109067,1,0,0:0:0:0:
256,192,109152,1,0,0:0:0:0:
256,192,109238,1,0,0:0:0:0:
256,192,109324,1,0,0:0:0:0:
256,192,109409,1,8,0:0:0:0:
256,192,109495,1,8,0:0:0:0:
256,192,109581,1,0,0:0:0:0:
256,192,109667,1,0,0:0:0:0:
256,192,109752,1,8,0:0:0:0:
256,192,109838,1,8,0:0:0:0:
256,192,109924,1,8,0:0:0:0:
256,192,110009,1,0,0:0:0:0:
256,192,110095,1,8,0:0:0:0:
256,192,110181,1,8,0:0:0:0:
256,192,110267,1,0,0:0:0:0:
256,192,110352,1,0,0:0:0:0:
256,192,110438,1,8,0:0:0:0:
256,192,110524,1,8,0:0:0:0:
256,192,110609,1,8,0:0:0:0:
256,192,110695,1,0,0:0:0:0:
256,192,110781,1,8,0:0:0:0:
256,192,110867,1,8,0:0:0:0:
256,192,110952,1,8,0:0:0:0:
256,192,111038,1,8,0:0:0:0:
256,192,111124,1,0,0:0:0:0:
256,192,111209,1,0,0:0:0:0:
256,192,111295,1,8,0:0:0:0:
256,192,111381,1,0,0:0:0:0:
256,192,111467,1,8,0:0:0:0:
256,192,111552,1,8,0:0:0:0:
256,192,111638,1,8,0:0:0:0:
256,192,111724,1,8,0:0:0:0:
256,192,111809,1,0,0:0:0:0:
256,192,111895,1,0,0:0:0:0:
256,192,111981,1,8,0:0:0:0:
256,192,112067,1,0,0:0:0:0:
256,192,112152,1,0,0:0:0:0:
256,192,112238,1,0,0:0:0:0:
256,192,112324,1,8,0:0:0:0:
256,192,112409,1,8,0:0:0:0:
256,192,112495,1,8,0:0:0:0:
256,192,112581,1,0,0:0:0:0:
256,192,112667,1,8,0:0:0:0:
256,192,112752,1,0,0:0:0:0:
256,192,112838,1,8,0:0:0:0:
256,192,112924,1,8,0:0:0:0:
256,192,113009,1,0,0:0:0:0:
256,192,113095,1,0,0:0:0:0:
256,192,113181,1,8,0:0:0:0:
256,192,113267,1,8,0:0:0:0:
256,192,113352,1,8,0:0:0:0:
256,192,113438,1,0,0:0:0:0:
256,192,113524,1,8,0:0:0:0:
256,192,113609,1,8,0:0:0:0:
256,192,113695,1,0,0:0:0:0:
256,192,113781,1,0,0:0:0:0:
256,192,113867,1,8,0:0:0:0:
256,192,113952,1,0,0:0:0:0:
256,192,114038,1,8,0:0:0:0:
256,192,114124,1,8,0:0:0:0:
256,192,114209,1,8,0:0:0:0:
256,192,114295,1,0,0:0:0:0:
256,192,114381,1,8,0:0:0:0:
256,192,114467,1,8,0:0:0:0:
256,192,114552,1,0,0:0:0:0:
256,192,114638,1,0,0:0:0:0:
256,192,114724,1,8,0:0:0:0:
256,192,114809,1,8,0:0:0:0:
256,192,114895,1,8,0:0:0:0:
256,192,114981,1,8,0:0:0:0:
256,192,115067,1,0,0:0:0:0:
256,192,115152,1,0,0:0:0:0:
256,192,115238,1,8,0:0:0:0:
256,192,115324,1,0,0:0:0:0:
256,192,115409,1,8,0:0:0:0:
256,192,115495,1,0,0:0:0:0:
256,192,115581,1,8,0:0:0:0:
256,192,115667,1,8,0:0:0:0:
256,192,115752,1,0,0:0:0:0:
256,192,115838,1,8,0:0:0:0:
256,192,115924,1,0,0:0:0:0:
256,192,116009,1,0,0:0:0:0:
256,192,116095,1,8,0:0:0:0:
256,192,116181,1,0,0:0:0:0:
256,192,116267,1,8,0:0:0:0:
256,192,116352,1,8,0:0:0:0:
256,192,116438,1,0,0:0:0:0:
256,192,116524,1,0,0:0:0:0:
256,192,116609,1,8,0:0:0:0:
256,192,116695,1,0,0:0:0:0:
256,192,116781,1,8,0:0:0:0:
256,192,116867,1,8,0:0:0:0:
256,192,116952,1,8,0:0:0:0:
256,192,117038,1,8,0:0:0:0:
256,192,117124,1,0,0:0:0:0:
256,192,117209,1,0,0:0:0:0:
256,192,117295,1,8,0:0:0:0:
256,192,117381,1,8,0:0:0:0:
256,192,117467,1,0,0:0:0:0:
256,192,117552,1,0,0:0:0:0:
256,192,117638,1,8,0:0:0:0:
256,192,117724,1,0,0:0:0:0:
256,192,117809,1,8,0:0:0:0:
256,192,117895,1,0,0:0:0:0:
256,192,117981,1,8,0:0:0:0:
256,192,118067,1,8,0:0:0:0:
256,192,118152,1,0,0:0:0:0:
256,192,118238,1,0,0:0:0:0:
256,192,118324,1,8,0:0:0:0:
256,192,118409,1,0,0:0:0:0:
256,192,118495,1,8,0:0:0:0:
256,192,118581,1,0,0:0:0:0:
256,192,118667,1,8,0:0:0:0:
256,192,118752,1,8,0:0:0:0:
256,192,118838,1,0,0:0:0:0:
256,192,118924,1,0,0:0:0:0:
256,192,119009,1,8,0:0:0:0:
256,192,119095,1,8,0:0:0:0:
256,192,119181,1,8,0:0:0:0:
256,192,119267,1,8,0:0:0:0:
256,192,119352,1,0,0:0:0:0:
256,192,119438,1,0,0:0:0:0:
256,192,119524,1,8,0:0:0:0:
256,192,119609,1,8,0:0:0:0:
256,192,119695,1,8,0:0:0:0:
256,192,119781,1,8,0:0:0:0:
256,192,119867,1,0,0:0:0:0:
256,192,119952,1,0,0:0:0:0:
256,192,120038,1,8,0:0:0:0:
256,192,120124,1,8,0:0:0:0:
256,192,120209,1,8,0:0:0:0:
256,192,120295,1,0,0:0:0:0:
256,192,120381,1,8,0:0:0:0:
256,192,120467,1,8,0:0:0:0:
256,192,120552,1,0,0:0:0:0:
256,192,120638,1,0,0:0:0:0:
256,192,120724,1,8,0:0:0:0:
256,192,120809,1,0,0:0:0:0:
256,192,120895,1,0,0:0:0:0:
256,192,120981,1,0,0:0:0:0:
256,192,121067,1,8,0:0:0:0:
256,192,121152,1,8,0:0:0:0:
256,192,121238,1,0,0:0:0:0:
256,192,121324,1,8,0:0:0:0:
256,192,121409,1,0,0:0:0:0:
256,192,121495,1,0,0:0:0:0:
256,192,121581,1,8,0:0:0:0:
256,192,121667,1,0,0:0:0:0:
256,192,121752,1,8,0:0:0:0:
256,192,121838,1,8,0:0:0:0:
256,192,121924,1,8,0:0:0:0:
256,192,122009,1,0,0:0:0:0:
256,192,122095,1,8,0:0:0:0:
256,192,122181,1,0,0:0:0:0:
256,192,122267,1,8,0:0:0:0:
256,192,122352,1,8,0:0:0:0:
256,192,122438,1,0,0:0:0:0:
256,192,122524,1,0,0:0:0:0:
256,192,122609,1,8,0:0:0:0:
256,192,122695,1,8,0:0:0:0:
256,192,122781,1,0,0:0:0:0:
256,192,122867,1,0,0:0:0:0:
256,192,122952,1,8,0:0:0:0:
256,192,123038,1,8,0:0:0:0:
256,192,123124,1,8,0:0:0:0:
256,192,123209,1,8,0:0:0:0:
256,192,123295,1,0,0:0:0:0:
256,192,123381,1,0,0:0:0:0:
256,192,123467,1,8,0:0:0:0:
256,192,123552,1,8,0:0:0:0:
256,192,123638,1,0,0:0:0:0:
256,192,123724,1,0,0:0:0:0:
256,192,123809,1,8,0:0:0:0:
256,192,123895,1,8,0:0:0:0:
256,192,123981,1,0,0:0:0:0:
256,192,124067,1,0,0:0:0:0:
256,192,124152,1,8,0:0:0:0:
256,192,124238,1,8,0:0:0:0:
256,192,124324,1,8,0:0:0:0:
256,192,124409,1,0,0:0:0:0:
256,192,124495,1,8,0:0:0:0:
256,192,124581,1,8,0:0:0:0:
256,192,124667,1,0,0:0:0:0:
256,192,124752,1,0,0:0:0:0:
256,192,124838,1,8,0:0:0:0:
256,192,124924,1,8,0:0:0:0:
256,192,125009,1,8,0:0:0:0:
256,192,125095,1,0,0:0:0:0:
256,192,125181,1,0,0:0:0:0:
256,192,125267,1,0,0:0:0:0:
256,192,125352,1,8,0:0:0:0:
256,192,125438,1,8,0:0:0:0:
256,192,125524,1,0,0:0:0:0:
256,192,125609,1,0,0:0:0:0:
256,192,125695,1,8,0:0:0:0:
256,192,125781,1,8,0:0:0:0:
256,192,125867,1,8,0:0:0:0:
256,192,125952,1,0,0:0:0:0:
256,192,126038,1,8,0:0:0:0:
256,192,126124,1,8,0:0:0:0:
256,192,126209,1,0,0:0:0:0:
256,192,126295,1,0,0:0:0:0:
256,192,126381,1,8,0:0:0:0:
256,192,126467,1,0,0:0:0:0:
256,192,126552,1,8,0:0:0:0:
256,192,126638,1,0,0:0:0:0:
256,192,126724,1,0,0:0:0:0:
256,192,126809,1,0,0:0:0:0:
256,192,126895,1,8,0:0:0:0:
256,192,126981,1,8,0:0:0:0:
256,192,127067,1,0,0:0:0:0:
256,192,127152,1,0,0:0:0:0:
256,192,127238,1,8,0:0:0:0:
256,192,127324,1,8,0:0:0:0:
256,192,127409,1,0,0:0:0:0:
256,192,127495,1,0,0:0:0:0:
256,192,127581,1,8,0:0:0:0:
256,192,127667,1,0,0:0:0:0:
256,192,127752,1,8,0:0:0:0:
256,192,127838,1,8,0:0:0:0:
256,192,127924,1,0,0:0:0:0:
256,192,128009,1,0,0:0:0:0:
256,192,128095,1,0,0:0:0:0:
256,192,128181,1,0,0:0:0:0:
256,192,128267,1,8,0:0:0:0:
256,192,128352,1,8,0:0:0:0:
256,192,128438,1,0,0:0:0:0:
256,192,128524,1,0,0:0:0:0:
256,192,128609,1,8,0:0:0:0:
256,192,128695,1,8,0:0:0:0:
256,192,128781,1,8,0:0:0:0:
256,192,128867,1,8,0:0:0:0:
256,192,128952,1,0,0:0:0:0:
256,192,129038,1,0,0:0:0:0:
256,192,129124,1,8,0:0:0:0:
256,192,129209,1,8,0:0:0:0:
256,192,129295,1,8,0:0:0:0:
256,192,129381,1,8,0:0:0:0:
256,192,129467,1,0,0:0:0:0:
256,192,129552,1,0,0:0:0:0:
256,192,129638,1,8,0:0:0:0:
256,192,129724,1,8,0:0:0:0:
256,192,129809,1,0,0:0:0:0:
256,192,129895,1,0,0:0:0:0:
256,192,129981,1,8,0:0:0:0:
256,192,130067,1,8,0:0:0:0:
256,192,130152,1,0,0:0:0:0:
256,192,130238,1,0,0:0:0:0:
256,192,130324,1,8,0:0:0:0:
256,192,130409,1,0,0:0:0:0:
256,192,130495,1,0,0:0:0:0:
256,192,130581,1,0,0:0:0:0:
256,192,130667,1,8,0:0:0:0:
256,192,130752,1,0,0:0:0:0:
256,192,130838,1,8,0:0:0:0:
256,192,130924,1,0,0:0:0:0:
256,192,131009,1,8,0:0:0:0:
256,192,131095,1,8,0:0:0:0:
256,192,131181,1,0,0:0:0:0:
256,192,131267,1,0,0:0:0:0:
256,192,131352,1,8,0:0:0:0:
256,192,131438,1,0,0:0:0:0:
256,192,131524,1,8,0:0:0:0:
256,192,131609,1,0,0:0:0:0:
256,192,131695,1,8,0:0:0:0:
256,192,131781,1,8,0:0:0:0:
256,192,131867,1,0,0:0:0:0:
256,192,131952,1,0,0:0:0:0:
256,192,132038,1,8,0:0:0:0:
256,192,132124,1,0,0:0:0:0:
256,192,132209,1,0,0:0:0:0:
256,192,132295,1,0,0:0:0:0:
256,192,132381,1,8,0:0:0:0:
256,192,132467,1,8,0:0:0:0:
256,192,132552,1,0,0:0:0:0:
256,192,132638,1,0,0:0:0:0:
256,192,132724,1,8,0:0:0:0:
256,192,132809,1,8,0:0:0:0:
256,192,132895,1,8,0:0:0:0:
256,192,132981,1,8,0:0:0:0:
256,192,133067,1,0,0:0:0:0:
256,192,133152,1,0,0:0:0:0:
256,192,133238,1,8,0:0:0:0:
256,192,133324,1,0,0:0:0:0:
256,192,133409,1,8,0:0:0:0:
256,192,133495,1,8,0:0:0:0:
256,192,133581,1,8,0:0:0:0:
256,192,133667,1,8,0:0:0:0:
256,192,133752,1,0,0:0:0:0:
256,192,133838,1,0,0:0:0:0:
256,192,133924,1,8,0:0:0:0:
256,192,134009,1,8,0:0:0:0:
256,192,134095,1,0,0:0:0:0:
256,192,134181,1,0,0:0:0:0:
256,192,134267,1,8,0:0:0:0:
256,192,134352,1,8,0:0:0:0:
256,192,134438,1,8,0:0:0:0:
256,192,134524,1,0,0:0:0:0:
256,192,134609,1,8,0:0:0:0:
256,192,134695,1,0,0:0:0:0:
256,192,134781,1,8,0:0:0:0:
256,192,134867,1,8,0:0:0:0:
256,192,134952,1,0,0:0:0:0:
256,192,135038,1,0,0:0:0:0:
256,192,135124,1,8,0:0:0:0:
256,192,135209,1,0,0:0:0:0:
256,192,135295,1,8,0:0:0:0:
256,192,135381,1,0,0:0:0:0:
256,192,135467,1,8,0:0:0:0:
256,192,135552,1,8,0:0:0:0:
256,192,135638,1,8,0:0:0:0:
256,192,135724,1,8,0:0:0:0:
256,192,135809,1,0,0:0:0:0:
256,192,135895,1,0,0:0:0:0:
256,192,135981,1,8,0:0:0:0:
256,192,136067,1,8,0:0:0:0:
256,192,136152,1,8,0:0:0:0:
256,192,136238,1,0,0:0:0:0:
256,192,136324,1,8,0:0:0:0:
256,192,136409,1,8,0:0:0:0:
256,192,136495,1,0,0:0:0:0:
256,192,136581,1,0,0:0:0:0:
256,192,136667,1,8,0:0:0:0:
256,192,136752,1,8,0:0:0:0:
256,192,136838,1,8,0:0:0:0:
256,192,136924,1,8,0:0:0:0:
256,192,137009,1,0,0:0:0:0:
256,192,137095,1,0,0:0:0:0:
256,192,137181,1,8,0:0:0:0:
256,192,137267,1,8,0:0:0:0:
256,192,137352,1,0,0:0:0:0:
256,192,137438,1,0,0:0:0:0:
256,192,137524,1,8,0:0:0:0:
256,192,137609,1,8,0:0:0:0:
256,192,137695,1,0,0:0:0:0:
256,192,137781,1,8,0:0:0:0:
256,192,137867,1,0,0:0:0:0:
256,192,137952,1,0,0:0:0:0:
256,192,138038,1,8,0:0:0:0:
256,192,138124,1,0,0:0:0:0:
256,192,138209,1,8,0:0:0:0:
256,192,138295,1,8,0:0:0:0:
256,192,138381,1,0,0:0:0:0:
256,192,138467,1,0,0:0:0:0:
256,192,138552,1,8,0:0:0:0:
256,192,138638,1,0,0:0:0:0:
256,192,138724,1,8,0:0:0:0:
256,192,138809,1,8,0:0:0:0:
256,192,138895,1,8,0:0:0:0:
256,192,138981,1,8,0:0:0:0:
256,192,139067,1,0,0:0:0:0:
256,192,139152,1,0,0:0:0:0:
256,192,139238,1,0,0:0:0:0:
256,192,139324,1,0,0:0:0:0:
256,192,139409,1,8,0:0:0:0:
256,192,139495,1,0,0:0:0:0:
256,192,139581,1,0,0:0:0:0:
256,192,139667,1,0,0:0:0:0:
256,192,139752,1,8,0:0:0:0:
256,192,139838,1,0,0:0:0:0:
256,192,139924,1,8,0:0:0:0:
256,192,140009,1,0,0:0:0:0:
256,192,140095,1,8,0:0:0:0:
256,192,140181,1,8,0:0:0:0:
256,192,140267,1,0,0:0:0:0:
256,192,140352,1,0,0:0:0:0:
256,192,140438,1,8,0:0:0:0:
256,192,140524,1,0,0:0:0:0:
256,192,140609,1,8,0:0:0:0:
256,192,140695,1,8,0:0:0:0:
256,192,140781,1,0,0:0:0:0:
256,192,140867,1,0,0:0:0:0:
256,192,140952,1,8,0:0:0:0:
256,192,141038,1,8,0:0:0:0:
256,192,141124,1,8,0:0:0:0:
256,192,141209,1,8,0:0:0:0:
256,192,141295,1,0,0:0:0:0:
256,192,141381,1,0,0:0:0:0:
256,192,141467,1,8,0:0:0:0:
256,192,141552,1,8,0:0:0:0:
256,192,141638,1,8,0:0:0:0:
256,192,141724,1,8,0:0:0:0:
256,192,141809,1,0,0:0:0:0:
256,192,141895,1,0,0:0:0:0:
256,192,141981,1,8,0:0:0:0:
256,192,142067,1,8,0:0:0:0:
256,192,142152,1,0,0:0:0:0:
256,192,142238,1,0,0:0:0:0:
256,192,142324,1,8,0:0:0:0:
256,192,142409,1,8,0:0:0:0:
256,192,142495,1,0,0:0:0:0:
256,192,142581,1,0,0:0:0:0:
256,192,142667,1,8,0:0:0:0:
256,192,142752,1,8,0:0:0:0:
256,192,142838,1,8,0:0:0:0:
256,192,142924,1,0,0:0:0:0:
256,192,143009,1,8,0:0:0:0:
256,192,143095,1,8,0:0:0:0:
256,192,143181,1,0,0:0:0:0:
256,192,143267,1,8,0:0:0:0:
256,192,143352,1,0,0:0:0:0:
256,192,143438,1,0,0:0:0:0:
256,192,143524,1,8,0:0:0:0:
256,192,143609,1,0,0:0:0:0:
256,192,143695,1,8,0:0:0:0:
256,192,143781,1,8,0:0:0:0:
256,192,143867,1,0,0:0:0:0:
256,192,143952,1,0,0:0:0:0:
256,192,144038,1,8,0:0:0:0:
256,192,144124,1,0,0:0:0:0:
256,192,144209,1,8,0:0:0:0:
256,192,144295,1,8,0:0:0:0:
256,192,144381,1,8,0:0:0:0:
256,192,144467,1,0,0:0:0:0:
256,192,144552,1,8,0:0:0:0:
256,192,144638,1,8,0:0:0:0:
256,192,144724,1,0,0:0:0:0:
256,192,144809,1,0,0:0:0:0:
256,192,144895,1,8,0:0:0:0:
256,192,144981,1,8,0:0:0:0:
256,192,145067,1,8,0:0:0:0:
256,192,145152,1,8,0:0:0:0:
256,192,145238,1,0,0:0:0:0:
256,192,145324,1,0,0:0:0:0:
256,192,145409,1,8,0:0:0:0:
256,192,145495,1,0,0:0:0:0:
256,192,145581,1,0,0:0:0:0:
256,192,145667,1,0,0:0:0:0:
256,192,145752,1,8,0:0:0:0:
256,192,145838,1,8,0:0:0:0:
256,192,145924,1,8,0:0:0:0:
256,192,146009,1,8,0:0:0:0:
256,192,146095,1,0,0:0:0:0:
256,192,146181,1,0,0:0:0:0:
256,192,146267,1,0,0:0:0:0:
256,192,146352,1,0,0:0:0:0:
256,192,146438,1,8,0:0:0:0:
256,192,146524,1,8,0:0:0:0:
256,192,146609,1,8,0:0:0:0:
256,192,146695,1,0,0:0:0:0:
256,192,146781,1,8,0:0:0:0:
256,192,146867,1,0,0:0:0:0:
256,192,146952,1,8,0:0:0:0:
256,192,147038,1,8,0:0:0:0:
256,192,147124,1,0,0:0:0:0:
256,192,147209,1,0,0:0:0:0:
256,192,147295,1,8,0:0:0:0:
256,192,147381,1,8,0:0:0:0:
256,192,147467,1,8,0:0:0:0:
256,192,147552,1,0,0:0:0:0:
256,192,147638,1,8,0:0:0:0:
256,192,147724,1,8,0:0:0:0:
256,192,147809,1,0,0:0:0:0:
256,192,150209,5,12,0:0:0:0:
256,192,150552,1,8,0:0:0:0:
256,192,150638,1,8,0:0:0:0:
256,192,150724,1,0,0:0:0:0:
256,192,150809,1,0,0:0:0:0:
256,192,150895,1,8,0:0:0:0:
256,192,150981,1,0,0:0:0:0:
256,192,151067,1,8,0:0:0:0:
256,192,151152,1,8,0:0:0:0:
256,192,151238,1,0,0:0:0:0:
256,192,151324,1,0,0:0:0:0:
256,192,151409,1,0,0:0:0:0:
256,192,151495,1,0,0:0:0:0:
256,192,151581,1,8,0:0:0:0:
256,192,151667,1,8,0:0:0:0:
256,192,151752,1,0,0:0:0:0:
256,192,151838,1,0,0:0:0:0:
256,192,151924,1,8,0:0:0:0:
256,192,152009,1,8,0:0:0:0:
256,192,152095,1,8,0:0:0:0:
256,192,152181,1,8,0:0:0:0:
256,192,152267,1,0,0:0:0:0:
256,192,152352,1,0,0:0:0:0:
256,192,152438,1,8,0:0:0:0:
256,192,152524,1,8,0:0:0:0:
256,192,152609,1,0,0:0:0:0:
256,192,152695,1,0,0:0:0:0:
256,192,152781,1,0,0:0:0:0:
256,192,152867,1,0,0:0:0:0:
256,192,152952,1,8,0:0:0:0:
256,192,153038,1,0,0:0:0:0:
256,192,153124,1,0,0:0:0:0:
256,192,153209,1,0,0:0:0:0:
256,192,153295,1,12,0:0:0:0:
256,192,153467,1,4,0:0:0:0:
256,192,153638,1,8,0:0:0:0:
256,192,153724,1,8,0:0:0:0:
256,192,153809,1,0,0:0:0:0:
256,192,153981,1,8,0:0:0:0:
256,192,154152,1,0,0:0:0:0:
256,192,154324,1,8,0:0:0:0:
256,192,154495,1,0,0:0:0:0:
256,192,154667,1,8,0:0:0:0:
256,192,154838,1,8,0:0:0:0:
256,192,155009,1,8,0:0:0:0:
256,192,155181,1,4,0:0:0:0:
256,192,155352,1,12,0:0:0:0:
256,192,155609,1,8,0:0:0:0:
256,192,155867,1,8,0:0:0:0:
256,192,156038,1,4,0:0:0:0:
256,192,156209,1,4,0:0:0:0:
256,192,156381,1,8,0:0:0:0:
256,192,156552,1,0,0:0:0:0:
256,192,156724,1,0,0:0:0:0:
256,192,156895,1,8,0:0:0:0:
256,192,157067,1,8,0:0:0:0:
256,192,157238,1,0,0:0:0:0:
256,192,157409,1,8,0:0:0:0:
256,192,157581,1,0,0:0:0:0:
256,192,157752,1,8,0:0:0:0:
256,192,157924,1,4,0:0:0:0:
256,192,158095,1,12,0:0:0:0:
256,192,158267,1,8,0:0:0:0:
256,192,158438,1,0,0:0:0:0:
256,192,158609,1,0,0:0:0:0:
256,192,158781,1,8,0:0:0:0:
256,192,158867,1,8,0:0:0:0:
256,192,158952,1,0,0:0:0:0:
256,192,159124,1,0,0:0:0:0:
256,192,159295,1,8,0:0:0:0:
256,192,159467,1,0,0:0:0:0:
256,192,159638,1,0,0:0:0:0:
256,192,159809,1,8,0:0:0:0:
256,192,159981,1,0,0:0:0:0:
256,192,160152,1,8,0:0:0:0:
256,192,160409,1,8,0:0:0:0:
256,192,160667,1,0,0:0:0:0:
256,192,160838,1,12,0:0:0:0:
256,192,161009,1,4,0:0:0:0:
256,192,161181,1,8,0:0:0:0:
256,192,161352,1,0,0:0:0:0:
256,192,161524,1,12,0:0:0:0:
256,192,161695,1,4,0:0:0:0:
256,192,161867,1,0,0:0:0:0:
256,192,162038,1,8,0:0:0:0:
256,192,162209,1,0,0:0:0:0:
256,192,162381,1,0,0:0:0:0:
256,192,162552,1,8,0:0:0:0:
256,192,162724,1,0,0:0:0:0:
256,192,162895,1,8,0:0:0:0:
256,192,163067,1,8,0:0:0:0:
256,192,163238,1,0,0:0:0:0:
256,192,163409,1,0,0:0:0:0:
256,192,163581,1,12,0:0:0:0:
256,192,163752,1,12,0:0:0:0:
256,192,163924,1,12,0:0:0:0:
256,192,164095,1,4,0:0:0:0:
256,192,164267,1,12,0:0:0:0:
256,192,164438,1,0,0:0:0:0:
256,192,164609,1,8,0:0:0:0:
256,192,164781,1,8,0:0:0:0:
256,192,164952,1,0,0:0:0:0:
256,192,165038,1,0,0:0:0:0:
256,192,165124,1,0,0:0:0:0:
256,192,165295,1,8,0:0:0:0:
256,192,165467,1,0,0:0:0:0:
256,192,165638,1,0,0:0:0:0:
256,192,165809,1,8,0:0:0:0:
256,192,165895,1,8,0:0:0:0:
256,192,165981,1,0,0:0:0:0:
256,192,166152,1,8,0:0:0:0:
256,192,166324,1,0,0:0:0:0:
256,192,166409,1,0,0:0:0:0:
256,192,166495,1,8,0:0:0:0:
256,192,166667,1,8,0:0:0:0:
256,192,166838,1,0,0:0:0:0:
256,192,167009,1,8,0:0:0:0:
256,192,167095,1,8,0:0:0:0:
256,192,167181,1,0,0:0:0:0:
256,192,167352,1,8,0:0:0:0:
256,192,167524,1,0,0:0:0:0:
256,192,167695,1,8,0:0:0:0:
256,192,167781,1,8,0:0:0:0:
256,192,167867,1,0,0:0:0:0:
256,192,168038,1,8,0:0:0:0:
256,192,168209,1,0,0:0:0:0:
256,192,168381,1,8,0:0:0:0:
256,192,168552,1,0,0:0:0:0:
256,192,168724,1,8,0:0:0:0:
256,192,168895,1,8,0:0:0:0:
256,192,169067,1,0,0:0:0:0:
256,192,169152,1,0,0:0:0:0:
256,192,169238,1,8,0:0:0:0:
256,192,169409,1,8,0:0:0:0:
256,192,169581,1,0,0:0:0:0:
256,192,169752,1,12,0:0:0:0:
256,192,169924,1,0,0:0:0:0:
256,192,170095,1,8,0:0:0:0:
256,192,170267,1,8,0:0:0:0:
256,192,170438,1,0,0:0:0:0:
256,192,170609,1,0,0:0:0:0:
256,192,170695,1,0,0:0:0:0:
256,192,170781,1,8,0:0:0:0:
256,192,170867,1,8,0:0:0:0:
256,192,170952,1,0,0:0:0:0:
256,192,171124,1,8,0:0:0:0:
256,192,171209,1,8,0:0:0:0:
256,192,171295,1,0,0:0:0:0:
256,192,171381,1,0,0:0:0:0:
256,192,171467,1,8,0:0:0:0:
256,192,171638,1,0,0:0:0:0:
256,192,171809,1,8,0:0:0:0:
256,192,171895,1,0,0:0:0:0:
256,192,171981,1,8,0:0:0:0:
256,192,172067,1,8,0:0:0:0:
256,192,172152,1,0,0:0:0:0:
256,192,172324,1,8,0:0:0:0:
256,192,172495,1,0,0:0:0:0:
256,192,172667,1,0,0:0:0:0:
256,192,172752,1,0,0:0:0:0:
256,192,172838,1,8,0:0:0:0:
256,192,172924,1,8,0:0:0:0:
256,192,173009,1,0,0:0:0:0:
256,192,173181,1,8,0:0:0:0:
256,192,173267,1,0,0:0:0:0:
256,192,173352,1,0,0:0:0:0:
256,192,173438,1,0,0:0:0:0:
256,192,173524,1,8,0:0:0:0:
256,192,173695,1,0,0:0:0:0:
256,192,173867,1,8,0:0:0:0:
256,192,173952,1,8,0:0:0:0:
256,192,174038,1,0,0:0:0:0:
256,192,174124,1,0,0:0:0:0:
256,192,174209,1,8,0:0:0:0:
256,192,174381,1,8,0:0:0:0:
256,192,174552,1,0,0:0:0:0:
256,192,174638,1,0,0:0:0:0:
256,192,174724,1,8,0:0:0:0:
256,192,174809,1,8,0:0:0:0:
256,192,174895,1,0,0:0:0:0:
256,192,175067,1,0,0:0:0:0:
256,192,175238,1,8,0:0:0:0:
256,192,175467,1,0,0:0:0:0:
256,192,175581,1,8,0:0:0:0:
256,192,175695,1,0,0:0:0:0:
256,192,175809,1,0,0:0:0:0:
256,192,175924,1,8,0:0:0:0:
256,192,176038,1,8,0:0:0:0:
256,192,176152,1,0,0:0:0:0:
256,192,176267,1,8,0:0:0:0:
256,192,176381,1,0,0:0:0:0:
256,192,176495,1,8,0:0:0:0:
256,192,176609,1,8,0:0:0:0:
256,192,176724,1,0,0:0:0:0:
256,192,176838,1,0,0:0:0:0:
256,192,176952,1,8,0:0:0:0:
256,192,177067,1,8,0:0:0:0:
256,192,177181,1,0,0:0:0:0:
256,192,177295,1,8,0:0:0:0:
256,192,177409,1,0,0:0:0:0:
256,192,177524,1,8,0:0:0:0:
256,192,177638,1,8,0:0:0:0:
256,192,177752,1,0,0:0:0:0:
256,192,177867,1,8,0:0:0:0:
256,192,177981,1,0,0:0:0:0:
256,192,178209,1,0,0:0:0:0:
256,192,178324,1,8,0:0:0:0:
256,192,178438,1,0,0:0:0:0:
256,192,178552,1,0,0:0:0:0:
256,192,178667,1,8,0:0:0:0:
256,192,178781,1,0,0:0:0:0:
256,192,178895,1,0,0:0:0:0:
256,192,179009,1,8,0:0:0:0:
256,192,179124,1,8,0:0:0:0:
256,192,179238,1,0,0:0:0:0:
256,192,179352,1,8,0:0:0:0:
256,192,179467,1,0,0:0:0:0:
256,192,179581,1,0,0:0:0:0:
256,192,179695,1,8,0:0:0:0:
256,192,179809,1,8,0:0:0:0:
256,192,179924,1,0,0:0:0:0:
256,192,180038,1,8,0:0:0:0:
256,192,180152,1,0,0:0:0:0:
256,192,180267,1,0,0:0:0:0:
256,192,180381,1,8,0:0:0:0:
256,192,180495,1,0,0:0:0:0:
256,192,180609,1,0,0:0:0:0:
256,192,180724,1,8,0:0:0:0:
256,192,180952,1,0,0:0:0:0:
256,192,181067,1,8,0:0:0:0:
256,192,181181,1,8,0:0:0:0:
256,192,181295,1,0,0:0:0:0:
256,192,181409,1,8,0:0:0:0:
256,192,181524,1,0,0:0:0:0:
256,192,181638,1,0,0:0:0:0:
256,192,181752,1,8,0:0:0:0:
256,192,181867,1,8,0:0:0:0:
256,192,181981,1,0,0:0:0:0:
256,192,182095,1,8,0:0:0:0:
256,192,182209,1,0,0:0:0:0:
256,192,182324,1,8,0:0:0:0:
256,192,182438,1,8,0:0:0:0:
256,192,182552,1,0,0:0:0:0:
256,192,182667,1,8,0:0:0:0:
256,192,182781,1,8,0:0:0:0:
256,192,182895,1,0,0:0:0:0:
256,192,183009,1,0,0:0:0:0:
256,192,183124,1,8,0:0:0:0:
256,192,183238,1,0,0:0:0:0:
256,192,183352,1,8,0:0:0:0:
256,192,183467,1,0,0:0:0:0:
256,192,183695,1,0,0:0:0:0:
256,192,183809,1,8,0:0:0:0:
256,192,183924,1,0,0:0:0:0:
256,192,184038,1,0,0:0:0:0:
256,192,184152,1,8,0:0:0:0:
256,192,184267,1,8,0:0:0:0:
256,192,184381,1,0,0:0:0:0:
256,192,184495,1,8,0:0:0:0:
256,192,184609,1,8,0:0:0:0:
256,192,184724,1,0,0:0:0:0:
256,192,184838,1,8,0:0:0:0:
256,192,184895,1,8,0:0:0:0:
256,192,184952,1,8,0:0:0:0:
256,192,185009,1,8,0:0:0:0:
256,192,185067,1,0,0:0:0:0:
256,192,185124,1,0,0:0:0:0:
256,192,185181,1,8,0:0:0:0:
256,192,185295,1,0,0:0:0:0:
256,192,185409,1,8,0:0:0:0:
256,192,185467,1,8,0:0:0:0:
256,192,185524,1,0,0:0:0:0:
256,192,185638,1,8,0:0:0:0:
256,192,185752,1,0,0:0:0:0:
256,192,185809,1,0,0:0:0:0:
256,192,185867,1,0,0:0:0:0:
256,192,185981,1,8,0:0:0:0:
256,192,186095,1,0,0:0:0:0:
256,192,186152,1,0,0:0:0:0:
256,192,186209,1,8,0:0:0:0:
256,192,186324,1,0,0:0:0:0:
256,192,186438,1,0,0:0:0:0:
256,192,186552,1,8,0:0:0:0:
256,192,186667,1,0,0:0:0:0:
256,192,186781,1,0,0:0:0:0:
256,192,186895,1,8,0:0:0:0:
256,192,187009,1,8,0:0:0:0:
256,192,187124,1,0,0:0:0:0:
256,192,187238,1,8,0:0:0:0:
256,192,187352,1,8,0:0:0:0:
256,192,187467,1,0,0:0:0:0:
256,192,187581,1,8,0:0:0:0:
256,192,187695,1,0,0:0:0:0:
256,192,187809,1,8,0:0:0:0:
256,192,187924,1,8,0:0:0:0:
256,192,188038,1,0,0:0:0:0:
256,192,188152,1,0,0:0:0:0:
256,192,188267,1,8,0:0:0:0:
256,192,188381,1,0,0:0:0:0:
256,192,188495,1,8,0:0:0:0:
256,192,188609,1,8,0:0:0:0:
256,192,188724,1,0,0:0:0:0:
256,192,188838,1,0,0:0:0:0:
256,192,188952,1,8,0:0:0:0:
256,192,189067,1,0,0:0:0:0:
256,192,189181,1,0,0:0:0:0:
256,192,189295,1,8,0:0:0:0:
256,192,189409,1,0,0:0:0:0:
256,192,189524,1,0,0:0:0:0:
256,192,189638,1,8,0:0:0:0:
256,192,189752,1,8,0:0:0:0:
256,192,189867,1,0,0:0:0:0:
256,192,189981,1,8,0:0:0:0:
256,192,190095,1,0,0:0:0:0:
256,192,190209,1,8,0:0:0:0:
256,192,190324,1,8,0:0:0:0:
256,192,190438,1,0,0:0:0:0:
256,192,190552,1,0,0:0:0:0:
256,192,190667,1,8,0:0:0:0:
256,192,190781,1,8,0:0:0:0:
256,192,190895,1,0,0:0:0:0:
256,192,191009,1,8,0:0:0:0:
256,192,191124,1,8,0:0:0:0:
256,192,191238,1,0,0:0:0:0:
256,192,191352,1,8,0:0:0:0:
256,192,191467,1,0,0:0:0:0:
256,192,191581,1,0,0:0:0:0:
256,192,191695,1,8,0:0:0:0:
256,192,191809,1,0,0:0:0:0:
256,192,191924,1,0,0:0:0:0:
256,192,192038,1,8,0:0:0:0:
256,192,192152,1,0,0:0:0:0:
256,192,192267,1,0,0:0:0:0:
256,192,192381,1,8,0:0:0:0:
256,192,192495,1,8,0:0:0:0:
256,192,192609,1,0,0:0:0:0:
256,192,192724,1,8,0:0:0:0:
256,192,192838,1,0,0:0:0:0:
256,192,192952,1,0,0:0:0:0:
256,192,193067,1,8,0:0:0:0:
256,192,193181,1,0,0:0:0:0:
256,192,193295,1,8,0:0:0:0:
256,192,193409,1,8,0:0:0:0:
256,192,193524,1,0,0:0:0:0:
256,192,193638,1,0,0:0:0:0:
256,192,193752,1,8,0:0:0:0:
256,192,193867,1,8,0:0:0:0:
256,192,193981,1,0,0:0:0:0:
256,192,194095,1,8,0:0:0:0:
256,192,194209,1,0,0:0:0:0:
256,192,194324,1,8,0:0:0:0:
256,192,194438,1,8,0:0:0:0:
256,192,194552,1,0,0:0:0:0:
256,192,194667,1,0,0:0:0:0:
256,192,194781,1,8,0:0:0:0:
256,192,194895,1,0,0:0:0:0:
256,192,195009,1,0,0:0:0:0:
256,192,195124,1,8,0:0:0:0:
256,192,195238,1,0,0:0:0:0:
256,192,195352,1,8,0:0:0:0:
256,192,195467,1,0,0:0:0:0:
256,192,195552,1,0,0:0:0:0:
256,192,195638,1,0,0:0:0:0:
256,192,195724,1,0,0:0:0:0:
256,192,195809,1,8,0:0:0:0:
256,192,195981,1,8,0:0:0:0:
256,192,196067,1,8,0:0:0:0:
256,192,196152,1,0,0:0:0:0:
256,192,196324,1,0,0:0:0:0:
256,192,196495,1,8,0:0:0:0:
256,192,196581,1,0,0:0:0:0:
256,192,196667,1,8,0:0:0:0:
256,192,196752,1,8,0:0:0:0:
256,192,196838,1,0,0:0:0:0:
256,192,197009,1,8,0:0:0:0:
256,192,197181,1,4,0:0:0:0:
256,192,202667,5,8,0:0:0:0:
256,192,203352,1,0,0:0:0:0:
256,192,204038,1,8,0:0:0:0:
256,192,204724,1,0,0:0:0:0:
256,192,205067,1,0,0:0:0:0:
256,192,205752,1,0,0:0:0:0:
256,192,205924,1,0,0:0:0:0:
256,192,206095,1,8,0:0:0:0:
256,192,206438,1,8,0:0:0:0:
256,192,206781,1,0,0:0:0:0:
256,192,208152,1,0,0:0:0:0:
256,192,208324,1,8,0:0:0:0:
256,192,208495,1,0,0:0:0:0:
256,192,208667,1,8,0:0:0:0:
256,192,208838,1,0,0:0:0:0:
256,192,209009,1,8,0:0:0:0:
256,192,209181,1,8,0:0:0:0:
256,192,209352,1,0,0:0:0:0:
256,192,209524,1,8,0:0:0:0:
256,192,209695,1,0,0:0:0:0:
256,192,209867,1,8,0:0:0:0:
256,192,210038,1,0,0:0:0:0:
256,192,210209,1,8,0:0:0:0:
256,192,210381,1,8,0:0:0:0:
256,192,210552,1,0,0:0:0:0:
256,192,210724,1,0,0:0:0:0:
256,192,210895,1,0,0:0:0:0:
256,192,211067,1,8,0:0:0:0:
256,192,211238,1,8,0:0:0:0:
256,192,211409,1,8,0:0:0:0:
256,192,211581,1,0,0:0:0:0:
256,192,211752,1,8,0:0:0:0:
256,192,211924,1,0,0:0:0:0:
256,192,212095,1,0,0:0:0:0:
256,192,212267,1,8,0:0:0:0:
256,192,212438,1,8,0:0:0:0:
256,192,212609,1,8,0:0:0:0:
256,192,212781,1,0,0:0:0:0:
256,192,212952,1,8,0:0:0:0:
256,192,213124,1,8,0:0:0:0:
256,192,213295,1,0,0:0:0:0:
256,192,213467,1,0,0:0:0:0:
256,192,213638,1,0,0:0:0:0:
256,192,213809,1,8,0:0:0:0:
256,192,213981,1,0,0:0:0:0:
256,192,214152,1,8,0:0:0:0:
256,192,214324,1,8,0:0:0:0:
256,192,214495,1,0,0:0:0:0:
256,192,214667,1,8,0:0:0:0:
256,192,214838,1,0,0:0:0:0:
256,192,215009,1,8,0:0:0:0:
256,192,215181,1,0,0:0:0:0:
256,192,215352,1,0,0:0:0:0:
256,192,215524,1,8,0:0:0:0:
256,192,215695,1,8,0:0:0:0:
256,192,215867,1,8,0:0:0:0:
256,192,216038,1,0,0:0:0:0:
256,192,216209,1,0,0:0:0:0:
256,192,216381,1,8,0:0:0:0:
256,192,216724,1,8,0:0:0:0:
256,192,217067,1,0,0:0:0:0:
256,192,217409,1,8,0:0:0:0:
256,192,217752,1,8,0:0:0:0:
256,192,219124,1,8,0:0:0:0:
256,192,219467,1,0,0:0:0:0:
256,192,219638,1,8,0:0:0:0:
256,192,219809,1,0,0:0:0:0:
256,192,219981,1,8,0:0:0:0:
256,192,220152,1,0,0:0:0:0:
256,192,220324,1,8,0:0:0:0:
256,192,220495,1,0,0:0:0:0:
256,192,221181,1,0,0:0:0:0:
256,192,221267,1,0,0:0:0:0:
256,192,221352,1,8,0:0:0:0:
256,192,221438,1,8,0:0:0:0:
256,192,221524,1,8,0:0:0:0:
256,192,221609,1,8,0:0:0:0:
256,192,221695,1,0,0:0:0:0:
256,192,221781,1,0,0:0:0:0:
256,192,221867,1,8,0:0:0:0:
256,192,222209,1,0,0:0:0:0:
256,192,222381,1,8,0:0:0:0:
256,192,222552,1,0,0:0:0:0:
256,192,222724,1,8,0:0:0:0:
256,192,222895,1,0,0:0:0:0:
256,192,223067,1,8,0:0:0:0:
256,192,223238,1,0,0:0:0:0:
256,192,223924,1,0,0:0:0:0:
256,192,224009,1,0,0:0:0:0:
256,192,224095,1,8,0:0:0:0:
256,192,224181,1,8,0:0:0:0:
256,192,224267,1,0,0:0:0:0:
256,192,224352,1,8,0:0:0:0:
256,192,224438,1,0,0:0:0:0:
256,192,224524,1,0,0:0:0:0:
256,192,224609,1,8,0:0:0:0:
256,192,224952,1,0,0:0:0:0:
256,192,225124,1,8,0:0:0:0:
256,192,225295,1,0,0:0:0:0:
256,192,225467,1,8,0:0:0:0:
256,192,225638,1,0,0:0:0:0:
256,192,225809,1,8,0:0:0:0:
256,192,225981,1,0,0:0:0:0:
256,192,226067,1,0,0:0:0:0:
256,192,226152,1,8,0:0:0:0:
256,192,226238,1,0,0:0:0:0:
256,192,226324,1,8,0:0:0:0:
256,192,226409,1,8,0:0:0:0:
256,192,226495,1,0,0:0:0:0:
256,192,226581,1,0,0:0:0:0:
256,192,226667,1,8,0:0:0:0:
256,192,226752,1,8,0:0:0:0:
256,192,226838,1,8,0:0:0:0:
256,192,226924,1,8,0:0:0:0:
256,192,227009,1,0,0:0:0:0:
256,192,227095,1,0,0:0:0:0:
256,192,227181,1,0,0:0:0:0:
256,192,227267,1,0,0:0:0:0:
256,192,227352,1,8,0:0:0:0:
256,192,227695,1,8,0:0:0:0:
256,192,228038,1,8,0:0:0:0:
256,192,228381,1,0,0:0:0:0:
256,192,228552,1,8,0:0:0:0:
256,192,228724,1,0,0:0:0:0:
256,192,228809,1,0,0:0:0:0:
256,192,228895,1,8,0:0:0:0:
256,192,228981,1,0,0:0:0:0:
256,192,229067,1,8,0:0:0:0:
256,192,229152,1,8,0:0:0:0:
256,192,229238,1,0,0:0:0:0:
256,192,229324,1,0,0:0:0:0:
256,192,229409,1,8,0:0:0:0:
256,192,229495,1,0,0:0:0:0:
256,192,229581,1,8,0:0:0:0:
256,192,229667,1,0,0:0:0:0:
256,192,229752,1,8,0:0:0:0:
256,192,229838,1,8,0:0:0:0:
256,192,229924,1,0,0:0:0:0:
256,192,230009,1,0,0:0:0:0:
256,192,230095,1,8,0:0:0:0:
256,192,230181,1,8,0:0:0:0:
256,192,230267,1,8,0:0:0:0:
256,192,230352,1,8,0:0:0:0:
256,192,230438,1,0,0:0:0:0:
256,192,230524,1,0,0:0:0:0:
256,192,230609,1,8,0:0:0:0:
256,192,230695,1,8,0:0:0:0:
256,192,230781,1,0,0:0:0:0:
256,192,230867,1,0,0:0:0:0:
256,192,230952,1,8,0:0:0:0:
256,192,231038,1,8,0:0:0:0:
256,192,231124,1,0,0:0:0:0:
256,192,231209,1,0,0:0:0:0:
256,192,231295,1,8,0:0:0:0:
256,192,231381,1,8,0:0:0:0:
256,192,231467,1,0,0:0:0:0:
256,192,231552,1,0,0:0:0:0:
256,192,231638,1,8,0:0:0:0:
256,192,231724,1,0,0:0:0:0:
256,192,231809,1,8,0:0:0:0:
256,192,231895,1,8,0:0:0:0:
256,192,231981,1,8,0:0:0:0:
256,192,232067,1,0,0:0:0:0:
256,192,232152,1,8,0:0:0:0:
256,192,232238,1,8,0:0:0:0:
256,192,232324,1,0,0:0:0:0:
256,192,232409,1,0,0:0:0:0:
256,192,232495,1,8,0:0:0:0:
256,192,232581,1,8,0:0:0:0:
256,192,232667,1,0,0:0:0:0:
256,192,232752,1,0,0:0:0:0:
256,192,232838,1,8,0:0:0:0:
256,192,232924,1,8,0:0:0:0:
256,192,233009,1,8,0:0:0:0:
256,192,233095,1,8,0:0:0:0:
256,192,233181,1,0,0:0:0:0:
256,192,233267,1,0,0:0:0:0:
256,192,233352,1,8,0:0:0:0:
256,192,233438,1,8,0:0:0:0:
256,192,233524,1,0,0:0:0:0:
256,192,233609,1,0,0:0:0:0:
256,192,233695,1,8,0:0:0:0:
256,192,233781,1,8,0:0:0:0:
256,192,233867,1,0,0:0:0:0:
256,192,233952,1,0,0:0:0:0:
256,192,234038,1,8,0:0:0:0:
256,192,234124,1,8,0:0:0:0:
256,192,234209,1,0,0:0:0:0:
256,192,234295,1,0,0:0:0:0:
256,192,234381,1,8,0:0:0:0:
256,192,234467,1,0,0:0:0:0:
256,192,234552,1,8,0:0:0:0:
256,192,234638,1,8,0:0:0:0:
256,192,234724,1,8,0:0:0:0:
256,192,234809,1,0,0:0:0:0:
256,192,234895,1,8,0:0:0:0:
256,192,234981,1,0,0:0:0:0:
256,192,235067,1,8,0:0:0:0:
256,192,235152,1,8,0:0:0:0:
256,192,235238,1,0,0:0:0:0:
256,192,235324,1,0,0:0:0:0:
256,192,235409,1,8,0:0:0:0:
256,192,235495,1,0,0:0:0:0:
256,192,235581,1,8,0:0:0:0:
256,192,235667,1,8,0:0:0:0:
256,192,235752,1,8,0:0:0:0:
256,192,235838,1,8,0:0:0:0:
256,192,235924,1,0,0:0:0:0:
256,192,236009,1,0,0:0:0:0:
256,192,236095,1,8,0:0:0:0:
256,192,236181,1,8,0:0:0:0:
256,192,236267,1,0,0:0:0:0:
256,192,236352,1,0,0:0:0:0:
256,192,236438,1,8,0:0:0:0:
256,192,236524,1,8,0:0:0:0:
256,192,236609,1,0,0:0:0:0:
256,192,236695,1,0,0:0:0:0:
256,192,236781,1,8,0:0:0:0:
256,192,236867,1,0,0:0:0:0:
256,192,236952,1,8,0:0:0:0:
256,192,237038,1,8,0:0:0:0:
256,192,237124,1,0,0:0:0:0:
256,192,237209,1,0,0:0:0:0:
256,192,237295,1,8,0:0:0:0:
256,192,237381,1,8,0:0:0:0:
256,192,237467,1,8,0:0:0:0:
256,192,237552,1,0,0:0:0:0:
256,192,237638,1,8,0:0:0:0:
256,192,237724,1,8,0:0:0:0:
256,192,237809,1,0,0:0:0:0:
256,192,237895,1,0,0:0:0:0:
256,192,237981,1,8,0:0:0:0:
256,192,238067,1,0,0:0:0:0:
256,192,238152,1,8,0:0:0:0:
256,192,238238,1,0,0:0:0:0:
256,192,238324,1,8,0:0:0:0:
256,192,238409,1,8,0:0:0:0:
256,192,238495,1,0,0:0:0:0:
256,192,238581,1,0,0:0:0:0:
256,192,238667,1,8,0:0:0:0:
256,192,238752,1,0,0:0:0:0:
256,192,238838,1,8,0:0:0:0:
256,192,238924,1,0,0:0:0:0:
256,192,239009,1,8,0:0:0:0:
256,192,239095,1,8,0:0:0:0:
256,192,239181,1,0,0:0:0:0:
256,192,239267,1,8,0:0:0:0:
256,192,239352,1,0,0:0:0:0:
256,192,239438,1,0,0:0:0:0:
256,192,239524,1,8,0:0:0:0:
256,192,239609,1,0,0:0:0:0:
256,192,239695,1,8,0:0:0:0:
256,192,239781,1,8,0:0:0:0:
256,192,239867,1,8,0:0:0:0:
256,192,239952,1,0,0:0:0:0:
256,192,240038,1,8,0:0:0:0:
256,192,240124,1,0,0:0:0:0:
256,192,240209,1,8,0:0:0:0:
256,192,240295,1,8,0:0:0:0:
256,192,240381,1,0,0:0:0:0:
256,192,240467,1,0,0:0:0:0:
256,192,240552,1,8,0:0:0:0:
256,192,240638,1,0,0:0:0:0:
256,192,240724,1,8,0:0:0:0:
256,192,240809,1,8,0:0:0:0:
256,192,240895,1,0,0:0:0:0:
256,192,240981,1,0,0:0:0:0:
256,192,241067,1,8,0:0:0:0:
256,192,241152,1,8,0:0:0:0:
256,192,241238,1,8,0:0:0:0:
256,192,241324,1,8,0:0:0:0:
256,192,241409,1,0,0:0:0:0:
256,192,241495,1,0,0:0:0:0:
256,192,241581,1,8,0:0:0:0:
256,192,241667,1,8,0:0:0:0:
256,192,241752,1,0,0:0:0:0:
256,192,241838,1,0,0:0:0:0:
256,192,241924,1,8,0:0:0:0:
256,192,242009,1,8,0:0:0:0:
256,192,242095,1,0,0:0:0:0:
256,192,242181,1,0,0:0:0:0:
256,192,242267,1,8,0:0:0:0:
256,192,242352,1,8,0:0:0:0:
256,192,242438,1,0,0:0:0:0:
256,192,242524,1,0,0:0:0:0:
256,192,242609,1,8,0:0:0:0:
256,192,242695,1,0,0:0:0:0:
256,192,242781,1,8,0:0:0:0:
256,192,242867,1,8,0:0:0:0:
256,192,242952,1,8,0:0:0:0:
256,192,243038,1,0,0:0:0:0:
256,192,243124,1,8,0:0:0:0:
256,192,243209,1,8,0:0:0:0:
256,192,243295,1,0,0:0:0:0:
256,192,243381,1,0,0:0:0:0:
256,192,243467,1,8,0:0:0:0:
256,192,243552,1,0,0:0:0:0:
256,192,243638,1,8,0:0:0:0:
256,192,243724,1,0,0:0:0:0:
256,192,243809,1,8,0:0:0:0:
256,192,243895,1,8,0:0:0:0:
256,192,243981,1,8,0:0:0:0:
256,192,244067,1,8,0:0:0:0:
256,192,244152,1,0,0:0:0:0:
256,192,244238,1,0,0:0:0:0:
256,192,244324,1,8,0:0:0:0:
256,192,244409,1,8,0:0:0:0:
256,192,244495,1,0,0:0:0:0:
256,192,244581,1,0,0:0:0:0:
256,192,244667,1,8,0:0:0:0:
256,192,244752,1,8,0:0:0:0:
256,192,244838,1,0,0:0:0:0:
256,192,244924,1,0,0:0:0:0:
256,192,245009,1,8,0:0:0:0:
256,192,245095,1,8,0:0:0:0:
256,192,245181,1,0,0:0:0:0:
256,192,245267,1,0,0:0:0:0:
256,192,245352,1,8,0:0:0:0:
256,192,245438,1,0,0:0:0:0:
256,192,245524,1,8,0:0:0:0:
256,192,245609,1,8,0:0:0:0:
256,192,245695,1,8,0:0:0:0:
256,192,245781,1,0,0:0:0:0:
256,192,245867,1,8,0:0:0:0:
256,192,245952,1,8,0:0:0:0:
256,192,246038,1,8,0:0:0:0:
256,192,246124,1,8,0:0:0:0:
256,192,246209,1,0,0:0:0:0:
256,192,246295,1,0,0:0:0:0:
256,192,246381,1,8,0:0:0:0:
256,192,246467,1,0,0:0:0:0:
256,192,246552,1,8,0:0:0:0:
256,192,246638,1,8,0:0:0:0:
256,192,246724,1,8,0:0:0:0:
256,192,246809,1,8,0:0:0:0:
256,192,246895,1,0,0:0:0:0:
256,192,246981,1,0,0:0:0:0:
256,192,247067,1,8,0:0:0:0:
256,192,247152,1,8,0:0:0:0:
256,192,247238,1,0,0:0:0:0:
256,192,247324,1,0,0:0:0:0:
256,192,247409,1,8,0:0:0:0:
256,192,247495,1,8,0:0:0:0:
256,192,247581,1,0,0:0:0:0:
256,192,247667,1,0,0:0:0:0:
256,192,247752,1,8,0:0:0:0:
256,192,247838,1,0,0:0:0:0:
256,192,247924,1,8,0:0:0:0:
256,192,248009,1,8,0:0:0:0:
256,192,248095,1,0,0:0:0:0:
256,192,248181,1,0,0:0:0:0:
256,192,248267,1,8,0:0:0:0:
256,192,248352,1,0,0:0:0:0:
256,192,248438,1,0,0:0:0:0:
256,192,248524,1,0,0:0:0:0:
256,192,248609,1,8,0:0:0:0:
256,192,248695,1,8,0:0:0:0:
256,192,248781,1,8,0:0:0:0:
256,192,248867,1,0,0:0:0:0:
256,192,248952,1,8,0:0:0:0:
256,192,249038,1,0,0:0:0:0:
256,192,249124,1,0,0:0:0:0:
256,192,249209,1,0,0:0:0:0:
256,192,249295,1,8,0:0:0:0:
256,192,250667,1,4,0:0:0:0:
256,192,252038,1,12,0:0:0:0:
256,192,253409,1,4,0:0:0:0:
256,192,254095,1,12,0:0:0:0:
256,192,254267,1,12,0:0:0:0:
256,192,254781,1,4,0:0:0:0:
256,192,256152,1,8,0:0:0:0:
256,192,256267,1,0,0:0:0:0:
256,192,256381,1,0,0:0:0:0:
256,192,256495,1,8,0:0:0:0:
256,192,256609,1,8,0:0:0:0:
256,192,256724,1,0,0:0:0:0:
256,192,256838,1,8,0:0:0:0:
256,192,256952,1,8,0:0:0:0:
256,192,257067,1,0,0:0:0:0:
256,192,257181,1,8,0:0:0:0:
256,192,257295,1,0,0:0:0:0:
256,192,257409,1,0,0:0:0:0:
256,192,257524,1,12,0:0:0:0:
256,192,258895,1,0,0:0:0:0:
256,192,259067,1,0,0:0:0:0:
256,192,259409,1,0,0:0:0:0:
256,192,259581,1,8,0:0:0:0:
256,192,259752,1,0,0:0:0:0:
256,192,259924,1,0,0:0:0:0:
256,192,260267,1,12,0:0:0:0:
256,192,261638,1,0,0:0:0:0:
256,192,261981,1,0,0:0:0:0:
256,192,262324,1,8,0:0:0:0:
256,192,262495,1,0,0:0:0:0:
256,192,262667,1,8,0:0:0:0:
256,192,262838,1,0,0:0:0:0:
256,192,263009,1,12,0:0:0:0:
256,192,263695,1,0,0:0:0:0:
256,192,263867,1,8,0:0:0:0:
256,192,264209,1,8,0:0:0:0:
256,192,264295,1,8,0:0:0:0:
256,192,264381,1,8,0:0:0:0:
256,192,265067,1,0,0:0:0:0:
256,192,265238,1,0,0:0:0:0:
256,192,265581,1,0,0:0:0:0:
256,192,265667,1,0,0:0:0:0:
256,192,265752,1,8,0:0:0:0:
256,192,266438,1,8,0:0:0:0:
256,192,266609,1,0,0:0:0:0:
256,192,266952,1,0,0:0:0:0:
256,192,267124,1,12,0:0:0:0:
256,192,267809,1,0,0:0:0:0:
256,192,267981,1,8,0:0:0:0:
256,192,268324,1,8,0:0:0:0:
256,192,268409,1,8,0:0:0:0:
256,192,268495,1,0,0:0:0:0:
256,192,269181,1,8,0:0:0:0:
256,192,269352,1,0,0:0:0:0:
256,192,269695,1,0,0:0:0:0:
256,192,269781,1,0,0:0:0:0:
256,192,269867,1,8,0:0:0:0:
256,192,270552,1,8,0:0:0:0:
256,192,270724,1,8,0:0:0:0:
256,192,271067,1,0,0:0:0:0:
256,192,271152,1,0,0:0:0:0:
256,192,271238,1,0,0:0:0:0:
256,192,271409,1,12,0:0:0:0:
256,192,271581,1,12,0:0:0:0:
256,192,271752,1,0,0:0:0:0:
256,192,271924,1,12,0:0:0:0:
256,192,272095,1,0,0:0:0:0:
256,192,272267,1,0,0:0:0:0:
256,192,272438,1,8,0:0:0:0:
256,192,272609,1,0,0:0:0:0:
256,192,272695,1,0,0:0:0:0:
256,192,272781,1,0,0:0:0:0:
256,192,272867,1,0,0:0:0:0:
256,192,272952,1,8,0:0:0:0:
256,192,273038,1,8,0:0:0:0:
256,192,273124,1,0,0:0:0:0:
256,192,273209,1,0,0:0:0:0:
256,192,273295,1,8,0:0:0:0:
256,192,273381,1,8,0:0:0:0:
256,192,273467,1,8,0:0:0:0:
256,192,273552,1,0,0:0:0:0:
256,192,273638,1,8,0:0:0:0:
256,192,273724,1,8,0:0:0:0:
256,192,273809,1,0,0:0:0:0:
256,192,273895,1,0,0:0:0:0:
256,192,273981,1,8,0:0:0:0:
256,192,274067,1,8,0:0:0:0:
256,192,274152,1,8,0:0:0:0:
256,192,274238,1,8,0:0:0:0:
256,192,274324,1,0,0:0:0:0:
256,192,274409,1,0,0:0:0:0:
256,192,274495,1,8,0:0:0:0:
256,192,274581,1,0,0:0:0:0:
256,192,274667,1,8,0:0:0:0:
256,192,274752,1,8,0:0:0:0:
256,192,274838,1,8,0:0:0:0:
256,192,274924,1,0,0:0:0:0:
256,192,275009,1,0,0:0:0:0:
256,192,275095,1,0,0:0:0:0:
256,192,275181,1,8,0:0:0:0:
256,192,275267,1,8,0:0:0:0:
256,192,275352,1,0,0:0:0:0:
256,192,275438,1,0,0:0:0:0:
256,192,275524,1,8,0:0:0:0:
256,192,275609,1,0,0:0:0:0:
256,192,275695,1,8,0:0:0:0:
256,192,275781,1,0,0:0:0:0:
256,192,275867,1,8,0:0:0:0:
256,192,275952,1,8,0:0:0:0:
256,192,276038,1,0,0:0:0:0:
256,192,276124,1,0,0:0:0:0:
256,192,276209,1,8,0:0:0:0:
256,192,276295,1,0,0:0:0:0:
256,192,276381,1,8,0:0:0:0:
256,192,276467,1,8,0:0:0:0:
256,192,276552,1,8,0:0:0:0:
256,192,276638,1,0,0:0:0:0:
256,192,276724,1,8,0:0:0:0:
256,192,276809,1,8,0:0:0:0:
256,192,276895,1,0,0:0:0:0:
256,192,276981,1,0,0:0:0:0:
256,192,277067,1,8,0:0:0:0:
256,192,277152,1,0,0:0:0:0:
256,192,277238,1,8,0:0:0:0:
256,192,277324,1,8,0:0:0:0:
256,192,277409,1,0,0:0:0:0:
256,192,277495,1,0,0:0:0:0:
256,192,277581,1,8,0:0:0:0:
256,192,277667,1,8,0:0:0:0:
256,192,277752,1,8,0:0:0:0:
256,192,277838,1,0,0:0:0:0:
256,192,277924,1,8,0:0:0:0:
256,192,278009,1,8,0:0:0:0:
256,192,278095,1,8,0:0:0:0:
256,192,278181,1,8,0:0:0:0:
256,192,278267,1,0,0:0:0:0:
256,192,278352,1,0,0:0:0:0:
256,192,278438,1,8,0:0:0:0:
256,192,278524,1,8,0:0:0:0:
256,192,278609,1,0,0:0:0:0:
256,192,278695,1,0,0:0:0:0:
256,192,278781,1,8,0:0:0:0:
256,192,278867,1,8,0:0:0:0:
256,192,278952,1,0,0:0:0:0:
256,192,279038,1,8,0:0:0:0:
256,192,279124,1,0,0:0:0:0:
256,192,279209,1,0,0:0:0:0:
256,192,279295,1,8,0:0:0:0:
256,192,279381,1,0,0:0:0:0:
256,192,279467,1,8,0:0:0:0:
256,192,279552,1,8,0:0:0:0:
256,192,279638,1,0,0:0:0:0:
256,192,279724,1,0,0:0:0:0:
256,192,279809,1,8,0:0:0:0:
256,192,279895,1,0,0:0:0:0:
256,192,279981,1,8,0:0:0:0:
256,192,280067,1,8,0:0:0:0:
256,192,280152,1,8,0:0:0:0:
256,192,280238,1,8,0:0:0:0:
256,192,280324,1,0,0:0:0:0:
256,192,280409,1,0,0:0:0:0:
256,192,280495,1,8,0:0:0:0:
256,192,280581,1,0,0:0:0:0:
256,192,280667,1,0,0:0:0:0:
256,192,280752,1,0,0:0:0:0:
256,192,280838,1,8,0:0:0:0:
256,192,280924,1,0,0:0:0:0:
256,192,281009,1,8,0:0:0:0:
256,192,281095,1,0,0:0:0:0:
256,192,281181,1,8,0:0:0:0:
256,192,281267,1,8,0:0:0:0:
256,192,281352,1,0,0:0:0:0:
256,192,281438,1,0,0:0:0:0:
256,192,281524,1,8,0:0:0:0:
256,192,281609,1,0,0:0:0:0:
256,192,281695,1,8,0:0:0:0:
256,192,281781,1,0,0:0:0:0:
256,192,281867,1,8,0:0:0:0:
256,192,281952,1,8,0:0:0:0:
256,192,282038,1,8,0:0:0:0:
256,192,282124,1,0,0:0:0:0:
256,192,282209,1,8,0:0:0:0:
256,192,282295,1,8,0:0:0:0:
256,192,282381,1,8,0:0:0:0:
256,192,282467,1,8,0:0:0:0:
256,192,282552,1,0,0:0:0:0:
256,192,282638,1,0,0:0:0:0:
256,192,282724,1,8,0:0:0:0:
256,192,282809,1,8,0:0:0:0:
256,192,282895,1,8,0:0:0:0:
256,192,282981,1,8,0:0:0:0:
256,192,283067,1,0,0:0:0:0:
256,192,283152,1,0,0:0:0:0:
256,192,283238,1,8,0:0:0:0:
256,192,283324,1,8,0:0:0:0:
256,192,283409,1,0,0:0:0:0:
256,192,283495,1,0,0:0:0:0:
256,192,283581,1,8,0:0:0:0:
256,192,283667,1,8,0:0:0:0:
256,192,283752,1,8,0:0:0:0:
256,192,283838,1,0,0:0:0:0:
256,192,283924,1,8,0:0:0:0:
256,192,284009,1,0,0:0:0:0:
256,192,284095,1,0,0:0:0:0:
256,192,284181,1,0,0:0:0:0:
256,192,284267,1,8,0:0:0:0:
256,192,284352,1,8,0:0:0:0:
256,192,284438,1,0,0:0:0:0:
256,192,284524,1,8,0:0:0:0:
256,192,284609,1,0,0:0:0:0:
256,192,284695,1,0,0:0:0:0:
256,192,284781,1,8,0:0:0:0:
256,192,284867,1,0,0:0:0:0:
256,192,284952,1,8,0:0:0:0:
256,192,285038,1,8,0:0:0:0:
256,192,285124,1,8,0:0:0:0:
256,192,285209,1,0,0:0:0:0:
256,192,285295,1,8,0:0:0:0:
256,192,285381,1,0,0:0:0:0:
256,192,285467,1,8,0:0:0:0:
256,192,285552,1,8,0:0:0:0:
256,192,285638,1,0,0:0:0:0:
256,192,285724,1,0,0:0:0:0:
256,192,285809,1,8,0:0:0:0:
256,192,285895,1,8,0:0:0:0:
256,192,285981,1,8,0:0:0:0:
256,192,286067,1,0,0:0:0:0:
256,192,286152,1,8,0:0:0:0:
256,192,286238,1,8,0:0:0:0:
256,192,286324,1,8,0:0:0:0:
256,192,286409,1,8,0:0:0:0:
256,192,286495,1,0,0:0:0:0:
256,192,286581,1,0,0:0:0:0:
256,192,286667,1,8,0:0:0:0:
256,192,286752,1,8,0:0:0:0:
256,192,286838,1,0,0:0:0:0:
256,192,286924,1,0,0:0:0:0:
256,192,287009,1,8,0:0:0:0:
256,192,287095,1,8,0:0:0:0:
256,192,287181,1,8,0:0:0:0:
256,192,287267,1,0,0:0:0:0:
256,192,287352,1,8,0:0:0:0:
256,192,287438,1,8,0:0:0:0:
256,192,287524,1,0,0:0:0:0:
256,192,287609,1,0,0:0:0:0:
256,192,287695,1,8,0:0:0:0:
256,192,287781,1,0,0:0:0:0:
256,192,287867,1,0,0:0:0:0:
256,192,287952,1,0,0:0:0:0:
256,192,288038,1,8,0:0:0:0:
256,192,288124,1,8,0:0:0:0:
256,192,288209,1,0,0:0:0:0:
256,192,288295,1,0,0:0:0:0:
256,192,288381,1,8,0:0:0:0:
256,192,288467,1,8,0:0:0:0:
256,192,288552,1,8,0:0:0:0:
256,192,288638,1,0,0:0:0:0:
256,192,288724,1,8,0:0:0:0:
256,192,288809,1,8,0:0:0:0:
256,192,288895,1,0,0:0:0:0:
256,192,288981,1,0,0:0:0:0:
256,192,289067,1,12,0:0:0:0:
256,192,291467,5,12,0:0:0:0:
256,192,291809,1,8,0:0:0:0:
256,192,291895,1,8,0:0:0:0:
256,192,291981,1,0,0:0:0:0:
256,192,292067,1,0,0:0:0:0:
256,192,292152,1,8,0:0:0:0:
256,192,292238,1,0,0:0:0:0:
256,192,292324,1,8,0:0:0:0:
256,192,292409,1,8,0:0:0:0:
256,192,292495,1,8,0:0:0:0:
256,192,292581,1,8,0:0:0:0:
256,192,292667,1,0,0:0:0:0:
256,192,292752,1,0,0:0:0:0:
256,192,292838,1,8,0:0:0:0:
256,192,292924,1,0,0:0:0:0:
256,192,293009,1,0,0:0:0:0:
256,192,293095,1,0,0:0:0:0:
256,192,293181,1,8,0:0:0:0:
256,192,293267,1,8,0:0:0:0:
256,192,293352,1,8,0:0:0:0:
256,192,293438,1,8,0:0:0:0:
256,192,293524,1,0,0:0:0:0:
256,192,293609,1,0,0:0:0:0:
256,192,293695,1,8,0:0:0:0:
256,192,293781,1,8,0:0:0:0:
256,192,293867,1,8,0:0:0:0:
256,192,293952,1,8,0:0:0:0:
256,192,294038,1,0,0:0:0:0:
256,192,294124,1,0,0:0:0:0:
256,192,294209,1,8,0:0:0:0:
256,192,294295,1,0,0:0:0:0:
256,192,294381,1,0,0:0:0:0:
256,192,294467,1,0,0:0:0:0:
256,192,294552,1,8,0:0:0:0:
256,192,294638,1,8,0:0:0:0:
256,192,294724,1,0,0:0:0:0:
256,192,294809,1,0,0:0:0:0:
256,192,294895,1,8,0:0:0:0:
256,192,294981,1,0,0:0:0:0:
256,192,295067,1,8,0:0:0:0:
256,192,295152,1,8,0:0:0:0:
256,192,295238,1,0,0:0:0:0:
256,192,295324,1,0,0:0:0:0:
256,192,295409,1,8,0:0:0:0:
256,192,295495,1,8,0:0:0:0:
256,192,295581,1,0,0:0:0:0:
256,192,295667,1,0,0:0:0:0:
256,192,295752,1,8,0:0:0:0:
256,192,295838,1,0,0:0:0:0:
256,192,295924,1,8,0:0:0:0:
256,192,296009,1,8,0:0:0:0:
256,192,296095,1,0,0:0:0:0:
256,192,296181,1,0,0:0:0:0:
256,192,296267,1,0,0:0:0:0:
256,192,296352,1,0,0:0:0:0:
256,192,296438,1,8,0:0:0:0:
256,192,296524,1,0,0:0:0:0:
256,192,296609,1,8,0:0:0:0:
256,192,296695,1,8,0:0:0:0:
256,192,296781,1,0,0:0:0:0:
256,192,296867,1,0,0:0:0:0:
256,192,296952,1,8,0:0:0:0:
256,192,297038,1,0,0:0:0:0:
256,192,297124,1,0,0:0:0:0:
256,192,297209,1,0,0:0:0:0:
256,192,297295,1,8,0:0:0:0:
256,192,297381,1,8,0:0:0:0:
256,192,297467,1,8,0:0:0:0:
256,192,297552,1,8,0:0:0:0:
256,192,297638,1,0,0:0:0:0:
256,192,297724,1,0,0:0:0:0:
256,192,297809,1,8,0:0:0:0:
256,192,297895,1,8,0:0:0:0:
256,192,297981,1,0,0:0:0:0:
256,192,298067,1,0,0:0:0:0:
256,192,298152,1,8,0:0:0:0:
256,192,298238,1,8,0:0:0:0:
256,192,298324,1,0,0:0:0:0:
256,192,298409,1,0,0:0:0:0:
256,192,298495,1,8,0:0:0:0:
256,192,298581,1,0,0:0:0:0:
256,192,298667,1,8,0:0:0:0:
256,192,298752,1,0,0:0:0:0:
256,192,298838,1,0,0:0:0:0:
256,192,298924,1,0,0:0:0:0:
256,192,299009,1,8,0:0:0:0:
256,192,299095,1,8,0:0:0:0:
256,192,299181,1,0,0:0:0:0:
256,192,299267,1,0,0:0:0:0:
256,192,299352,1,8,0:0:0:0:
256,192,299438,1,8,0:0:0:0:
256,192,299524,1,8,0:0:0:0:
256,192,299609,1,0,0:0:0:0:
256,192,299695,1,8,0:0:0:0:
256,192,299781,1,8,0:0:0:0:
256,192,299867,1,0,0:0:0:0:
256,192,299952,1,0,0:0:0:0:
256,192,300038,1,8,0:0:0:0:
256,192,300124,1,8,0:0:0:0:
256,192,300209,1,8,0:0:0:0:
256,192,300295,1,8,0:0:0:0:
256,192,300381,1,0,0:0:0:0:
256,192,300467,1,0,0:0:0:0:
256,192,300552,1,8,0:0:0:0:
256,192,300638,1,8,0:0:0:0:
256,192,300724,1,0,0:0:0:0:
256,192,300809,1,0,0:0:0:0:
256,192,300895,1,8,0:0:0:0:
256,192,300981,1,0,0:0:0:0:
256,192,301067,1,8,0:0:0:0:
256,192,301152,1,8,0:0:0:0:
256,192,301238,1,0,0:0:0:0:
256,192,301324,1,0,0:0:0:0:
256,192,301409,1,8,0:0:0:0:
256,192,301495,1,8,0:0:0:0:
256,192,301581,1,8,0:0:0:0:
256,192,301667,1,0,0:0:0:0:
256,192,301752,1,8,0:0:0:0:
256,192,301838,1,0,0:0:0:0:
256,192,301924,1,0,0:0:0:0:
256,192,302009,1,0,0:0:0:0:
256,192,302095,1,8,0:0:0:0:
256,192,302181,1,8,0:0:0:0:
256,192,302267,1,0,0:0:0:0:
256,192,302352,1,0,0:0:0:0:
256,192,302438,1,8,0:0:0:0:
256,192,302524,1,0,0:0:0:0:
256,192,302609,1,0,0:0:0:0:
256,192,302695,1,0,0:0:0:0:
256,192,302781,1,8,0:0:0:0:
256,192,302867,1,0,0:0:0:0:
256,192,302952,1,8,0:0:0:0:
256,192,303038,1,8,0:0:0:0:
256,192,303124,1,0,0:0:0:0:
256,192,303209,1,0,0:0:0:0:
256,192,303295,1,8,0:0:0:0:
256,192,303381,1,8,0:0:0:0:
256,192,303467,1,8,0:0:0:0:
256,192,303552,1,0,0:0:0:0:
256,192,303638,1,0,0:0:0:0:
256,192,303724,1,0,0:0:0:0:
256,192,303809,1,8,0:0:0:0:
256,192,303895,1,8,0:0:0:0:
256,192,303981,1,0,0:0:0:0:
256,192,304067,1,0,0:0:0:0:
256,192,304152,1,8,0:0:0:0:
256,192,304238,1,8,0:0:0:0:
256,192,304324,1,8,0:0:0:0:
256,192,304409,1,0,0:0:0:0:
256,192,304495,1,8,0:0:0:0:
256,192,304581,1,0,0:0:0:0:
256,192,304667,1,0,0:0:0:0:
256,192,304752,1,0,0:0:0:0:
256,192,304838,1,8,0:0:0:0:
256,192,304924,1,8,0:0:0:0:
256,192,305009,1,8,0:0:0:0:
256,192,305095,1,0,0:0:0:0:
256,192,305181,1,8,0:0:0:0:
256,192,305267,1,8,0:0:0:0:
256,192,305352,1,0,0:0:0:0:
256,192,305438,1,0,0:0:0:0:
256,192,305524,1,8,0:0:0:0:
256,192,305609,1,8,0:0:0:0:
256,192,305695,1,0,0:0:0:0:
256,192,305781,1,0,0:0:0:0:
256,192,305867,1,0,0:0:0:0:
256,192,305952,1,0,0:0:0:0:
256,192,306038,1,8,0:0:0:0:
256,192,306124,1,0,0:0:0:0:
256,192,306209,1,8,0:0:0:0:
256,192,306295,1,8,0:0:0:0:
256,192,306381,1,8,0:0:0:0:
256,192,306467,1,0,0:0:0:0:
256,192,306552,1,0,0:0:0:0:
256,192,306638,1,0,0:0:0:0:
256,192,306724,1,8,0:0:0:0:
256,192,306809,1,0,0:0:0:0:
256,192,306895,1,8,0:0:0:0:
256,192,306981,1,8,0:0:0:0:
256,192,307067,1,8,0:0:0:0:
256,192,307152,1,8,0:0:0:0:
256,192,307238,1,0,0:0:0:0:
256,192,307324,1,0,0:0:0:0:
256,192,307409,1,8,0:0:0:0:
256,192,307495,1,0,0:0:0:0:
256,192,307581,1,8,0:0:0:0:
256,192,307667,1,8,0:0:0:0:
256,192,307752,1,0,0:0:0:0:
256,192,307838,1,0,0:0:0:0:
256,192,307924,1,8,0:0:0:0:
256,192,308009,1,0,0:0:0:0:
256,192,308095,1,0,0:0:0:0:
256,192,308181,1,0,0:0:0:0:
256,192,308267,1,8,0:0:0:0:
256,192,308352,1,0,0:0:0:0:
256,192,308438,1,8,0:0:0:0:
256,192,308524,1,8,0:0:0:0:
256,192,308609,1,0,0:0:0:0:
256,192,308695,1,0,0:0:0:0:
256,192,308781,1,8,0:0:0:0:
256,192,308867,1,0,0:0:0:0:
256,192,308952,1,0,0:0:0:0:
256,192,309038,1,0,0:0:0:0:
256,192,309124,1,8,0:0:0:0:
256,192,309209,1,0,0:0:0:0:
256,192,309295,1,8,0:0:0:0:
256,192,309381,1,8,0:0:0:0:
256,192,309467,1,8,0:0:0:0:
256,192,309552,1,0,0:0:0:0:
256,192,309638,1,8,0:0:0:0:
256,192,309724,1,0,0:0:0:0:
256,192,309809,1,0,0:0:0:0:
256,192,309895,1,0,0:0:0:0:
256,192,309981,1,8,0:0:0:0:
256,192,310067,1,8,0:0:0:0:
256,192,310152,1,8,0:0:0:0:
256,192,310238,1,0,0:0:0:0:
256,192,310324,1,8,0:0:0:0:
256,192,310409,1,8,0:0:0:0:
256,192,310495,1,0,0:0:0:0:
256,192,310581,1,0,0:0:0:0:
256,192,310667,1,8,0:0:0:0:
256,192,310752,1,0,0:0:0:0:
256,192,310838,1,8,0:0:0:0:
256,192,310924,1,0,0:0:0:0:
256,192,311009,1,8,0:0:0:0:
256,192,311095,1,8,0:0:0:0:
256,192,311181,1,8,0:0:0:0:
256,192,311267,1,8,0:0:0:0:
256,192,311352,1,0,0:0:0:0:
256,192,311438,1,0,0:0:0:0:
256,192,311524,1,8,0:0:0:0:
256,192,311609,1,8,0:0:0:0:
256,192,311695,1,0,0:0:0:0:
256,192,311781,1,0,0:0:0:0:
256,192,311867,1,8,0:0:0:0:
256,192,311952,1,0,0:0:0:0:
256,192,312038,1,8,0:0:0:0:
256,192,312124,1,8,0:0:0:0:
256,192,312209,1,8,0:0:0:0:
256,192,312295,1,0,0:0:0:0:
256,192,312381,1,8,0:0:0:0:
256,192,312467,1,8,0:0:0:0:
256,192,312552,1,0,0:0:0:0:
256,192,312638,1,0,0:0:0:0:
256,192,312724,1,8,0:0:0:0:
256,192,312809,1,8,0:0:0:0:
256,192,312895,1,8,0:0:0:0:
256,192,312981,1,0,0:0:0:0:
256,192,313067,1,8,0:0:0:0:
256,192,313152,1,8,0:0:0:0:
256,192,313238,1,0,0:0:0:0:
256,192,313324,1,0,0:0:0:0:
256,192,313409,1,8,0:0:0:0:
256,192,313495,1,0,0:0:0:0:
256,192,313581,1,0,0:0:0:0:
256,192,313667,1,0,0:0:0:0:
256,192,313752,1,8,0:0:0:0:
256,192,313838,1,8,0:0:0:0:
256,192,313924,1,8,0:0:0:0:
256,192,314009,1,8,0:0:0:0:
256,192,314095,1,0,0:0:0:0:
256,192,314181,1,0,0:0:0:0:
256,192,314267,1,8,0:0:0:0:
256,192,314352,1,8,0:0:0:0:
256,192,314438,1,0,0:0:0:0:
256,192,314524,1,0,0:0:0:0:
256,192,314609,1,8,0:0:0:0:
256,192,314695,1,0,0:0:0:0:
256,192,314781,1,8,0:0:0:0:
256,192,314867,1,8,0:0:0:0:
256,192,314952,1,0,0:0:0:0:
256,192,315038,1,0,0:0:0:0:
256,192,315124,1,8,0:0:0:0:
256,192,315209,1,8,0:0:0:0:
256,192,315295,1,8,0:0:0:0:
256,192,315381,1,0,0:0:0:0:
256,192,315467,1,8,0:0:0:0:
256,192,315552,1,0,0:0:0:0:
256,192,315638,1,0,0:0:0:0:
256,192,315724,1,0,0:0:0:0:
256,192,315809,1,8,0:0:0:0:
256,192,315895,1,8,0:0:0:0:
256,192,315981,1,8,0:0:0:0:
256,192,316067,1,0,0:0:0:0:
256,192,316152,1,8,0:0:0:0:
256,192,316238,1,8,0:0:0:0:
256,192,316324,1,0,0:0:0:0:
256,192,316409,1,0,0:0:0:0:
256,192,316495,1,8,0:0:0:0:
256,192,316581,1,8,0:0:0:0:
256,192,316667,1,8,0:0:0:0:
256,192,316752,1,8,0:0:0:0:
256,192,316838,1,0,0:0:0:0:
256,192,316924,1,0,0:0:0:0:
256,192,317009,1,8,0:0:0:0:
256,192,317095,1,0,0:0:0:0:
256,192,317181,1,8,0:0:0:0:
256,192,317267,1,0,0:0:0:0:
256,192,317352,1,0,0:0:0:0:
256,192,317438,1,0,0:0:0:0:
256,192,317524,1,8,0:0:0:0:
256,192,317609,1,8,0:0:0:0:
256,192,317695,1,0,0:0:0:0:
256,192,317781,1,0,0:0:0:0:
256,192,317867,1,8,0:0:0:0:
256,192,317952,1,8,0:0:0:0:
256,192,318038,1,8,0:0:0:0:
256,192,318124,1,8,0:0:0:0:
256,192,318209,1,0,0:0:0:0:
256,192,318295,1,0,0:0:0:0:
256,192,318381,1,8,0:0:0:0:
256,192,318467,1,0,0:0:0:0:
256,192,318552,1,8,0:0:0:0:
256,192,318638,1,8,0:0:0:0:
256,192,318724,1,0,0:0:0:0:
256,192,318809,1,0,0:0:0:0:
256,192,318895,1,8,0:0:0:0:
256,192,318981,1,0,0:0:0:0:
256,192,319067,1,0,0:0:0:0:
256,192,319152,1,0,0:0:0:0:
256,192,319238,1,8,0:0:0:0:
256,192,319324,1,8,0:0:0:0:
256,192,319409,1,8,0:0:0:0:
256,192,319495,1,8,0:0:0:0:
256,192,319581,1,0,0:0:0:0:
256,192,319667,1,0,0:0:0:0:
256,192,319752,1,8,0:0:0:0:
256,192,319838,1,0,0:0:0:0:
256,192,319924,1,8,0:0:0:0:
256,192,320009,1,0,0:0:0:0:
256,192,320095,1,8,0:0:0:0:
256,192,320181,1,8,0:0:0:0:
256,192,320267,1,0,0:0:0:0:
256,192,320352,1,0,0:0:0:0:
256,192,320438,1,8,0:0:0:0:
256,192,320524,1,0,0:0:0:0:
256,192,320609,1,8,0:0:0:0:
256,192,320695,1,8,0:0:0:0:
256,192,320781,1,0,0:0:0:0:
256,192,320867,1,0,0:0:0:0:
256,192,320952,1,8,0:0:0:0:
256,192,321038,1,8,0:0:0:0:
256,192,321124,1,8,0:0:0:0:
256,192,321209,1,0,0:0:0:0:
256,192,321295,1,8,0:0:0:0:
256,192,321381,1,8,0:0:0:0:
256,192,321467,1,0,0:0:0:0:
256,192,321552,1,8,0:0:0:0:
256,192,321638,1,0,0:0:0:0:
256,192,321724,1,0,0:0:0:0:
256,192,321809,1,8,0:0:0:0:
256,192,321895,1,0,0:0:0:0:
256,192,321981,1,8,0:0:0:0:
256,192,322067,1,8,0:0:0:0:
256,192,322152,1,8,0:0:0:0:
256,192,322238,1,8,0:0:0:0:
256,192,322324,1,0,0:0:0:0:
256,192,322409,1,0,0:0:0:0:
256,192,322495,1,8,0:0:0:0:
256,192,322581,1,0,0:0:0:0:
256,192,322667,1,0,0:0:0:0:
256,192,322752,1,0,0:0:0:0:
256,192,322838,1,8,0:0:0:0:
256,192,322924,1,0,0:0:0:0:
256,192,323009,1,8,0:0:0:0:
256,192,323095,1,8,0:0:0:0:
256,192,323181,1,0,0:0:0:0:
256,192,323267,1,0,0:0:0:0:
256,192,323352,1,8,0:0:0:0:
256,192,323438,1,8,0:0:0:0:
256,192,323524,1,0,0:0:0:0:
256,192,323609,1,0,0:0:0:0:
256,192,323695,1,8,0:0:0:0:
256,192,323781,1,0,0:0:0:0:
256,192,323867,1,0,0:0:0:0:
256,192,323952,1,0,0:0:0:0:
256,192,324038,1,8,0:0:0:0:
256,192,324124,1,8,0:0:0:0:
256,192,324209,1,0,0:0:0:0:
256,192,324295,1,8,0:0:0:0:
256,192,324381,1,0,0:0:0:0:
256,192,324467,1,0,0:0:0:0:
256,192,324552,1,8,0:0:0:0:
256,192,324638,1,0,0:0:0:0:
256,192,324724,1,8,0:0:0:0:
256,192,324809,1,8,0:0:0:0:
256,192,324895,1,8,0:0:0:0:
256,192,324981,1,8,0:0:0:0:
256,192,325067,1,0,0:0:0:0:
256,192,325152,1,0,0:0:0:0:
256,192,325238,1,8,0:0:0:0:
256,192,325324,1,8,0:0:0:0:
256,192,325409,1,8,0:0:0:0:
256,192,325495,1,0,0:0:0:0:
256,192,325581,1,8,0:0:0:0:
256,192,325667,1,0,0:0:0:0:
256,192,325752,1,8,0:0:0:0:
256,192,325838,1,8,0:0:0:0:
256,192,325924,1,0,0:0:0:0:
256,192,326009,1,0,0:0:0:0:
256,192,326095,1,8,0:0:0:0:
256,192,326181,1,8,0:0:0:0:
256,192,326267,1,8,0:0:0:0:
256,192,326352,1,0,0:0:0:0:
256,192,326438,1,8,0:0:0:0:
256,192,326524,1,0,0:0:0:0:
256,192,326609,1,0,0:0:0:0:
256,192,326695,1,0,0:0:0:0:
256,192,326781,1,8,0:0:0:0:
256,192,326867,1,8,0:0:0:0:
256,192,326952,1,0,0:0:0:0:
256,192,327038,1,8,0:0:0:0:
256,192,327124,1,0,0:0:0:0:
256,192,327209,1,0,0:0:0:0:
256,192,327295,1,8,0:0:0:0:
256,192,327381,1,0,0:0:0:0:
256,192,327467,1,8,0:0:0:0:
256,192,327552,1,8,0:0:0:0:
256,192,327638,1,8,0:0:0:0:
256,192,327724,1,8,0:0:0:0:
256,192,327809,1,0,0:0:0:0:
256,192,327895,1,0,0:0:0:0:
256,192,327981,1,8,0:0:0:0:
256,192,328067,1,0,0:0:0:0:
256,192,328152,1,8,0:0:0:0:
256,192,328238,1,8,0:0:0:0:
256,192,328324,1,0,0:0:0:0:
256,192,328409,1,0,0:0:0:0:
256,192,328495,1,8,0:0:0:0:
256,192,328581,1,0,0:0:0:0:
256,192,328667,1,0,0:0:0:0:
256,192,328752,1,0,0:0:0:0:
256,192,328838,1,8,0:0:0:0:
256,192,328924,1,8,0:0:0:0:
256,192,329009,1,8,0:0:0:0:
256,192,329095,1,8,0:0:0:0:
256,192,329181,1,0,0:0:0:0:
256,192,329267,1,0,0:0:0:0:
256,192,329352,1,8,0:0:0:0:
256,192,329438,1,0,0:0:0:0:
256,192,329524,1,8,0:0:0:0:
256,192,329609,1,8,0:0:0:0:
256,192,329695,1,0,0:0:0:0:
256,192,329781,1,8,0:0:0:0:
256,192,329867,1,0,0:0:0:0:
256,192,329952,1,0,0:0:0:0:
256,192,330038,1,8,0:0:0:0:
256,192,330124,1,0,0:0:0:0:
256,192,330209,1,8,0:0:0:0:
256,192,330295,1,8,0:0:0:0:
256,192,330381,1,8,0:0:0:0:
256,192,330467,1,8,0:0:0:0:
256,192,330552,1,0,0:0:0:0:
256,192,330638,1,0,0:0:0:0:
256,192,330724,1,8,0:0:0:0:
256,192,330809,1,8,0:0:0:0:
256,192,330895,1,0,0:0:0:0:
256,192,330981,1,0,0:0:0:0:
256,192,331067,1,8,0:0:0:0:
256,192,331152,1,0,0:0:0:0:
256,192,331238,1,8,0:0:0:0:
256,192,331324,1,8,0:0:0:0:
256,192,331409,1,8,0:0:0:0:
256,192,331495,1,0,0:0:0:0:
256,192,331581,1,8,0:0:0:0:
256,192,331667,1,8,0:0:0:0:
256,192,331752,1,0,0:0:0:0:
256,192,331838,1,0,0:0:0:0:
256,192,331924,1,8,0:0:0:0:
256,192,332009,1,0,0:0:0:0:
256,192,332095,1,0,0:0:0:0:
256,192,332181,1,0,0:0:0:0:
256,192,332267,1,8,0:0:0:0:
256,192,332352,1,8,0:0:0:0:
256,192,332438,1,0,0:0:0:0:
256,192,332524,1,8,0:0:0:0:
256,192,332609,1,0,0:0:0:0:
256,192,332695,1,0,0:0:0:0:
256,192,332781,1,8,0:0:0:0:
256,192,332867,1,0,0:0:0:0:
256,192,332952,1,8,0:0:0:0:
256,192,333038,1,8,0:0:0:0:
256,192,333124,1,8,0:0:0:0:
256,192,333209,1,8,0:0:0:0:
256,192,333295,1,0,0:0:0:0:
256,192,333381,1,0,0:0:0:0:
256,192,333467,1,8,0:0:0:0:
256,192,333552,1,8,0:0:0:0:
256,192,333638,1,0,0:0:0:0:
256,192,333724,1,0,0:0:0:0:
256,192,333809,1,8,0:0:0:0:
256,192,333895,1,0,0:0:0:0:
256,192,333981,1,8,0:0:0:0:
256,192,334067,1,8,0:0:0:0:
256,192,334152,1,8,0:0:0:0:
256,192,334238,1,0,0:0:0:0:
256,192,334324,1,8,0:0:0:0:
256,192,334409,1,8,0:0:0:0:
256,192,334495,1,0,0:0:0:0:
256,192,334581,1,0,0:0:0:0:
256,192,334667,1,8,0:0:0:0:
256,192,334752,1,8,0:0:0:0:
256,192,334838,1,8,0:0:0:0:
256,192,334924,1,0,0:0:0:0:
256,192,335009,1,8,0:0:0:0:
256,192,335095,1,8,0:0:0:0:
256,192,335181,1,0,0:0:0:0:
256,192,335267,1,0,0:0:0:0:
256,192,335352,1,8,0:0:0:0:
256,192,335438,1,0,0:0:0:0:
256,192,335524,1,0,0:0:0:0:
256,192,335609,1,0,0:0:0:0:
256,192,335695,1,12,0:0:0:0:
256,192,336381,1,4,0:0:0:0:
256,192,336638,1,4,0:0:0:0:
256,192,336895,1,4,0:0:0:0:
256,192,337067,1,12,0:0:0:0:
256,192,337752,1,4,0:0:0:0:
256,192,338009,1,4,0:0:0:0:
256,192,338267,1,4,0:0:0:0:
256,192,338438,1,12,0:0:0:0:
256,192,339124,1,0,0:0:0:0:
256,192,339209,1,0,0:0:0:0:
256,192,339295,1,8,0:0:0:0:
256,192,339381,1,8,0:0:0:0:
256,192,339467,1,0,0:0:0:0:
256,192,339552,1,0,0:0:0:0:
256,192,339638,1,8,0:0:0:0:
256,192,339724,1,0,0:0:0:0:
256,192,339809,1,12,0:0:0:0:
