osu file format v14

[General]
AudioFilename: audio.mp3
AudioLeadIn: 0
PreviewTime: 197402
Countdown: 0
SampleSet: Soft
StackLeniency: 0.5
Mode: 0
LetterboxInBreaks: 0
WidescreenStoryboard: 1

[Editor]
Bookmarks: 20427,52827,72552,72852,73377,73452,73677,73752,96027
DistanceSpacing: 0.8
BeatDivisor: 4
GridSize: 8
TimelineZoom: 2.1

[Metadata]
Title:FLY
TitleUnicode:FLY
Artist:DracoVirgo
ArtistUnicode:DracoVirgo
Creator:Flame Haze
Version:Ducky=Eresh's Extra
Source:
Tags:-eresh ducky- duckymomo alwayschoke mocaotic opportunity 1st first album 05 MAAKIII Nakamura Maki 中村麻紀 mACKAz Minei Masakatsu 嶺井政克 SASSY Nishihira Satoshi 西平聡 japanese alternative rock pop electronic j-rock j-pop jrock jpop female vocal
BeatmapID:4039222
BeatmapSetID:1838488

[Difficulty]
HPDrainRate:5.4
CircleSize:4
OverallDifficulty:8.6
ApproachRate:9.3
SliderMultiplier:2
SliderTickRate:1

[Events]
//Background and Video events
0,0,"87231296.jpg",0,0
//Break Periods
2,103427,111027
//Storyboard Layer 0 (Background)
//Storyboard Layer 1 (Fail)
//Storyboard Layer 2 (Pass)
//Storyboard Layer 3 (Foreground)
//Storyboard Layer 4 (Overlay)
//Storyboard Sound Samples

[TimingPoints]
1077,300,4,2,1,35,1,0
1077,-133.333333333333,4,2,1,35,0,0
1152,-133.333333333333,4,2,1,40,0,0
1227,300,4,2,6,45,1,0
1227,-133.333333333333,4,2,6,45,0,0
1302,-133.333333333333,4,2,6,45,0,0
2427,-166.666666666667,4,2,1,45,0,0
3327,-166.666666666667,4,2,6,45,0,0
3627,-133.333333333333,4,2,6,45,0,0
4527,-142.857142857143,4,2,6,45,0,0
5127,-133.333333333333,4,2,1,45,0,0
5427,-161.290322580645,4,2,1,45,0,0
6027,-133.333333333333,4,2,6,45,0,0
7077,-142.857142857143,4,2,1,45,0,0
7677,-161.290322580645,4,2,1,45,0,0
7939,-161.290322580645,4,2,1,45,0,0
8127,-161.290322580645,4,2,6,38,0,0
8427,-133.333333333333,4,2,6,45,0,0
9477,-142.857142857143,4,2,1,45,0,0
9927,-161.290322580645,4,2,1,45,0,0
10227,-172.413793103448,4,2,1,45,0,0
10752,-172.413793103448,4,2,1,5,0,0
10827,-105.263157894737,4,2,1,54,0,0
12027,-108.695652173913,4,2,1,54,0,0
13227,-98.0392156862745,4,2,1,54,0,0
14127,-108.695652173913,4,2,1,54,0,0
15852,-108.695652173913,4,2,1,5,0,0
15927,-108.695652173913,4,2,1,54,0,0
16752,-108.695652173913,4,2,1,5,0,0
16827,-108.695652173913,4,2,1,54,0,0
17427,-98.0392156862745,4,2,1,54,0,0
17727,-108.695652173913,4,2,1,54,0,0
17952,-108.695652173913,4,2,1,5,0,0
18027,-93.4579439252336,4,2,1,54,0,0
18477,-108.695652173913,4,2,1,54,0,0
20277,-108.695652173913,4,2,1,54,0,0
20427,-200,4,2,1,38,0,0
22827,-74.0740740740741,4,2,1,62,0,0
23352,-74.0740740740741,4,2,1,5,0,0
23427,-111.111111111111,4,2,1,62,0,0
24027,-90.9090909090909,4,2,1,70,0,0
24252,-90.9090909090909,4,2,1,5,0,0
24327,-90.9090909090909,4,2,1,70,0,0
26352,-90.9090909090909,4,2,1,5,0,0
26427,-90.9090909090909,4,2,1,70,0,0
27627,-95.2380952380952,4,2,1,70,0,0
28227,-80,4,2,1,70,0,0
28827,-90.0900900900901,4,2,1,70,0,0
29052,-90.0900900900901,4,2,1,5,0,0
29127,-250,4,2,3,70,0,0
31152,-250,4,2,3,5,0,0
31227,-142.857142857143,4,2,3,70,0,0
32427,-92.5925925925926,4,2,1,70,0,0
33027,-92.5925925925926,4,2,1,70,0,0
33627,-100,4,2,1,64,0,0
33852,-100,4,2,1,5,0,0
33927,-100,4,2,1,64,0,0
34227,-111.111111111111,4,2,1,64,0,0
36252,-111.111111111111,4,2,1,5,0,0
36327,-111.111111111111,4,2,1,64,0,0
41052,-111.111111111111,4,2,1,5,0,0
41127,-111.111111111111,4,2,1,64,0,0
42477,-111.111111111111,4,2,3,64,0,0
43377,-111.111111111111,4,2,1,64,0,0
46827,-250,4,2,1,64,0,0
47052,-250,4,2,1,5,0,0
47127,-111.111111111111,4,2,1,64,0,0
48027,-111.111111111111,4,2,1,64,0,0
52827,-100,4,2,1,68,0,0
55152,-100,4,2,1,5,0,0
55227,-92.5925925925926,4,2,1,68,0,0
55452,-92.5925925925926,4,2,1,5,0,0
55527,-100,4,2,1,68,0,0
56052,-100,4,2,1,5,0,0
56127,-100,4,2,1,68,0,0
57627,-100,4,2,4,68,0,0
59727,-103.092783505155,4,2,4,68,0,0
59877,-103.092783505155,4,2,2,68,0,0
60027,-100,4,2,1,68,0,0
60252,-100,4,2,1,5,0,0
60327,-100,4,2,1,68,0,0
62427,-90.0900900900901,4,2,1,68,0,0
62652,-90.0900900900901,4,2,1,5,0,0
62727,-100,4,2,1,68,0,0
64827,-103.092783505155,4,2,4,68,0,0
66327,-100,4,2,1,68,0,0
67227,-86.9565217391304,4,2,1,72,0,0
67452,-86.9565217391304,4,2,1,5,0,0
67527,-95.2380952380952,4,2,1,72,0,0
68427,-86.9565217391304,4,2,1,72,0,0
68652,-86.9565217391304,4,2,1,5,0,0
68727,-95.2380952380952,4,2,1,72,0,0
69627,-86.9565217391304,4,2,1,72,0,0
69852,-86.9565217391304,4,2,1,5,0,0
69927,-95.2380952380952,4,2,1,72,0,0
72027,-92.5925925925926,4,2,5,65,0,0
73152,-92.5925925925926,4,2,5,5,0,0
73227,-92.5925925925926,4,2,5,65,0,0
74127,-72.463768115942,4,2,5,65,0,0
74352,-72.463768115942,4,2,5,5,0,0
74427,-74.0740740740741,4,2,1,85,0,1
74652,-74.0740740740741,4,2,1,5,0,1
74727,-89.2857142857143,4,2,1,85,0,1
75852,-81.9672131147541,4,2,1,5,0,1
75927,-89.2857142857143,4,2,1,85,0,1
77427,-89.2857142857143,4,2,1,85,0,1
77652,-89.2857142857143,4,2,1,5,0,1
77727,-89.2857142857143,4,2,1,85,0,1
79452,-89.2857142857143,4,2,1,5,0,1
79527,-89.2857142857143,4,2,1,85,0,1
79827,-89.2857142857143,4,2,1,85,0,1
80427,-89.2857142857143,4,2,1,85,0,1
80652,-89.2857142857143,4,2,1,5,0,1
80727,-89.2857142857143,4,2,1,85,0,1
81102,-89.2857142857143,4,2,1,5,0,1
81177,-89.2857142857143,4,2,1,85,0,1
83727,-64.5161290322581,4,2,1,85,0,0
83952,-74.0740740740741,4,2,1,5,0,0
84027,-75.187969924812,4,2,1,85,0,1
84252,-75.187969924812,4,2,1,5,0,1
84327,-81.9672131147541,4,2,2,85,0,1
93627,-90.0900900900901,4,2,1,85,0,0
93852,-90.0900900900901,4,2,1,5,0,0
93927,-90.0900900900901,4,2,1,85,0,0
95952,-90.0900900900901,4,2,1,5,0,0
96027,-90.0900900900901,4,2,1,85,0,0
97227,-95.2380952380952,4,2,1,70,0,0
97827,-86.9565217391304,4,2,1,70,0,0
98427,-90.0900900900901,4,2,1,70,0,0
98652,-90.0900900900901,4,2,1,5,0,0
98727,-250,4,2,3,70,0,0
100752,-250,4,2,3,5,0,0
100827,-142.857142857143,4,2,3,70,0,0
102027,-92.5925925925926,4,2,1,70,0,0
102552,-92.5925925925926,4,2,1,70,0,0
102627,-92.5925925925926,4,2,1,70,0,0
103227,-85.4700854700855,4,2,1,55,0,0
111627,-68.9655172413793,4,2,1,55,0,0
112227,-100,4,2,1,62,0,0
112827,-105.263157894737,4,2,1,64,0,0
113052,-105.263157894737,4,2,1,5,0,0
113127,-105.263157894737,4,2,1,64,0,0
114027,-98.0392156862745,4,2,1,64,0,0
114327,-98.0392156862745,4,2,1,64,0,0
115227,-105.263157894737,4,2,1,64,0,0
116427,-98.0392156862745,4,2,1,64,0,0
117627,-105.263157894737,4,2,1,64,0,0
120627,-100,4,2,1,70,0,0
120852,-100,4,2,1,5,0,0
120927,-100,4,2,1,70,0,0
121827,-100,4,2,1,70,0,0
122427,-100,4,2,1,70,0,0
125877,-83.3333333333333,4,2,1,70,0,0
126927,-142.857142857143,4,2,1,70,0,0
127152,-142.857142857143,4,2,1,5,0,0
127227,-83.3333333333333,4,2,1,70,0,0
127527,-100,4,2,1,70,0,0
128652,-100,4,2,1,5,0,0
128727,-100,4,2,1,70,0,0
131352,-100,4,2,1,5,0,0
131427,-100,4,2,1,70,0,0
131952,-100,4,2,1,5,0,0
132027,-62.5,4,2,1,70,0,0
132327,-62.5,4,2,1,70,0,0
132627,-100,4,2,1,70,0,0
133077,-86.9565217391304,4,2,1,70,0,0
133452,-86.9565217391304,4,2,1,5,0,0
133527,-86.9565217391304,4,2,1,70,0,0
134127,-133.333333333333,4,2,1,70,0,0
134352,-133.333333333333,4,2,1,5,0,0
134427,-62.5,4,2,1,70,0,0
134727,-62.5,4,2,1,70,0,0
135027,-100,4,2,1,70,0,0
136827,-117.647058823529,4,2,1,70,0,0
140052,-117.647058823529,4,2,1,5,0,0
140127,-117.647058823529,4,2,1,70,0,0
140577,-111.111111111111,4,2,1,70,0,0
141327,-200,4,2,1,70,0,0
141627,-90.0900900900901,4,2,1,5,0,0
141702,-90.0900900900901,4,2,1,70,0,0
143427,-90.0900900900901,4,2,1,5,0,0
144027,-111.111111111111,4,2,5,66,0,0
145827,-111.111111111111,4,2,5,66,0,0
145977,-200,4,2,5,66,0,0
146352,-200,4,2,5,5,0,0
146427,-90.0900900900901,4,2,5,66,0,0
146727,-111.111111111111,4,2,5,66,0,0
147627,-71.4285714285714,4,2,5,66,0,0
147852,-71.4285714285714,4,2,5,66,0,0
147927,-90.9090909090908,4,2,5,66,0,0
148227,-111.111111111111,4,2,5,66,0,0
148752,-111.111111111111,4,2,5,5,0,0
148827,-90.0900900900901,4,2,5,66,0,0
149127,-111.111111111111,4,2,5,66,0,0
150177,-71.4285714285714,4,2,5,66,0,0
150627,-111.111111111111,4,2,5,66,0,0
151152,-111.111111111111,4,2,5,5,0,0
151227,-90.0900900900901,4,2,5,66,0,0
151527,-111.111111111111,4,2,5,66,0,0
152427,-90.0900900900901,4,2,5,66,0,0
152652,-90.0900900900901,4,2,5,5,0,0
152727,-90.0900900900901,4,2,5,66,0,0
152952,-90.0900900900901,4,2,5,5,0,0
153027,-90.0900900900901,4,2,5,66,0,0
153552,-90.0900900900901,4,2,5,5,0,0
153627,-100,4,2,5,66,0,0
154752,-100,4,2,5,5,0,0
154827,-100,4,2,5,66,0,0
156852,-100,4,2,5,5,0,0
156927,-100,4,2,5,66,0,0
159252,-100,4,2,5,5,0,0
159327,-100,4,2,5,66,0,0
161202,-100,4,2,5,5,0,0
161277,-100,4,2,5,66,0,0
161952,-100,4,2,5,5,0,0
162027,-100,4,2,5,66,0,0
162852,-100,4,2,5,5,0,0
162927,-125,4,2,5,66,0,0
163152,-125,4,2,5,5,0,0
163227,-100,4,2,5,66,0,0
164052,-100,4,2,5,5,0,0
164127,-100,4,2,5,66,0,0
164652,-100,4,2,5,5,0,0
164727,-100,4,2,5,66,0,0
166452,-100,4,2,5,5,0,0
166527,-100,4,2,5,66,0,0
169152,-100,4,2,5,5,0,0
169227,-100,4,2,5,66,0,0
169452,-100,4,2,5,5,0,0
169527,-100,4,2,5,66,0,0
170802,-100,4,2,5,5,0,0
170877,-100,4,2,5,66,0,0
172227,-100,4,2,1,66,0,0
173427,300,4,2,5,66,1,0
173427,-185.185185185185,4,2,5,66,0,0
173502,-185.185185185185,4,2,1,5,0,0
177027,-185.185185185185,4,2,7,100,0,0
178227,-133.333333333333,4,2,6,45,0,0
178302,-133.333333333333,4,2,6,45,0,0
179352,-133.333333333333,4,2,6,5,0,0
179427,-166.666666666667,4,2,1,45,0,0
180327,-166.666666666667,4,2,6,45,0,0
180477,-166.666666666667,4,2,1,45,0,0
180627,-133.333333333333,4,2,6,45,0,0
181527,-200,4,2,6,45,0,0
182127,-133.333333333333,4,2,1,45,0,0
182427,-161.290322580645,4,2,1,45,0,0
183027,-133.333333333333,4,2,6,45,0,0
184077,-133.333333333333,4,2,1,45,0,0
185127,-133.333333333333,4,2,6,38,0,0
185427,-133.333333333333,4,2,6,45,0,0
186477,-200,4,2,1,45,0,0
186927,-133.333333333333,4,2,1,45,0,0
187827,-133.333333333333,4,2,6,45,0,0
187902,-133.333333333333,4,2,6,45,0,0
189027,-166.666666666667,4,2,1,45,0,0
189627,-125,4,2,1,45,0,0
190227,-133.333333333333,4,2,6,45,0,0
191127,-133.333333333333,4,2,6,45,0,0
191727,-133.333333333333,4,2,1,45,0,0
192027,-161.290322580645,4,2,1,45,0,0
192627,-133.333333333333,4,2,6,45,0,0
193677,-142.857142857143,4,2,1,45,0,0
194727,-161.290322580645,4,2,6,38,0,0
195027,-129.87012987013,4,2,6,45,0,0
196077,-153.846153846153,4,2,1,45,0,0
196452,-153.846153846153,4,2,1,45,0,0
197352,-166.666666666667,4,2,1,5,0,0
197427,-90.0900900900901,4,2,1,68,0,0
197727,-100,4,2,1,68,0,0
199827,-90.0900900900901,4,2,1,68,0,0
200127,-100,4,2,1,68,0,0
202227,-90.0900900900901,4,2,1,68,0,0
202677,-100,4,2,1,68,0,0
205827,-100,4,2,1,68,0,0
207027,-90.0900900900901,4,2,1,72,0,0
207252,-90.0900900900901,4,2,1,72,0,0
207327,-100,4,2,1,72,0,0
207552,-100,4,2,1,5,0,0
207627,-100,4,2,1,72,0,0
208452,-100,4,2,1,5,0,0
208527,-100,4,2,1,72,0,0
209652,-100,4,2,1,5,0,0
209727,-100,4,2,1,72,0,0
210327,-92.5925925925926,4,2,1,72,0,0
210552,-92.5925925925926,4,2,1,5,0,0
210627,-100,4,2,1,72,0,0
211827,-90.0900900900901,4,2,1,72,0,0
212052,-90.0900900900901,4,2,1,5,0,0
212127,-100,4,2,1,72,0,0
214227,-93.4579439252336,4,2,1,72,0,0
214527,-100,4,2,1,72,0,0
215427,-86.9565217391304,4,2,1,72,0,0
215652,-86.9565217391304,4,2,1,5,0,0
215727,-100,4,2,1,72,0,0
215877,-86.9565217391304,4,2,1,72,0,0
216102,-86.9565217391304,4,2,1,5,0,0
216177,-100,4,2,1,72,0,0
216327,-86.9565217391304,4,2,1,72,0,0
216552,-86.9565217391304,4,2,1,5,0,0
216627,-100,4,2,1,72,0,0
216777,-86.9565217391304,4,2,1,72,0,0
217002,-86.9565217391304,4,2,1,5,0,0
217077,-100,4,2,1,72,0,0
219027,-74.0740740740741,4,2,1,85,0,1
219252,-74.0740740740741,4,2,1,5,0,1
219327,-89.2857142857143,4,2,1,85,0,1
220452,-81.9672131147541,4,2,1,5,0,1
220527,-89.2857142857143,4,2,1,85,0,1
221652,-89.2857142857143,4,2,1,5,0,1
221727,-89.2857142857143,4,2,1,85,0,1
224052,-89.2857142857143,4,2,1,5,0,1
224127,-89.2857142857143,4,2,1,85,0,1
225027,-89.2857142857143,4,2,1,85,0,1
225252,-89.2857142857143,4,2,1,5,0,1
225327,-89.2857142857143,4,2,1,85,0,1
225702,-89.2857142857143,4,2,1,5,0,1
225777,-89.2857142857143,4,2,1,85,0,1
228327,-156.25,4,2,1,85,0,1
228627,-75.187969924812,4,2,1,85,0,1
228852,-75.187969924812,4,2,1,5,0,1
228927,-88.4955752212389,4,2,1,85,0,1
230052,-88.4955752212389,4,2,1,5,0,1
230127,-88.4955752212389,4,2,1,85,0,1
232452,-88.4955752212389,4,2,1,5,0,1
232527,-88.4955752212389,4,2,1,85,0,1
232902,-88.4955752212389,4,2,1,5,0,1
232977,-88.4955752212389,4,2,1,85,0,1
233652,-88.4955752212389,4,2,1,5,0,1
233727,-88.4955752212389,4,2,1,85,0,1
236127,-81.9672131147541,4,2,2,85,0,1
236727,-81.9672131147541,4,2,1,85,0,1
237627,-74.0740740740741,4,2,1,86,0,1
237927,-81.9672131147541,4,2,1,87,0,1
238227,-71.4285714285714,4,2,1,88,0,1
238452,-71.4285714285714,4,2,1,5,0,1
238527,-81.3008130081301,4,2,1,88,0,1
238752,-81.3008130081301,4,2,1,88,0,1
238827,-81.3008130081301,4,2,1,88,0,1
239352,-81.3008130081301,4,2,1,5,0,1
239427,-81.3008130081301,4,2,1,88,0,1
239727,-81.3008130081301,4,2,1,88,0,1
240102,-81.3008130081301,4,2,1,5,0,1
240177,-81.3008130081301,4,2,1,88,0,1
240927,-81.3008130081301,4,2,1,88,0,1
241227,-81.3008130081301,4,2,1,88,0,1
243252,-81.3008130081301,4,2,1,5,0,1
243327,-81.3008130081301,4,2,1,88,0,1
243627,-81.3008130081301,4,2,1,88,0,1
244227,-81.3008130081301,4,2,1,88,0,1
244452,-81.3008130081301,4,2,1,5,0,1
244527,-81.3008130081301,4,2,1,88,0,1
244902,-81.3008130081301,4,2,1,5,0,1
244977,-81.3008130081301,4,2,1,88,0,1
246627,-79.3650793650794,4,2,1,88,0,1
247527,-75.187969924812,4,2,1,88,0,1
247752,-75.187969924812,4,2,1,5,0,1
247827,-70.4225352112676,4,2,1,88,0,1
248127,-80.6451612903226,4,2,2,88,0,1
256827,-80.6451612903226,4,2,1,88,0,1
257427,-1000,4,2,1,85,0,0
257445,-666.666666666658,4,2,1,5,0,0
258627,-666.666666666658,4,2,7,5,0,0
258795,-666.666666666658,4,2,1,5,0,0
259227,-95.2380952380952,4,2,1,70,0,0
259827,-90.0900900900901,4,2,1,70,0,0
260052,-90.0900900900901,4,2,1,5,0,0
260127,-90.0900900900901,4,2,1,70,0,0
262152,-90.0900900900901,4,2,1,5,0,0
262227,-90.0900900900901,4,2,1,70,0,0
264027,-86.9565217391304,4,2,1,70,0,0
264627,-90.0900900900901,4,2,1,70,0,0
264852,-90.0900900900901,4,2,1,5,0,0
264927,-92.5925925925926,4,2,3,70,0,0
266727,-200,4,2,3,70,0,0
266952,-200,4,2,3,5,0,0
267027,-92.5925925925926,4,2,3,70,0,0
268227,-92.5925925925926,4,2,1,70,0,0
269427,-92.5925925925926,4,2,5,70,0,0
270327,-72.463768115942,4,2,5,70,0,0
270552,-72.463768115942,4,2,5,5,0,0
270627,-92.5925925925926,4,2,5,70,0,0
271227,-90.0900900900901,4,2,1,75,0,0
271377,-81.9672131147541,4,2,1,80,0,0
271527,-75.187969924812,4,2,1,85,0,0
271677,-69.4444444444444,4,2,1,90,0,0
271827,-133.333333333333,4,2,1,75,0,0

[Colours]
Combo1 : 122,103,177
Combo2 : 191,104,106
Combo3 : 164,172,208
Combo4 : 176,34,55

[HitObjects]
49,175,1077,5,2,0:3:0:0:
49,175,1152,1,2,0:3:0:0:
49,175,1227,2,0,P|140:140|203:119,1,150.000005722046,6|10,1:1|1:2,0:0:0:0:
137,10,1677,2,0,P|228:45|291:66,1,150.000005722046,10|10,1:2|1:2,0:0:0:0:
350,239,2127,2,0,P|339:195|331:153,1,75.0000028610231,10|0,1:2|0:0,0:0:0:0:
352,76,2427,5,2,0:0:0:0:
252,145,2727,1,2,0:0:0:0:
200,270,3027,1,2,0:0:0:0:
301,382,3327,2,0,P|294:332|288:296,1,59.9999981689454,8|2,1:2|0:3,0:0:0:0:
448,314,3627,6,0,P|376:286|349:198,1,150.000005722046,10|10,1:2|1:2,0:0:0:0:
335,118,4077,2,0,P|407:146|434:234,1,150.000005722046,10|10,1:2|1:2,0:0:0:0:
511,246,4527,2,0,P|424:247|300:386,1,279.999991455078,10|2,1:2|0:3,0:0:0:0:
300,381,5727,1,2,0:3:0:0:
109,298,5877,1,2,0:3:0:0:
202,384,6027,6,0,P|200:305|242:232,1,150.000005722046,10|10,1:2|1:2,0:0:0:0:
27,163,6477,2,0,P|29:242|-13:315,1,150.000005722046,10|10,1:2|1:2,0:0:0:0:
87,384,6927,1,10,1:2:0:0:
172,5,7527,1,2,0:0:0:0:
172,6,8127,2,0,L|184:76,1,61.9999975402833,8|0,1:2|0:0,0:0:0:0:
2,76,8427,6,0,P|50:76|109:157,1,150.000005722046,10|10,1:2|1:2,0:0:0:0:
377,33,8877,2,0,P|329:33|270:114,1,150.000005722046,10|10,1:2|1:2,0:0:0:0:
186,242,9327,2,0,L|198:167,1,75.0000028610231,10|2,1:2|0:0,0:0:0:0:
192,163,10227,2,0,L|158:372,1,203.000006195069,2|0,0:0|0:1,0:0:0:0:
159,363,10827,6,0,P|225:351|249:335,1,94.9999974632264,4|0,1:2|0:0,0:0:0:0:
265,225,11127,2,0,P|306:247|353:251,1,94.9999974632264,0|2,1:2|0:3,0:0:0:0:
463,335,11427,1,0,1:2:0:0:
385,177,11577,1,2,0:3:0:0:
483,108,11727,2,0,P|469:163|457:222,1,94.9999974632264,0|0,1:2|0:0,0:0:0:0:
330,373,12027,5,2,1:2:0:0:
508,265,12177,1,12,0:0:0:0:
309,136,12327,2,0,P|295:81|283:22,1,91.9999969116212,0|0,1:2|0:0,0:0:0:0:
374,0,12627,2,0,P|384:46|395:92,1,91.9999969116212,14|0,0:2|0:0,0:0:0:0:
214,280,12927,2,0,P|224:233|235:187,1,91.9999969116212,14|0,0:2|0:0,0:0:0:0:
255,382,13227,6,0,P|141:348|119:259,1,204.000001245117,6|0,1:2|1:2,0:0:0:0:
257,2,13677,2,0,P|371:36|393:125,1,204.000001245117,2|2,0:0|0:3,0:0:0:0:
395,108,14127,1,0,1:2:0:0:
395,108,14427,5,0,1:2:0:0:
293,96,14577,1,2,0:3:0:0:
295,101,14652,1,2,0:3:0:0:
297,106,14727,1,2,0:3:0:0:
216,168,14877,1,2,0:3:0:0:
299,284,15027,2,0,P|324:241|315:192,1,91.9999969116212,2|2,1:3|0:3,0:0:0:0:
220,173,15327,2,0,P|195:216|204:265,1,91.9999969116212,2|2,1:3|0:3,0:0:0:0:
468,173,15627,6,0,P|349:203|308:218,1,137.999995367432,6|0,1:2|0:0,0:0:0:0:
320,201,15927,2,0,P|295:244|304:293,1,91.9999969116212,0|2,1:2|0:3,0:0:0:0:
255,382,16227,2,0,P|230:338|183:322,1,91.9999969116212,0|2,1:0|0:3,0:0:0:0:
0,255,16527,6,0,P|118:224|160:210,1,137.999995367432,2|0,1:3|0:0,0:0:0:0:
140,216,16827,1,0,0:0:0:0:
36,175,16977,1,12,0:0:0:0:
206,151,17127,2,0,P|227:235|237:264,1,91.9999969116212,0|0,1:2|0:0,0:0:0:0:
107,383,17427,2,0,P|85:298|75:269,1,102.000000622559,4|0,1:2|0:0,0:0:0:0:
324,18,17727,2,0,P|303:83|288:151,1,137.999995367432,4|0,1:2|0:0,0:0:0:0:
293,163,18027,6,0,P|357:139|416:6,1,213.999993469238,6|2,1:2|1:3,0:0:0:0:
215,44,18477,1,2,0:3:0:0:
338,95,18627,1,0,1:0:0:0:
229,239,18777,1,2,0:3:0:0:
352,290,18927,2,0,P|373:205|383:176,1,91.9999969116212,2|2,1:3|0:0,0:0:0:0:
506,20,19227,5,8,1:2:0:0:
297,164,19452,1,8,1:2:0:0:
507,368,19677,1,8,1:2:0:0:
357,314,19827,5,8,1:3:0:0:
500,111,20052,1,8,1:3:0:0:
193,0,20277,1,2,1:3:0:0:
193,0,21627,5,2,0:0:0:0:
236,64,21777,2,0,P|225:115|220:154,1,50,2|0,0:0|0:0,0:0:0:0:
225,112,22077,1,2,0:0:0:0:
172,352,22227,5,2,0:0:0:0:
215,288,22377,2,0,P|204:237|199:198,1,50,2|0,0:0|0:0,0:0:0:0:
157,164,22677,1,2,0:0:0:0:
316,341,22827,5,10,0:0:0:0:
354,332,22902,1,0,1:2:0:0:
393,325,22977,1,2,1:2:0:0:
432,319,23052,1,0,1:2:0:0:
471,314,23127,2,0,B|486:368|486:368|390:319|390:319|372:238,1,202.500000772476,14|0,0:0|0:0,0:0:0:0:
284,199,23427,5,10,1:2:0:0:
317,204,23502,1,8,1:2:0:0:
350,210,23577,2,0,L|364:159,1,44.999998626709,10|8,0:0|0:0,0:0:0:0:
477,18,23727,5,10,1:2:0:0:
470,68,23802,1,8,0:0:0:0:
463,118,23877,1,10,0:0:0:0:
456,168,23952,1,8,0:0:0:0:
450,218,24027,6,0,P|406:156|331:95,1,165.000005035401,4|0,1:2|0:0,0:0:0:0:
262,84,24327,5,10,0:2:0:0:
394,45,24477,1,2,0:0:0:0:
187,0,24627,1,2,1:2:0:0:
275,203,24777,1,2,1:2:0:0:
73,295,24927,1,8,0:0:0:0:
173,88,25077,1,2,0:0:0:0:
350,317,25227,6,0,P|271:297|229:289,1,110.000003356934,2|0,1:2|1:2,0:0:0:0:
22,195,25527,1,8,0:0:0:0:
184,384,25677,2,0,P|172:330|158:277,1,110.000003356934,2|0,1:2|0:0,0:0:0:0:
59,113,25977,1,0,1:2:0:0:
252,0,26127,2,0,P|230:79|213:160,1,165.000005035401,10|0,0:0|0:0,0:0:0:0:
275,203,26427,6,0,P|328:188|381:177,1,110.000003356934,0|0,1:2|0:0,0:0:0:0:
482,7,26727,1,10,0:0:0:0:
316,92,26877,1,2,0:0:0:0:
495,289,27027,1,2,1:2:0:0:
266,211,27177,1,0,1:2:0:0:
465,99,27327,1,8,0:0:0:0:
317,367,27477,1,2,0:0:0:0:
152,238,27627,6,0,P|117:274|88:358,1,104.999996795654,2|0,1:2|1:2,0:0:0:0:
370,175,27927,2,0,P|418:187|487:243,1,104.999996795654,10|0,0:2|1:2,0:0:0:0:
181,106,28227,5,10,0:0:0:0:
181,106,28302,1,0,1:2:0:0:
181,106,28377,2,0,L|195:195,1,62.5,0|0,1:2|1:2,0:0:0:0:
294,308,28527,5,10,0:0:0:0:
286,261,28602,1,8,0:0:0:0:
279,215,28677,1,8,0:0:0:0:
272,169,28752,1,8,0:0:0:0:
264,122,28827,6,0,P|336:99|447:56,1,166.500004064941,4|0,1:2|0:0,0:0:0:0:
433,76,29127,5,10,0:0:0:0:
364,175,29277,1,2,0:3:0:0:
158,216,29427,5,0,1:2:0:0:
279,226,29577,1,2,0:3:0:0:
417,384,29727,5,8,0:0:0:0:
365,274,29877,1,2,0:3:0:0:
284,135,30027,5,0,1:2:0:0:
235,80,30177,1,2,0:3:0:0:
284,314,30327,5,8,0:0:0:0:
261,384,30477,1,2,0:3:0:0:
439,225,30627,5,0,1:2:0:0:
511,209,30777,1,2,0:3:0:0:
346,232,30927,6,0,P|334:215|349:230,1,60,8|0,0:0|0:0,0:0:0:0:
376,145,31227,1,0,1:2:0:0:
296,308,31377,2,0,P|307:347|317:390,1,69.9999978637696,2|8,0:3|0:0,0:0:0:0:
287,151,31677,2,0,P|247:141|205:128,1,69.9999978637696,2|0,0:3|1:2,0:0:0:0:
427,221,31977,2,0,P|455:191|487:161,1,69.9999978637696,2|8,0:3|0:0,0:0:0:0:
507,75,32277,1,2,0:3:0:0:
420,209,32427,5,12,0:0:0:0:
391,62,32577,1,0,1:2:0:0:
208,151,32727,5,12,0:0:0:0:
237,4,32877,1,0,0:0:0:0:
298,246,33027,6,0,L|279:344,1,54.0000013183594,4|8,1:3|0:3,0:0:0:0:
367,149,33177,1,8,0:0:0:0:
314,163,33252,1,8,0:0:0:0:
262,177,33327,1,8,0:0:0:0:
210,191,33402,1,8,0:0:0:0:
158,205,33477,1,8,0:0:0:0:
106,219,33552,1,8,0:0:0:0:
54,233,33627,6,0,P|75:147|92:58,1,150,4|0,1:2|0:0,0:0:0:0:
95,9,33927,2,0,P|21:33|9:92,1,100,8|0,0:0|0:0,0:0:0:0:
57,247,34227,1,0,1:2:0:0:
156,191,34377,1,2,1:2:0:0:
76,85,34527,1,10,0:0:0:0:
177,180,34677,1,2,0:0:0:0:
267,66,34827,1,2,1:2:0:0:
180,99,34977,6,0,P|171:56|188:16,1,89.9999972534181,2|8,0:0|0:0,0:0:0:0:
354,216,35277,2,0,P|363:189|339:125,1,89.9999972534181,2|0,1:2|0:0,0:0:0:0:
275,289,35577,1,2,1:2:0:0:
412,267,35727,1,8,0:0:0:0:
301,366,35877,1,2,0:0:0:0:
140,256,36027,6,0,P|143:172|123:88,1,134.999995880127,0|0,1:2|0:0,0:0:0:0:
192,185,36327,2,0,L|320:173,1,89.9999972534181,8|0,0:0|0:0,0:0:0:0:
63,302,36627,1,0,1:2:0:0:
118,133,36777,1,2,1:2:0:0:
17,200,36927,1,10,0:0:0:0:
141,264,37077,1,2,0:0:0:0:
280,177,37227,6,0,P|261:89|266:0,1,179.999994506836,2|10,1:2|0:0,0:0:0:0:
125,111,37677,2,0,P|109:153|102:198,1,89.9999972534181,2|0,1:2|0:0,0:0:0:0:
230,341,37977,2,0,P|237:297|253:255,1,89.9999972534181,2|8,1:2|0:0,0:0:0:0:
293,177,38277,1,2,0:0:0:0:
141,331,38427,6,0,P|261:365|343:396,1,179.999994506836,6|8,1:2|0:0,0:0:0:0:
407,275,38877,2,0,P|349:292|284:317,1,89.9999972534181,2|0,0:0|1:2,0:0:0:0:
509,372,39177,1,0,1:2:0:0:
408,356,39327,1,10,0:0:0:0:
512,193,39477,1,2,0:0:0:0:
502,276,39627,6,0,P|468:181|441:85,1,179.999994506836,0|8,1:2|0:0,0:0:0:0:
282,141,40077,2,0,P|329:157|377:171,1,89.9999972534181,0|0,1:2|0:0,0:0:0:0:
338,14,40377,1,0,1:2:0:0:
393,176,40527,1,10,0:0:0:0:
462,57,40677,1,2,0:0:0:0:
293,242,40827,6,0,P|214:215|135:191,1,134.999995880127,2|0,1:2|0:0,0:0:0:0:
134,200,41127,2,0,P|120:151|103:104,1,89.9999972534181,8|0,0:0|0:0,0:0:0:0:
253,131,41427,1,0,1:2:0:0:
190,312,41577,1,0,1:2:0:0:
310,257,41727,2,0,P|342:227|398:182,1,89.9999972534181,10|0,0:0|0:0,0:0:0:0:
378,198,41952,1,8,0:0:0:0:
378,198,42027,5,0,1:2:0:0:
393,294,42177,1,0,1:2:0:0:
303,161,42327,1,8,0:0:0:0:
433,107,42477,1,2,1:3:0:0:
439,104,42777,5,2,1:3:0:0:
309,158,42927,1,10,0:0:0:0:
399,291,43077,1,2,0:3:0:0:
162,387,43227,2,0,P|178:330|198:270,1,89.9999972534181,2|0,1:3|0:0,0:0:0:0:
336,235,43527,5,10,0:0:0:0:
198,279,43677,1,2,0:0:0:0:
153,141,43827,1,2,1:2:0:0:
291,97,43977,1,2,1:2:0:0:
241,15,44127,5,10,0:0:0:0:
379,70,44277,1,2,0:0:0:0:
403,162,44427,5,2,1:2:0:0:
458,24,44577,1,2,0:2:0:0:
449,241,44727,5,10,0:0:0:0:
311,186,44877,1,2,1:2:0:0:
142,347,45027,5,2,0:0:0:0:
335,269,45177,1,2,1:2:0:0:
187,283,45327,5,10,0:0:0:0:
250,331,45477,1,2,0:0:0:0:
258,252,45627,1,2,1:3:0:0:
261,246,45927,5,10,0:0:0:0:
252,337,46077,1,2,0:0:0:0:
180,282,46227,1,2,1:2:0:0:
344,298,46377,5,2,1:2:0:0:
163,379,46527,1,10,0:0:0:0:
185,188,46677,1,2,0:0:0:0:
259,344,46827,6,0,P|266:363|255:345,1,60,2|0,1:2|0:0,0:0:0:0:
267,243,47127,5,10,0:0:0:0:
173,284,47277,1,2,1:2:0:0:
279,147,47427,5,2,0:0:0:0:
362,207,47577,1,2,1:2:0:0:
190,185,47727,5,10,0:0:0:0:
200,83,47877,1,0,0:0:0:0:
59,0,48027,6,0,P|87:102|108:227,1,179.999994506836,6|8,1:2|0:0,0:0:0:0:
18,292,48477,2,0,P|69:273|123:243,1,89.9999972534181,2|0,0:0|1:2,0:0:0:0:
185,192,48777,1,0,1:2:0:0:
105,362,48927,1,10,0:2:0:0:
274,276,49077,1,0,0:0:0:0:
184,287,49227,1,0,1:2:0:0:
336,373,49377,1,0,1:2:0:0:
336,185,49527,2,0,P|317:133|287:80,1,89.9999972534181,8|0,0:0|1:2,0:0:0:0:
442,290,49827,5,8,0:0:0:0:
213,193,49977,1,8,0:0:0:0:
442,1,50127,1,10,0:0:0:0:
356,282,50277,1,8,0:0:0:0:
229,36,50427,6,0,P|312:77|401:108,1,179.999994506836,6|0,1:2|0:0,0:0:0:0:
427,187,50877,1,4,1:2:0:0:
249,312,51027,2,0,P|237:264|286:209,1,89.9999972534181,8|0,0:0|0:0,0:0:0:0:
320,168,51327,6,0,P|236:209|147:240,1,179.999994506836,6|2,1:2|0:0,0:0:0:0:
77,305,51777,1,0,1:2:0:0:
150,346,51927,2,0,P|162:303|146:262,1,89.9999972534181,4|0,1:2|0:0,0:0:0:0:
8,187,52227,1,12,0:0:0:0:
111,33,52377,1,0,1:2:0:0:
14,101,52527,1,12,0:2:0:0:
58,109,52602,1,8,0:0:0:0:
100,123,52677,1,8,0:0:0:0:
141,143,52752,1,8,0:0:0:0:
178,168,52827,6,0,P|195:122|182:75,1,100,4|0,1:2|0:0,0:0:0:0:
0,30,53127,2,0,P|43:25|129:11,1,100,10|0,0:0|0:0,0:0:0:0:
369,156,53427,1,2,1:2:0:0:
274,125,53577,1,0,1:2:0:0:
422,47,53727,1,8,0:0:0:0:
332,261,53877,1,2,0:0:0:0:
454,187,54027,6,0,P|416:272|386:415,1,200,2|10,1:2|0:0,0:0:0:0:
215,320,54477,2,0,P|253:235|283:92,1,200,2|2,1:2|1:2,0:0:0:0:
424,300,54927,2,0,P|333:316|309:396,1,150,8|0,0:0|0:0,0:0:0:0:
390,375,55227,6,0,P|385:285|412:213,1,162.000003955078,0|0,1:2|0:0,0:0:0:0:
452,160,55527,2,0,P|402:167|352:173,1,100,10|0,0:0|0:0,0:0:0:0:
100,179,55827,2,0,P|191:195|215:275,1,150,2|0,1:2|0:0,0:0:0:0:
215,320,56127,1,8,0:2:0:0:
297,231,56277,1,2,0:0:0:0:
131,262,56427,6,0,P|111:317|100:387,1,100,2|0,1:2|1:2,0:0:0:0:
190,152,56727,1,10,0:0:0:0:
71,83,56877,2,0,P|81:131|99:178,1,100,2|0,1:2|0:0,0:0:0:0:
215,240,57177,1,2,1:2:0:0:
215,240,57252,1,2,1:2:0:0:
215,240,57327,1,14,0:0:0:0:
59,294,57477,2,0,L|-30:311,1,50,2|0,0:0|0:0,0:0:0:0:
102,357,57627,6,0,P|113:308|131:262,1,100,6|0,1:2|0:0,0:0:0:0:
367,156,57927,2,0,P|319:171|270:179,1,100,10|0,0:2|0:0,0:0:0:0:
147,26,58227,1,2,1:2:0:0:
304,86,58377,1,0,1:2:0:0:
212,102,58527,2,0,P|223:53|241:7,1,100,10|0,0:2|0:0,0:0:0:0:
454,19,58827,5,2,1:2:0:0:
297,79,58977,1,0,1:2:0:0:
399,235,59127,1,10,0:0:0:0:
270,178,59277,2,0,P|306:271|328:368,1,200,0|0,1:2|1:2,0:0:0:0:
228,308,59727,1,10,0:0:0:0:
409,331,59877,1,2,0:0:0:0:
203,227,60027,6,0,B|140:216|109:290|118:282|144:312|115:334,1,150,6|0,1:2|0:0,0:0:0:0:
110,333,60327,1,8,0:0:0:0:
18,205,60477,2,0,P|29:253|37:303,1,100,2|2,0:0|1:2,0:0:0:0:
205,320,60777,1,0,1:2:0:0:
109,229,60927,1,10,0:0:0:0:
47,384,61077,1,0,0:0:0:0:
203,227,61227,5,2,1:2:0:0:
141,72,61377,1,2,1:2:0:0:
222,0,61527,5,14,0:0:0:0:
160,155,61677,1,6,1:2:0:0:
304,305,61827,5,2,0:0:0:0:
242,150,61977,1,2,1:2:0:0:
391,286,62127,6,0,P|379:334|371:384,1,100,14|0,0:0|1:2,0:0:0:0:
512,192,62427,2,0,P|434:188|402:88,1,166.500004064941,4|0,1:2|0:0,0:0:0:0:
499,16,62727,2,0,P|487:64|479:114,1,100,10|0,0:0|0:0,0:0:0:0:
306,106,63027,2,0,P|318:58|326:8,1,100,2|0,1:2|1:2,0:0:0:0:
327,213,63327,1,8,0:0:0:0:
218,39,63477,1,2,0:0:0:0:
395,116,63627,6,0,P|407:164|415:214,1,100,2|0,1:2|1:2,0:0:0:0:
202,255,63927,1,10,0:0:0:0:
306,106,64077,2,0,P|317:57|325:7,1,100,2|0,1:2|0:0,0:0:0:0:
277,287,64377,2,0,P|264:335|258:384,1,100,2|8,1:2|0:0,0:0:0:0:
306,106,64677,1,2,0:0:0:0:
357,201,64827,6,0,P|260:184|109:150,1,194.000004588318,2|10,1:2|0:2,0:0:0:0:
74,103,65277,2,0,P|89:194|95:252,1,97.000002294159,0|2,0:0|1:2,0:0:0:0:
94,279,65577,1,0,1:2:0:0:
1,169,65727,1,10,0:0:0:0:
203,82,65877,1,0,0:0:0:0:
112,0,66027,6,0,P|174:69|166:164,1,194.000004588318,2|10,1:2|0:0,0:0:0:0:
8,249,66477,1,2,0:0:0:0:
217,359,66627,1,8,0:3:0:0:
179,267,66777,1,8,0:0:0:0:
186,265,66852,1,8,0:0:0:0:
193,263,66927,1,0,1:2:0:0:
166,163,67077,2,0,L|233:172,1,50,8|8,0:0|0:0,0:0:0:0:
127,351,67227,6,0,P|243:303|301:305,1,172.500003290176,6|0,1:2|0:0,0:0:0:0:
356,268,67527,2,0,P|337:335|320:413,1,104.999996795654,8|0,0:0|0:0,0:0:0:0:
312,175,67827,1,0,1:2:0:0:
430,298,67977,1,0,1:2:0:0:
237,222,68127,1,10,0:0:0:0:
406,98,68277,1,2,0:0:0:0:
182,0,68427,6,0,P|166:125|135:174,1,172.500003290176,6|0,1:2|0:0,0:0:0:0:
139,239,68727,2,0,P|91:189|32:136,1,104.999996795654,10|0,0:0|0:0,0:0:0:0:
0,118,69027,1,0,1:2:0:0:
35,259,69177,1,0,1:2:0:0:
251,187,69327,1,10,0:0:0:0:
161,342,69477,1,2,0:0:0:0:
458,224,69627,6,0,P|358:147|331:96,1,172.500003290176,6|0,1:2|0:0,0:0:0:0:
271,67,69927,2,0,P|339:50|415:26,1,104.999996795654,8|0,0:0|0:0,0:0:0:0:
453,13,70227,1,0,1:2:0:0:
238,0,70377,1,0,1:2:0:0:
449,119,70527,1,10,0:0:0:0:
233,238,70677,1,2,1:2:0:0:
341,114,70827,5,8,0:0:0:0:
341,114,70902,1,8,0:3:0:0:
341,114,70977,2,0,L|326:190,1,52.4999983978272,0|0,1:2|1:2,0:0:0:0:
388,292,71127,1,0,1:2:0:0:
388,292,71202,1,8,1:3:0:0:
388,292,71277,2,0,L|329:241,1,52.4999983978272,0|0,1:2|1:2,0:0:0:0:
251,233,71427,5,8,1:2:0:0:
455,168,71577,1,8,1:2:0:0:
242,351,71727,5,8,1:2:0:0:
171,115,71877,1,8,1:2:0:0:
82,384,72027,6,0,B|64:311|64:311|22:282|22:282|-3:171,1,216.000005273438,6|8,1:2|0:0,0:0:0:0:
100,183,72477,6,0,L|85:253,1,54.0000013183594,2|0,0:0|0:0,0:0:0:0:
0,359,72627,1,0,1:2:0:0:
0,105,72777,6,0,L|70:120,1,54.0000013183594,2|0,0:0|0:0,0:0:0:0:
176,217,72927,2,0,B|185:162|185:162|130:96|130:96|135:60,1,162.000003955078,8|0,0:0|0:0,0:0:0:0:
81,21,73227,6,0,B|104:34|104:34|232:11,1,108.000002636719,0|2,1:2|0:0,0:0:0:0:
198,2,73452,1,0,0:0:0:0:
198,2,73527,1,8,0:0:0:0:
252,126,73677,6,0,L|199:137,1,54.0000013183594,2|2,0:0|0:0,0:0:0:0:
283,0,73827,2,0,L|295:52,1,54.0000013183594,2|0,1:2|0:0,0:0:0:0:
312,185,73977,2,0,L|364:196,1,54.0000013183594,2|0,0:0|0:0,0:0:0:0:
476,43,74127,2,0,B|445:163|471:111|361:128|360:152|390:49,1,207.000000315857,6|0,1:3|0:0,0:0:0:0:
415,0,74427,6,0,P|386:99|357:233,1,202.500000772476,4|0,1:2|0:0,0:0:0:0:
370,207,74727,1,8,0:0:0:0:
406,384,74877,1,0,0:0:0:0:
225,318,75027,2,0,P|279:303|334:292,1,112.000001367188,0|0,1:2|1:2,0:0:0:0:
512,384,75327,2,0,P|453:366|393:353,1,112.000001367188,10|0,0:0|0:0,0:0:0:0:
139,296,75627,6,0,P|239:264|252:193,1,168.000002050781,2|0,1:2|0:0,0:0:0:0:
251,197,75927,1,10,0:0:0:0:
149,28,76077,2,0,P|94:15|40:-1,1,112.000001367188,2|0,1:2|0:0,0:0:0:0:
39,225,76377,2,0,P|94:212|147:195,1,112.000001367188,2|8,1:2|0:0,0:0:0:0:
278,69,76677,1,2,0:0:0:0:
272,94,76752,1,2,0:0:0:0:
266,119,76827,5,6,1:2:0:0:
163,111,76977,1,2,0:0:0:0:
367,5,77127,1,8,0:0:0:0:
168,207,77277,1,2,0:0:0:0:
407,358,77427,2,0,P|385:268|359:181,1,168.000002050781,0|0,1:2|0:0,0:0:0:0:
353,187,77727,1,10,0:0:0:0:
472,266,77877,1,2,0:0:0:0:
259,208,78027,5,2,1:2:0:0:
254,166,78102,1,0,1:2:0:0:
270,128,78177,1,0,1:2:0:0:
302,101,78252,1,0,1:2:0:0:
343,92,78327,1,10,0:0:0:0:
302,329,78477,2,0,P|247:316|193:299,1,112.000001367188,2|0,1:2|0:0,0:0:0:0:
450,164,78777,1,2,1:2:0:0:
402,366,78927,2,0,P|385:312|372:257,1,112.000001367188,12|2,0:0|0:0,0:0:0:0:
484,7,79227,6,0,P|435:72|349:26,1,168.000002050781,4|0,1:2|0:0,0:0:0:0:
298,12,79527,2,0,P|315:66|328:121,1,112.000001367188,8|0,0:0|0:0,0:0:0:0:
509,250,79827,1,0,1:2:0:0:
334,136,79977,1,0,1:2:0:0:
512,147,80127,2,0,P|457:160|403:177,1,112.000001367188,10|0,0:0|0:0,0:0:0:0:
194,384,80427,6,0,P|214:287|177:189,1,168.000002050781,2|0,1:2|0:0,0:0:0:0:
187,214,80727,1,10,0:0:0:0:
318,0,80877,2,0,P|298:97|335:195,1,168.000002050781,2|0,1:2|0:0,0:0:0:0:
325,170,81177,1,2,1:2:0:0:
176,57,81327,1,8,0:0:0:0:
308,258,81477,1,2,0:0:0:0:
106,243,81627,6,0,P|94:301|116:360,1,112.000001367188,6|0,1:2|0:0,0:0:0:0:
85,111,81927,1,8,0:0:0:0:
198,184,82077,1,2,0:0:0:0:
4,237,82227,1,0,1:2:0:0:
162,43,82377,1,0,1:2:0:0:
406,141,82527,2,0,P|418:82|395:24,1,112.000001367188,10|0,0:0|1:2,0:0:0:0:
396,26,82752,1,0,1:2:0:0:
389,26,82827,6,0,L|320:12,1,56.0000006835938,14|0,0:0|0:0,0:0:0:0:
265,122,82977,2,0,L|320:134,1,56.0000006835938,0|0,1:2|1:2,0:0:0:0:
393,224,83127,5,8,1:3:0:0:
350,234,83202,1,0,1:2:0:0:
307,244,83277,1,0,1:3:0:0:
265,254,83352,1,0,1:2:0:0:
222,265,83427,1,0,1:2:0:0:
180,275,83502,1,0,1:2:0:0:
137,285,83577,1,0,1:2:0:0:
95,295,83652,1,0,1:2:0:0:
52,306,83727,2,0,B|39:283|17:267|17:267|84:304|136:301|136:301|156:368,1,232.500001773834,14|0,0:0|0:0,0:0:0:0:
215,384,84027,6,0,P|146:374|74:370,1,132.999994520569,6|0,1:2|0:0,0:0:0:0:
219,176,84327,5,2,1:2:0:0:
268,328,84477,1,0,1:2:0:0:
403,118,84627,5,2,1:2:0:0:
295,236,84777,1,0,1:2:0:0:
154,107,84927,5,2,1:2:0:0:
310,140,85077,1,0,1:2:0:0:
67,176,85227,5,2,1:2:0:0:
44,60,85377,1,0,1:2:0:0:
232,123,85527,5,2,1:2:0:0:
209,7,85677,1,0,1:2:0:0:
131,223,85827,5,2,1:2:0:0:
154,107,85977,1,0,1:2:0:0:
319,160,86127,1,6,1:2:0:0:
296,276,86277,1,0,1:2:0:0:
464,188,86427,5,4,1:2:0:0:
407,81,86577,1,0,1:2:0:0:
288,286,86727,5,2,1:2:0:0:
409,290,86877,1,0,1:2:0:0:
291,84,87027,5,2,1:2:0:0:
227,187,87177,1,0,1:2:0:0:
363,189,87327,5,2,1:2:0:0:
350,182,87477,1,0,1:2:0:0:
349,196,87627,1,2,1:2:0:0:
354,189,87777,1,0,1:2:0:0:
398,110,87927,5,2,1:2:0:0:
441,30,88077,1,0,1:2:0:0:
263,190,88227,5,2,1:2:0:0:
172,193,88377,1,0,1:2:0:0:
399,266,88527,5,2,1:2:0:0:
447,344,88677,1,0,1:2:0:0:
307,111,88827,5,4,1:2:0:0:
443,188,88977,1,0,1:2:0:0:
309,266,89127,1,2,1:2:0:0:
350,182,89277,5,0,1:2:0:0:
363,189,89427,1,2,1:2:0:0:
349,196,89577,1,0,1:2:0:0:
490,266,89727,5,2,1:2:0:0:
245,313,89877,1,0,1:2:0:0:
324,80,90027,1,4,1:2:0:0:
349,196,90177,5,0,1:2:0:0:
215,37,90327,1,2,1:2:0:0:
425,0,90477,1,0,1:2:0:0:
274,150,90627,6,0,P|231:159|132:184,1,121.999994973755,2|0,1:2|1:2,0:0:0:0:
394,122,90927,2,0,P|437:113|536:88,1,121.999994973755,2|0,1:2|1:2,0:0:0:0:
388,325,91227,5,4,1:2:0:0:
358,237,91377,1,0,1:2:0:0:
180,128,91527,5,2,1:2:0:0:
270,145,91677,1,0,1:2:0:0:
453,47,91827,5,2,1:2:0:0:
394,116,91977,1,0,1:2:0:0:
359,225,92127,6,0,P|374:284|387:344,1,121.999994973755,2|0,1:2|1:2,0:0:0:0:
247,38,92427,6,0,L|185:22,1,60.9999974868775,0|0,1:2|1:2,0:0:0:0:
344,4,92577,1,8,0:0:0:0:
331,42,92652,1,8,0:0:0:0:
319,81,92727,1,8,0:0:0:0:
307,120,92802,1,8,0:0:0:0:
297,159,92877,1,0,1:2:0:0:
287,199,92952,1,0,1:2:0:0:
279,239,93027,2,0,L|294:298,3,60.9999974868775,8|0|0|0,0:0|1:2|1:2|1:2,0:0:0:0:
188,384,93327,5,8,1:2:0:0:
192,369,93402,1,8,0:0:0:0:
196,354,93477,1,8,0:0:0:0:
200,339,93552,1,8,0:0:0:0:
203,325,93627,6,0,P|122:345|33:376,1,166.500004064941,6|0,1:2|0:0,0:0:0:0:
33,384,93927,5,10,0:0:0:0:
147,222,94077,1,2,0:0:0:0:
0,157,94227,1,2,1:2:0:0:
105,332,94377,1,2,1:2:0:0:
219,114,94527,1,8,0:0:0:0:
58,248,94677,1,2,0:0:0:0:
159,14,94827,6,0,P|238:34|280:42,1,111.000002709961,2|0,1:2|0:0,0:0:0:0:
375,56,95127,1,8,0:0:0:0:
239,205,95277,6,0,P|292:190|346:179,1,111.000002709961,2|0,1:2|0:0,0:0:0:0:
481,200,95577,1,0,1:2:0:0:
264,33,95727,2,0,P|343:92|311:191,1,166.500004064941,10|0,0:0|0:0,0:0:0:0:
346,179,96027,6,0,P|292:190|239:205,1,111.000002709961,0|0,1:2|0:0,0:0:0:0:
145,384,96327,1,10,0:0:0:0:
335,276,96477,1,2,0:0:0:0:
174,160,96627,1,2,1:2:0:0:
259,378,96777,1,2,1:2:0:0:
351,172,96927,1,8,0:0:0:0:
341,368,97077,1,2,0:0:0:0:
512,216,97227,2,0,L|363:236,1,104.999996795654,2|0,1:2|0:0,0:0:0:0:
188,76,97527,2,0,P|250:114|257:180,1,104.999996795654,10|0,0:0|1:2,0:0:0:0:
254,297,97827,5,10,0:0:0:0:
254,297,97902,1,0,1:2:0:0:
254,297,97977,2,0,L|268:208,1,57.5000010967255,0|0,1:2|1:2,0:0:0:0:
458,96,98127,5,10,0:0:0:0:
411,104,98202,1,8,0:0:0:0:
365,111,98277,1,8,0:0:0:0:
319,118,98352,1,8,0:0:0:0:
272,126,98427,2,0,B|239:62|239:62|309:19|309:19|304:52,1,166.500004064941,4|0,1:2|0:0,0:0:0:0:
311,42,98727,5,8,0:0:0:0:
335,195,98877,1,2,0:3:0:0:
68,98,99027,5,0,1:2:0:0:
188,0,99177,1,2,0:3:0:0:
238,281,99327,5,8,0:0:0:0:
93,225,99477,1,2,0:3:0:0:
226,202,99627,5,0,1:2:0:0:
165,251,99777,1,2,0:3:0:0:
248,91,99927,5,8,0:0:0:0:
321,120,100077,1,2,0:3:0:0:
141,128,100227,5,0,1:2:0:0:
129,50,100377,1,2,0:3:0:0:
229,198,100527,6,0,P|239:215|225:199,1,60,8|0,0:0|0:0,0:0:0:0:
220,117,100827,1,4,1:2:0:0:
248,293,100977,2,0,P|253:327|261:361,1,69.9999978637696,2|8,0:3|0:0,0:0:0:0:
149,159,101277,2,0,P|116:146|82:136,1,69.9999978637696,2|0,0:3|1:2,0:0:0:0:
295,147,101577,2,0,P|321:123|347:101,1,69.9999978637696,2|8,0:3|0:0,0:0:0:0:
167,258,101877,1,2,0:3:0:0:
346,213,102027,5,12,0:0:0:0:
142,169,102177,1,0,1:2:0:0:
338,311,102327,5,12,0:0:0:0:
125,362,102477,1,0,0:0:0:0:
217,124,102627,6,0,L|227:70,1,54.0000013183594,0|8,1:2|0:0,0:0:0:0:
86,267,102777,1,8,0:0:0:0:
139,253,102852,1,8,0:0:0:0:
191,239,102927,1,8,1:2:0:0:
243,225,103002,1,8,0:2:0:0:
295,211,103077,1,8,0:2:0:0:
347,197,103152,1,8,0:2:0:0:
399,183,103227,5,6,1:2:0:0:
406,246,111627,5,6,1:2:0:0:
135,382,111927,5,6,1:2:0:0:
199,51,112227,5,6,1:2:0:0:
238,364,112827,6,0,P|251:301|289:207,1,142.49999619484,4|0,1:2|0:0,0:0:0:0:
336,177,113127,2,0,P|328:133|307:82,1,94.9999974632264,8|0,0:0|0:0,0:0:0:0:
375,254,113427,1,0,1:2:0:0:
252,152,113577,1,2,1:2:0:0:
359,22,113727,1,10,0:0:0:0:
448,109,113877,1,2,0:0:0:0:
260,25,114027,6,0,L|160:1,1,102.000000622559,2|0,1:2|0:0,0:0:0:0:
354,12,114327,1,10,0:0:0:0:
252,152,114477,2,0,L|351:128,1,102.000000622559,2|0,1:2|0:0,0:0:0:0:
177,105,114777,1,2,1:2:0:0:
304,223,114927,1,10,0:0:0:0:
257,57,115077,1,0,0:0:0:0:
125,174,115227,5,0,1:2:0:0:
104,64,115377,1,0,1:0:0:0:
203,214,115527,2,0,L|175:304,1,94.9999974632264,8|2,0:0|0:0,0:0:0:0:
192,95,115827,1,2,1:2:0:0:
285,237,115977,1,2,1:2:0:0:
127,191,116127,1,10,0:0:0:0:
258,153,116277,1,2,0:0:0:0:
127,0,116427,6,0,P|110:67|100:114,1,102.000000622559,2|0,1:2|0:0,0:0:0:0:
56,297,116727,1,10,0:0:0:0:
0,228,116877,2,0,P|17:161|27:114,1,102.000000622559,2|0,1:2|0:0,0:0:0:0:
131,222,117177,1,2,1:2:0:0:
69,380,117327,1,10,0:0:0:0:
233,259,117477,2,0,L|217:187,1,51.0000003112793,2|0,0:0|0:0,0:0:0:0:
311,369,117627,6,0,P|316:294|343:152,1,189.999994926453,6|8,1:2|0:0,0:0:0:0:
211,83,118077,2,0,P|207:130|190:221,1,94.9999974632264,2|0,0:0|1:2,0:0:0:0:
128,5,118377,1,0,1:2:0:0:
300,116,118527,1,10,0:0:0:0:
243,0,118677,1,0,0:0:0:0:
117,131,118827,2,0,P|109:177|106:225,1,94.9999974632264,0|0,1:2|0:0,0:0:0:0:
298,94,119127,2,0,P|305:47|309:0,1,94.9999974632264,8|0,0:0|1:2,0:0:0:0:
74,203,119427,5,8,0:0:0:0:
323,318,119577,1,8,0:0:0:0:
217,98,119727,1,10,0:0:0:0:
108,363,119877,1,8,0:0:0:0:
345,179,120027,6,0,P|284:183|162:253,1,189.999994926453,6|0,1:2|0:0,0:0:0:0:
408,237,120477,1,4,1:2:0:0:
259,384,120627,2,0,P|269:309|283:235,1,150,10|0,0:0|0:0,0:0:0:0:
345,179,120927,2,0,P|254:198|208:210,1,100,6|0,1:2|0:0,0:0:0:0:
117,52,121227,5,2,0:0:0:0:
180,280,121377,1,0,1:2:0:0:
179,130,121527,1,4,1:2:0:0:
63,204,121677,1,0,0:0:0:0:
285,51,121827,6,0,P|360:68|414:80,1,100,8|0,0:0|1:2,0:0:0:0:
345,179,122127,1,0,1:2:0:0:
473,23,122277,1,8,0:0:0:0:
473,23,122352,1,8,0:0:0:0:
473,23,122427,6,0,P|492:101|505:132,1,100,4|2,1:2|0:0,0:0:0:0:
299,299,122727,2,0,P|318:221|331:190,1,100,2|2,1:2|0:0,0:0:0:0:
295,6,123027,5,8,0:0:0:0:
454,269,123177,1,8,0:0:0:0:
188,145,123327,1,8,0:0:0:0:
411,122,123477,1,4,1:2:0:0:
204,298,123627,6,0,P|145:305|97:314,1,100,2|0,0:0|1:2,0:0:0:0:
199,129,123927,2,0,P|257:121|306:112,1,100,10|0,0:0|1:2,0:0:0:0:
60,0,124227,5,8,0:0:0:0:
84,28,124302,1,8,1:3:0:0:
90,58,124377,1,4,1:3:0:0:
87,88,124452,1,4,1:3:0:0:
70,115,124527,1,0,1:2:0:0:
132,224,124677,1,0,1:2:0:0:
0,301,124827,6,0,P|9:257|33:191,1,100,4|2,1:2|0:0,0:0:0:0:
211,128,125127,2,0,P|220:171|244:237,1,100,6|0,1:2|0:0,0:0:0:0:
346,353,125427,5,10,0:0:0:0:
131,207,125577,1,10,0:0:0:0:
408,275,125727,1,10,0:0:0:0:
198,326,125877,1,4,1:2:0:0:
334,188,126027,5,0,0:0:0:0:
302,288,126177,1,0,1:2:0:0:
275,126,126327,1,10,0:0:0:0:
408,275,126477,1,0,1:2:0:0:
228,199,126627,5,2,1:2:0:0:
190,161,126702,1,0,1:2:0:0:
177,125,126777,1,2,1:2:0:0:
176,81,126852,1,0,1:2:0:0:
181,41,126927,2,0,P|257:18|305:7,1,104.999996795654,10|0,0:0|0:0,0:0:0:0:
281,11,127227,6,0,P|330:54|295:105,1,119.999996337891,6|0,1:2|0:0,0:0:0:0:
219,215,127527,1,8,0:0:0:0:
257,377,127677,2,0,P|267:321|282:266,1,100,2|0,0:0|1:2,0:0:0:0:
393,141,127977,1,0,1:2:0:0:
470,273,128127,2,0,P|368:228|341:220,1,100,10|0,0:2|0:2,0:0:0:0:
155,235,128427,6,0,P|204:209|222:91,1,150,2|0,1:2|0:0,0:0:0:0:
184,25,128727,1,8,0:0:0:0:
327,135,128877,2,0,P|340:61|345:23,1,100,0|0,1:2|0:0,0:0:0:0:
244,289,129177,1,0,1:2:0:0:
352,223,129327,1,10,0:0:0:0:
203,180,129477,1,0,0:0:0:0:
321,374,129627,6,0,P|450:351|536:343,1,200,2|8,1:2|0:0,0:0:0:0:
336,259,130077,1,0,0:0:0:0:
447,171,130227,2,0,P|435:229|425:290,1,100,0|0,1:2|1:2,0:0:0:0:
264,120,130527,2,0,P|255:70|245:22,1,100,10|0,0:2|0:2,0:0:0:0:
220,275,130827,5,2,1:2:0:0:
338,167,130977,1,0,1:2:0:0:
91,46,131127,2,0,P|158:56|163:148,1,150,12|0,0:0|0:0,0:0:0:0:
170,136,131427,5,0,1:2:0:0:
159,147,131502,1,8,0:0:0:0:
143,147,131577,1,8,0:2:0:0:
125,143,131652,1,8,0:2:0:0:
101,154,131727,2,0,P|116:216|136:314,1,150,0|0,1:0|0:0,0:0:0:0:
130,321,132027,6,0,B|61:362|61:362|13:294,1,160,4|0,1:2|0:0,0:0:0:0:
355,192,132327,2,0,B|424:233|424:233|472:165,1,160,6|0,1:2|0:0,0:0:0:0:
247,365,132627,5,10,0:0:0:0:
278,292,132777,1,8,0:0:0:0:
216,223,132927,1,8,0:0:0:0:
298,105,133077,2,0,P|292:79|280:34,1,57.5000010967255,4|0,1:2|0:0,0:0:0:0:
211,122,133227,6,0,P|293:130|366:245,1,172.500003290176,2|0,0:0|0:0,0:0:0:0:
354,191,133527,1,10,0:0:0:0:
496,92,133677,1,2,1:2:0:0:
496,239,133827,1,0,1:2:0:0:
485,236,133902,1,0,1:2:0:0:
473,227,133977,1,2,1:2:0:0:
470,216,134052,1,0,1:2:0:0:
479,209,134127,2,0,P|476:269|431:313,1,112.500004291535,14|0,1:2|0:0,0:0:0:0:
429,325,134427,6,0,B|373:313|373:313|348:268|348:268|276:251,1,160,4|0,1:2|0:0,0:0:0:0:
0,161,134727,2,0,B|56:149|56:149|81:104|81:104|153:87,1,160,6|0,1:2|0:0,0:0:0:0:
341,10,135027,5,10,0:0:0:0:
265,107,135177,1,0,1:2:0:0:
265,107,135477,1,0,1:2:0:0:
261,88,135552,1,0,1:2:0:0:
258,73,135627,1,8,0:0:0:0:
442,218,135852,1,8,0:0:0:0:
211,353,136077,1,8,0:0:0:0:
246,278,136227,1,0,1:0:0:0:
343,384,136377,1,0,1:2:0:0:
335,375,136452,2,0,P|344:299|364:209,1,150,2|2,1:3|0:0,0:0:0:0:
512,0,136827,6,0,P|498:69|403:44,1,170.000003242493,6|0,1:2|0:0,0:0:0:0:
413,62,137277,1,0,1:0:0:0:
262,151,137427,2,0,P|327:133|371:130,1,85.0000016212464,8|0,0:0|1:2,0:0:0:0:
190,0,137727,2,0,P|183:51|171:93,1,85.0000016212464,2|0,0:0|0:0,0:0:0:0:
117,185,138027,5,2,1:2:0:0:
272,64,138177,1,8,0:0:0:0:
72,18,138327,1,0,0:0:0:0:
0,123,138477,1,0,1:2:0:0:
6,133,138552,1,0,1:2:0:0:
15,130,138627,2,0,P|70:114|111:111,1,85.0000016212464,10|0,0:0|1:0,0:0:0:0:
245,287,138927,1,2,0:0:0:0:
301,190,139077,1,10,0:0:0:0:
120,226,139227,5,2,1:2:0:0:
223,384,139377,2,0,P|295:369|335:367,1,85.0000016212464,8|0,0:0|0:0,0:0:0:0:
52,326,139677,1,0,1:2:0:0:
54,337,139752,1,0,1:2:0:0:
55,347,139827,2,0,P|111:316|109:222,1,127.50000243187,12|0,0:0|0:0,0:0:0:0:
122,255,140127,1,2,0:0:0:0:
398,189,140277,1,2,1:2:0:0:
391,208,140352,1,0,1:2:0:0:
386,224,140427,5,14,0:0:0:0:
240,358,140577,2,0,L|228:259,1,89.9999972534181,0|0,1:2|0:0,0:0:0:0:
302,175,140877,1,0,1:2:0:0:
158,0,141027,1,0,1:2:0:0:
152,25,141102,1,0,1:2:0:0:
154,56,141177,1,0,1:2:0:0:
168,80,141252,1,0,1:2:0:0:
188,104,141327,2,0,P|234:93|308:86,1,100,12|0,0:0|0:0,0:0:0:0:
256,192,141702,12,0,143427,0:0:0:0:
511,7,144027,6,0,B|431:-20|431:-20|507:86,1,179.999994506836,2|0,1:2|0:0,0:0:0:0:
424,96,144477,1,0,1:2:0:0:
512,188,144627,5,10,3:2:0:0:
476,195,144727,5,2,3:2:0:0:
441,202,144827,5,2,3:2:0:0:
406,209,144927,5,2,3:2:0:0:
370,216,145027,5,2,3:2:0:0:
335,224,145127,5,2,3:2:0:0:
300,231,145227,5,0,1:2:0:0:
323,95,145377,2,0,L|338:165,1,44.999998626709,2|0,0:0|0:0,0:0:0:0:
479,361,145527,5,0,3:2:0:0:
485,340,145602,1,0,3:2:0:0:
489,323,145677,1,0,3:2:0:0:
493,305,145752,1,0,3:2:0:0:
499,289,145827,2,0,L|165:353,1,314.999990386963,8|0,0:2|0:2,0:0:0:0:
189,348,146427,5,2,1:2:0:0:
98,384,146577,1,0,0:0:0:0:
39,318,146727,1,0,0:0:0:0:
131,285,146877,1,2,1:2:0:0:
289,384,147027,5,10,3:2:0:0:
281,348,147127,5,2,3:2:0:0:
274,313,147227,5,2,3:2:0:0:
267,278,147327,5,2,3:2:0:0:
260,242,147427,5,2,3:2:0:0:
252,207,147527,5,2,3:2:0:0:
245,172,147627,6,0,B|147:215|147:215|200:127,1,209.999993591309,2|0,1:2|0:0,0:0:0:0:
266,42,147927,2,0,L|276:106,1,55.0000016784668,2|0,0:0|0:0,0:0:0:0:
367,7,148077,2,0,L|357:71,1,55.0000016784668,2|0,0:0|0:0,0:0:0:0:
368,184,148227,6,0,B|352:159|352:159|100:87|100:87|88:51,1,314.999990386963,8|0,0:0|0:2,0:0:0:0:
0,24,148827,6,0,B|51:3|51:3|87:75|87:75|51:111|51:111|1:95,1,222.000005419922,2|0,1:2|0:0,0:0:0:0:
17,100,149277,1,2,1:2:0:0:
53,224,149427,5,10,3:2:0:0:
89,217,149527,5,2,3:2:0:0:
124,210,149627,5,2,3:2:0:0:
159,203,149727,5,2,3:2:0:0:
195,196,149827,5,2,3:2:0:0:
230,188,149927,5,2,3:2:0:0:
265,181,150027,5,0,1:2:0:0:
235,287,150177,6,0,B|243:305|243:305|472:364,1,209.999993591309,2|0,0:0|0:0,0:0:0:0:
321,370,150477,1,0,0:0:0:0:
332,377,150552,1,0,0:0:0:0:
342,384,150627,2,0,B|353:360|353:360|271:114|271:114|281:81,1,314.999990386963,8|0,0:0|3:2,0:0:0:0:
512,36,151227,5,2,1:2:0:0:
449,108,151377,1,0,0:0:0:0:
362,91,151527,1,0,0:0:0:0:
319,4,151677,1,2,1:2:0:0:
169,68,151827,5,10,3:2:0:0:
176,104,151927,5,2,3:2:0:0:
183,139,152027,5,2,3:2:0:0:
190,174,152127,5,2,3:2:0:0:
197,210,152227,5,2,3:2:0:0:
205,245,152327,5,2,3:2:0:0:
212,280,152427,6,0,B|149:270|149:270|124:236|124:236|57:224,1,166.500004064941,0|0,1:2|0:0,0:0:0:0:
0,319,152727,2,2,B|31:347|31:347|113:319|113:319|121:275,1,166.500004064941,2|0,0:0|0:0,0:0:0:0:
156,383,153027,6,0,B|102:373|102:373|11:103|11:103|32:83|32:83|38:33,1,388.500009484863,10|0,0:0|0:0,0:0:0:0:
34,64,153627,5,2,1:2:0:0:
216,0,153777,2,0,L|200:110,1,100,2|0,0:0|0:0,0:0:0:0:
113,124,154077,5,2,1:2:0:0:
272,208,154227,2,0,L|172:183,1,100,10|0,3:2|3:2,0:0:0:0:
0,312,154527,2,0,L|190:262,1,150,2|0,0:0|0:0,0:0:0:0:
145,273,154827,6,0,B|158:323|158:323|229:341,1,100,2|0,1:2|0:0,0:0:0:0:
363,302,155127,1,2,0:0:0:0:
300,384,155277,2,0,L|273:261,1,100,2|8,0:0|0:0,0:0:0:0:
465,172,155577,2,0,L|445:269,1,100,2|0,0:0|0:0,0:0:0:0:
301,188,155877,1,2,3:2:0:0:
389,14,156027,5,2,1:2:0:0:
428,85,156177,1,2,0:0:0:0:
342,114,156327,2,0,P|254:99|221:93,1,100,0|2,0:0|1:2,0:0:0:0:
84,0,156627,2,0,B|131:11|131:11|157:120,1,150,10|0,3:2|3:2,0:0:0:0:
154,109,156927,1,2,3:2:0:0:
54,87,157077,1,2,3:2:0:0:
0,199,157227,6,0,L|110:179,1,100,2|0,1:2|0:0,0:0:0:0:
188,271,157527,1,2,0:0:0:0:
84,376,157677,2,0,L|98:273,1,100,2|8,0:0|0:0,0:0:0:0:
266,165,157977,2,0,L|279:264,1,100,2|0,0:0|0:0,0:0:0:0:
234,350,158277,1,2,0:0:0:0:
415,357,158427,6,0,L|512:384,1,100,0|2,1:2|0:0,0:0:0:0:
467,285,158727,1,0,0:0:0:0:
369,222,158877,1,2,1:2:0:0:
498,50,159027,2,0,B|514:75|514:75|474:209,1,150,10|0,3:2|3:2,0:0:0:0:
479,190,159327,1,2,0:2:0:0:
424,95,159477,1,0,0:2:0:0:
286,133,159627,6,0,L|182:108,1,100,2|0,1:2|0:0,0:0:0:0:
289,51,159927,1,2,0:0:0:0:
386,258,160077,2,0,L|367:150,1,100,2|8,0:0|0:0,0:0:0:0:
239,339,160377,2,0,L|353:372,1,100,2|2,0:0|0:0,0:0:0:0:
131,169,160677,5,2,0:0:0:0:
91,346,160827,2,0,B|137:334|137:334|207:192|207:192|250:183,1,250,2|0,1:2|0:0,0:0:0:0:
262,263,161277,1,2,1:2:0:0:
388,61,161427,2,0,L|362:188,1,100,10|0,0:0|0:0,0:0:0:0:
177,66,161727,2,0,B|64:32|64:32|53:-4,1,150,2|0,0:0|0:0,0:0:0:0:
54,1,162027,5,2,1:2:0:0:
210,151,162177,1,0,0:0:0:0:
87,227,162327,2,0,L|69:104,1,100,0|2,0:0|0:0,0:0:0:0:
184,384,162627,2,0,L|221:217,1,150,8|0,0:0|0:0,0:0:0:0:
233,241,162927,2,0,B|290:228|290:228|310:138,1,120,2|0,0:0|0:0,0:0:0:0:
265,91,163227,5,2,1:2:0:0:
291,14,163377,1,2,0:0:0:0:
512,96,163527,2,0,L|396:116,1,100,0|2,0:0|1:2,0:0:0:0:
412,334,163827,6,0,L|380:174,1,150,10|0,3:2|3:2,0:0:0:0:
413,112,164127,2,0,B|454:139|454:139|466:195,1,100,2|0,0:0|0:0,0:0:0:0:
164,384,164427,6,0,L|191:214,1,150,2|0,1:2|0:0,0:0:0:0:
195,232,164727,1,2,0:0:0:0:
98,185,164877,2,0,L|-6:207,1,100,2|8,0:0|0:0,0:0:0:0:
234,99,165177,2,0,L|350:123,1,100,2|0,0:0|0:0,0:0:0:0:
84,0,165477,1,2,3:2:0:0:
117,88,165627,5,2,1:2:0:0:
190,16,165777,1,2,0:0:0:0:
335,128,165927,2,0,L|316:264,1,100,0|2,0:0|1:2,0:0:0:0:
268,384,166227,2,0,B|255:318|255:318|164:298,1,150,10|0,3:2|3:2,0:0:0:0:
174,300,166527,1,2,3:2:0:0:
90,378,166677,1,2,3:2:0:0:
11,301,166827,2,0,L|36:190,1,100,2|0,1:2|0:0,0:0:0:0:
108,56,167127,5,2,0:0:0:0:
183,119,167277,2,0,L|80:142,1,100,2|8,0:0|0:0,0:0:0:0:
341,0,167577,2,0,L|325:117,1,100,2|0,0:0|0:0,0:0:0:0:
260,171,167877,1,2,0:0:0:0:
233,35,168027,5,0,1:2:0:0:
438,125,168177,1,2,0:0:0:0:
250,189,168327,1,0,0:0:0:0:
385,246,168477,1,2,1:2:0:0:
234,381,168627,6,0,L|217:278,1,100,10|0,3:2|3:2,0:0:0:0:
81,321,168927,2,0,L|144:178,1,150,2|0,0:2|0:0,0:0:0:0:
149,183,169227,6,0,B|90:81|90:81|104:41,1,150,2|0,1:2|0:0,0:0:0:0:
100,50,169527,1,2,0:0:0:0:
230,0,169677,2,0,L|212:98,1,100,2|10,0:0|0:0,0:0:0:0:
454,146,169977,2,0,L|335:167,1,100,2|2,0:0|0:0,0:0:0:0:
203,267,170277,1,2,0:0:0:0:
269,384,170427,5,2,1:2:0:0:
269,374,170502,1,2,0:0:0:0:
270,364,170577,2,0,L|299:206,1,150,2|0,0:0|0:0,0:0:0:0:
355,163,170877,1,2,1:2:0:0:
263,119,171027,2,0,L|281:217,1,100,8|0,0:0|0:0,0:0:0:0:
474,277,171327,1,2,0:2:0:0:
436,203,171477,1,0,0:2:0:0:
500,133,171627,5,2,1:2:0:0:
390,273,171777,1,0,0:0:0:0:
428,62,171927,1,0,0:0:0:0:
307,137,172077,1,0,1:2:0:0:
275,142,172152,1,0,1:2:0:0:
243,149,172227,5,8,0:0:0:0:
104,19,172452,1,8,0:0:0:0:
54,272,172677,1,8,0:0:0:0:
137,141,172827,5,4,1:3:0:0:
0,333,173052,1,4,1:3:0:0:
239,372,173277,1,4,1:3:0:0:
32,118,173427,5,12,0:0:0:0:
256,192,173502,12,2,177027,0:0:0:0:
512,13,178227,6,0,P|414:24|397:91,1,150.000005722046,6|10,1:1|1:2,0:0:0:0:
472,240,178677,6,8,P|511:149|461:101,1,150.000005722046,10|10,1:2|1:2,0:0:0:0:
326,106,179127,6,0,P|362:155|404:143,1,112.500004291535,10|0,1:2|0:0,0:0:0:0:
404,143,179427,5,2,0:0:0:0:
383,249,179727,1,2,0:0:0:0:
288,269,180027,1,2,0:0:0:0:
266,374,180327,1,8,1:2:0:0:
266,374,180627,6,0,P|216:320|130:316,1,150.000005722046,10|10,1:2|1:2,0:0:0:0:
0,274,181077,6,0,P|71:257|118:185,1,150.000005722046,10|10,1:2|1:2,0:0:0:0:
219,94,181527,6,0,P|197:164|236:240,1,150,10|0,1:2|0:0,0:0:0:0:
302,263,182127,1,2,0:3:0:0:
385,241,182427,1,2,0:3:0:0:
385,159,182727,1,2,0:3:0:0:
512,127,183027,6,0,P|445:91|437:1,1,150.000005722046,10|10,1:2|1:2,0:0:0:0:
321,0,183477,6,0,P|323:76|249:127,1,150.000005722046,10|10,1:2|1:2,0:0:0:0:
307,229,183927,1,10,1:2:0:0:
307,229,184077,6,0,P|371:188|453:227,1,150.000005722046,2|0,0:0|0:0,0:0:0:0:
141,221,184527,2,0,P|227:250|232:329,1,150.000005722046,2|0,0:0|0:0,0:0:0:0:
240,300,185127,1,8,1:2:0:0:
25,384,185427,6,0,P|35:317|68:215,1,150.000005722046,10|10,1:2|1:2,0:0:0:0:
37,100,185877,6,0,P|90:142|161:221,1,150.000005722046,10|10,1:2|1:2,0:0:0:0:
276,252,186327,5,10,1:2:0:0:
276,252,186477,2,0,P|212:276|108:299,1,150.000005722046,2|2,0:2|0:3,0:0:0:0:
369,52,187227,6,0,P|433:28|537:5,1,150.000005722046,2|2,0:0|0:3,0:0:0:0:
90,0,187827,6,0,P|148:15|171:114,1,150.000005722046,6|10,1:1|1:2,0:0:0:0:
351,137,188277,6,0,P|309:179|211:150,1,150.000005722046,10|10,1:2|1:2,0:0:0:0:
102,230,188727,6,0,P|109:194|137:170,1,75.0000028610231,10|0,1:2|0:0,0:0:0:0:
181,264,189027,5,2,0:0:0:0:
221,344,189327,1,2,0:0:0:0:
315,384,189627,1,2,0:3:0:0:
399,339,189927,1,2,1:3:0:0:
487,384,190227,6,0,P|496:305|518:218,1,150.000005722046,10|10,1:2|1:2,0:0:0:0:
512,129,190677,6,0,P|439:160|352:185,1,150.000005722046,10|10,1:2|1:2,0:0:0:0:
336,280,191127,6,0,P|365:303|393:329,1,75.0000028610231,10|0,1:2|0:0,0:0:0:0:
454,289,191427,1,0,0:0:0:0:
201,384,191727,5,2,0:3:0:0:
218,155,192327,6,0,P|194:134|170:115,1,61.9999975402833,2|0,0:3|0:0,0:0:0:0:
0,11,192627,6,0,P|1:69|98:99,1,150.000005722046,10|10,1:2|1:2,0:0:0:0:
254,11,193077,6,0,P|203:-17|128:51,1,150.000005722046,10|10,1:2|1:2,0:0:0:0:
127,230,193527,6,0,P|176:200|154:101,1,150.000005722046,10|0,1:2|0:0,0:0:0:0:
456,0,194127,6,0,P|365:19|362:81,1,139.999995727539,2|2,0:3|0:3,0:0:0:0:
509,214,194727,1,8,1:2:0:0:
509,214,194877,1,0,1:0:0:0:
442,149,195027,6,0,P|363:168|267:181,1,153.99999694519,10|10,1:2|1:2,0:0:0:0:
182,384,195477,6,0,P|205:306|241:216,1,153.99999694519,10|10,1:2|1:2,0:0:0:0:
108,41,195927,5,10,1:2:0:0:
108,41,196077,2,0,P|163:99|223:176,1,162.499992561341,2|2,0:0|0:0,0:0:0:0:
386,384,197427,6,0,P|378:316|363:260,1,111.000002709961,4|0,1:2|0:0,0:0:0:0:
496,191,197727,1,2,0:0:0:0:
371,89,197877,1,0,1:2:0:0:
343,96,197952,1,0,1:2:0:0:
324,101,198027,1,10,0:0:0:0:
245,59,198177,1,0,1:0:0:0:
371,197,198327,1,0,1:2:0:0:
500,26,198477,1,8,1:3:0:0:
477,13,198552,1,8,1:3:0:0:
451,18,198627,6,0,P|458:77|470:149,1,100,8|0,1:3|1:3,0:0:0:0:
494,278,198927,1,8,1:3:0:0:
277,200,199077,1,0,1:2:0:0:
259,196,199152,1,0,1:2:0:0:
233,190,199227,2,0,P|164:209|92:227,1,100,8|0,0:0|1:2,0:0:0:0:
46,177,199527,5,0,1:2:0:0:
175,300,199677,1,0,1:2:0:0:
37,384,199827,2,0,P|46:327|72:255,1,111.000002709961,4|0,1:2|0:0,0:0:0:0:
194,57,200127,1,2,0:0:0:0:
39,7,200277,1,0,1:0:0:0:
44,23,200352,1,0,1:2:0:0:
49,39,200427,1,8,0:0:0:0:
121,133,200577,1,0,1:2:0:0:
305,15,200727,1,0,1:2:0:0:
404,147,200877,1,8,0:3:0:0:
391,163,200952,1,8,0:3:0:0:
373,171,201027,6,0,P|274:146|231:134,1,100,0|8,1:2|0:3,0:0:0:0:
456,60,201327,1,0,1:0:0:0:
502,250,201477,1,0,1:2:0:0:
482,238,201552,1,0,1:2:0:0:
461,245,201627,2,0,P|475:306|479:356,1,100,8|0,0:0|1:2,0:0:0:0:
354,290,201927,1,0,1:2:0:0:
281,384,202077,1,0,1:2:0:0:
144,211,202227,6,0,P|223:221|279:232,1,111.000002709961,6|0,1:2|0:0,0:0:0:0:
69,288,202527,1,0,1:2:0:0:
190,118,202677,1,0,1:0:0:0:
193,109,202752,1,0,1:0:0:0:
191,100,202827,2,0,P|114:114|65:128,1,100,10|0,0:0|1:0,0:0:0:0:
0,73,203127,1,8,1:3:0:0:
38,185,203277,1,8,1:3:0:0:
142,5,203427,5,2,1:2:0:0:
17,58,203577,1,8,1:3:0:0:
97,112,203727,1,4,1:3:0:0:
235,17,203877,1,0,1:2:0:0:
251,21,203952,1,0,1:2:0:0:
261,28,204027,2,0,P|273:87|280:152,1,100,8|0,0:0|1:0,0:0:0:0:
317,263,204327,1,2,1:2:0:0:
365,172,204477,1,2,1:2:0:0:
237,219,204627,6,0,P|178:205|133:200,1,100,6|0,1:2|0:0,0:0:0:0:
393,340,204927,1,0,1:0:0:0:
277,384,205077,1,2,1:2:0:0:
278,374,205152,1,2,1:2:0:0:
282,365,205227,2,0,P|295:309|307:257,1,100,14|0,0:2|1:0,0:0:0:0:
490,182,205527,6,0,P|501:230|512:279,1,100,2|0,1:2|0:0,0:0:0:0:
506,290,205752,1,0,1:0:0:0:
501,301,205827,6,0,P|448:314|396:333,1,100,2|8,1:2|0:3,0:0:0:0:
382,328,206052,1,8,0:3:0:0:
372,318,206127,5,8,0:3:0:0:
323,311,206202,1,8,0:3:0:0:
290,274,206277,1,4,0:3:0:0:
289,225,206352,1,4,0:3:0:0:
319,187,206427,2,0,L|386:207,3,50,4|0|0|0,0:3|1:2|1:2|1:2,0:0:0:0:
175,344,206727,1,0,1:0:0:0:
187,347,206802,1,0,1:0:0:0:
199,350,206877,1,0,1:0:0:0:
210,354,206952,1,0,1:0:0:0:
222,358,207027,6,0,P|207:282|193:220,1,111.000002709961,6|0,1:2|0:0,0:0:0:0:
282,0,207327,2,0,P|287:77|208:86,1,150,10|0,0:0|0:0,0:0:0:0:
221,83,207627,1,2,1:2:0:0:
116,209,207777,1,0,1:0:0:0:
0,66,207927,2,0,P|82:49|128:43,1,100,8|2,0:0|0:0,0:0:0:0:
249,175,208227,6,0,P|348:190|425:220,1,150,2|0,1:2|0:0,0:0:0:0:
407,202,208527,1,10,0:0:0:0:
469,19,208677,2,0,P|475:88|484:142,1,100,2|0,1:2|0:0,0:0:0:0:
508,334,208977,1,2,1:2:0:0:
437,277,209127,1,10,0:2:0:0:
348,371,209277,1,2,0:0:0:0:
250,282,209427,6,0,P|232:224|207:89,1,150,2|0,1:2|0:0,0:0:0:0:
219,121,209727,2,0,P|266:94|270:28,1,100,8|2,0:0|0:0,0:0:0:0:
211,0,210027,1,0,1:2:0:0:
333,139,210177,1,0,1:0:0:0:
26,89,210327,2,0,P|82:110|125:217,1,162.000003955078,10|0,0:0|0:0,0:0:0:0:
119,215,210627,6,0,P|57:224|35:270,1,100,2|0,1:2|0:0,0:0:0:0:
256,281,210927,1,10,0:0:0:0:
143,384,211077,1,2,1:2:0:0:
221,166,211227,1,8,1:3:0:0:
242,161,211302,1,0,1:0:0:0:
265,155,211377,1,0,1:2:0:0:
363,353,211527,2,0,P|376:287|383:237,1,100,14|0,0:0|0:0,0:0:0:0:
512,76,211827,6,0,P|504:136|410:130,1,166.500004064941,6|0,1:2|0:0,0:0:0:0:
404,122,212127,2,0,P|391:63|389:18,1,100,8|0,0:0|0:0,0:0:0:0:
475,249,212427,1,0,1:2:0:0:
336,161,212577,1,2,1:2:0:0:
481,344,212727,1,10,0:0:0:0:
512,169,212877,1,2,0:0:0:0:
333,274,213027,6,0,P|239:291|188:302,1,100,2|0,1:2|0:0,0:0:0:0:
25,160,213327,2,0,P|119:177|170:188,1,100,8|0,0:0|0:0,0:0:0:0:
230,166,213627,1,0,1:2:0:0:
122,359,213777,1,0,1:2:0:0:
254,149,213927,1,10,0:0:0:0:
66,261,214077,1,2,0:0:0:0:
156,6,214227,6,0,P|166:80|172:131,1,106.999996734619,2|0,1:2|0:0,0:0:0:0:
349,31,214527,1,8,0:0:0:0:
256,247,214677,1,0,1:2:0:0:
512,95,214827,6,0,L|464:109,3,33.3333333333333,8|8|8|8,0:0|1:3|1:3|1:3,0:0:0:0:
399,130,215052,1,0,1:2:0:0:
387,114,215127,1,8,0:0:0:0:
362,110,215202,1,8,0:0:0:0:
338,106,215277,1,8,0:0:0:0:
313,102,215352,1,8,0:0:0:0:
289,98,215427,6,0,P|255:151|346:258,1,172.500003290176,6|0,1:2|0:0,0:0:0:0:
314,242,215727,1,8,0:0:0:0:
209,343,215877,2,0,P|50:382|9:398,1,172.500003290176,4|0,1:2|0:0,0:0:0:0:
26,366,216177,1,8,0:0:0:0:
116,270,216327,6,0,P|129:194|156:61,1,172.500003290176,4|0,1:2|0:0,0:0:0:0:
162,92,216627,1,8,0:0:0:0:
413,178,216777,2,0,P|400:102|373:-31,1,172.500003290176,4|0,1:2|0:0,0:0:0:0:
367,0,217077,1,0,1:2:0:0:
504,134,217227,5,8,0:0:0:0:
261,303,217377,1,8,0:0:0:0:
478,226,217527,1,8,0:0:0:0:
247,42,217677,1,8,0:0:0:0:
425,212,218727,5,4,1:3:0:0:
432,205,219027,6,0,P|333:174|231:154,1,202.500000772476,4|0,1:2|0:0,0:0:0:0:
215,173,219327,1,8,0:0:0:0:
354,67,219477,1,0,0:0:0:0:
289,282,219627,1,0,1:0:0:0:
222,58,219777,1,0,1:0:0:0:
380,274,219927,2,0,P|367:328|350:382,1,112.000001367188,10|0,0:0|0:0,0:0:0:0:
488,99,220227,6,0,P|389:118|293:149,1,168.000002050781,2|0,1:2|0:0,0:0:0:0:
321,147,220527,1,10,0:0:0:0:
437,0,220677,2,0,P|420:58|405:117,1,112.000001367188,2|0,1:2|0:0,0:0:0:0:
210,246,220977,2,0,P|226:187|241:128,1,112.000001367188,2|12,1:2|0:0,0:0:0:0:
348,347,221277,1,2,0:0:0:0:
123,305,221427,6,0,P|227:281|323:259,1,168.000002050781,6|0,1:2|0:0,0:0:0:0:
299,259,221727,2,0,P|315:318|330:377,1,112.000001367188,8|0,0:0|0:0,0:0:0:0:
145,192,222027,1,0,1:2:0:0:
198,384,222177,1,0,1:2:0:0:
39,238,222327,1,10,0:0:0:0:
170,86,222477,1,2,0:0:0:0:
78,0,222627,5,2,1:2:0:0:
65,32,222702,1,0,1:0:0:0:
55,66,222777,1,0,1:2:0:0:
47,99,222852,1,0,1:0:0:0:
41,134,222927,1,10,0:0:0:0:
263,93,223077,2,0,P|209:75|154:65,1,112.000001367188,2|0,1:2|0:0,0:0:0:0:
261,180,223377,1,2,1:2:0:0:
73,210,223527,2,0,P|126:227|181:237,1,112.000001367188,12|2,0:0|0:0,0:0:0:0:
376,204,223827,6,0,P|295:211|255:281,1,168.000002050781,6|0,1:2|0:0,0:0:0:0:
189,323,224127,2,0,P|243:335|298:349,1,112.000001367188,8|0,0:2|0:0,0:0:0:0:
401,177,224427,1,0,1:2:0:0:
297,358,224577,1,0,1:2:0:0:
467,272,224727,1,10,0:0:0:0:
295,174,224877,1,0,0:0:0:0:
458,26,225027,6,0,B|489:42|489:42|512:173,1,168.000002050781,2|0,1:2|0:0,0:0:0:0:
506,182,225327,1,10,0:0:0:0:
286,373,225477,2,0,B|255:357|255:357|231:225,1,168.000002050781,2|0,1:2|0:0,0:0:0:0:
238,217,225777,1,2,1:2:0:0:
365,290,225927,1,8,0:0:0:0:
139,348,226077,1,2,0:0:0:0:
23,148,226227,6,0,P|9:82|-11:-4,1,112.000001367188,6|0,1:2|0:0,0:0:0:0:
138,204,226527,2,0,P|87:248|22:310,1,112.000001367188,8|2,0:0|0:0,0:0:0:0:
209,6,226827,1,0,1:2:0:0:
231,225,226977,1,0,1:2:0:0:
130,76,227127,6,0,P|193:96|279:122,1,112.000001367188,10|0,0:0|0:0,0:0:0:0:
365,290,227427,1,2,1:2:0:0:
396,281,227502,1,0,1:2:0:0:
428,273,227577,1,0,1:2:0:0:
460,265,227652,1,0,1:2:0:0:
492,257,227727,2,0,L|511:176,3,56.0000006835938,8|8|10|8,0:0|0:0|0:0|0:0,0:0:0:0:
276,24,228027,5,0,1:2:0:0:
287,64,228102,1,0,1:2:0:0:
297,105,228177,1,0,1:2:0:0:
307,146,228252,1,0,1:2:0:0:
316,186,228327,6,0,P|308:221|297:271,1,64,14|0,0:0|0:0,0:0:0:0:
512,0,228627,2,0,B|503:20|503:20|400:43|387:150,1,199.499991780854,6|0,1:2|0:0,0:0:0:0:
392,153,228927,1,8,0:0:0:0:
351,0,229077,1,0,0:0:0:0:
484,144,229227,1,0,1:0:0:0:
312,255,229377,1,0,1:0:0:0:
387,384,229527,2,0,L|407:270,1,113.000000344849,10|0,0:2|0:0,0:0:0:0:
282,115,229827,6,0,P|182:147|169:218,1,168.000002050781,2|0,1:2|0:0,0:0:0:0:
177,210,230127,1,8,0:0:0:0:
300,354,230277,2,0,L|280:242,1,113.000000344849,2|0,1:2|0:0,0:0:0:0:
195,91,230577,1,0,1:2:0:0:
371,156,230727,1,14,0:0:0:0:
186,311,230877,5,2,0:0:0:0:
186,311,230952,1,2,0:0:0:0:
186,311,231027,2,0,L|55:291,1,113.000000344849,6|0,1:2|0:0,0:0:0:0:
252,160,231327,2,0,L|363:142,1,113.000000344849,10|0,0:0|0:0,0:0:0:0:
274,364,231627,1,0,1:2:0:0:
106,208,231777,1,0,1:2:0:0:
278,140,231927,1,10,0:0:0:0:
146,20,232077,1,0,0:0:0:0:
190,233,232227,6,0,P|203:137|225:26,1,169.500000517273,2|0,1:2|0:0,0:0:0:0:
231,55,232527,1,8,0:0:0:0:
16,205,232677,2,0,P|31:121|42:37,1,169.500000517273,0|0,1:2|0:0,0:0:0:0:
31,26,232977,1,0,1:2:0:0:
115,190,233127,1,10,0:0:0:0:
0,295,233277,1,0,0:0:0:0:
195,384,233427,6,0,P|166:312|203:222,1,169.500000517273,6|0,1:2|0:0,0:0:0:0:
212,224,233727,1,8,0:0:0:0:
376,327,233877,2,0,P|306:311|249:302,1,113.000000344849,0|0,0:0|1:2,0:0:0:0:
333,157,234177,1,0,1:2:0:0:
115,176,234327,2,0,P|59:185|4:198,1,113.000000344849,10|2,0:0|0:0,0:0:0:0:
317,0,234627,5,2,1:2:0:0:
338,36,234702,1,0,1:2:0:0:
346,77,234777,1,0,1:2:0:0:
338,118,234852,1,0,1:2:0:0:
315,154,234927,1,8,0:0:0:0:
136,57,235077,2,0,P|190:70|246:79,1,113.000000344849,0|0,1:2|0:0,0:0:0:0:
86,165,235377,1,0,1:2:0:0:
241,61,235527,1,14,0:0:0:0:
58,0,235677,1,0,0:0:0:0:
6,205,235827,6,0,P|-6:263|16:322,1,112.000001367188,6|0,1:2|1:2,0:0:0:0:
52,90,236127,1,10,0:0:0:0:
110,359,236277,1,0,1:2:0:0:
191,148,236427,1,10,0:0:0:0:
93,255,236577,1,0,1:2:0:0:
297,384,236727,2,0,P|309:325|286:267,1,121.999994973755,2|0,0:0|1:2,0:0:0:0:
209,269,236952,1,0,1:2:0:0:
209,269,237027,6,0,L|222:338,1,60.9999974868775,10|8,0:0|0:0,0:0:0:0:
285,180,237177,2,0,L|271:119,3,60.9999974868775,8|8|8|4,1:3|1:3|1:3|1:3,0:0:0:0:
428,245,237477,1,8,0:0:0:0:
428,245,237552,1,8,0:0:0:0:
428,245,237627,2,0,L|326:227,3,67.5000002574921,8|0|0|0,0:0|1:0|1:0|1:0,0:0:0:0:
293,183,237927,5,10,0:0:0:0:
303,138,238002,1,8,0:0:0:0:
313,93,238077,1,8,0:0:0:0:
323,49,238152,1,8,0:0:0:0:
333,5,238227,2,0,B|292:38|292:38|388:71|424:128,1,209.999993591309,6|0,1:2|0:0,0:0:0:0:
477,182,238527,6,0,P|436:107|474:-1,1,184.500002815247,12|0,0:0|0:0,0:0:0:0:
471,12,238827,1,0,1:0:0:0:
303,138,238977,1,0,1:0:0:0:
511,100,239127,2,2,P|470:175|508:283,1,184.500002815247,10|0,0:0|0:0,0:0:0:0:
501,277,239427,6,0,B|437:283|457:334|400:345,1,123.000001876831,2|0,1:2|0:0,0:0:0:0:
281,251,239727,1,10,0:0:0:0:
508,374,239877,2,0,P|410:313|369:242,1,184.500002815247,2|0,1:2|0:0,0:0:0:0:
381,245,240177,1,2,1:2:0:0:
312,379,240327,1,12,0:0:0:0:
333,155,240477,5,2,0:0:0:0:
327,130,240552,1,2,0:0:0:0:
321,105,240627,2,0,P|261:121|165:104,1,123.000001876831,6|0,1:2|0:0,0:0:0:0:
48,5,240927,2,0,P|13:54|0:113,1,123.000001876831,8|0,0:0|0:0,0:0:0:0:
250,264,241227,1,0,1:2:0:0:
212,94,241377,1,0,1:2:0:0:
135,215,241527,1,10,0:0:0:0:
279,353,241677,1,2,0:0:0:0:
81,384,241827,5,2,1:2:0:0:
75,353,241902,1,0,1:2:0:0:
68,323,241977,1,0,1:2:0:0:
60,294,242052,1,0,1:2:0:0:
52,264,242127,1,10,0:0:0:0:
92,106,242277,2,0,P|119:161|164:203,1,123.000001876831,2|0,1:2|0:0,0:0:0:0:
398,190,242577,1,2,1:2:0:0:
238,273,242727,1,12,0:0:0:0:
305,156,242877,5,2,1:2:0:0:
305,156,242952,1,2,1:2:0:0:
305,156,243027,2,0,P|416:125|462:41,1,184.500002815247,6|0,1:2|0:0,0:0:0:0:
509,10,243327,2,0,L|368:30,1,123.000001876831,8|0,0:0|0:0,0:0:0:0:
221,222,243627,1,0,1:2:0:0:
292,36,243777,1,0,1:2:0:0:
257,318,243927,2,0,L|116:298,1,123.000001876831,10|0,0:0|0:0,0:0:0:0:
512,219,244227,6,0,L|286:251,1,184.500002815247,2|0,1:2|0:0,0:0:0:0:
322,236,244527,1,10,0:0:0:0:
0,165,244677,2,0,L|225:133,1,184.500002815247,2|0,1:2|0:0,0:0:0:0:
190,148,244977,1,2,1:2:0:0:
351,327,245127,1,8,0:0:0:0:
260,65,245277,1,2,0:0:0:0:
59,244,245427,6,0,P|49:304|67:363,1,123.000001876831,6|0,1:2|0:0,0:0:0:0:
162,45,245727,1,8,0:0:0:0:
0,165,245877,1,2,0:0:0:0:
225,258,246027,1,0,1:2:0:0:
103,111,246177,1,0,1:2:0:0:
345,6,246327,6,0,P|363:64|353:124,1,123.000001876831,10|0,0:0|1:2,0:0:0:0:
347,131,246552,1,0,1:2:0:0:
339,139,246627,6,0,L|235:160,1,62.9999980773926,14|0,0:0|0:0,0:0:0:0:
419,261,246777,2,0,L|483:246,1,62.9999980773926,0|0,1:2|1:2,0:0:0:0:
317,338,246927,5,8,1:3:0:0:
321,298,247002,1,8,1:3:0:0:
330,260,247077,1,4,1:3:0:0:
341,222,247152,1,4,1:3:0:0:
355,186,247227,1,0,1:2:0:0:
373,150,247302,1,0,1:2:0:0:
393,117,247377,1,0,1:2:0:0:
416,85,247452,1,0,1:2:0:0:
442,55,247527,2,0,P|430:120|321:86,1,199.499991780854,14|0,0:2|0:0,0:0:0:0:
318,90,247827,6,0,L|345:229,1,141.999992849732,6|0,1:2|0:0,0:0:0:0:
349,349,248127,5,2,1:2:0:0:
224,259,248277,1,0,1:2:0:0:
324,74,248427,5,2,1:2:0:0:
309,227,248577,1,0,1:2:0:0:
99,233,248727,5,2,1:2:0:0:
239,170,248877,1,0,1:2:0:0:
156,337,249027,5,2,1:2:0:0:
146,155,249177,1,0,1:0:0:0:
25,193,249327,1,2,1:2:0:0:
35,375,249477,1,0,1:0:0:0:
230,89,249627,5,2,1:2:0:0:
220,271,249777,1,0,1:2:0:0:
99,233,249927,1,2,1:2:0:0:
109,51,250077,1,0,1:0:0:0:
292,194,250227,5,4,1:2:0:0:
146,155,250377,1,0,1:2:0:0:
74,310,250527,5,2,1:2:0:0:
220,271,250677,1,0,1:0:0:0:
101,68,250827,5,2,1:2:0:0:
62,214,250977,1,0,1:0:0:0:
248,384,251127,5,2,1:2:0:0:
209,238,251277,1,0,1:2:0:0:
97,341,251427,1,0,1:0:0:0:
108,338,251577,1,0,1:0:0:0:
189,330,251727,5,2,1:2:0:0:
123,252,251877,1,0,1:0:0:0:
271,340,252027,5,2,1:2:0:0:
227,161,252177,1,0,1:0:0:0:
335,383,252327,5,6,1:2:0:0:
381,120,252477,1,0,1:0:0:0:
458,353,252627,5,4,1:2:0:0:
305,297,252777,1,0,1:0:0:0:
360,145,252927,1,2,1:2:0:0:
512,200,253077,1,0,1:0:0:0:
389,302,253227,5,2,1:2:0:0:
463,268,253377,1,0,1:0:0:0:
428,195,253527,1,2,1:2:0:0:
355,229,253677,1,0,1:0:0:0:
205,180,253827,5,4,1:2:0:0:
370,240,253977,1,0,1:0:0:0:
430,75,254127,1,2,1:2:0:0:
265,15,254277,1,0,1:0:0:0:
368,146,254427,5,2,1:2:0:0:
299,178,254577,1,0,1:0:0:0:
266,109,254727,1,2,1:2:0:0:
336,76,254877,1,0,1:0:0:0:
192,56,255027,6,0,L|28:89,1,123.999995080567,4|0,1:2|1:2,0:0:0:0:
362,224,255327,2,0,L|483:199,1,123.999995080567,2|0,1:2|1:2,0:0:0:0:
176,355,255627,2,0,L|54:379,1,123.999995080567,2|0,1:2|1:2,0:0:0:0:
274,162,255927,1,2,1:2:0:0:
243,249,256077,1,0,1:2:0:0:
337,99,256227,6,0,L|324:18,1,61.9999975402833,0|0,1:2|0:0,0:0:0:0:
175,285,256377,1,8,0:0:0:0:
175,285,256452,1,8,0:0:0:0:
175,285,256527,1,8,0:0:0:0:
175,285,256602,1,8,0:0:0:0:
175,285,256677,2,0,L|188:366,1,61.9999975402833,0|0,1:2|1:2,0:0:0:0:
368,260,256827,5,4,1:3:0:0:
144,124,256977,1,4,1:3:0:0:
306,130,257127,5,2,1:2:0:0:
206,254,257277,1,8,0:0:0:0:
256,192,257427,6,0,L|256:272,1,80,2|0,0:0|0:0,0:0:0:0:
256,272,259227,5,0,1:2:0:0:
256,272,259302,1,8,0:0:0:0:
256,272,259377,2,0,L|256:352,1,52.4999983978272,8|8,0:0|0:0,0:0:0:0:
256,112,259527,1,0,1:2:0:0:
256,112,259602,1,8,0:0:0:0:
256,112,259677,2,0,L|256:32,1,52.4999983978272,8|8,0:0|0:0,0:0:0:0:
329,185,259827,6,0,P|220:153|129:132,1,166.500004064941,4|0,1:2|0:0,0:0:0:0:
145,140,260127,5,10,0:2:0:0:
198,6,260277,1,2,0:0:0:0:
34,178,260427,1,2,1:2:0:0:
166,273,260577,1,2,1:2:0:0:
87,73,260727,1,8,0:0:0:0:
68,327,260877,1,2,0:0:0:0:
272,285,261027,6,0,P|326:296|379:310,1,111.000002709961,2|0,1:2|1:2,0:0:0:0:
199,354,261327,1,8,0:0:0:0:
328,181,261477,6,0,P|273:192|220:207,1,111.000002709961,2|0,1:2|0:0,0:0:0:0:
378,289,261777,1,0,1:2:0:0:
214,187,261927,2,0,B|227:109|297:154|300:26,1,166.500004064941,10|0,0:0|0:0,0:0:0:0:
367,0,262227,6,0,L|197:40,1,166.500004064941,0|0,1:2|0:0,0:0:0:0:
186,28,262527,1,10,0:0:0:0:
328,181,262677,1,2,0:0:0:0:
443,49,262827,1,2,1:2:0:0:
230,212,262977,1,2,1:2:0:0:
109,2,263127,1,8,0:0:0:0:
249,111,263277,1,2,0:0:0:0:
140,300,263427,5,0,1:2:0:0:
140,300,263502,1,0,1:2:0:0:
140,300,263577,2,0,L|154:211,1,55.5000013549805,0|0,1:2|0:0,0:0:0:0:
321,241,263727,1,10,0:0:0:0:
321,241,263802,1,8,0:0:0:0:
321,241,263877,2,0,L|307:152,1,55.5000013549805,8|0,0:0|0:0,0:0:0:0:
163,141,264027,2,0,L|177:52,1,57.5000010967255,2|0,1:2|1:2,0:0:0:0:
261,7,264177,5,8,0:0:0:0:
252,63,264252,1,8,0:0:0:0:
244,120,264327,1,2,1:2:0:0:
236,177,264402,1,0,1:2:0:0:
227,234,264477,1,0,1:2:0:0:
219,291,264552,1,0,1:2:0:0:
211,348,264627,2,0,P|128:347|94:271,1,166.500004064941,4|0,1:2|0:0,0:0:0:0:
86,271,264927,5,8,0:2:0:0:
227,234,265077,1,2,0:3:0:0:
425,365,265227,5,0,1:2:0:0:
324,260,265377,1,2,0:3:0:0:
336,21,265527,5,8,0:0:0:0:
298,162,265677,1,2,0:3:0:0:
243,71,265827,5,0,1:2:0:0:
387,109,265977,1,2,0:3:0:0:
174,322,266127,5,8,0:0:0:0:
134,179,266277,1,2,0:3:0:0:
427,260,266427,5,0,1:0:0:0:
322,363,266577,1,2,0:3:0:0:
278,204,266727,6,0,B|268:176|254:184|266:150|293:175|276:173|282:204,1,75,8|0,0:0|0:0,0:0:0:0:
299,282,267027,1,4,1:2:0:0:
131,320,267177,6,0,B|178:310|157:273|216:261,1,108.000002636719,2|8,0:3|0:0,0:0:0:0:
465,228,267477,2,0,B|420:245|418:202|362:224,1,108.000002636719,2|0,0:3|1:0,0:0:0:0:
229,23,267777,2,0,L|266:163,1,108.000002636719,2|8,0:3|0:0,0:0:0:0:
278,204,268077,1,2,0:0:0:0:
333,32,268227,5,6,1:2:0:0:
144,81,268377,1,8,0:0:0:0:
144,81,268452,1,8,0:0:0:0:
144,81,268527,1,8,0:0:0:0:
335,144,268677,1,0,1:0:0:0:
199,181,268827,1,8,1:3:0:0:
299,282,268977,1,4,1:3:0:0:
256,127,269127,2,0,L|229:23,1,108.000002636719,10|0,0:0|0:0,0:0:0:0:
368,384,269427,6,0,B|392:306|392:306|439:295|439:295|469:198,1,216.000005273438,6|8,1:2|0:0,0:0:0:0:
413,123,269802,1,2,0:0:0:0:
413,123,269877,1,2,0:0:0:0:
413,123,269952,1,2,0:0:0:0:
413,123,270027,2,0,L|490:108,1,54.0000013183594,2|0,1:2|0:0,0:0:0:0:
373,217,270177,2,0,L|319:206,1,54.0000013183594,2|2,0:0|0:0,0:0:0:0:
229,47,270327,6,0,B|214:-7|214:-7|308:37|308:37|331:117,1,207.000000315857,10|0,0:2|0:0,0:0:0:0:
259,142,270627,2,0,L|205:152,1,54.0000013183594,0|0,1:2|0:0,0:0:0:0:
90,55,270777,1,2,0:0:0:0:
95,50,270852,1,0,0:0:0:0:
100,45,270927,2,0,L|110:98,1,54.0000013183594,8|0,0:2|0:0,0:0:0:0:
92,252,271077,2,0,L|137:170,1,54.0000013183594,2|0,3:2|3:2,0:0:0:0:
192,76,271227,5,10,0:0:0:0:
31,159,271377,1,10,0:0:0:0:
210,276,271527,1,10,0:0:0:0:
235,1,271677,1,10,0:0:0:0:
