osu file format v14

[General]
AudioFilename: audio.mp3
AudioLeadIn: 0
PreviewTime: -1
Countdown: 1
SampleSet: Normal
StackLeniency: 0.7
Mode: 0
LetterboxInBreaks: 0
WidescreenStoryboard: 1

[Editor]
Bookmarks: 484,86584,96184,115384,144184,230584
DistanceSpacing: 6
BeatDivisor: 4
GridSize: 4
TimelineZoom: 1

[Metadata]
Title:Trip to Ireland
TitleUnicode:Trip to Ireland
Artist:Dr.Peacock
ArtistUnicode:Dr.Peacock
Creator:HiPat
Version:taPiH
Source:
Tags:dr peacock trip to ireland youtube jumpcore
BeatmapID:1570343
BeatmapSetID:744837

[Difficulty]
HPDrainRate:6.5
CircleSize:4
OverallDifficulty:8
ApproachRate:9.2
SliderMultiplier:1.4
SliderTickRate:1

[Events]
//Background and Video events
0,0,"bg peacock.jpg",0,0
//Break Periods
2,9984,18814
2,77184,86014
2,96384,105214
2,131183,134014
//Storyboard Layer 0 (Background)
//Storyboard Layer 1 (Fail)
//Storyboard Layer 2 (Pass)
//Storyboard Layer 3 (Foreground)
//Storyboard Sound Samples

[TimingPoints]
484.571061216751,300,4,1,0,100,1,0
559,-100,4,1,0,25,0,0
1909,-100,4,1,0,40,0,0
3034,-100,4,1,0,55,0,0
4234,-100,4,1,0,70,0,0
5434,-100,4,1,0,85,0,0
6634,-100,4,1,0,75,0,0
24034,-100,4,1,0,50,0,0
25234,-100,4,1,0,40,0,0
26434,-100,4,1,0,30,0,0
27634,-100,4,1,0,20,0,0
28834,-100,4,1,0,10,0,0
29134,-100,4,1,0,15,0,0
29434,-100,4,1,0,20,0,0
29734,-100,4,1,0,25,0,0
30034,-100,4,1,0,30,0,0
30334,-100,4,1,0,35,0,0
30634,-100,4,1,0,40,0,0
30934,-100,4,1,0,45,0,0
31234,-100,4,1,0,50,0,0
31534,-100,4,1,0,55,0,0
32434,-100,4,1,0,65,0,0
33784,-100,4,1,0,75,0,0
47734,-66.6666666666667,4,1,0,75,0,0
65809,-66.6666666666667,4,1,0,5,0,0
67234,-66.6666666666667,4,1,0,75,0,0

[HitObjects]
72,192,784,5,0,0:0:0:0:
112,192,859,1,0,0:0:0:0:
148,180,934,1,0,0:0:0:0:
180,160,1009,1,0,0:0:0:0:
200,128,1084,1,0,0:0:0:0:
276,128,1234,1,0,0:0:0:0:
352,128,1384,1,0,0:0:0:0:
372,160,1459,1,0,0:0:0:0:
404,180,1534,1,0,0:0:0:0:
440,192,1609,1,0,0:0:0:0:
480,192,1684,1,0,0:0:0:0:
372,300,1984,6,0,L|412:300,4,35
296,300,2434,1,0,0:0:0:0:
204,296,2584,1,0,0:0:0:0:
204,252,2659,1,0,0:0:0:0:
204,208,2734,1,0,0:0:0:0:
204,164,2809,1,0,0:0:0:0:
204,120,2884,1,0,0:0:0:0:
356,36,3184,5,0,0:0:0:0:
376,76,3259,1,0,0:0:0:0:
380,120,3334,1,0,0:0:0:0:
376,164,3409,1,0,0:0:0:0:
356,204,3484,1,0,0:0:0:0:
308,120,3634,1,0,0:0:0:0:
204,120,3784,2,0,L|164:120,4,35
96,284,4384,6,0,L|72:240,4,35
192,284,4834,1,0,0:0:0:0:
288,284,4984,2,0,L|312:240,4,35
396,120,5584,6,0,L|340:120,1,35
312,128,5734,1,0,0:0:0:0:
268,152,5809,1,0,0:0:0:0:
232,188,5884,1,0,0:0:0:0:
296,260,6034,1,0,0:0:0:0:
220,324,6184,1,0,0:0:0:0:
184,292,6259,1,0,0:0:0:0:
160,248,6334,1,0,0:0:0:0:
152,200,6409,1,0,0:0:0:0:
164,152,6484,1,0,0:0:0:0:
328,44,6784,5,0,0:0:0:0:
372,64,6859,1,0,0:0:0:0:
412,92,6934,1,0,0:0:0:0:
444,132,7009,1,0,0:0:0:0:
468,176,7084,1,0,0:0:0:0:
468,272,7234,1,0,0:0:0:0:
368,272,7384,2,0,P|340:272|304:264,1,35
288,252,7534,1,0,0:0:0:0:
256,216,7609,1,0,0:0:0:0:
240,168,7684,1,0,0:0:0:0:
348,144,7984,5,0,0:0:0:0:
348,4,8134,1,0,0:0:0:0:
224,68,8284,1,0,0:0:0:0:
84,68,8434,1,0,0:0:0:0:
84,244,8584,1,0,0:0:0:0:
432,240,8884,1,0,0:0:0:0:
92,332,9184,6,0,L|160:284,1,70
424,76,9484,2,0,L|366:116,1,70
256,188,9784,1,0,0:0:0:0:
304,192,19384,5,0,0:0:0:0:
448,40,19684,1,0,0:0:0:0:
448,304,19984,2,0,P|372:324|284:308,1,140
208,192,20584,5,0,0:0:0:0:
64,40,20884,1,0,0:0:0:0:
64,304,21184,2,0,P|140:324|228:308,1,140
64,40,21784,6,0,B|140:40|140:40|156:76|204:76,1,140
424,192,22384,1,0,0:0:0:0:
92,188,22684,1,0,0:0:0:0:
420,328,22984,6,0,B|386:328|370:292|370:292|295:292,1,140
92,188,23584,1,0,0:0:0:0:
424,192,23884,1,0,0:0:0:0:
88,64,24184,5,0,0:0:0:0:
88,64,24784,1,0,0:0:0:0:
408,68,25384,1,0,0:0:0:0:
408,68,25984,1,0,0:0:0:0:
408,324,26584,5,0,0:0:0:0:
408,324,27184,1,0,0:0:0:0:
88,320,27784,1,0,0:0:0:0:
88,320,28384,1,0,0:0:0:0:
268,228,28984,5,0,0:0:0:0:
220,248,29284,1,0,0:0:0:0:
156,248,29584,1,0,0:0:0:0:
80,216,29884,1,0,0:0:0:0:
64,124,30184,5,0,0:0:0:0:
144,40,30484,1,0,0:0:0:0:
296,36,30784,1,0,0:0:0:0:
448,112,31084,1,0,0:0:0:0:
496,304,31384,5,0,0:0:0:0:
308,116,31684,1,0,0:0:0:0:
48,308,31984,1,0,0:0:0:0:
208,116,32284,1,0,0:0:0:0:
416,368,32584,6,0,P|392:296|428:232,1,140
112,148,33184,2,0,P|136:84|110:21,1,140
276,164,33784,5,0,0:0:0:0:
236,192,33934,1,0,0:0:0:0:
236,148,34084,1,0,0:0:0:0:
256,176,34234,1,0,0:0:0:0:
264,124,34384,5,0,0:0:0:0:
288,192,34534,1,0,0:0:0:0:
216,180,34684,1,0,0:0:0:0:
280,148,34834,1,0,0:0:0:0:
284,232,34984,5,0,0:0:0:0:
240,140,35134,1,0,0:0:0:0:
344,148,35284,1,0,0:0:0:0:
216,220,35434,1,0,0:0:0:0:
296,80,35584,5,0,0:0:0:0:
372,220,35734,1,0,0:0:0:0:
424,80,35884,1,0,0:0:0:0:
428,292,36034,1,0,0:0:0:0:
80,292,36184,2,0,L|80:252,15,35
112,228,37384,5,0,0:0:0:0:
112,228,37684,1,0,0:0:0:0:
112,228,37984,1,0,0:0:0:0:
116,64,38284,2,0,P|164:64|200:88,1,70
304,148,38584,5,0,0:0:0:0:
208,232,38734,1,0,0:0:0:0:
304,148,38884,1,0,0:0:0:0:
208,232,39034,1,0,0:0:0:0:
188,120,39184,5,0,0:0:0:0:
336,256,39334,1,0,0:0:0:0:
188,120,39484,1,0,0:0:0:0:
336,256,39634,1,0,0:0:0:0:
160,192,39784,6,0,P|116:184|84:156,1,70
332,140,40084,2,0,P|376:132|408:104,1,70
88,260,40384,2,0,P|122:264|152:282,1,70
424,260,40684,2,0,P|389:264|359:282,1,70
160,64,40984,5,0,0:0:0:0:
160,64,41134,1,0,0:0:0:0:
256,188,41284,1,0,0:0:0:0:
348,64,41434,1,0,0:0:0:0:
256,188,41584,5,0,0:0:0:0:
160,64,41734,1,0,0:0:0:0:
256,188,41884,1,0,0:0:0:0:
256,188,42034,1,0,0:0:0:0:
48,188,42184,6,0,P|32:228|36:268,1,70
448,192,42484,2,0,P|449:157|463:125,1,70
136,52,42784,2,0,P|102:78|85:115,1,70
376,320,43084,2,0,P|394:290|424:268,1,70
36,132,43384,5,0,0:0:0:0:
156,336,43534,1,0,0:0:0:0:
256,124,43684,1,0,0:0:0:0:
36,132,43834,1,0,0:0:0:0:
436,260,43984,2,0,P|396:272|356:308,1,70
132,256,44284,2,0,P|92:268|52:304,1,70
476,132,44584,5,0,0:0:0:0:
356,336,44734,1,0,0:0:0:0:
256,124,44884,1,0,0:0:0:0:
476,132,45034,1,0,0:0:0:0:
76,260,45184,2,0,P|116:272|156:308,1,70
380,256,45484,2,0,P|420:268|460:304,1,70
444,56,45784,6,0,P|404:68|364:104,1,70
136,56,46084,2,0,P|102:64|73:84,1,70
256,188,46384,1,0,0:0:0:0:
256,188,46534,1,0,0:0:0:0:
388,188,46684,1,0,0:0:0:0:
116,188,46834,2,0,L|72:120,1,70
256,44,47284,1,0,0:0:0:0:
456,44,47584,1,0,0:0:0:0:
460,248,47884,2,0,P|452:304|416:336,1,105.000004005432
96,308,48184,5,0,0:0:0:0:
96,64,48334,1,0,0:0:0:0:
96,308,48484,1,0,0:0:0:0:
96,64,48634,1,0,0:0:0:0:
368,64,48784,2,0,P|344:112|300:148,1,105.000004005432
200,192,49084,2,0,L|92:192,1,105.000004005432
460,268,49384,5,0,0:0:0:0:
292,80,49534,1,0,0:0:0:0:
72,268,49684,1,0,0:0:0:0:
220,80,49834,1,0,0:0:0:0:
384,268,49984,1,0,0:0:0:0:
380,36,50134,1,0,0:0:0:0:
144,268,50284,1,0,0:0:0:0:
144,36,50434,1,0,0:0:0:0:
380,36,50584,5,0,0:0:0:0:
304,188,50734,1,0,0:0:0:0:
108,128,50884,2,0,P|168:132|212:108,1,105.000004005432
416,116,51184,1,0,0:0:0:0:
308,292,51334,1,0,0:0:0:0:
80,224,51484,2,0,P|136:228|184:204,1,105.000004005432
440,256,51784,6,0,P|392:224|368:176,1,105.000004005432
176,48,52084,1,0,0:0:0:0:
180,332,52234,1,0,0:0:0:0:
336,48,52384,1,0,0:0:0:0:
332,332,52534,1,0,0:0:0:0:
52,192,52684,1,0,0:0:0:0:
52,192,52759,1,0,0:0:0:0:
52,192,52834,1,0,0:0:0:0:
472,192,52984,6,0,P|440:216|476:256,1,105.000004005432
474,256,53284,2,0,P|483:286|422:292,1,105.000004005432
40,192,53584,6,0,P|72:216|36:256,1,105.000004005432
38,256,53884,2,0,P|29:286|90:292,1,105.000004005432
296,300,54184,5,0,0:0:0:0:
396,300,54334,1,0,0:0:0:0:
196,88,54484,1,0,0:0:0:0:
104,88,54634,1,0,0:0:0:0:
400,80,54784,5,0,0:0:0:0:
400,80,54934,1,0,0:0:0:0:
88,316,55084,1,0,0:0:0:0:
88,316,55234,1,0,0:0:0:0:
400,80,55384,1,0,0:0:0:0:
400,80,56584,5,0,0:0:0:0:
88,152,56734,1,0,0:0:0:0:
96,184,56809,1,0,0:0:0:0:
112,212,56884,1,0,0:0:0:0:
404,312,57034,1,0,0:0:0:0:
404,312,57184,1,0,0:0:0:0:
256,308,57334,1,0,0:0:0:0:
256,64,57484,1,0,0:0:0:0:
256,308,57634,1,0,0:0:0:0:
256,64,57784,5,0,0:0:0:0:
68,64,57934,1,0,0:0:0:0:
68,64,58009,1,0,0:0:0:0:
68,64,58084,1,0,0:0:0:0:
448,64,58234,1,0,0:0:0:0:
72,292,58384,2,0,P|112:240|172:236,1,105.000004005432
368,304,58684,5,0,0:0:0:0:
180,60,58834,1,0,0:0:0:0:
144,304,58984,1,0,0:0:0:0:
332,60,59134,1,0,0:0:0:0:
436,192,59284,1,0,0:0:0:0:
76,192,59434,1,0,0:0:0:0:
436,192,59584,2,0,L|328:192,1,105.000004005432
56,48,59884,6,0,L|136:128,1,105.000004005432
256,304,60184,1,0,0:0:0:0:
256,304,60334,1,0,0:0:0:0:
456,48,60484,6,0,L|376:128,1,105.000004005432
256,304,60784,1,0,0:0:0:0:
256,304,60934,1,0,0:0:0:0:
160,108,61084,5,0,0:0:0:0:
360,268,61234,1,0,0:0:0:0:
256,72,61384,1,0,0:0:0:0:
256,304,61534,1,0,0:0:0:0:
348,108,61684,1,0,0:0:0:0:
152,268,61834,1,0,0:0:0:0:
348,108,61984,2,0,P|416:144|432:184,1,105.000004005432
64,120,62284,5,0,0:0:0:0:
64,260,62434,1,0,0:0:0:0:
192,192,62584,2,0,L|300:192,1,105.000004005432
64,44,62884,5,0,0:0:0:0:
64,332,63034,1,0,0:0:0:0:
297,192,63184,2,0,L|412:192,1,105.000004005432
256,288,63484,5,0,0:0:0:0:
160,100,63634,1,0,0:0:0:0:
256,288,63784,1,0,0:0:0:0:
352,100,63934,1,0,0:0:0:0:
256,288,64084,2,0,L|368:288,1,105.000004005432
88,288,64384,1,0,0:0:0:0:
88,92,64534,1,0,0:0:0:0:
88,288,64684,5,0,0:0:0:0:
256,192,64834,1,0,0:0:0:0:
412,100,64984,2,0,L|412:208,1,105.000004005432
412,284,65284,1,0,0:0:0:0:
256,192,65434,1,0,0:0:0:0:
112,100,65584,2,0,L|220:100,1,105.000004005432
256,192,65884,12,0,67084,0:0:0:0:
112,332,67384,6,0,P|80:276|80:220,1,105.000004005432
256,96,67684,1,0,0:0:0:0:
256,328,67834,1,0,0:0:0:0:
256,96,67984,6,0,P|320:103|365:135,1,105.000004005432
404,328,68284,5,0,0:0:0:0:
120,80,68434,1,0,0:0:0:0:
404,328,68584,1,0,0:0:0:0:
120,80,68734,1,0,0:0:0:0:
124,324,68884,1,0,0:0:0:0:
396,80,69034,1,0,0:0:0:0:
124,324,69184,2,0,P|176:312|208:252,1,105.000004005432
36,244,69484,6,0,P|66:202|117:191,1,105.000004005432
424,192,69784,1,0,0:0:0:0:
424,192,69934,1,0,0:0:0:0:
36,44,70084,6,0,P|66:85|117:96,1,105.000004005432
420,100,70384,1,0,0:0:0:0:
420,100,70534,1,0,0:0:0:0:
196,140,70684,5,0,0:0:0:0:
320,144,70834,1,0,0:0:0:0:
196,244,70984,1,0,0:0:0:0:
320,244,71134,1,0,0:0:0:0:
120,60,71284,5,0,0:0:0:0:
392,64,71434,1,0,0:0:0:0:
124,324,71584,2,0,L|236:324,1,105.000004005432
256,60,71884,5,0,0:0:0:0:
256,320,72034,1,0,0:0:0:0:
256,60,72184,2,0,P|312:88|324:144,1,105.000004005432
256,320,72484,1,0,0:0:0:0:
256,60,72634,1,0,0:0:0:0:
256,320,72784,2,0,P|209:298|190:250,1,105.000004005432
384,192,73084,5,0,0:0:0:0:
132,192,73234,1,0,0:0:0:0:
384,316,73384,1,0,0:0:0:0:
380,72,73534,1,0,0:0:0:0:
132,316,73684,1,0,0:0:0:0:
132,68,73834,1,0,0:0:0:0:
384,316,73984,2,0,L|304:232,1,105.000004005432
480,192,74284,5,0,0:0:0:0:
480,192,74434,1,0,0:0:0:0:
200,248,74584,2,0,L|200:140,1,105.000004005432
480,192,74884,1,0,0:0:0:0:
480,192,75034,1,0,0:0:0:0:
92,244,75184,2,0,L|92:136,1,105.000004005432
476,40,75484,5,0,0:0:0:0:
476,40,75634,1,0,0:0:0:0:
476,352,75784,5,0,0:0:0:0:
256,196,75934,1,0,0:0:0:0:
256,196,76009,1,0,0:0:0:0:
256,196,76084,1,0,0:0:0:0:
36,40,76234,1,0,0:0:0:0:
36,348,76384,2,0,P|96:336|76:304,1,105.000004005432
89,314,76684,2,0,P|96:256|144:268,1,105.000004005432
256,192,76984,1,0,0:0:0:0:
256,192,86584,5,0,0:0:0:0:
480,48,86734,1,0,0:0:0:0:
480,48,86809,1,0,0:0:0:0:
480,48,86884,2,0,P|476:84|436:148,1,105.000004005432
80,328,87184,2,0,P|160:336|200:320,1,105.000004005432
472,256,87484,2,0,P|391:248|352:264,1,105.000004005432
56,192,87784,5,0,0:0:0:0:
128,64,87934,2,0,P|180:64|192:68,1,52.5000020027161
179,64,88084,2,0,P|232:104|240:152,1,105.000004005432
424,192,88384,1,0,0:0:0:0:
424,192,88534,1,0,0:0:0:0:
328,40,88684,1,0,0:0:0:0:
328,328,88834,1,0,0:0:0:0:
108,192,88984,5,0,0:0:0:0:
256,40,89134,1,0,0:0:0:0:
256,40,89209,1,0,0:0:0:0:
256,40,89284,2,0,P|192:72|160:128,1,105.000004005432
352,280,89584,2,0,P|316:318|268:337,1,105.000004005432
92,340,89884,1,0,0:0:0:0:
92,340,90034,1,0,0:0:0:0:
296,156,90184,6,0,P|352:180|380:224,1,105.000004005432
216,156,90484,2,0,P|160:180|132:224,1,105.000004005432
416,44,90784,2,0,P|472:68|500:112,1,105.000004005432
96,44,91084,2,0,P|40:68|12:112,1,105.000004005432
256,252,91384,5,0,0:0:0:0:
256,48,91534,1,0,0:0:0:0:
256,48,91609,1,0,0:0:0:0:
256,48,91684,2,0,L|256:160,1,105.000004005432
256,336,91984,2,0,L|256:231,1,105.000004005432
60,192,92284,1,0,0:0:0:0:
60,192,92434,1,0,0:0:0:0:
444,60,92584,5,0,0:0:0:0:
432,292,92734,2,0,P|404:312|364:316,1,52.5000020027161
386,316,92884,2,0,P|328:316|272:288,1,105.000004005432
380,192,93184,1,0,0:0:0:0:
144,192,93334,1,0,0:0:0:0:
380,192,93484,1,0,0:0:0:0:
144,192,93634,1,0,0:0:0:0:
256,320,93784,5,0,0:0:0:0:
256,68,93934,1,0,0:0:0:0:
256,68,94009,1,0,0:0:0:0:
256,68,94084,2,0,P|312:68|368:96,1,105.000004005432
68,72,94384,1,0,0:0:0:0:
68,292,94534,1,0,0:0:0:0:
68,72,94684,1,0,0:0:0:0:
68,292,94834,1,0,0:0:0:0:
256,192,94984,5,0,0:0:0:0:
260,308,95134,1,0,0:0:0:0:
260,308,95209,1,0,0:0:0:0:
260,309,95284,2,0,P|312:309|360:289,1,105.000004005432
444,72,95584,1,0,0:0:0:0:
444,292,95734,1,0,0:0:0:0:
444,72,95884,1,0,0:0:0:0:
444,292,96034,1,0,0:0:0:0:
256,192,96184,5,0,0:0:0:0:
256,192,105784,5,0,0:0:0:0:
448,56,105934,1,0,0:0:0:0:
448,56,106009,1,0,0:0:0:0:
448,56,106084,1,0,0:0:0:0:
56,56,106234,1,0,0:0:0:0:
160,56,106384,1,0,0:0:0:0:
124,184,106534,1,0,0:0:0:0:
288,68,106684,1,0,0:0:0:0:
228,256,106834,1,0,0:0:0:0:
256,192,106984,5,0,0:0:0:0:
64,56,107134,1,0,0:0:0:0:
64,56,107209,1,0,0:0:0:0:
64,56,107284,1,0,0:0:0:0:
456,56,107434,1,0,0:0:0:0:
352,56,107584,1,0,0:0:0:0:
388,184,107734,1,0,0:0:0:0:
224,68,107884,1,0,0:0:0:0:
284,256,108034,1,0,0:0:0:0:
88,332,108184,5,0,0:0:0:0:
424,332,108334,1,0,0:0:0:0:
424,332,108409,1,0,0:0:0:0:
424,332,108484,2,0,L|424:224,1,105.000004005432
144,84,108784,1,0,0:0:0:0:
148,284,108934,1,0,0:0:0:0:
368,84,109084,1,0,0:0:0:0:
364,284,109234,1,0,0:0:0:0:
208,176,109384,6,0,L|136:260,1,105.000004005432
304,176,109684,2,0,L|376:260,1,105.000004005432
72,176,109984,2,0,L|0:260,1,105.000004005432
440,176,110284,2,0,L|512:260,1,105.000004005432
256,288,110584,5,0,0:0:0:0:
256,72,110734,1,0,0:0:0:0:
256,72,110809,1,0,0:0:0:0:
256,72,110884,2,0,L|256:184,1,105.000004005432
508,255,111184,2,0,L|440:176,1,105.000004005432
3,255,111484,2,0,L|72:176,1,105.000004005432
408,64,111784,5,0,0:0:0:0:
60,64,111934,1,0,0:0:0:0:
108,76,112009,1,0,0:0:0:0:
140,112,112084,2,0,P|164:152|160:212,1,105.000004005432
139,255,112384,2,0,L|208:176,1,105.000004005432
372,255,112684,2,0,L|304:176,1,105.000004005432
256,84,112984,5,0,0:0:0:0:
256,264,113134,1,0,0:0:0:0:
348,116,113284,1,0,0:0:0:0:
144,204,113434,1,0,0:0:0:0:
368,204,113584,1,0,0:0:0:0:
160,112,113734,1,0,0:0:0:0:
464,104,113884,2,0,L|464:212,1,105.000004005432
256,192,114184,5,0,0:0:0:0:
448,56,114334,1,0,0:0:0:0:
448,56,114409,1,0,0:0:0:0:
448,56,114484,1,0,0:0:0:0:
56,56,114634,1,0,0:0:0:0:
160,56,114784,1,0,0:0:0:0:
124,184,114934,1,0,0:0:0:0:
288,68,115084,1,0,0:0:0:0:
228,256,115234,1,0,0:0:0:0:
444,320,115384,5,0,0:0:0:0:
68,320,116584,5,0,0:0:0:0:
68,52,117784,5,0,0:0:0:0:
444,52,118984,5,0,0:0:0:0:
68,52,120184,5,0,0:0:0:0:
68,320,120784,5,0,0:0:0:0:
444,320,121384,5,0,0:0:0:0:
444,52,121984,5,0,0:0:0:0:
444,52,122584,5,0,0:0:0:0:
444,320,123184,5,0,0:0:0:0:
68,320,123784,5,0,0:0:0:0:
68,52,124384,5,0,0:0:0:0:
200,148,124984,5,0,0:0:0:0:
312,148,125284,1,0,0:0:0:0:
200,232,125584,1,0,0:0:0:0:
312,232,125884,1,0,0:0:0:0:
148,84,126184,5,0,0:0:0:0:
364,84,126484,1,0,0:0:0:0:
148,308,126784,1,0,0:0:0:0:
364,308,127084,1,0,0:0:0:0:
324,136,127384,5,0,0:0:0:0:
196,256,127534,1,0,0:0:0:0:
256,92,127684,1,0,0:0:0:0:
300,256,127834,1,0,0:0:0:0:
176,140,127984,5,0,0:0:0:0:
424,140,128134,1,0,0:0:0:0:
252,28,128284,1,0,0:0:0:0:
92,140,128434,1,0,0:0:0:0:
372,228,128584,6,0,P|416:256|440:316,1,105.000004005432
140,228,128884,2,0,P|96:256|72:316,1,105.000004005432
440,108,129184,2,0,P|417:61|373:33,1,105.000004005432
72,108,129484,2,0,P|94:61|138:33,1,105.000004005432
256,212,129784,6,0,L|256:160,16,52.5000020027161
256,192,134584,5,0,0:0:0:0:
444,64,134734,2,0,L|472:124,2,52.5000020027161
104,208,135034,1,0,0:0:0:0:
204,52,135184,1,0,0:0:0:0:
104,208,135334,1,0,0:0:0:0:
200,48,135484,1,0,0:0:0:0:
256,312,135634,1,0,0:0:0:0:
256,192,135784,5,0,0:0:0:0:
68,64,135934,2,0,L|40:124,2,52.5000020027161
408,208,136234,1,0,0:0:0:0:
308,52,136384,1,0,0:0:0:0:
408,208,136534,1,0,0:0:0:0:
312,48,136684,1,0,0:0:0:0:
256,312,136834,1,0,0:0:0:0:
472,40,136984,6,0,P|460:72|432:100,1,52.5000020027161
416,112,137134,2,0,P|386:129|347:134,1,52.5000020027161
320,144,137284,1,0,0:0:0:0:
56,188,137434,1,0,0:0:0:0:
280,324,137584,1,0,0:0:0:0:
144,48,137734,1,0,0:0:0:0:
408,244,137884,1,0,0:0:0:0:
296,16,138034,1,0,0:0:0:0:
176,224,138184,6,0,P|152:276|176:328,1,105.000004005432
345,318,138484,2,0,P|359:269|336:224,1,105.000004005432
8,96,138784,2,0,P|-8:144|8:200,1,105.000004005432
506,195,139084,2,0,P|520:145|504:96,1,105.000004005432
172,52,139384,5,0,0:0:0:0:
400,60,139534,1,0,0:0:0:0:
356,76,139609,1,0,0:0:0:0:
328,124,139684,1,0,0:0:0:0:
188,312,139834,1,0,0:0:0:0:
92,68,139984,2,0,L|92:176,1,105.000004005432
476,64,140284,1,0,0:0:0:0:
480,324,140434,1,0,0:0:0:0:
92,264,140584,5,0,0:0:0:0:
472,240,140734,6,0,P|452:176|480:136,1,105.000004005432
144,80,141034,1,0,0:0:0:0:
176,288,141184,1,0,0:0:0:0:
248,88,141334,1,0,0:0:0:0:
272,248,141484,1,0,0:0:0:0:
344,108,141634,1,0,0:0:0:0:
360,224,141784,6,0,P|404:272|412:324,1,105.000004005432
248,228,142084,2,0,P|292:276|300:328,1,105.000004005432
132,228,142384,2,0,P|176:276|184:328,1,105.000004005432
256,48,142684,1,0,0:0:0:0:
428,48,142834,2,0,L|496:48,1,52.5000020027161
480,128,142984,5,0,0:0:0:0:
300,64,143134,1,0,0:0:0:0:
340,232,143284,1,0,0:0:0:0:
296,64,143434,1,0,0:0:0:0:
180,200,143584,1,0,0:0:0:0:
152,40,143734,1,0,0:0:0:0:
180,200,143884,1,0,0:0:0:0:
180,200,144034,1,0,0:0:0:0:
256,348,144184,5,0,0:0:0:0:
380,128,144334,1,0,0:0:0:0:
404,328,144484,1,0,0:0:0:0:
200,96,144634,1,0,0:0:0:0:
452,40,144784,1,0,0:0:0:0:
452,336,144934,1,0,0:0:0:0:
272,188,145084,1,0,0:0:0:0:
272,188,145234,1,0,0:0:0:0:
120,248,145384,5,0,0:0:0:0:
400,140,145534,1,0,0:0:0:0:
96,72,145684,1,0,0:0:0:0:
388,256,145834,1,0,0:0:0:0:
460,96,145984,1,0,0:0:0:0:
256,268,146134,1,0,0:0:0:0:
296,72,146284,1,0,0:0:0:0:
120,248,146434,1,0,0:0:0:0:
428,300,146584,5,0,0:0:0:0:
428,300,146734,1,0,0:0:0:0:
256,68,146884,1,0,0:0:0:0:
256,292,147034,1,0,0:0:0:0:
96,292,147184,1,0,0:0:0:0:
96,292,147334,1,0,0:0:0:0:
392,192,147484,1,0,0:0:0:0:
132,188,147634,1,0,0:0:0:0:
440,152,147784,6,0,P|452:92|444:32,1,105.000004005432
96,52,148084,1,0,0:0:0:0:
96,52,148234,1,0,0:0:0:0:
256,288,148384,1,0,0:0:0:0:
256,88,148534,1,0,0:0:0:0:
392,272,148684,2,0,L|436:308,2,52.5000020027161
60,136,148984,5,0,0:0:0:0:
132,296,149134,1,0,0:0:0:0:
160,56,149284,1,0,0:0:0:0:
256,284,149434,1,0,0:0:0:0:
344,56,149584,1,0,0:0:0:0:
256,284,149734,1,0,0:0:0:0:
468,192,149884,1,0,0:0:0:0:
468,192,150034,1,0,0:0:0:0:
208,148,150184,5,0,0:0:0:0:
208,328,150334,1,0,0:0:0:0:
328,148,150484,1,0,0:0:0:0:
324,328,150634,1,0,0:0:0:0:
128,88,150784,1,0,0:0:0:0:
128,324,150934,1,0,0:0:0:0:
396,92,151084,1,0,0:0:0:0:
396,324,151234,1,0,0:0:0:0:
256,192,151384,5,0,0:0:0:0:
112,276,152584,6,0,B|96:196|88:136|184:280|144:80,1,210.000008010865
364,96,153184,2,0,B|328:280|424:136|416:196|400:276,1,210.000008010865
80,188,153784,5,0,0:0:0:0:
432,120,153934,2,0,P|456:88|456:60,2,52.5000020027161
160,312,154234,1,0,0:0:0:0:
424,260,154384,1,0,0:0:0:0:
212,140,154534,1,0,0:0:0:0:
316,200,154684,1,0,0:0:0:0:
112,88,154834,1,0,0:0:0:0:
212,288,154984,5,0,0:0:0:0:
360,96,155134,1,0,0:0:0:0:
144,168,155284,1,0,0:0:0:0:
380,288,155434,1,0,0:0:0:0:
212,296,155584,1,0,0:0:0:0:
88,124,155734,1,0,0:0:0:0:
304,296,155884,1,0,0:0:0:0:
436,128,156034,1,0,0:0:0:0:
36,244,156184,6,0,P|60:292|124:300,1,105.000004005432
412,304,156484,1,0,0:0:0:0:
412,304,156634,1,0,0:0:0:0:
36,136,156784,2,0,P|57:89|106:75,1,105.000004005432
400,80,157084,1,0,0:0:0:0:
400,80,157234,1,0,0:0:0:0:
256,84,157384,5,0,0:0:0:0:
256,280,157534,1,0,0:0:0:0:
256,84,157684,1,0,0:0:0:0:
256,280,157834,1,0,0:0:0:0:
176,120,157984,1,0,0:0:0:0:
344,272,158134,1,0,0:0:0:0:
176,120,158284,1,0,0:0:0:0:
344,272,158434,1,0,0:0:0:0:
108,168,158584,5,0,0:0:0:0:
108,168,158734,1,0,0:0:0:0:
368,136,158884,1,0,0:0:0:0:
144,296,159034,1,0,0:0:0:0:
304,84,159184,1,0,0:0:0:0:
280,324,159334,1,0,0:0:0:0:
408,96,159484,1,0,0:0:0:0:
408,96,159634,1,0,0:0:0:0:
400,316,159784,5,0,0:0:0:0:
112,232,159934,1,0,0:0:0:0:
408,96,160084,1,0,0:0:0:0:
112,132,160234,1,0,0:0:0:0:
252,308,160384,1,0,0:0:0:0:
256,64,160534,1,0,0:0:0:0:
252,308,160684,1,0,0:0:0:0:
256,64,160834,1,0,0:0:0:0:
376,328,160984,5,0,0:0:0:0:
448,148,161134,1,0,0:0:0:0:
288,316,161284,1,0,0:0:0:0:
304,88,161434,1,0,0:0:0:0:
208,316,161584,1,0,0:0:0:0:
172,84,161734,1,0,0:0:0:0:
120,332,161884,1,0,0:0:0:0:
8,128,162034,1,0,0:0:0:0:
8,128,162184,5,0,0:0:0:0:
120,332,162334,1,0,0:0:0:0:
172,84,162484,1,0,0:0:0:0:
208,316,162634,1,0,0:0:0:0:
304,88,162784,1,0,0:0:0:0:
288,316,162934,1,0,0:0:0:0:
448,148,163084,1,0,0:0:0:0:
376,328,163234,1,0,0:0:0:0:
256,188,163384,5,0,0:0:0:0:
