osu file format v14

[General]
AudioFilename: concrete ark.mp3
AudioLeadIn: 0
PreviewTime: 59
Countdown: 0
SampleSet: Soft
StackLeniency: 0.7
Mode: 0
LetterboxInBreaks: 0
WidescreenStoryboard: 0

[Editor]
DistanceSpacing: 0.8
BeatDivisor: 1
GridSize: 4
TimelineZoom: 1

[Metadata]
Title:concrete ark
TitleUnicode:콘크리트 방주
Artist:Dr.Gothic
ArtistUnicode:고두익
Creator:thregium
Version:Easy
Source:
Tags:midi flash corrosion choir 부식 합창
BeatmapID:691667
BeatmapSetID:309387

[Difficulty]
HPDrainRate:2
CircleSize:2.5
OverallDifficulty:2
ApproachRate:3
SliderMultiplier:1.1
SliderTickRate:1

[Events]
//Background and Video events
0,0,"concrete ark.png",0,0
//Break Periods
//Storyboard Layer 0 (Background)
//Storyboard Layer 1 (Fail)
//Storyboard Layer 2 (Pass)
//Storyboard Layer 3 (Foreground)
//Storyboard Sound Samples

[TimingPoints]
60,545.454545454546,4,2,1,40,1,0
17514,-100,4,2,1,60,0,0
21878,-100,4,2,1,50,0,0
26241,-100,4,2,1,60,0,0
30605,-100,4,2,1,50,0,0
34969,-100,4,2,1,65,0,0
39332,-100,4,2,1,55,0,0
52423,-100,4,2,1,80,0,0
56787,-100,4,2,1,70,0,0
61150,-100,4,2,1,85,0,0
65514,-100,4,2,1,75,0,0
69878,-100,4,2,1,90,0,0
74241,-100,4,2,1,80,0,0
78605,-100,4,2,1,100,0,0
82969,-100,4,2,1,95,0,0
87332,-100,4,2,1,80,0,0
89514,-100,4,2,1,60,0,0
91696,-100,4,2,1,40,0,0
93878,-100,4,2,1,20,0,0

[Colours]
Combo1 : 128,191,64
Combo2 : 127,127,127
Combo3 : 64,96,191
Combo4 : 191,64,67

[HitObjects]
421,201,60,6,0,P|386:100|291:47,1,220,4|8,0:0|0:0,0:0:0:0:
246,122,1696,1,0,0:0:0:0:
201,46,2241,2,4,P|106:98|71:199,1,220,4|8,0:0|0:0,0:0:0:0:
151,230,3878,2,0,P|154:287|123:332,1,110,0|4,0:0|0:0,0:0:0:0:
38,343,4969,5,0,0:0:0:0:
69,261,5514,1,8,0:0:0:0:
125,329,6060,2,0,L|234:315,1,110,0|4,0:0|0:0,0:0:0:0:
292,250,7150,1,0,0:0:0:0:
231,185,7696,2,0,L|231:72,2,110,8|0|4,0:0|0:0|0:0,0:0:0:0:
170,249,9332,5,0,0:0:0:0:
82,236,9878,2,0,P|63:185|77:132,1,110,8|8,0:0|0:0,0:0:0:0:
151,86,10969,2,0,P|204:95|243:133,1,110,4|0,0:0|0:0,0:0:0:0:
280,212,12060,2,0,L|280:322,2,110,8|0|4,0:0|0:0|0:0,0:0:0:0:
331,140,13696,5,0,0:0:0:0:
311,54,14241,2,0,P|372:62|412:105,1,110,8|0,0:0|0:0,0:0:0:0:
331,140,15332,1,4,0:0:0:0:
288,217,15878,2,0,B|177:199|177:199|130:99,1,220
196,42,17514,6,0,P|399:92|443:295,1,440,4|4,0:0|0:0,0:0:0:0:
268,290,20787,1,8,0:0:0:0:
183,264,21332,1,0,0:0:0:0:
247,204,21878,5,4,0:0:0:0:
331,229,22423,2,0,P|379:218|416:173,2,110,0|8|0,0:0|0:0|0:0,0:0:0:0:
333,140,24060,2,0,P|264:158|223:191,1,110,4|0,0:0|0:0,0:0:0:0:
146,191,25150,2,0,P|176:251|230:266,1,110,8|8,0:0|0:0,0:0:0:0:
277,206,26241,6,0,P|293:308|190:351,1,220,4|8,0:0|0:0,0:0:0:0:
213,265,27878,1,0,0:0:0:0:
230,178,28423,2,0,P|138:221|161:340,1,220,4|8,0:0|0:0,0:0:0:0:
231,349,30060,1,0,0:0:0:0:
318,342,30605,6,0,P|371:237|195:185,1,330,4|0,0:0|0:0,0:0:0:0:
166,243,32787,2,0,L|67:180,1,110,4|0,0:0|0:0,0:0:0:0:
121,110,33878,2,0,L|220:173,1,110,8|0,0:0|0:0,0:0:0:0:
251,89,34969,6,0,P|401:62|460:206,1,330,4|0,0:0|0:0,0:0:0:0:
416,278,37150,2,0,P|380:317|313:305,1,110,4|0,0:0|0:0,0:0:0:0:
245,279,38241,1,8,0:0:0:0:
164,242,38787,1,0,0:0:0:0:
83,206,39332,5,4,0:0:0:0:
154,154,39878,2,0,L|258:81,2,110,0|8|0,0:0|0:0|0:0,0:0:0:0:
82,205,41514,2,0,B|90:308|360:188|368:298,1,330,4|0,0:0|0:0,0:0:0:0:
256,192,43696,12,0,46969,0:0:0:0:
479,312,48060,6,0,B|376:274|376:274|292:199,1,220,4|8,0:0|0:0,0:0:0:0:
352,134,49696,1,0,0:0:0:0:
278,86,50241,2,0,L|168:86,1,110,4|0,0:0|0:0,0:0:0:0:
107,150,51332,1,8,0:0:0:0:
182,194,51878,1,0,0:0:0:0:
269,203,52423,6,0,P|196:308|22:252,1,330,4|0,0:0|0:0,0:0:0:0:
36,169,54605,2,0,P|82:89|121:71,1,110,4|0,0:0|0:0,0:0:0:0:
175,46,55696,2,0,L|312:54,1,110,8|0,0:0|0:0,0:0:0:0:
369,77,56787,6,0,P|409:111|426:174,1,110,4|0,0:0|0:0,0:0:0:0:
340,160,57878,1,8,0:0:0:0:
380,240,58423,2,0,L|336:349,2,110,0|4|0,0:0|0:0|0:0,0:0:0:0:
340,160,60060,2,0,P|295:114|246:95,1,110,8|0,0:0|0:0,0:0:0:0:
172,62,61150,6,0,P|75:80|62:190,1,220,4|8,0:0|0:0,0:0:0:0:
137,143,62787,1,0,0:0:0:0:
172,62,63332,2,0,P|225:152|145:231,1,220,4|8,0:0|0:0,0:0:0:0:
137,143,64969,2,0,L|27:124,2,110,0|4|0,0:0|0:0|0:0,0:0:0:0:
171,224,66605,6,0,L|210:333,1,110,8|0,0:0|0:0,0:0:0:0:
284,283,67696,2,0,L|394:283,1,110,4|0,0:0|0:0,0:0:0:0:
379,196,68787,2,0,L|489:196,1,110,8|0,0:0|0:0,0:0:0:0:
463,112,69878,6,0,P|365:65|244:49,1,220,4|8,0:0|0:0,0:0:0:0:
253,137,71514,1,0,0:0:0:0:
319,194,72060,2,0,P|219:218|167:126,1,220,4|8,0:0|0:0,0:0:0:0:
84,160,73696,1,0,0:0:0:0:
119,241,74241,6,0,P|267:307|405:216,1,330,4|8,0:0|0:0,0:0:0:0:
372,141,76423,2,0,L|259:175,1,110,4|0,0:0|0:0,0:0:0:0:
184,143,77514,2,0,L|96:73,1,110,8|0,0:0|0:0,0:0:0:0:
37,138,78605,5,4,0:0:0:0:
69,219,79150,2,0,P|167:262|265:212,1,220
195,158,80787,2,0,P|280:90|393:68,1,220,4|8,0:0|0:0,0:0:0:0:
426,146,82423,1,0,0:0:0:0:
409,232,82969,6,0,L|77:329,1,330,4|0,0:0|0:0,0:0:0:0:
23,269,85150,1,4,0:0:0:0:
107,237,85696,2,0,L|220:204,2,110,0|8|0,0:0|0:0|0:0,0:0:0:0:
256,192,87332,12,0,96060,0:0:0:0:
