osu file format v14

[General]
AudioFilename: audio.mp3
AudioLeadIn: 0
PreviewTime: 151651
Countdown: 1
SampleSet: None
StackLeniency: 0.7
Mode: 0
LetterboxInBreaks: 0
WidescreenStoryboard: 1

[Editor]
Bookmarks: 22096,43688,65281,86873,108466,130058,151651,173243,194835,216428,238020,259613,281205,302798,324390
DistanceSpacing: 2.5
BeatDivisor: 4
GridSize: 16
TimelineZoom: 1.6

[Metadata]
Title:Extasia
TitleUnicode:Extasia
Artist:Dr. Who
ArtistUnicode:Dr. Who
Creator:pingal1ty
Version:Sawy part1 v2
Source:
Tags:
BeatmapID:1430812
BeatmapSetID:658460

[Difficulty]
HPDrainRate:7
CircleSize:4
OverallDifficulty:8.6
ApproachRate:9
SliderMultiplier:1.4
SliderTickRate:1

[Events]
//Background and Video events
0,0,"96cfc747e084a9835bb61942300fb099.jpg",0,0
//Break Periods
//Storyboard Layer 0 (Background)
//Storyboard Layer 1 (Fail)
//Storyboard Layer 2 (Pass)
//Storyboard Layer 3 (Foreground)
//Storyboard Sound Samples

[TimingPoints]
504,337.381916329285,4,1,0,20,1,0
19397,-50,4,1,0,20,0,0
22096,-100,4,1,0,20,0,0

[HitObjects]
96,128,43688,5,0,0:0:0:0:
198,223,43857,1,0,0:0:0:0:
338,117,44026,1,0,0:0:0:0:
338,256,44194,1,0,0:0:0:0:
200,138,44363,1,0,0:0:0:0:
85,218,44532,1,0,0:0:0:0:
170,329,44701,1,0,0:0:0:0:
170,329,44869,1,0,0:0:0:0:
129,158,45038,5,0,0:0:0:0:
217,49,45207,1,0,0:0:0:0:
377,117,45375,1,0,0:0:0:0:
322,246,45544,1,0,0:0:0:0:
296,72,45713,1,0,0:0:0:0:
165,23,45881,1,0,0:0:0:0:
130,18,45966,1,0,0:0:0:0:
95,24,46050,1,0,0:0:0:0:
28,147,46219,1,0,0:0:0:0:
178,234,46387,6,0,L|240:168,1,70
316,74,46725,2,0,L|376:134,1,70
362,263,47062,2,0,L|308:194,1,70
447,87,47400,1,0,0:0:0:0:
321,27,47568,1,0,0:0:0:0:
206,159,47737,1,0,0:0:0:0:
206,18,47906,1,0,0:0:0:0:
277,177,48074,1,0,0:0:0:0:
380,82,48243,1,0,0:0:0:0:
455,240,48412,5,0,0:0:0:0:
447,273,48496,1,0,0:0:0:0:
427,302,48580,1,0,0:0:0:0:
401,326,48665,1,0,0:0:0:0:
371,345,48749,1,0,0:0:0:0:
337,355,48833,1,0,0:0:0:0:
301,353,48918,1,0,0:0:0:0:
268,339,49002,1,0,0:0:0:0:
241,316,49086,2,0,L|198:259,1,70
122,101,49424,5,0,0:0:0:0:
122,101,49593,1,0,0:0:0:0:
28,248,49761,1,0,0:0:0:0:
28,248,49930,1,0,0:0:0:0:
122,101,50099,1,0,0:0:0:0:
122,101,50267,1,0,0:0:0:0:
105,275,50436,1,0,0:0:0:0:
105,275,50605,1,0,0:0:0:0:
122,101,50773,1,0,0:0:0:0:
122,101,50942,1,0,0:0:0:0:
194,260,51111,2,0,L|293:260,1,70
267,84,51448,2,0,L|173:84,1,70
338,189,51786,5,0,0:0:0:0:
338,189,51955,1,0,0:0:0:0:
163,183,52123,1,0,0:0:0:0:
163,183,52292,1,0,0:0:0:0:
338,189,52461,1,0,0:0:0:0:
338,189,52629,1,0,0:0:0:0:
179,113,52798,1,0,0:0:0:0:
179,113,52966,1,0,0:0:0:0:
338,189,53135,1,0,0:0:0:0:
338,189,53304,1,0,0:0:0:0:
230,327,53473,2,0,L|150:279,1,70
61,152,53810,5,0,0:0:0:0:
52,118,53894,1,0,0:0:0:0:
60,83,53979,1,0,0:0:0:0:
79,53,54063,1,0,0:0:0:0:
108,34,54147,1,0,0:0:0:0:
140,20,54232,1,0,0:0:0:0:
174,15,54316,1,0,0:0:0:0:
208,21,54400,1,0,0:0:0:0:
238,38,54485,2,0,P|250:83|229:127,1,70
175,265,54822,6,0,P|171:223|187:188,1,70
355,207,55159,1,0,0:0:0:0:
271,319,55328,1,0,0:0:0:0:
108,252,55497,6,0,P|104:210|120:175,1,70
288,185,55834,1,0,0:0:0:0:
219,62,56003,1,0,0:0:0:0:
380,130,56172,2,0,L|413:39,1,70
220,62,56509,1,0,0:0:0:0:
222,202,56678,1,0,0:0:0:0:
119,61,56846,1,0,0:0:0:0:
121,201,57015,1,0,0:0:0:0:
114,373,57184,6,0,L|209:373,1,70
343,301,57521,1,0,0:0:0:0:
438,198,57690,1,0,0:0:0:0:
267,160,57858,2,0,L|178:132,1,70
36,74,58196,1,0,0:0:0:0:
164,20,58364,1,0,0:0:0:0:
338,34,58533,2,0,P|366:55|392:91,1,70
392,258,58871,1,0,0:0:0:0:
252,254,59039,1,0,0:0:0:0:
101,163,59208,5,0,0:0:0:0:
109,129,59292,1,0,0:0:0:0:
121,95,59377,1,0,0:0:0:0:
142,67,59461,1,0,0:0:0:0:
171,48,59545,1,0,0:0:0:0:
203,33,59630,1,0,0:0:0:0:
237,26,59714,1,0,0:0:0:0:
271,29,59798,1,0,0:0:0:0:
299,49,59883,2,0,P|279:80|232:118,1,70
127,222,60220,5,0,0:0:0:0:
127,222,60389,1,0,0:0:0:0:
300,232,60557,2,0,L|217:245,1,70
57,274,60895,1,0,0:0:0:0:
57,274,61064,1,0,0:0:0:0:
64,99,61232,2,0,L|119:156,1,70
249,260,61570,1,0,0:0:0:0:
249,260,61738,1,0,0:0:0:0:
176,100,61907,2,0,P|203:131|236:167,1,70
340,281,62244,1,0,0:0:0:0:
340,281,62413,1,0,0:0:0:0:
167,312,62582,6,0,L|241:298,1,70
345,162,62919,2,0,L|261:177,1,70
109,117,63257,2,0,L|210:97,1,70
111,265,63594,2,0,L|33:280,1,70
22,104,63931,2,0,L|23:25,1,70
191,85,64269,2,0,P|212:114|252:150,1,70
406,97,64606,2,0,P|379:62|342:24,1,70
290,203,64943,2,0,L|290:275,1,70
