osu file format v14

[General]
AudioFilename: audio.mp3
AudioLeadIn: 0
PreviewTime: -1
Countdown: 1
SampleSet: Soft
StackLeniency: 0.7
Mode: 3
LetterboxInBreaks: 0
SpecialStyle: 0
WidescreenStoryboard: 0

[Editor]
DistanceSpacing: 1.1
BeatDivisor: 4
GridSize: 16
TimelineZoom: 2

[Metadata]
Title:The Universe
TitleUnicode:The Universe
Artist:Dr. Peacock & Sefa
ArtistUnicode:Dr. Peacock & Sefa
Creator:Combistein
Version:Mind Galaxy
Source:
Tags:peacock pixies core hardcore frenchcore
BeatmapID:1847887
BeatmapSetID:884012

[Difficulty]
HPDrainRate:9
CircleSize:4
OverallDifficulty:8
ApproachRate:5
SliderMultiplier:1.4
SliderTickRate:1

[Events]
//Background and Video events
0,0,"ijchtclpgiqi3yuypnba.jpg",0,0
//Break Periods
//Storyboard Layer 0 (Background)
//Storyboard Layer 1 (Fail)
//Storyboard Layer 2 (Pass)
//Storyboard Layer 3 (Foreground)
//Storyboard Sound Samples

[TimingPoints]
0,300,4,2,0,25,1,0

[HitObjects]
64,192,0,5,0,0:0:0:0:
448,192,0,1,0,0:0:0:0:
320,192,150,1,0,0:0:0:0:
64,192,300,1,0,0:0:0:0:
192,192,300,1,0,0:0:0:0:
448,192,300,1,0,0:0:0:0:
320,192,450,1,0,0:0:0:0:
64,192,525,1,0,0:0:0:0:
320,192,600,1,0,0:0:0:0:
448,192,675,1,0,0:0:0:0:
64,192,750,1,0,0:0:0:0:
448,192,900,1,0,0:0:0:0:
320,192,900,1,0,0:0:0:0:
192,192,900,1,0,0:0:0:0:
64,192,1050,1,0,0:0:0:0:
320,192,1125,1,0,0:0:0:0:
64,192,1200,1,0,0:0:0:0:
448,192,1200,1,0,0:0:0:0:
192,192,1350,1,0,0:0:0:0:
448,192,1500,1,0,0:0:0:0:
320,192,1500,1,0,0:0:0:0:
64,192,1500,1,0,0:0:0:0:
192,192,1650,1,0,0:0:0:0:
448,192,1725,1,0,0:0:0:0:
192,192,1800,1,0,0:0:0:0:
64,192,1875,1,0,0:0:0:0:
448,192,1950,1,0,0:0:0:0:
64,192,2100,1,0,0:0:0:0:
320,192,2100,1,0,0:0:0:0:
192,192,2100,1,0,0:0:0:0:
448,192,2250,1,0,0:0:0:0:
64,192,2325,1,0,0:0:0:0:
448,192,2400,1,0,0:0:0:0:
320,192,2400,1,0,0:0:0:0:
192,192,2550,1,0,0:0:0:0:
192,192,2700,1,0,0:0:0:0:
64,192,2700,1,0,0:0:0:0:
448,192,2700,1,0,0:0:0:0:
320,192,2850,1,0,0:0:0:0:
192,192,2925,1,0,0:0:0:0:
448,192,3000,1,0,0:0:0:0:
64,192,3075,1,0,0:0:0:0:
320,192,3150,1,0,0:0:0:0:
64,192,3300,1,0,0:0:0:0:
192,192,3300,1,0,0:0:0:0:
320,192,3300,1,0,0:0:0:0:
448,192,3450,1,0,0:0:0:0:
64,192,3525,1,0,0:0:0:0:
320,192,3600,1,0,0:0:0:0:
448,192,3600,1,0,0:0:0:0:
192,192,3750,1,0,0:0:0:0:
320,192,3900,1,0,0:0:0:0:
448,192,3900,1,0,0:0:0:0:
64,192,3900,1,0,0:0:0:0:
192,192,4050,1,0,0:0:0:0:
320,192,4125,1,0,0:0:0:0:
64,192,4200,1,0,0:0:0:0:
448,192,4275,1,0,0:0:0:0:
192,192,4350,1,0,0:0:0:0:
448,192,4500,1,0,0:0:0:0:
320,192,4500,1,0,0:0:0:0:
192,192,4500,1,0,0:0:0:0:
64,192,4650,1,0,0:0:0:0:
320,192,4650,1,0,0:0:0:0:
192,192,4800,1,0,0:0:0:0:
320,192,4800,1,0,0:0:0:0:
448,192,4800,1,0,0:0:0:0:
64,192,4950,1,0,0:0:0:0:
64,192,5100,1,0,0:0:0:0:
192,192,5100,1,0,0:0:0:0:
320,192,5100,1,0,0:0:0:0:
448,192,5250,1,0,0:0:0:0:
320,192,5325,1,0,0:0:0:0:
64,192,5325,1,0,0:0:0:0:
192,192,5400,1,0,0:0:0:0:
320,192,5475,1,0,0:0:0:0:
448,192,5475,1,0,0:0:0:0:
192,192,5550,1,0,0:0:0:0:
64,192,5700,1,0,0:0:0:0:
320,192,5700,1,0,0:0:0:0:
448,192,5700,1,0,0:0:0:0:
192,192,5850,1,0,0:0:0:0:
448,192,5925,1,0,0:0:0:0:
64,192,6000,1,0,0:0:0:0:
192,192,6000,1,0,0:0:0:0:
320,192,6150,1,0,0:0:0:0:
192,192,6300,1,0,0:0:0:0:
320,192,6300,1,0,0:0:0:0:
448,192,6300,1,0,0:0:0:0:
64,192,6450,1,0,0:0:0:0:
320,192,6525,1,0,0:0:0:0:
448,192,6525,1,0,0:0:0:0:
192,192,6600,1,0,0:0:0:0:
64,192,6675,1,0,0:0:0:0:
448,192,6675,1,0,0:0:0:0:
320,192,6750,1,0,0:0:0:0:
192,192,6900,1,0,0:0:0:0:
448,192,6900,1,0,0:0:0:0:
64,192,6900,1,0,0:0:0:0:
320,192,7050,1,0,0:0:0:0:
64,192,7125,1,0,0:0:0:0:
320,192,7200,1,0,0:0:0:0:
448,192,7200,1,0,0:0:0:0:
192,192,7350,1,0,0:0:0:0:
64,192,7500,1,0,0:0:0:0:
320,192,7500,1,0,0:0:0:0:
448,192,7500,1,0,0:0:0:0:
192,192,7650,1,0,0:0:0:0:
448,192,7725,1,0,0:0:0:0:
64,192,7800,1,0,0:0:0:0:
448,192,7875,1,0,0:0:0:0:
192,192,7950,1,0,0:0:0:0:
320,192,8100,1,0,0:0:0:0:
448,192,8100,1,0,0:0:0:0:
64,192,8100,1,0,0:0:0:0:
192,192,8250,1,0,0:0:0:0:
448,192,8325,1,0,0:0:0:0:
64,192,8400,1,0,0:0:0:0:
320,192,8400,1,0,0:0:0:0:
192,192,8550,1,0,0:0:0:0:
320,192,8700,1,0,0:0:0:0:
448,192,8700,1,0,0:0:0:0:
64,192,8700,1,0,0:0:0:0:
192,192,8850,1,0,0:0:0:0:
448,192,8925,1,0,0:0:0:0:
320,192,9000,1,0,0:0:0:0:
64,192,9000,1,0,0:0:0:0:
64,192,9150,1,0,0:0:0:0:
320,192,9150,1,0,0:0:0:0:
64,192,9300,1,0,0:0:0:0:
320,192,9300,1,0,0:0:0:0:
448,192,9300,1,0,0:0:0:0:
64,192,9450,1,0,0:0:0:0:
320,192,9450,1,0,0:0:0:0:
320,192,9600,1,0,0:0:0:0:
64,192,9600,1,0,0:0:0:0:
192,192,9600,1,0,0:0:0:0:
448,192,9750,1,0,0:0:0:0:
64,192,9900,1,0,0:0:0:0:
320,192,9900,1,0,0:0:0:0:
448,192,9900,1,0,0:0:0:0:
192,192,10050,1,0,0:0:0:0:
448,192,10125,1,0,0:0:0:0:
320,192,10200,1,0,0:0:0:0:
192,192,10200,1,0,0:0:0:0:
64,192,10275,1,0,0:0:0:0:
448,192,10350,1,0,0:0:0:0:
320,192,10500,1,0,0:0:0:0:
192,192,10500,1,0,0:0:0:0:
64,192,10500,1,0,0:0:0:0:
320,192,10650,1,0,0:0:0:0:
448,192,10725,1,0,0:0:0:0:
192,192,10800,1,0,0:0:0:0:
64,192,10800,1,0,0:0:0:0:
448,192,10950,1,0,0:0:0:0:
320,192,11100,1,0,0:0:0:0:
192,192,11100,1,0,0:0:0:0:
64,192,11100,1,0,0:0:0:0:
448,192,11250,1,0,0:0:0:0:
320,192,11325,1,0,0:0:0:0:
64,192,11400,1,0,0:0:0:0:
448,192,11475,1,0,0:0:0:0:
320,192,11550,1,0,0:0:0:0:
64,192,11700,1,0,0:0:0:0:
192,192,11700,1,0,0:0:0:0:
448,192,11700,1,0,0:0:0:0:
320,192,11850,1,0,0:0:0:0:
448,192,11925,1,0,0:0:0:0:
64,192,12000,1,0,0:0:0:0:
192,192,12000,1,0,0:0:0:0:
320,192,12000,1,0,0:0:0:0:
448,192,12150,1,0,0:0:0:0:
448,192,12300,1,0,0:0:0:0:
320,192,12300,1,0,0:0:0:0:
64,192,12300,1,0,0:0:0:0:
192,192,12450,1,0,0:0:0:0:
448,192,12525,1,0,0:0:0:0:
64,192,12600,1,0,0:0:0:0:
320,192,12675,1,0,0:0:0:0:
192,192,12750,1,0,0:0:0:0:
320,192,12900,1,0,0:0:0:0:
64,192,12900,1,0,0:0:0:0:
448,192,12900,1,0,0:0:0:0:
192,192,13050,1,0,0:0:0:0:
320,192,13125,1,0,0:0:0:0:
448,192,13200,1,0,0:0:0:0:
192,192,13200,1,0,0:0:0:0:
64,192,13200,1,0,0:0:0:0:
320,192,13350,1,0,0:0:0:0:
192,192,13500,1,0,0:0:0:0:
320,192,13500,1,0,0:0:0:0:
448,192,13500,1,0,0:0:0:0:
64,192,13650,1,0,0:0:0:0:
320,192,13725,1,0,0:0:0:0:
192,192,13800,1,0,0:0:0:0:
448,192,13875,1,0,0:0:0:0:
192,192,13950,1,0,0:0:0:0:
64,192,14100,1,0,0:0:0:0:
320,192,14100,1,0,0:0:0:0:
448,192,14100,1,0,0:0:0:0:
64,192,14250,1,0,0:0:0:0:
320,192,14250,1,0,0:0:0:0:
448,192,14250,1,0,0:0:0:0:
448,192,14400,1,0,0:0:0:0:
192,192,14400,128,0,14850:0:0:0:0:
64,192,14400,128,0,14850:0:0:0:0:
192,192,15600,1,0,0:0:0:0:
64,192,15600,1,0,0:0:0:0:
448,192,15600,128,0,16050:0:0:0:0:
320,192,15600,128,0,16050:0:0:0:0:
64,192,16800,1,0,0:0:0:0:
448,192,16800,1,0,0:0:0:0:
192,192,16800,128,0,19200:0:0:0:0:
320,192,18000,128,0,19200:0:0:0:0:
448,192,19200,1,0,0:0:0:0:
64,192,19200,128,0,19500:0:0:0:0:
448,192,19500,1,0,0:0:0:0:
64,192,19800,128,0,20100:0:0:0:0:
448,192,20100,1,0,0:0:0:0:
64,192,20400,128,0,20700:0:0:0:0:
448,192,20700,1,0,0:0:0:0:
64,192,21000,128,0,21300:0:0:0:0:
448,192,21300,1,0,0:0:0:0:
64,192,21600,128,0,21900:0:0:0:0:
448,192,21900,1,0,0:0:0:0:
64,192,22200,128,0,22500:0:0:0:0:
448,192,22500,1,0,0:0:0:0:
64,192,22800,128,0,23100:0:0:0:0:
448,192,23100,1,0,0:0:0:0:
64,192,23400,128,0,23700:0:0:0:0:
448,192,23700,1,0,0:0:0:0:
64,192,24000,1,0,0:0:0:0:
192,192,24000,128,0,24300:0:0:0:0:
448,192,24300,1,0,0:0:0:0:
320,192,24600,1,0,0:0:0:0:
64,192,24600,1,0,0:0:0:0:
448,192,24900,1,0,0:0:0:0:
64,192,25200,128,0,25500:0:0:0:0:
192,192,25200,1,0,0:0:0:0:
448,192,25500,1,0,0:0:0:0:
320,192,25800,1,0,0:0:0:0:
64,192,25800,1,0,0:0:0:0:
192,192,26100,1,0,0:0:0:0:
320,192,26400,1,0,0:0:0:0:
448,192,26400,128,0,26700:0:0:0:0:
64,192,26700,1,0,0:0:0:0:
448,192,27000,1,0,0:0:0:0:
192,192,27000,1,0,0:0:0:0:
64,192,27300,1,0,0:0:0:0:
448,192,27450,1,0,0:0:0:0:
320,192,27600,128,0,27900:0:0:0:0:
192,192,27900,1,0,0:0:0:0:
64,192,28050,1,0,0:0:0:0:
448,192,28200,128,0,28500:0:0:0:0:
320,192,28200,1,0,0:0:0:0:
64,192,28500,128,0,28800:0:0:0:0:
192,192,28800,1,0,0:0:0:0:
448,192,28800,1,0,0:0:0:0:
320,192,28800,128,0,29100:0:0:0:0:
64,192,29100,1,0,0:0:0:0:
192,192,29400,1,0,0:0:0:0:
448,192,29400,128,0,29700:0:0:0:0:
64,192,29700,1,0,0:0:0:0:
192,192,30000,128,0,30300:0:0:0:0:
320,192,30000,1,0,0:0:0:0:
448,192,30300,1,0,0:0:0:0:
320,192,30600,1,0,0:0:0:0:
64,192,30600,128,0,30900:0:0:0:0:
448,192,30900,1,0,0:0:0:0:
64,192,31200,1,0,0:0:0:0:
320,192,31200,128,0,31500:0:0:0:0:
192,192,31500,1,0,0:0:0:0:
64,192,31800,128,0,32100:0:0:0:0:
448,192,31800,1,0,0:0:0:0:
320,192,32100,1,0,0:0:0:0:
192,192,32250,1,0,0:0:0:0:
448,192,32400,128,0,32700:0:0:0:0:
64,192,32700,1,0,0:0:0:0:
320,192,32850,1,0,0:0:0:0:
192,192,33000,128,0,34800:0:0:0:0:
320,192,34650,1,0,0:0:0:0:
448,192,34800,1,0,0:0:0:0:
64,192,34800,1,0,0:0:0:0:
64,192,35100,1,0,0:0:0:0:
448,192,35100,1,0,0:0:0:0:
320,192,35250,1,0,0:0:0:0:
192,192,35400,1,0,0:0:0:0:
64,192,35400,1,0,0:0:0:0:
448,192,35400,128,0,35850:0:0:0:0:
320,192,35850,1,0,0:0:0:0:
64,192,36000,1,0,0:0:0:0:
448,192,36150,1,0,0:0:0:0:
192,192,36300,1,0,0:0:0:0:
320,192,36300,1,0,0:0:0:0:
64,192,36450,128,0,37200:0:0:0:0:
448,192,36600,1,0,0:0:0:0:
320,192,36900,1,0,0:0:0:0:
320,192,37050,1,0,0:0:0:0:
448,192,37050,1,0,0:0:0:0:
320,192,37200,1,0,0:0:0:0:
192,192,37200,1,0,0:0:0:0:
64,192,37500,1,0,0:0:0:0:
320,192,37800,1,0,0:0:0:0:
448,192,37800,1,0,0:0:0:0:
192,192,37800,1,0,0:0:0:0:
64,192,38100,1,0,0:0:0:0:
448,192,38400,1,0,0:0:0:0:
64,192,38400,1,0,0:0:0:0:
320,192,38475,1,0,0:0:0:0:
192,192,38550,1,0,0:0:0:0:
64,192,38625,1,0,0:0:0:0:
320,192,38700,1,0,0:0:0:0:
448,192,38700,1,0,0:0:0:0:
192,192,38850,1,0,0:0:0:0:
320,192,38850,1,0,0:0:0:0:
64,192,38925,1,0,0:0:0:0:
448,192,39000,1,0,0:0:0:0:
320,192,39075,1,0,0:0:0:0:
192,192,39150,1,0,0:0:0:0:
64,192,39150,1,0,0:0:0:0:
192,192,39300,1,0,0:0:0:0:
320,192,39300,1,0,0:0:0:0:
448,192,39375,1,0,0:0:0:0:
64,192,39450,1,0,0:0:0:0:
192,192,39525,1,0,0:0:0:0:
448,192,39600,1,0,0:0:0:0:
320,192,39600,1,0,0:0:0:0:
192,192,39900,1,0,0:0:0:0:
192,192,40050,1,0,0:0:0:0:
320,192,40200,1,0,0:0:0:0:
448,192,40200,1,0,0:0:0:0:
64,192,40200,128,0,40650:0:0:0:0:
448,192,40650,1,0,0:0:0:0:
64,192,40800,1,0,0:0:0:0:
320,192,40800,1,0,0:0:0:0:
192,192,40950,1,0,0:0:0:0:
320,192,41100,1,0,0:0:0:0:
448,192,41100,1,0,0:0:0:0:
64,192,41250,1,0,0:0:0:0:
192,192,41400,1,0,0:0:0:0:
320,192,41400,128,0,42000:0:0:0:0:
448,192,41700,1,0,0:0:0:0:
64,192,41850,1,0,0:0:0:0:
448,192,42000,1,0,0:0:0:0:
64,192,42000,1,0,0:0:0:0:
192,192,42300,128,0,42600:0:0:0:0:
64,192,42600,1,0,0:0:0:0:
448,192,42600,1,0,0:0:0:0:
320,192,42900,1,0,0:0:0:0:
64,192,43200,128,0,43500:0:0:0:0:
320,192,43500,1,0,0:0:0:0:
448,192,43500,1,0,0:0:0:0:
448,192,43650,1,0,0:0:0:0:
64,192,43650,1,0,0:0:0:0:
320,192,43800,128,0,44100:0:0:0:0:
64,192,44100,1,0,0:0:0:0:
448,192,44100,1,0,0:0:0:0:
192,192,44250,1,0,0:0:0:0:
448,192,44400,1,0,0:0:0:0:
64,192,44400,128,0,44700:0:0:0:0:
192,192,44700,1,0,0:0:0:0:
448,192,44850,1,0,0:0:0:0:
64,192,45000,1,0,0:0:0:0:
192,192,45000,1,0,0:0:0:0:
320,192,45000,128,0,45450:0:0:0:0:
64,192,45450,1,0,0:0:0:0:
448,192,45600,128,0,45900:0:0:0:0:
64,192,45750,1,0,0:0:0:0:
192,192,45900,1,0,0:0:0:0:
320,192,45900,1,0,0:0:0:0:
64,192,46050,1,0,0:0:0:0:
448,192,46200,1,0,0:0:0:0:
192,192,46200,1,0,0:0:0:0:
320,192,46500,1,0,0:0:0:0:
64,192,46650,1,0,0:0:0:0:
320,192,46800,1,0,0:0:0:0:
448,192,46800,128,0,47100:0:0:0:0:
64,192,47100,1,0,0:0:0:0:
320,192,47250,1,0,0:0:0:0:
64,192,47400,128,0,48000:0:0:0:0:
448,192,47850,1,0,0:0:0:0:
320,192,48000,1,0,0:0:0:0:
192,192,48000,128,0,48375:0:0:0:0:
320,192,48375,128,0,48600:0:0:0:0:
448,192,48600,128,0,50400:0:0:0:0:
64,192,48600,1,0,0:0:0:0:
64,192,49200,1,0,0:0:0:0:
64,192,49800,1,0,0:0:0:0:
64,192,50400,1,0,0:0:0:0:
192,192,50400,1,0,0:0:0:0:
320,192,50400,1,0,0:0:0:0:
448,192,50700,1,0,0:0:0:0:
64,192,51000,1,0,0:0:0:0:
448,192,51300,1,0,0:0:0:0:
320,192,51600,1,0,0:0:0:0:
192,192,51600,1,0,0:0:0:0:
64,192,51600,1,0,0:0:0:0:
448,192,51900,1,0,0:0:0:0:
64,192,52200,1,0,0:0:0:0:
448,192,52500,1,0,0:0:0:0:
320,192,52800,1,0,0:0:0:0:
192,192,52800,1,0,0:0:0:0:
64,192,52800,1,0,0:0:0:0:
448,192,53100,128,0,53400:0:0:0:0:
64,192,53400,1,0,0:0:0:0:
448,192,53700,1,0,0:0:0:0:
64,192,54000,1,0,0:0:0:0:
192,192,54000,1,0,0:0:0:0:
320,192,54000,1,0,0:0:0:0:
448,192,54300,128,0,54600:0:0:0:0:
64,192,54600,1,0,0:0:0:0:
448,192,54900,1,0,0:0:0:0:
320,192,55200,1,0,0:0:0:0:
192,192,55200,1,0,0:0:0:0:
64,192,55200,1,0,0:0:0:0:
448,192,55500,128,0,55800:0:0:0:0:
64,192,55800,1,0,0:0:0:0:
448,192,56100,128,0,56400:0:0:0:0:
64,192,56400,1,0,0:0:0:0:
192,192,56400,1,0,0:0:0:0:
320,192,56400,1,0,0:0:0:0:
448,192,56700,128,0,57000:0:0:0:0:
64,192,57000,1,0,0:0:0:0:
448,192,57300,128,0,57600:0:0:0:0:
320,192,57600,1,0,0:0:0:0:
192,192,57600,1,0,0:0:0:0:
64,192,57600,1,0,0:0:0:0:
448,192,57900,128,0,58200:0:0:0:0:
64,192,58200,128,0,58500:0:0:0:0:
448,192,58500,128,0,58800:0:0:0:0:
64,192,58800,1,0,0:0:0:0:
192,192,58800,1,0,0:0:0:0:
320,192,58800,1,0,0:0:0:0:
448,192,59100,128,0,59400:0:0:0:0:
64,192,59400,128,0,59700:0:0:0:0:
448,192,59700,128,0,60000:0:0:0:0:
320,192,60000,1,0,0:0:0:0:
192,192,60000,1,0,0:0:0:0:
64,192,60000,1,0,0:0:0:0:
192,192,60300,1,0,0:0:0:0:
320,192,60300,1,0,0:0:0:0:
448,192,60300,1,0,0:0:0:0:
64,192,60600,1,0,0:0:0:0:
192,192,60600,1,0,0:0:0:0:
448,192,60600,1,0,0:0:0:0:
448,192,60900,1,0,0:0:0:0:
320,192,60900,1,0,0:0:0:0:
64,192,60900,1,0,0:0:0:0:
192,192,61200,1,0,0:0:0:0:
320,192,61200,1,0,0:0:0:0:
64,192,61200,1,0,0:0:0:0:
320,192,61500,1,0,0:0:0:0:
448,192,61500,1,0,0:0:0:0:
64,192,61500,1,0,0:0:0:0:
64,192,61800,1,0,0:0:0:0:
192,192,61800,1,0,0:0:0:0:
448,192,61800,1,0,0:0:0:0:
448,192,62100,1,0,0:0:0:0:
320,192,62100,1,0,0:0:0:0:
192,192,62100,1,0,0:0:0:0:
64,192,62400,1,0,0:0:0:0:
192,192,62400,1,0,0:0:0:0:
448,192,62400,1,0,0:0:0:0:
320,192,62550,1,0,0:0:0:0:
192,192,62550,1,0,0:0:0:0:
64,192,62700,1,0,0:0:0:0:
192,192,62700,1,0,0:0:0:0:
64,192,62850,1,0,0:0:0:0:
320,192,62850,1,0,0:0:0:0:
320,192,63000,1,0,0:0:0:0:
192,192,63000,1,0,0:0:0:0:
192,192,63150,1,0,0:0:0:0:
448,192,63150,1,0,0:0:0:0:
320,192,63300,1,0,0:0:0:0:
448,192,63300,1,0,0:0:0:0:
320,192,63450,1,0,0:0:0:0:
64,192,63450,1,0,0:0:0:0:
192,192,63600,1,0,0:0:0:0:
64,192,63600,1,0,0:0:0:0:
320,192,63675,1,0,0:0:0:0:
448,192,63750,1,0,0:0:0:0:
64,192,63750,1,0,0:0:0:0:
192,192,63825,1,0,0:0:0:0:
320,192,63900,1,0,0:0:0:0:
448,192,63900,1,0,0:0:0:0:
64,192,63975,1,0,0:0:0:0:
192,192,64050,1,0,0:0:0:0:
448,192,64050,1,0,0:0:0:0:
320,192,64125,1,0,0:0:0:0:
192,192,64200,1,0,0:0:0:0:
64,192,64200,1,0,0:0:0:0:
448,192,64275,1,0,0:0:0:0:
320,192,64350,1,0,0:0:0:0:
64,192,64350,1,0,0:0:0:0:
192,192,64425,1,0,0:0:0:0:
320,192,64500,1,0,0:0:0:0:
448,192,64500,1,0,0:0:0:0:
64,192,64575,1,0,0:0:0:0:
192,192,64650,1,0,0:0:0:0:
448,192,64650,1,0,0:0:0:0:
320,192,64725,1,0,0:0:0:0:
192,192,64800,1,0,0:0:0:0:
64,192,64800,1,0,0:0:0:0:
448,192,64800,128,0,66000:0:0:0:0:
64,192,65400,1,0,0:0:0:0:
192,192,65700,1,0,0:0:0:0:
192,192,65850,1,0,0:0:0:0:
192,192,66000,1,0,0:0:0:0:
64,192,66000,128,0,67200:0:0:0:0:
320,192,66300,1,0,0:0:0:0:
320,192,66450,1,0,0:0:0:0:
320,192,66600,1,0,0:0:0:0:
448,192,66900,1,0,0:0:0:0:
448,192,67050,1,0,0:0:0:0:
448,192,67200,1,0,0:0:0:0:
192,192,67200,1,0,0:0:0:0:
192,192,67350,1,0,0:0:0:0:
320,192,67350,1,0,0:0:0:0:
64,192,67500,1,0,0:0:0:0:
320,192,67500,1,0,0:0:0:0:
192,192,67650,1,0,0:0:0:0:
192,192,67800,1,0,0:0:0:0:
448,192,67800,1,0,0:0:0:0:
320,192,67875,1,0,0:0:0:0:
192,192,67950,1,0,0:0:0:0:
64,192,68100,1,0,0:0:0:0:
192,192,68100,1,0,0:0:0:0:
320,192,68250,1,0,0:0:0:0:
64,192,68250,1,0,0:0:0:0:
192,192,68325,1,0,0:0:0:0:
320,192,68400,1,0,0:0:0:0:
448,192,68400,1,0,0:0:0:0:
64,192,68475,1,0,0:0:0:0:
192,192,68550,1,0,0:0:0:0:
448,192,68550,1,0,0:0:0:0:
320,192,68625,1,0,0:0:0:0:
192,192,68700,1,0,0:0:0:0:
64,192,68775,1,0,0:0:0:0:
192,192,68850,1,0,0:0:0:0:
448,192,68925,1,0,0:0:0:0:
320,192,69000,1,0,0:0:0:0:
192,192,69075,1,0,0:0:0:0:
448,192,69150,1,0,0:0:0:0:
64,192,69225,1,0,0:0:0:0:
448,192,69300,128,0,69525:0:0:0:0:
320,192,69300,128,0,69525:0:0:0:0:
192,192,69300,128,0,69525:0:0:0:0:
64,192,69600,1,0,0:0:0:0:
192,192,69600,1,0,0:0:0:0:
320,192,69600,1,0,0:0:0:0:
448,192,69600,1,0,0:0:0:0:
192,192,69750,1,0,0:0:0:0:
320,192,69750,1,0,0:0:0:0:
64,192,69900,1,0,0:0:0:0:
320,192,69900,1,0,0:0:0:0:
448,192,69900,1,0,0:0:0:0:
192,192,70050,1,0,0:0:0:0:
192,192,70200,1,0,0:0:0:0:
64,192,70200,1,0,0:0:0:0:
320,192,70350,1,0,0:0:0:0:
320,192,70500,1,0,0:0:0:0:
64,192,70500,1,0,0:0:0:0:
448,192,70500,1,0,0:0:0:0:
192,192,70650,1,0,0:0:0:0:
192,192,70800,1,0,0:0:0:0:
320,192,70800,1,0,0:0:0:0:
64,192,70950,1,0,0:0:0:0:
64,192,71100,1,0,0:0:0:0:
192,192,71100,1,0,0:0:0:0:
320,192,71100,1,0,0:0:0:0:
448,192,71250,1,0,0:0:0:0:
448,192,71400,1,0,0:0:0:0:
320,192,71400,1,0,0:0:0:0:
192,192,71550,1,0,0:0:0:0:
64,192,71700,1,0,0:0:0:0:
192,192,71700,1,0,0:0:0:0:
320,192,71700,1,0,0:0:0:0:
448,192,71850,1,0,0:0:0:0:
64,192,72000,1,0,0:0:0:0:
448,192,72000,1,0,0:0:0:0:
192,192,72150,1,0,0:0:0:0:
64,192,72300,1,0,0:0:0:0:
192,192,72300,1,0,0:0:0:0:
448,192,72300,1,0,0:0:0:0:
320,192,72450,1,0,0:0:0:0:
320,192,72600,1,0,0:0:0:0:
448,192,72600,1,0,0:0:0:0:
64,192,72750,1,0,0:0:0:0:
64,192,72900,1,0,0:0:0:0:
192,192,72900,1,0,0:0:0:0:
320,192,72900,1,0,0:0:0:0:
448,192,73050,1,0,0:0:0:0:
448,192,73200,1,0,0:0:0:0:
320,192,73200,1,0,0:0:0:0:
192,192,73350,1,0,0:0:0:0:
64,192,73500,1,0,0:0:0:0:
192,192,73500,1,0,0:0:0:0:
320,192,73500,1,0,0:0:0:0:
448,192,73650,1,0,0:0:0:0:
448,192,73800,1,0,0:0:0:0:
320,192,73800,1,0,0:0:0:0:
64,192,73800,1,0,0:0:0:0:
192,192,73950,1,0,0:0:0:0:
320,192,73950,1,0,0:0:0:0:
64,192,74100,1,0,0:0:0:0:
192,192,74100,1,0,0:0:0:0:
448,192,74100,1,0,0:0:0:0:
192,192,74250,1,0,0:0:0:0:
320,192,74250,1,0,0:0:0:0:
448,192,74400,1,0,0:0:0:0:
320,192,74400,1,0,0:0:0:0:
64,192,74550,1,0,0:0:0:0:
448,192,74700,1,0,0:0:0:0:
192,192,74700,1,0,0:0:0:0:
64,192,74700,1,0,0:0:0:0:
320,192,74850,1,0,0:0:0:0:
320,192,75000,1,0,0:0:0:0:
448,192,75000,1,0,0:0:0:0:
192,192,75150,1,0,0:0:0:0:
192,192,75300,1,0,0:0:0:0:
448,192,75300,1,0,0:0:0:0:
64,192,75300,1,0,0:0:0:0:
320,192,75450,1,0,0:0:0:0:
320,192,75600,1,0,0:0:0:0:
192,192,75600,1,0,0:0:0:0:
448,192,75750,1,0,0:0:0:0:
448,192,75900,1,0,0:0:0:0:
320,192,75900,1,0,0:0:0:0:
192,192,75900,1,0,0:0:0:0:
64,192,76050,1,0,0:0:0:0:
64,192,76200,1,0,0:0:0:0:
192,192,76200,1,0,0:0:0:0:
320,192,76350,1,0,0:0:0:0:
448,192,76500,1,0,0:0:0:0:
320,192,76500,1,0,0:0:0:0:
192,192,76500,1,0,0:0:0:0:
64,192,76650,1,0,0:0:0:0:
448,192,76800,1,0,0:0:0:0:
64,192,76800,1,0,0:0:0:0:
320,192,76950,1,0,0:0:0:0:
448,192,77100,1,0,0:0:0:0:
320,192,77100,1,0,0:0:0:0:
64,192,77100,1,0,0:0:0:0:
192,192,77250,1,0,0:0:0:0:
192,192,77400,1,0,0:0:0:0:
64,192,77400,1,0,0:0:0:0:
448,192,77550,1,0,0:0:0:0:
448,192,77700,1,0,0:0:0:0:
320,192,77700,1,0,0:0:0:0:
192,192,77700,1,0,0:0:0:0:
64,192,77850,1,0,0:0:0:0:
64,192,78000,1,0,0:0:0:0:
192,192,78000,1,0,0:0:0:0:
320,192,78150,1,0,0:0:0:0:
448,192,78300,1,0,0:0:0:0:
320,192,78300,1,0,0:0:0:0:
192,192,78300,1,0,0:0:0:0:
64,192,78450,1,0,0:0:0:0:
64,192,78600,1,0,0:0:0:0:
192,192,78600,1,0,0:0:0:0:
448,192,78600,1,0,0:0:0:0:
320,192,78750,1,0,0:0:0:0:
192,192,78750,1,0,0:0:0:0:
64,192,78900,128,0,79125:0:0:0:0:
192,192,78900,128,0,79125:0:0:0:0:
448,192,78900,128,0,79125:0:0:0:0:
64,192,79200,1,0,0:0:0:0:
192,192,79200,1,0,0:0:0:0:
320,192,79200,1,0,0:0:0:0:
192,192,79350,1,0,0:0:0:0:
320,192,79350,1,0,0:0:0:0:
320,192,79500,1,0,0:0:0:0:
448,192,79500,1,0,0:0:0:0:
64,192,79500,1,0,0:0:0:0:
192,192,79500,1,0,0:0:0:0:
448,192,79650,1,0,0:0:0:0:
320,192,79800,1,0,0:0:0:0:
448,192,79800,1,0,0:0:0:0:
192,192,79950,1,0,0:0:0:0:
192,192,80100,1,0,0:0:0:0:
448,192,80100,1,0,0:0:0:0:
64,192,80100,1,0,0:0:0:0:
320,192,80250,1,0,0:0:0:0:
320,192,80400,1,0,0:0:0:0:
192,192,80400,1,0,0:0:0:0:
448,192,80550,1,0,0:0:0:0:
448,192,80700,1,0,0:0:0:0:
320,192,80700,1,0,0:0:0:0:
192,192,80700,1,0,0:0:0:0:
64,192,80850,1,0,0:0:0:0:
64,192,81000,1,0,0:0:0:0:
192,192,81000,1,0,0:0:0:0:
320,192,81150,1,0,0:0:0:0:
448,192,81300,1,0,0:0:0:0:
320,192,81300,1,0,0:0:0:0:
192,192,81300,1,0,0:0:0:0:
64,192,81450,1,0,0:0:0:0:
448,192,81600,1,0,0:0:0:0:
64,192,81600,1,0,0:0:0:0:
320,192,81750,1,0,0:0:0:0:
448,192,81900,1,0,0:0:0:0:
320,192,81900,1,0,0:0:0:0:
64,192,81900,1,0,0:0:0:0:
192,192,82050,1,0,0:0:0:0:
192,192,82200,1,0,0:0:0:0:
64,192,82200,1,0,0:0:0:0:
448,192,82350,1,0,0:0:0:0:
448,192,82500,1,0,0:0:0:0:
320,192,82500,1,0,0:0:0:0:
192,192,82500,1,0,0:0:0:0:
64,192,82650,1,0,0:0:0:0:
64,192,82800,1,0,0:0:0:0:
192,192,82800,1,0,0:0:0:0:
320,192,82950,1,0,0:0:0:0:
448,192,83100,1,0,0:0:0:0:
320,192,83100,1,0,0:0:0:0:
192,192,83100,1,0,0:0:0:0:
64,192,83250,1,0,0:0:0:0:
64,192,83400,1,0,0:0:0:0:
192,192,83400,1,0,0:0:0:0:
448,192,83400,1,0,0:0:0:0:
320,192,83550,1,0,0:0:0:0:
192,192,83550,1,0,0:0:0:0:
448,192,83700,1,0,0:0:0:0:
320,192,83700,1,0,0:0:0:0:
64,192,83700,1,0,0:0:0:0:
320,192,83850,1,0,0:0:0:0:
192,192,83850,1,0,0:0:0:0:
64,192,84000,1,0,0:0:0:0:
192,192,84000,1,0,0:0:0:0:
448,192,84000,128,0,84300:0:0:0:0:
64,192,84300,1,0,0:0:0:0:
192,192,84300,1,0,0:0:0:0:
320,192,84300,128,0,84600:0:0:0:0:
64,192,84600,1,0,0:0:0:0:
448,192,84600,1,0,0:0:0:0:
192,192,84600,128,0,84900:0:0:0:0:
320,192,84900,1,0,0:0:0:0:
64,192,84900,1,0,0:0:0:0:
448,192,84900,128,0,85200:0:0:0:0:
192,192,85200,1,0,0:0:0:0:
320,192,85200,1,0,0:0:0:0:
64,192,85200,128,0,85500:0:0:0:0:
192,192,85500,1,0,0:0:0:0:
320,192,85500,128,0,85800:0:0:0:0:
448,192,85500,1,0,0:0:0:0:
448,192,85800,1,0,0:0:0:0:
64,192,85800,1,0,0:0:0:0:
192,192,85800,128,0,86100:0:0:0:0:
64,192,86100,1,0,0:0:0:0:
320,192,86100,1,0,0:0:0:0:
448,192,86100,128,0,86400:0:0:0:0:
192,192,86400,1,0,0:0:0:0:
320,192,86400,1,0,0:0:0:0:
64,192,86400,128,0,86475:0:0:0:0:
320,192,87000,1,0,0:0:0:0:
448,192,87000,1,0,0:0:0:0:
64,192,87000,1,0,0:0:0:0:
192,192,87000,128,0,87075:0:0:0:0:
320,192,87600,1,0,0:0:0:0:
192,192,87600,1,0,0:0:0:0:
64,192,87600,1,0,0:0:0:0:
448,192,87600,128,0,87675:0:0:0:0:
448,192,88200,1,0,0:0:0:0:
320,192,88200,1,0,0:0:0:0:
64,192,88200,1,0,0:0:0:0:
192,192,88350,1,0,0:0:0:0:
320,192,88350,1,0,0:0:0:0:
448,192,88500,128,0,88725:0:0:0:0:
320,192,88500,128,0,88725:0:0:0:0:
64,192,88500,128,0,88725:0:0:0:0:
448,192,88800,1,0,0:0:0:0:
320,192,88800,1,0,0:0:0:0:
192,192,88800,1,0,0:0:0:0:
192,192,88950,1,0,0:0:0:0:
64,192,89100,1,0,0:0:0:0:
448,192,89100,1,0,0:0:0:0:
320,192,89100,1,0,0:0:0:0:
448,192,89250,1,0,0:0:0:0:
192,192,89250,1,0,0:0:0:0:
320,192,89325,1,0,0:0:0:0:
448,192,89400,1,0,0:0:0:0:
64,192,89400,1,0,0:0:0:0:
192,192,89550,1,0,0:0:0:0:
64,192,89700,1,0,0:0:0:0:
192,192,89700,1,0,0:0:0:0:
320,192,89700,1,0,0:0:0:0:
448,192,89850,1,0,0:0:0:0:
448,192,90000,1,0,0:0:0:0:
320,192,90000,1,0,0:0:0:0:
64,192,90150,1,0,0:0:0:0:
64,192,90300,1,0,0:0:0:0:
192,192,90300,1,0,0:0:0:0:
448,192,90300,1,0,0:0:0:0:
320,192,90450,1,0,0:0:0:0:
192,192,90525,1,0,0:0:0:0:
64,192,90600,1,0,0:0:0:0:
320,192,90600,1,0,0:0:0:0:
448,192,90600,1,0,0:0:0:0:
448,192,90750,1,0,0:0:0:0:
64,192,90900,1,0,0:0:0:0:
192,192,90900,1,0,0:0:0:0:
448,192,90900,1,0,0:0:0:0:
192,192,91050,1,0,0:0:0:0:
320,192,91200,1,0,0:0:0:0:
448,192,91200,1,0,0:0:0:0:
64,192,91350,1,0,0:0:0:0:
64,192,91500,1,0,0:0:0:0:
192,192,91500,1,0,0:0:0:0:
448,192,91500,1,0,0:0:0:0:
320,192,91650,1,0,0:0:0:0:
192,192,91725,1,0,0:0:0:0:
64,192,91800,1,0,0:0:0:0:
448,192,91800,1,0,0:0:0:0:
192,192,91950,1,0,0:0:0:0:
320,192,92025,1,0,0:0:0:0:
448,192,92100,1,0,0:0:0:0:
64,192,92100,1,0,0:0:0:0:
192,192,92100,1,0,0:0:0:0:
320,192,92250,1,0,0:0:0:0:
320,192,92400,1,0,0:0:0:0:
192,192,92400,1,0,0:0:0:0:
64,192,92550,1,0,0:0:0:0:
64,192,92700,1,0,0:0:0:0:
192,192,92700,1,0,0:0:0:0:
448,192,92700,1,0,0:0:0:0:
320,192,92850,1,0,0:0:0:0:
192,192,92925,1,0,0:0:0:0:
64,192,93000,1,0,0:0:0:0:
320,192,93000,1,0,0:0:0:0:
448,192,93000,1,0,0:0:0:0:
192,192,93150,1,0,0:0:0:0:
320,192,93150,1,0,0:0:0:0:
192,192,93300,1,0,0:0:0:0:
64,192,93300,1,0,0:0:0:0:
448,192,93300,1,0,0:0:0:0:
192,192,93450,1,0,0:0:0:0:
320,192,93450,1,0,0:0:0:0:
448,192,93600,1,0,0:0:0:0:
320,192,93600,1,0,0:0:0:0:
192,192,93750,1,0,0:0:0:0:
192,192,93900,1,0,0:0:0:0:
320,192,93900,1,0,0:0:0:0:
448,192,93900,1,0,0:0:0:0:
64,192,94050,1,0,0:0:0:0:
192,192,94125,1,0,0:0:0:0:
320,192,94200,1,0,0:0:0:0:
448,192,94200,1,0,0:0:0:0:
192,192,94350,1,0,0:0:0:0:
448,192,94425,1,0,0:0:0:0:
192,192,94500,1,0,0:0:0:0:
320,192,94500,1,0,0:0:0:0:
64,192,94500,1,0,0:0:0:0:
448,192,94650,1,0,0:0:0:0:
320,192,94800,1,0,0:0:0:0:
192,192,94800,1,0,0:0:0:0:
192,192,94950,1,0,0:0:0:0:
64,192,95100,1,0,0:0:0:0:
192,192,95100,1,0,0:0:0:0:
448,192,95100,1,0,0:0:0:0:
320,192,95250,1,0,0:0:0:0:
192,192,95325,1,0,0:0:0:0:
64,192,95400,1,0,0:0:0:0:
448,192,95400,1,0,0:0:0:0:
448,192,95550,1,0,0:0:0:0:
320,192,95700,1,0,0:0:0:0:
448,192,95700,1,0,0:0:0:0:
64,192,95700,1,0,0:0:0:0:
192,192,95850,1,0,0:0:0:0:
192,192,96000,1,0,0:0:0:0:
320,192,96000,1,0,0:0:0:0:
448,192,96150,1,0,0:0:0:0:
448,192,96300,1,0,0:0:0:0:
320,192,96300,1,0,0:0:0:0:
64,192,96300,1,0,0:0:0:0:
192,192,96450,1,0,0:0:0:0:
320,192,96525,1,0,0:0:0:0:
448,192,96600,1,0,0:0:0:0:
64,192,96600,1,0,0:0:0:0:
320,192,96750,1,0,0:0:0:0:
192,192,96825,1,0,0:0:0:0:
64,192,96900,1,0,0:0:0:0:
320,192,96900,1,0,0:0:0:0:
448,192,96900,1,0,0:0:0:0:
192,192,97050,1,0,0:0:0:0:
448,192,97200,1,0,0:0:0:0:
320,192,97200,1,0,0:0:0:0:
64,192,97350,1,0,0:0:0:0:
64,192,97500,1,0,0:0:0:0:
192,192,97500,1,0,0:0:0:0:
448,192,97500,1,0,0:0:0:0:
320,192,97650,1,0,0:0:0:0:
192,192,97725,1,0,0:0:0:0:
64,192,97800,1,0,0:0:0:0:
448,192,97800,1,0,0:0:0:0:
320,192,97800,1,0,0:0:0:0:
192,192,97950,1,0,0:0:0:0:
320,192,97950,1,0,0:0:0:0:
192,192,98100,1,0,0:0:0:0:
64,192,98100,1,0,0:0:0:0:
448,192,98100,1,0,0:0:0:0:
192,192,98250,1,0,0:0:0:0:
320,192,98250,1,0,0:0:0:0:
448,192,98400,1,0,0:0:0:0:
320,192,98400,1,0,0:0:0:0:
64,192,98400,1,0,0:0:0:0:
64,192,98550,1,0,0:0:0:0:
448,192,98550,1,0,0:0:0:0:
448,192,98700,1,0,0:0:0:0:
64,192,98700,1,0,0:0:0:0:
192,192,98700,1,0,0:0:0:0:
320,192,98850,1,0,0:0:0:0:
192,192,98925,1,0,0:0:0:0:
64,192,99000,1,0,0:0:0:0:
448,192,99000,1,0,0:0:0:0:
192,192,99150,1,0,0:0:0:0:
320,192,99225,1,0,0:0:0:0:
448,192,99300,1,0,0:0:0:0:
192,192,99300,1,0,0:0:0:0:
64,192,99300,1,0,0:0:0:0:
320,192,99450,1,0,0:0:0:0:
320,192,99600,1,0,0:0:0:0:
192,192,99600,1,0,0:0:0:0:
64,192,99750,1,0,0:0:0:0:
64,192,99900,1,0,0:0:0:0:
192,192,99900,1,0,0:0:0:0:
448,192,99900,1,0,0:0:0:0:
320,192,100050,1,0,0:0:0:0:
192,192,100125,1,0,0:0:0:0:
64,192,100200,1,0,0:0:0:0:
448,192,100200,1,0,0:0:0:0:
448,192,100350,1,0,0:0:0:0:
320,192,100500,1,0,0:0:0:0:
192,192,100500,1,0,0:0:0:0:
448,192,100500,1,0,0:0:0:0:
64,192,100650,1,0,0:0:0:0:
64,192,100800,1,0,0:0:0:0:
192,192,100800,1,0,0:0:0:0:
320,192,100950,1,0,0:0:0:0:
448,192,101100,1,0,0:0:0:0:
320,192,101100,1,0,0:0:0:0:
192,192,101100,1,0,0:0:0:0:
64,192,101250,1,0,0:0:0:0:
448,192,101325,1,0,0:0:0:0:
320,192,101400,1,0,0:0:0:0:
192,192,101400,1,0,0:0:0:0:
448,192,101550,1,0,0:0:0:0:
64,192,101625,1,0,0:0:0:0:
320,192,101700,1,0,0:0:0:0:
192,192,101700,1,0,0:0:0:0:
448,192,101700,1,0,0:0:0:0:
192,192,101850,1,0,0:0:0:0:
320,192,102000,1,0,0:0:0:0:
448,192,102000,1,0,0:0:0:0:
448,192,102150,1,0,0:0:0:0:
320,192,102300,1,0,0:0:0:0:
448,192,102300,1,0,0:0:0:0:
64,192,102300,1,0,0:0:0:0:
192,192,102450,1,0,0:0:0:0:
320,192,102525,1,0,0:0:0:0:
448,192,102600,1,0,0:0:0:0:
192,192,102600,1,0,0:0:0:0:
64,192,102600,1,0,0:0:0:0:
320,192,102750,1,0,0:0:0:0:
448,192,102750,1,0,0:0:0:0:
64,192,102900,1,0,0:0:0:0:
192,192,102900,1,0,0:0:0:0:
320,192,102900,1,0,0:0:0:0:
64,192,103050,1,0,0:0:0:0:
192,192,103050,1,0,0:0:0:0:
192,192,103200,1,0,0:0:0:0:
320,192,103200,1,0,0:0:0:0:
448,192,103200,1,0,0:0:0:0:
64,192,103350,1,0,0:0:0:0:
64,192,103500,1,0,0:0:0:0:
320,192,103500,1,0,0:0:0:0:
192,192,103650,1,0,0:0:0:0:
320,192,103725,1,0,0:0:0:0:
448,192,103800,1,0,0:0:0:0:
64,192,103800,1,0,0:0:0:0:
448,192,103950,1,0,0:0:0:0:
64,192,104025,1,0,0:0:0:0:
320,192,104100,1,0,0:0:0:0:
192,192,104100,1,0,0:0:0:0:
448,192,104250,1,0,0:0:0:0:
320,192,104400,1,0,0:0:0:0:
448,192,104400,1,0,0:0:0:0:
192,192,104550,1,0,0:0:0:0:
192,192,104700,1,0,0:0:0:0:
64,192,104700,1,0,0:0:0:0:
320,192,104850,1,0,0:0:0:0:
448,192,104925,1,0,0:0:0:0:
192,192,105000,1,0,0:0:0:0:
64,192,105000,1,0,0:0:0:0:
320,192,105150,1,0,0:0:0:0:
192,192,105300,1,0,0:0:0:0:
320,192,105300,1,0,0:0:0:0:
64,192,105450,1,0,0:0:0:0:
64,192,105600,1,0,0:0:0:0:
192,192,105600,1,0,0:0:0:0:
448,192,105600,1,0,0:0:0:0:
320,192,105600,128,0,105675:0:0:0:0:
320,192,106200,128,0,106275:0:0:0:0:
192,192,106200,1,0,0:0:0:0:
448,192,106200,1,0,0:0:0:0:
64,192,106200,1,0,0:0:0:0:
448,192,106800,1,0,0:0:0:0:
64,192,106800,1,0,0:0:0:0:
192,192,106800,128,0,106875:0:0:0:0:
320,192,106800,1,0,0:0:0:0:
192,192,107400,1,0,0:0:0:0:
448,192,107400,1,0,0:0:0:0:
64,192,107400,1,0,0:0:0:0:
320,192,107400,1,0,0:0:0:0:
192,192,107550,1,0,0:0:0:0:
320,192,107550,1,0,0:0:0:0:
192,192,107700,1,0,0:0:0:0:
64,192,107700,1,0,0:0:0:0:
448,192,107700,1,0,0:0:0:0:
192,192,107850,1,0,0:0:0:0:
320,192,107850,1,0,0:0:0:0:
64,192,108000,1,0,0:0:0:0:
192,192,108000,1,0,0:0:0:0:
320,192,108000,1,0,0:0:0:0:
448,192,108000,1,0,0:0:0:0:
64,192,112800,1,0,0:0:0:0:
448,192,112800,1,0,0:0:0:0:
320,192,112800,1,0,0:0:0:0:
192,192,112800,128,0,113100:0:0:0:0:
448,192,113100,128,0,113400:0:0:0:0:
64,192,113400,128,0,113700:0:0:0:0:
320,192,113700,128,0,114000:0:0:0:0:
64,192,114000,1,0,0:0:0:0:
192,192,114000,128,0,114300:0:0:0:0:
448,192,114000,1,0,0:0:0:0:
448,192,114300,128,0,114600:0:0:0:0:
64,192,114600,128,0,114900:0:0:0:0:
320,192,114900,128,0,115200:0:0:0:0:
192,192,115200,1,0,0:0:0:0:
448,192,115200,1,0,0:0:0:0:
64,192,115200,128,0,115500:0:0:0:0:
448,192,115500,128,0,115800:0:0:0:0:
64,192,115800,128,0,116100:0:0:0:0:
448,192,116100,128,0,116400:0:0:0:0:
192,192,116400,128,0,116550:0:0:0:0:
320,192,116550,128,0,116700:0:0:0:0:
192,192,116700,128,0,116850:0:0:0:0:
448,192,116850,128,0,117000:0:0:0:0:
64,192,117000,128,0,117600:0:0:0:0:
192,192,117600,1,0,0:0:0:0:
448,192,117600,1,0,0:0:0:0:
320,192,117600,128,0,117900:0:0:0:0:
448,192,117900,128,0,118200:0:0:0:0:
320,192,118200,128,0,118500:0:0:0:0:
64,192,118500,128,0,118800:0:0:0:0:
320,192,118800,1,0,0:0:0:0:
192,192,118800,1,0,0:0:0:0:
448,192,118800,128,0,119100:0:0:0:0:
64,192,119100,128,0,119400:0:0:0:0:
448,192,119400,128,0,119700:0:0:0:0:
192,192,119700,128,0,120000:0:0:0:0:
64,192,120000,1,0,0:0:0:0:
320,192,120000,1,0,0:0:0:0:
448,192,120000,128,0,120300:0:0:0:0:
192,192,120300,128,0,120600:0:0:0:0:
448,192,120600,128,0,120900:0:0:0:0:
64,192,120900,128,0,121200:0:0:0:0:
448,192,121200,128,0,121350:0:0:0:0:
192,192,121200,1,0,0:0:0:0:
320,192,121200,1,0,0:0:0:0:
192,192,121350,128,0,121500:0:0:0:0:
448,192,121500,128,0,121650:0:0:0:0:
64,192,121650,128,0,121800:0:0:0:0:
448,192,121800,128,0,122400:0:0:0:0:
64,192,122400,1,0,0:0:0:0:
320,192,122400,1,0,0:0:0:0:
192,192,122400,128,0,123300:0:0:0:0:
448,192,123000,1,0,0:0:0:0:
64,192,123000,1,0,0:0:0:0:
64,192,123300,128,0,123450:0:0:0:0:
448,192,123450,128,0,123600:0:0:0:0:
320,192,123600,128,0,124800:0:0:0:0:
192,192,123600,1,0,0:0:0:0:
64,192,124200,1,0,0:0:0:0:
448,192,124200,1,0,0:0:0:0:
64,192,124800,128,0,125850:0:0:0:0:
192,192,124800,1,0,0:0:0:0:
320,192,125400,1,0,0:0:0:0:
448,192,125400,1,0,0:0:0:0:
448,192,125850,128,0,126000:0:0:0:0:
192,192,126000,128,0,126150:0:0:0:0:
320,192,126000,1,0,0:0:0:0:
320,192,126150,128,0,126300:0:0:0:0:
64,192,126300,128,0,126450:0:0:0:0:
448,192,126450,128,0,126600:0:0:0:0:
64,192,126600,128,0,126750:0:0:0:0:
192,192,126600,1,0,0:0:0:0:
320,192,126750,128,0,126900:0:0:0:0:
192,192,126900,128,0,127050:0:0:0:0:
448,192,127050,128,0,127200:0:0:0:0:
320,192,127200,1,0,0:0:0:0:
64,192,127200,128,0,128400:0:0:0:0:
320,192,127500,1,0,0:0:0:0:
320,192,127800,1,0,0:0:0:0:
320,192,128100,1,0,0:0:0:0:
448,192,128400,1,0,0:0:0:0:
192,192,128400,128,0,129600:0:0:0:0:
448,192,128700,1,0,0:0:0:0:
448,192,129000,1,0,0:0:0:0:
448,192,129300,1,0,0:0:0:0:
448,192,129600,1,0,0:0:0:0:
320,192,129600,1,0,0:0:0:0:
320,192,129750,1,0,0:0:0:0:
320,192,129900,1,0,0:0:0:0:
64,192,129900,1,0,0:0:0:0:
192,192,130050,1,0,0:0:0:0:
192,192,130200,1,0,0:0:0:0:
448,192,130200,1,0,0:0:0:0:
320,192,130275,1,0,0:0:0:0:
448,192,130350,1,0,0:0:0:0:
64,192,130500,1,0,0:0:0:0:
320,192,130500,1,0,0:0:0:0:
192,192,130650,1,0,0:0:0:0:
448,192,130650,1,0,0:0:0:0:
320,192,130725,1,0,0:0:0:0:
192,192,130800,1,0,0:0:0:0:
64,192,130800,1,0,0:0:0:0:
448,192,130875,1,0,0:0:0:0:
320,192,130950,1,0,0:0:0:0:
192,192,131025,1,0,0:0:0:0:
320,192,131100,1,0,0:0:0:0:
64,192,131175,1,0,0:0:0:0:
192,192,131250,1,0,0:0:0:0:
320,192,131325,1,0,0:0:0:0:
448,192,131400,1,0,0:0:0:0:
320,192,131475,1,0,0:0:0:0:
64,192,131550,1,0,0:0:0:0:
192,192,131625,1,0,0:0:0:0:
320,192,131700,128,0,131925:0:0:0:0:
448,192,131700,128,0,131925:0:0:0:0:
64,192,131700,128,0,131925:0:0:0:0:
448,192,132000,1,0,0:0:0:0:
320,192,132000,1,0,0:0:0:0:
192,192,132000,1,0,0:0:0:0:
64,192,132000,1,0,0:0:0:0:
320,192,132150,1,0,0:0:0:0:
192,192,132150,1,0,0:0:0:0:
448,192,132300,1,0,0:0:0:0:
192,192,132300,1,0,0:0:0:0:
64,192,132300,1,0,0:0:0:0:
320,192,132450,1,0,0:0:0:0:
320,192,132600,1,0,0:0:0:0:
448,192,132600,1,0,0:0:0:0:
64,192,132600,1,0,0:0:0:0:
192,192,132750,1,0,0:0:0:0:
192,192,132900,1,0,0:0:0:0:
448,192,132900,1,0,0:0:0:0:
64,192,132900,1,0,0:0:0:0:
320,192,132900,1,0,0:0:0:0:
320,192,133050,1,0,0:0:0:0:
320,192,133200,1,0,0:0:0:0:
192,192,133200,1,0,0:0:0:0:
64,192,133200,1,0,0:0:0:0:
448,192,133350,1,0,0:0:0:0:
448,192,133500,1,0,0:0:0:0:
320,192,133500,1,0,0:0:0:0:
192,192,133500,1,0,0:0:0:0:
64,192,133500,1,0,0:0:0:0:
64,192,133650,1,0,0:0:0:0:
64,192,133800,1,0,0:0:0:0:
192,192,133800,1,0,0:0:0:0:
448,192,133800,1,0,0:0:0:0:
320,192,133950,1,0,0:0:0:0:
448,192,134100,1,0,0:0:0:0:
320,192,134100,1,0,0:0:0:0:
192,192,134100,1,0,0:0:0:0:
64,192,134100,1,0,0:0:0:0:
64,192,134250,1,0,0:0:0:0:
448,192,134400,1,0,0:0:0:0:
64,192,134400,1,0,0:0:0:0:
192,192,134400,1,0,0:0:0:0:
320,192,134550,1,0,0:0:0:0:
448,192,134700,1,0,0:0:0:0:
320,192,134700,1,0,0:0:0:0:
64,192,134700,1,0,0:0:0:0:
192,192,134700,1,0,0:0:0:0:
192,192,134850,1,0,0:0:0:0:
192,192,135000,1,0,0:0:0:0:
64,192,135000,1,0,0:0:0:0:
320,192,135000,1,0,0:0:0:0:
448,192,135150,1,0,0:0:0:0:
448,192,135300,1,0,0:0:0:0:
320,192,135300,1,0,0:0:0:0:
192,192,135300,1,0,0:0:0:0:
64,192,135300,1,0,0:0:0:0:
64,192,135450,1,0,0:0:0:0:
64,192,135600,1,0,0:0:0:0:
192,192,135600,1,0,0:0:0:0:
448,192,135600,1,0,0:0:0:0:
320,192,135750,1,0,0:0:0:0:
448,192,135900,1,0,0:0:0:0:
320,192,135900,1,0,0:0:0:0:
192,192,135900,1,0,0:0:0:0:
64,192,135900,1,0,0:0:0:0:
64,192,136050,1,0,0:0:0:0:
64,192,136200,1,0,0:0:0:0:
192,192,136200,1,0,0:0:0:0:
448,192,136200,1,0,0:0:0:0:
320,192,136200,1,0,0:0:0:0:
320,192,136350,1,0,0:0:0:0:
192,192,136350,1,0,0:0:0:0:
448,192,136500,1,0,0:0:0:0:
320,192,136500,1,0,0:0:0:0:
64,192,136500,1,0,0:0:0:0:
192,192,136500,1,0,0:0:0:0:
320,192,136650,1,0,0:0:0:0:
192,192,136650,1,0,0:0:0:0:
64,192,136800,1,0,0:0:0:0:
192,192,136800,1,0,0:0:0:0:
448,192,136800,1,0,0:0:0:0:
448,192,136950,1,0,0:0:0:0:
64,192,137100,1,0,0:0:0:0:
320,192,137100,1,0,0:0:0:0:
448,192,137100,1,0,0:0:0:0:
192,192,137100,1,0,0:0:0:0:
192,192,137250,1,0,0:0:0:0:
192,192,137400,1,0,0:0:0:0:
64,192,137400,1,0,0:0:0:0:
448,192,137400,1,0,0:0:0:0:
320,192,137550,1,0,0:0:0:0:
320,192,137700,1,0,0:0:0:0:
64,192,137700,1,0,0:0:0:0:
448,192,137700,1,0,0:0:0:0:
192,192,137700,1,0,0:0:0:0:
192,192,137850,1,0,0:0:0:0:
192,192,138000,1,0,0:0:0:0:
320,192,138000,1,0,0:0:0:0:
448,192,138000,1,0,0:0:0:0:
64,192,138150,1,0,0:0:0:0:
64,192,138300,1,0,0:0:0:0:
192,192,138300,1,0,0:0:0:0:
320,192,138300,1,0,0:0:0:0:
448,192,138450,1,0,0:0:0:0:
448,192,138600,1,0,0:0:0:0:
320,192,138600,1,0,0:0:0:0:
192,192,138600,1,0,0:0:0:0:
192,192,138750,1,0,0:0:0:0:
64,192,138900,1,0,0:0:0:0:
192,192,138900,1,0,0:0:0:0:
320,192,138900,1,0,0:0:0:0:
448,192,138900,1,0,0:0:0:0:
448,192,139050,1,0,0:0:0:0:
64,192,139200,1,0,0:0:0:0:
448,192,139200,1,0,0:0:0:0:
320,192,139200,1,0,0:0:0:0:
192,192,139350,1,0,0:0:0:0:
64,192,139500,1,0,0:0:0:0:
192,192,139500,1,0,0:0:0:0:
448,192,139500,1,0,0:0:0:0:
320,192,139500,1,0,0:0:0:0:
320,192,139650,1,0,0:0:0:0:
320,192,139800,1,0,0:0:0:0:
448,192,139800,1,0,0:0:0:0:
192,192,139800,1,0,0:0:0:0:
64,192,139950,1,0,0:0:0:0:
64,192,140100,1,0,0:0:0:0:
192,192,140100,1,0,0:0:0:0:
320,192,140100,1,0,0:0:0:0:
448,192,140100,1,0,0:0:0:0:
448,192,140250,1,0,0:0:0:0:
448,192,140400,1,0,0:0:0:0:
320,192,140400,1,0,0:0:0:0:
64,192,140400,1,0,0:0:0:0:
192,192,140550,1,0,0:0:0:0:
64,192,140700,1,0,0:0:0:0:
192,192,140700,1,0,0:0:0:0:
320,192,140700,1,0,0:0:0:0:
448,192,140700,1,0,0:0:0:0:
448,192,140850,1,0,0:0:0:0:
448,192,141000,1,0,0:0:0:0:
320,192,141000,1,0,0:0:0:0:
64,192,141000,1,0,0:0:0:0:
192,192,141150,1,0,0:0:0:0:
320,192,141150,1,0,0:0:0:0:
448,192,141300,128,0,141525:0:0:0:0:
320,192,141300,128,0,141525:0:0:0:0:
64,192,141300,128,0,141525:0:0:0:0:
448,192,141600,1,0,0:0:0:0:
320,192,141600,1,0,0:0:0:0:
192,192,141600,1,0,0:0:0:0:
320,192,141750,1,0,0:0:0:0:
192,192,141750,1,0,0:0:0:0:
192,192,141900,1,0,0:0:0:0:
64,192,141900,1,0,0:0:0:0:
448,192,141900,1,0,0:0:0:0:
320,192,141900,1,0,0:0:0:0:
64,192,142050,1,0,0:0:0:0:
192,192,142200,1,0,0:0:0:0:
64,192,142200,1,0,0:0:0:0:
448,192,142200,1,0,0:0:0:0:
320,192,142350,1,0,0:0:0:0:
320,192,142500,1,0,0:0:0:0:
64,192,142500,1,0,0:0:0:0:
448,192,142500,1,0,0:0:0:0:
192,192,142500,1,0,0:0:0:0:
192,192,142650,1,0,0:0:0:0:
448,192,142725,1,0,0:0:0:0:
192,192,142800,1,0,0:0:0:0:
320,192,142800,1,0,0:0:0:0:
64,192,142800,1,0,0:0:0:0:
64,192,142950,1,0,0:0:0:0:
64,192,143100,1,0,0:0:0:0:
192,192,143100,1,0,0:0:0:0:
320,192,143100,1,0,0:0:0:0:
448,192,143100,1,0,0:0:0:0:
448,192,143250,1,0,0:0:0:0:
448,192,143400,1,0,0:0:0:0:
320,192,143400,1,0,0:0:0:0:
64,192,143400,1,0,0:0:0:0:
192,192,143550,1,0,0:0:0:0:
64,192,143700,1,0,0:0:0:0:
192,192,143700,1,0,0:0:0:0:
320,192,143700,1,0,0:0:0:0:
448,192,143700,1,0,0:0:0:0:
448,192,143850,1,0,0:0:0:0:
64,192,144000,1,0,0:0:0:0:
448,192,144000,1,0,0:0:0:0:
320,192,144000,1,0,0:0:0:0:
192,192,144150,1,0,0:0:0:0:
64,192,144300,1,0,0:0:0:0:
192,192,144300,1,0,0:0:0:0:
448,192,144300,1,0,0:0:0:0:
320,192,144300,1,0,0:0:0:0:
320,192,144450,1,0,0:0:0:0:
320,192,144600,1,0,0:0:0:0:
448,192,144600,1,0,0:0:0:0:
192,192,144600,1,0,0:0:0:0:
64,192,144750,1,0,0:0:0:0:
64,192,144900,1,0,0:0:0:0:
192,192,144900,1,0,0:0:0:0:
320,192,144900,1,0,0:0:0:0:
448,192,144900,1,0,0:0:0:0:
448,192,145050,1,0,0:0:0:0:
448,192,145200,1,0,0:0:0:0:
320,192,145200,1,0,0:0:0:0:
64,192,145200,1,0,0:0:0:0:
192,192,145350,1,0,0:0:0:0:
64,192,145500,1,0,0:0:0:0:
192,192,145500,1,0,0:0:0:0:
320,192,145500,1,0,0:0:0:0:
448,192,145500,1,0,0:0:0:0:
448,192,145650,1,0,0:0:0:0:
448,192,145800,1,0,0:0:0:0:
320,192,145800,1,0,0:0:0:0:
64,192,145800,1,0,0:0:0:0:
192,192,145800,1,0,0:0:0:0:
192,192,145950,1,0,0:0:0:0:
320,192,145950,1,0,0:0:0:0:
64,192,146100,1,0,0:0:0:0:
192,192,146100,1,0,0:0:0:0:
448,192,146100,1,0,0:0:0:0:
320,192,146100,1,0,0:0:0:0:
192,192,146250,1,0,0:0:0:0:
320,192,146250,1,0,0:0:0:0:
448,192,146400,1,0,0:0:0:0:
320,192,146400,1,0,0:0:0:0:
64,192,146400,128,0,146700:0:0:0:0:
448,192,146700,1,0,0:0:0:0:
320,192,146700,1,0,0:0:0:0:
192,192,146700,128,0,147000:0:0:0:0:
448,192,147000,1,0,0:0:0:0:
64,192,147000,1,0,0:0:0:0:
320,192,147000,128,0,147300:0:0:0:0:
192,192,147300,1,0,0:0:0:0:
448,192,147300,1,0,0:0:0:0:
64,192,147300,128,0,147600:0:0:0:0:
320,192,147600,1,0,0:0:0:0:
192,192,147600,1,0,0:0:0:0:
448,192,147600,128,0,147900:0:0:0:0:
320,192,147900,1,0,0:0:0:0:
192,192,147900,128,0,148200:0:0:0:0:
64,192,147900,1,0,0:0:0:0:
64,192,148200,1,0,0:0:0:0:
448,192,148200,1,0,0:0:0:0:
320,192,148200,128,0,148500:0:0:0:0:
448,192,148500,1,0,0:0:0:0:
192,192,148500,1,0,0:0:0:0:
64,192,148500,128,0,148800:0:0:0:0:
320,192,148800,1,0,0:0:0:0:
192,192,148800,1,0,0:0:0:0:
448,192,148800,128,0,148875:0:0:0:0:
192,192,149400,1,0,0:0:0:0:
64,192,149400,1,0,0:0:0:0:
448,192,149400,1,0,0:0:0:0:
320,192,149400,128,0,149475:0:0:0:0:
192,192,150000,1,0,0:0:0:0:
320,192,150000,1,0,0:0:0:0:
448,192,150000,1,0,0:0:0:0:
64,192,150000,128,0,150075:0:0:0:0:
64,192,150600,1,0,0:0:0:0:
192,192,150600,1,0,0:0:0:0:
448,192,150600,1,0,0:0:0:0:
320,192,150750,1,0,0:0:0:0:
192,192,150750,1,0,0:0:0:0:
64,192,150900,1,0,0:0:0:0:
192,192,150900,1,0,0:0:0:0:
448,192,150900,1,0,0:0:0:0:
320,192,150900,1,0,0:0:0:0:
192,192,151050,1,0,0:0:0:0:
320,192,151050,1,0,0:0:0:0:
64,192,151200,1,0,0:0:0:0:
192,192,151200,1,0,0:0:0:0:
320,192,151200,1,0,0:0:0:0:
320,192,151350,1,0,0:0:0:0:
448,192,151350,1,0,0:0:0:0:
448,192,151500,1,0,0:0:0:0:
64,192,151500,1,0,0:0:0:0:
192,192,151500,1,0,0:0:0:0:
64,192,151650,1,0,0:0:0:0:
320,192,151650,1,0,0:0:0:0:
192,192,151725,1,0,0:0:0:0:
64,192,151800,1,0,0:0:0:0:
448,192,151800,1,0,0:0:0:0:
192,192,151950,1,0,0:0:0:0:
448,192,151950,1,0,0:0:0:0:
320,192,152025,1,0,0:0:0:0:
448,192,152100,1,0,0:0:0:0:
192,192,152100,1,0,0:0:0:0:
64,192,152100,1,0,0:0:0:0:
64,192,152250,1,0,0:0:0:0:
320,192,152250,1,0,0:0:0:0:
64,192,152400,1,0,0:0:0:0:
192,192,152400,1,0,0:0:0:0:
320,192,152400,1,0,0:0:0:0:
448,192,152550,1,0,0:0:0:0:
192,192,152550,1,0,0:0:0:0:
448,192,152700,1,0,0:0:0:0:
320,192,152700,1,0,0:0:0:0:
64,192,152700,1,0,0:0:0:0:
192,192,152850,1,0,0:0:0:0:
320,192,152925,1,0,0:0:0:0:
448,192,153000,1,0,0:0:0:0:
192,192,153000,1,0,0:0:0:0:
64,192,153000,1,0,0:0:0:0:
192,192,153150,1,0,0:0:0:0:
320,192,153150,1,0,0:0:0:0:
448,192,153300,1,0,0:0:0:0:
320,192,153300,1,0,0:0:0:0:
64,192,153300,1,0,0:0:0:0:
192,192,153450,1,0,0:0:0:0:
448,192,153450,1,0,0:0:0:0:
192,192,153600,1,0,0:0:0:0:
64,192,153600,1,0,0:0:0:0:
448,192,153750,1,0,0:0:0:0:
192,192,153750,1,0,0:0:0:0:
448,192,153900,1,0,0:0:0:0:
320,192,153900,1,0,0:0:0:0:
64,192,153900,1,0,0:0:0:0:
192,192,154050,1,0,0:0:0:0:
320,192,154125,1,0,0:0:0:0:
448,192,154200,1,0,0:0:0:0:
64,192,154200,1,0,0:0:0:0:
192,192,154200,1,0,0:0:0:0:
320,192,154350,1,0,0:0:0:0:
192,192,154425,1,0,0:0:0:0:
64,192,154500,1,0,0:0:0:0:
448,192,154500,1,0,0:0:0:0:
320,192,154500,1,0,0:0:0:0:
192,192,154650,1,0,0:0:0:0:
192,192,154800,1,0,0:0:0:0:
320,192,154800,1,0,0:0:0:0:
64,192,154800,1,0,0:0:0:0:
448,192,154950,1,0,0:0:0:0:
448,192,155100,1,0,0:0:0:0:
320,192,155100,1,0,0:0:0:0:
64,192,155100,1,0,0:0:0:0:
192,192,155250,1,0,0:0:0:0:
320,192,155325,1,0,0:0:0:0:
448,192,155400,1,0,0:0:0:0:
192,192,155400,1,0,0:0:0:0:
64,192,155400,1,0,0:0:0:0:
320,192,155550,1,0,0:0:0:0:
192,192,155550,1,0,0:0:0:0:
320,192,155700,1,0,0:0:0:0:
448,192,155700,1,0,0:0:0:0:
64,192,155700,1,0,0:0:0:0:
320,192,155850,1,0,0:0:0:0:
192,192,155850,1,0,0:0:0:0:
64,192,156000,1,0,0:0:0:0:
192,192,156000,1,0,0:0:0:0:
448,192,156000,1,0,0:0:0:0:
320,192,156150,1,0,0:0:0:0:
320,192,156300,1,0,0:0:0:0:
192,192,156300,1,0,0:0:0:0:
64,192,156300,1,0,0:0:0:0:
448,192,156450,1,0,0:0:0:0:
192,192,156450,1,0,0:0:0:0:
320,192,156525,1,0,0:0:0:0:
192,192,156600,1,0,0:0:0:0:
64,192,156600,1,0,0:0:0:0:
64,192,156750,1,0,0:0:0:0:
192,192,156825,1,0,0:0:0:0:
320,192,156900,1,0,0:0:0:0:
448,192,156900,1,0,0:0:0:0:
64,192,156900,1,0,0:0:0:0:
448,192,157050,1,0,0:0:0:0:
192,192,157200,1,0,0:0:0:0:
320,192,157200,1,0,0:0:0:0:
320,192,157350,1,0,0:0:0:0:
64,192,157350,1,0,0:0:0:0:
448,192,157500,1,0,0:0:0:0:
320,192,157500,1,0,0:0:0:0:
64,192,157500,1,0,0:0:0:0:
192,192,157650,1,0,0:0:0:0:
320,192,157725,1,0,0:0:0:0:
448,192,157800,1,0,0:0:0:0:
64,192,157800,1,0,0:0:0:0:
64,192,157950,1,0,0:0:0:0:
192,192,157950,1,0,0:0:0:0:
192,192,158100,1,0,0:0:0:0:
448,192,158100,1,0,0:0:0:0:
320,192,158100,1,0,0:0:0:0:
320,192,158250,1,0,0:0:0:0:
64,192,158250,1,0,0:0:0:0:
320,192,158400,1,0,0:0:0:0:
192,192,158400,1,0,0:0:0:0:
448,192,158400,1,0,0:0:0:0:
64,192,158550,1,0,0:0:0:0:
64,192,158700,1,0,0:0:0:0:
192,192,158700,1,0,0:0:0:0:
448,192,158700,1,0,0:0:0:0:
320,192,158850,1,0,0:0:0:0:
192,192,158925,1,0,0:0:0:0:
64,192,159000,1,0,0:0:0:0:
448,192,159000,1,0,0:0:0:0:
192,192,159150,1,0,0:0:0:0:
320,192,159225,1,0,0:0:0:0:
448,192,159300,1,0,0:0:0:0:
192,192,159300,1,0,0:0:0:0:
64,192,159300,1,0,0:0:0:0:
320,192,159450,1,0,0:0:0:0:
64,192,159600,1,0,0:0:0:0:
192,192,159600,1,0,0:0:0:0:
320,192,159600,1,0,0:0:0:0:
448,192,159750,1,0,0:0:0:0:
448,192,159900,1,0,0:0:0:0:
320,192,159900,1,0,0:0:0:0:
64,192,159900,1,0,0:0:0:0:
192,192,160050,1,0,0:0:0:0:
320,192,160125,1,0,0:0:0:0:
448,192,160200,1,0,0:0:0:0:
64,192,160200,1,0,0:0:0:0:
192,192,160200,1,0,0:0:0:0:
320,192,160350,1,0,0:0:0:0:
192,192,160350,1,0,0:0:0:0:
320,192,160500,1,0,0:0:0:0:
448,192,160500,1,0,0:0:0:0:
64,192,160500,1,0,0:0:0:0:
320,192,160650,1,0,0:0:0:0:
192,192,160650,1,0,0:0:0:0:
64,192,160800,1,0,0:0:0:0:
192,192,160800,1,0,0:0:0:0:
448,192,160800,1,0,0:0:0:0:
448,192,160950,1,0,0:0:0:0:
64,192,160950,1,0,0:0:0:0:
64,192,161100,1,0,0:0:0:0:
448,192,161100,1,0,0:0:0:0:
320,192,161100,1,0,0:0:0:0:
192,192,161250,1,0,0:0:0:0:
320,192,161325,1,0,0:0:0:0:
448,192,161400,1,0,0:0:0:0:
64,192,161400,1,0,0:0:0:0:
320,192,161550,1,0,0:0:0:0:
192,192,161625,1,0,0:0:0:0:
64,192,161700,1,0,0:0:0:0:
320,192,161700,1,0,0:0:0:0:
448,192,161700,1,0,0:0:0:0:
192,192,161850,1,0,0:0:0:0:
192,192,162000,1,0,0:0:0:0:
320,192,162000,1,0,0:0:0:0:
64,192,162000,1,0,0:0:0:0:
448,192,162150,1,0,0:0:0:0:
320,192,162150,1,0,0:0:0:0:
448,192,162300,1,0,0:0:0:0:
320,192,162300,1,0,0:0:0:0:
64,192,162300,1,0,0:0:0:0:
192,192,162450,1,0,0:0:0:0:
320,192,162525,1,0,0:0:0:0:
448,192,162600,1,0,0:0:0:0:
64,192,162600,1,0,0:0:0:0:
64,192,162750,1,0,0:0:0:0:
320,192,162750,1,0,0:0:0:0:
192,192,162825,1,0,0:0:0:0:
320,192,162900,1,0,0:0:0:0:
64,192,162900,1,0,0:0:0:0:
448,192,162900,1,0,0:0:0:0:
448,192,163050,1,0,0:0:0:0:
448,192,163200,1,0,0:0:0:0:
320,192,163200,1,0,0:0:0:0:
64,192,163200,1,0,0:0:0:0:
192,192,163350,1,0,0:0:0:0:
320,192,163350,1,0,0:0:0:0:
64,192,163500,1,0,0:0:0:0:
192,192,163500,1,0,0:0:0:0:
320,192,163500,1,0,0:0:0:0:
448,192,163650,1,0,0:0:0:0:
320,192,163725,1,0,0:0:0:0:
192,192,163800,1,0,0:0:0:0:
64,192,163800,1,0,0:0:0:0:
64,192,163950,1,0,0:0:0:0:
192,192,164025,1,0,0:0:0:0:
320,192,164100,1,0,0:0:0:0:
64,192,164100,1,0,0:0:0:0:
448,192,164100,1,0,0:0:0:0:
320,192,164250,1,0,0:0:0:0:
192,192,164400,1,0,0:0:0:0:
64,192,164400,1,0,0:0:0:0:
64,192,164550,1,0,0:0:0:0:
320,192,164550,1,0,0:0:0:0:
192,192,164700,1,0,0:0:0:0:
64,192,164700,1,0,0:0:0:0:
448,192,164700,1,0,0:0:0:0:
320,192,164850,1,0,0:0:0:0:
192,192,164925,1,0,0:0:0:0:
64,192,165000,1,0,0:0:0:0:
320,192,165000,1,0,0:0:0:0:
448,192,165000,1,0,0:0:0:0:
64,192,165150,1,0,0:0:0:0:
448,192,165150,1,0,0:0:0:0:
448,192,165300,1,0,0:0:0:0:
320,192,165300,1,0,0:0:0:0:
192,192,165300,1,0,0:0:0:0:
64,192,165300,1,0,0:0:0:0:
448,192,165450,1,0,0:0:0:0:
320,192,165450,1,0,0:0:0:0:
320,192,165600,1,0,0:0:0:0:
192,192,165600,1,0,0:0:0:0:
64,192,165600,1,0,0:0:0:0:
448,192,165750,1,0,0:0:0:0:
448,192,165900,1,0,0:0:0:0:
192,192,165900,1,0,0:0:0:0:
320,192,166050,1,0,0:0:0:0:
192,192,166125,1,0,0:0:0:0:
64,192,166200,1,0,0:0:0:0:
448,192,166200,1,0,0:0:0:0:
64,192,166350,1,0,0:0:0:0:
192,192,166425,1,0,0:0:0:0:
320,192,166500,1,0,0:0:0:0:
448,192,166500,1,0,0:0:0:0:
64,192,166650,1,0,0:0:0:0:
192,192,166800,1,0,0:0:0:0:
64,192,166800,1,0,0:0:0:0:
320,192,166950,1,0,0:0:0:0:
320,192,167100,1,0,0:0:0:0:
448,192,167100,1,0,0:0:0:0:
192,192,167250,1,0,0:0:0:0:
64,192,167325,1,0,0:0:0:0:
320,192,167400,1,0,0:0:0:0:
448,192,167400,1,0,0:0:0:0:
192,192,167550,1,0,0:0:0:0:
320,192,167700,1,0,0:0:0:0:
192,192,167700,1,0,0:0:0:0:
448,192,167850,1,0,0:0:0:0:
448,192,168000,1,0,0:0:0:0:
320,192,168000,1,0,0:0:0:0:
64,192,168000,1,0,0:0:0:0:
192,192,168000,128,0,168075:0:0:0:0:
192,192,168600,128,0,168675:0:0:0:0:
320,192,168600,1,0,0:0:0:0:
64,192,168600,1,0,0:0:0:0:
448,192,168600,1,0,0:0:0:0:
64,192,169200,1,0,0:0:0:0:
448,192,169200,1,0,0:0:0:0:
320,192,169200,128,0,169275:0:0:0:0:
192,192,169200,1,0,0:0:0:0:
320,192,169800,1,0,0:0:0:0:
64,192,169800,1,0,0:0:0:0:
448,192,169800,1,0,0:0:0:0:
192,192,169800,1,0,0:0:0:0:
320,192,169950,1,0,0:0:0:0:
192,192,169950,1,0,0:0:0:0:
64,192,170100,128,0,170325:0:0:0:0:
192,192,170100,128,0,170325:0:0:0:0:
320,192,170100,128,0,170325:0:0:0:0:
448,192,170100,128,0,170325:0:0:0:0:
448,192,170400,1,0,0:0:0:0:
320,192,170400,1,0,0:0:0:0:
192,192,170400,1,0,0:0:0:0:
64,192,170400,1,0,0:0:0:0:
320,192,171000,1,0,0:0:0:0:
320,192,171150,128,0,171450:0:0:0:0:
64,192,171450,1,0,0:0:0:0:
64,192,171600,1,0,0:0:0:0:
448,192,171825,1,0,0:0:0:0:
192,192,171900,1,0,0:0:0:0:
192,192,172050,1,0,0:0:0:0:
64,192,172200,1,0,0:0:0:0:
64,192,172350,1,0,0:0:0:0:
64,192,172500,128,0,172800:0:0:0:0:
448,192,172800,1,0,0:0:0:0:
320,192,172950,1,0,0:0:0:0:
320,192,173100,128,0,173400:0:0:0:0:
192,192,173400,1,0,0:0:0:0:
192,192,173550,128,0,173850:0:0:0:0:
448,192,173850,1,0,0:0:0:0:
448,192,174000,1,0,0:0:0:0:
64,192,174225,1,0,0:0:0:0:
320,192,174300,1,0,0:0:0:0:
320,192,174450,1,0,0:0:0:0:
448,192,174600,1,0,0:0:0:0:
448,192,174750,1,0,0:0:0:0:
448,192,174900,128,0,175200:0:0:0:0:
64,192,175200,1,0,0:0:0:0:
192,192,175350,1,0,0:0:0:0:
192,192,175500,128,0,175800:0:0:0:0:
320,192,175800,1,0,0:0:0:0:
320,192,175950,128,0,176250:0:0:0:0:
64,192,176250,1,0,0:0:0:0:
64,192,176400,1,0,0:0:0:0:
448,192,176625,1,0,0:0:0:0:
192,192,176700,1,0,0:0:0:0:
192,192,176850,1,0,0:0:0:0:
64,192,177000,1,0,0:0:0:0:
64,192,177150,1,0,0:0:0:0:
64,192,177300,128,0,177600:0:0:0:0:
448,192,177600,1,0,0:0:0:0:
320,192,177750,1,0,0:0:0:0:
320,192,177900,128,0,178200:0:0:0:0:
192,192,178200,1,0,0:0:0:0:
192,192,178350,128,0,178650:0:0:0:0:
448,192,178650,1,0,0:0:0:0:
448,192,178800,1,0,0:0:0:0:
64,192,179025,1,0,0:0:0:0:
320,192,179100,1,0,0:0:0:0:
320,192,179250,1,0,0:0:0:0:
448,192,179400,1,0,0:0:0:0:
448,192,179550,1,0,0:0:0:0:
448,192,179700,128,0,180000:0:0:0:0:
64,192,180000,1,0,0:0:0:0:
320,192,180000,1,0,0:0:0:0:
448,192,180600,128,0,181200:0:0:0:0:
64,192,181200,128,0,183600:0:0:0:0:
320,192,183600,128,0,184800:0:0:0:0:
64,192,184800,1,0,0:0:0:0:
448,192,184800,1,0,0:0:0:0:
64,192,185400,128,0,186000:0:0:0:0:
448,192,186000,128,0,187200:0:0:0:0:
192,192,187200,128,0,188400:0:0:0:0:
64,192,187200,1,0,0:0:0:0:
320,192,188400,128,0,189600:0:0:0:0:
448,192,188400,1,0,0:0:0:0:
64,192,189000,1,0,0:0:0:0:
448,192,189000,1,0,0:0:0:0:
448,192,189600,1,0,0:0:0:0:
64,192,189600,1,0,0:0:0:0:
192,192,189600,1,0,0:0:0:0:
