osu file format v14

[General]
AudioFilename: audio.mp3
AudioLeadIn: 0
PreviewTime: 10123
Countdown: 0
SampleSet: Soft
StackLeniency: 0.7
Mode: 0
LetterboxInBreaks: 0
WidescreenStoryboard: 0

[Editor]
Bookmarks: 10123,20337,30485,40620,50766,60915,65992,76134,86287,96434,106579,116724,126869,137022,147164,157310,167457,177595,187751,197904,208057,218207,228350,233421,238413
DistanceSpacing: 1.3
BeatDivisor: 8
GridSize: 32
TimelineZoom: 1.5

[Metadata]
Title:Nuthin' But A "G" Thang
TitleUnicode:Nuthin' But A "G" Thang
Artist:Dr. Dre, Snoop Dogg
ArtistUnicode:Dr. Dre, Snoop Dogg
Creator:The Honeysticks
Version:Stranded On Death Row
Source:
Tags:aakki & nothin nothing and english death row records the chronic rap old hip hop g funk 90s 1992 1990
BeatmapID:3186236
BeatmapSetID:1559917

[Difficulty]
HPDrainRate:5
CircleSize:5
OverallDifficulty:7
ApproachRate:8
SliderMultiplier:3.59999990463257
SliderTickRate:1

[Events]
//Background and Video events
0,0,"nuthinbuta.png",0,0
//Break Periods
//Storyboard Layer 0 (Background)
//Storyboard Layer 1 (Fail)
//Storyboard Layer 2 (Pass)
//Storyboard Layer 3 (Foreground)
//Storyboard Layer 4 (Overlay)
//Storyboard Sound Samples

[TimingPoints]
63,640,4,2,1,80,1,0
2623,631.578947368421,4,2,1,80,1,0
5149,638.297872340426,4,2,1,80,1,0
7702,625,4,2,1,80,1,0
10190,634.249471458774,4,2,1,80,1,0
10190,-133.333333333333,4,2,1,80,0,0
10824,-100,4,2,1,80,0,0
11537,-100,4,2,1,40,0,0
11617,-100,4,2,1,80,0,0
12964,-100,4,2,1,5,0,0
13044,-100,4,2,1,80,0,0
14312,-100,4,2,2,80,0,0
14391,-100,4,2,1,80,0,0
16056,-100,4,2,1,5,0,0
16136,-100,4,2,1,80,0,0
16770,-100,4,2,1,5,0,0
16849,-100,4,2,1,80,0,0
17404,-100,4,2,1,5,0,0
17483,-100,4,2,1,80,0,0
19307,-100,4,2,1,5,0,0
19386,-100,4,2,2,80,0,0
19465,-100,4,2,1,80,0,0
23033,-100,4,2,1,5,0,0
23112,-100,4,2,1,80,0,0
24460,-100,4,2,2,80,0,0
24539,-100,4,2,1,80,0,0
25015,-100,4,2,1,5,0,0
25094,-100,4,2,1,80,0,0
28186,-100,4,2,1,5,0,0
28266,-100,4,2,1,80,0,0
34608,-100,4,2,2,80,0,0
34687,-100,4,2,1,80,0,0
35005,-100,4,2,1,5,0,0
35084,-100,4,2,1,80,0,0
35797,-100,4,2,1,5,0,0
35877,-100,4,2,1,80,0,0
39682,-100,4,2,2,80,0,0
39761,-100,4,2,1,80,0,0
40620,634.920634920635,4,2,1,80,1,0
40858,-100,4,2,1,5,0,0
40937,-100,4,2,1,80,0,0
41493,-100,4,2,1,5,0,0
41572,-100,4,2,1,80,0,0
44746,-100,4,2,2,80,0,0
44826,-100,4,2,1,80,0,0
49826,-100,4,2,2,80,0,0
49905,-100,4,2,1,80,0,0
50766,641.711229946524,4,2,1,80,1,0
52931,-100,4,2,1,5,0,0
53011,-100,4,2,1,80,0,0
53308,635.593220338983,4,2,1,80,1,0
54896,-100,4,2,2,80,0,0
54976,-100,4,2,1,80,0,0
55839,634.584875727129,4,2,1,80,1,0
58298,-100,4,2,1,5,0,0
58377,-100,4,2,1,80,0,0
58932,-100,4,2,1,5,0,0
59011,-100,4,2,1,80,0,0
59963,-100,4,2,2,80,0,0
60043,-100,4,2,1,80,0,0
60201,-100,4,2,1,5,0,0
60281,-100,4,2,1,80,0,0
62740,-100,4,2,1,5,0,0
62819,-100,4,2,1,80,0,0
64643,-100,4,2,1,5,0,0
64723,-100,4,2,1,80,0,0
65040,-100,4,2,2,80,0,0
65119,-100,4,2,1,80,0,0
65278,-100,4,2,1,5,0,0
65357,-100,4,2,1,80,0,0
65992,633.91442155309,4,2,1,80,1,0
70112,-100,4,2,2,80,0,0
70191,-100,4,2,1,80,0,0
73836,-100,4,2,1,5,0,0
73915,-100,4,2,1,80,0,0
75104,-100,4,2,1,5,0,0
75183,-100,4,2,2,80,0,0
75262,-100,4,2,1,80,0,0
76134,634.584875727129,4,2,1,80,1,0
79227,-100,4,2,1,5,0,0
79306,-100,4,2,1,80,0,0
80258,-100,4,2,2,80,0,0
80338,-100,4,2,1,80,0,0
82003,-100,4,2,1,5,0,0
82083,-100,4,2,1,80,0,0
83907,-100,4,2,1,5,0,0
83986,-100,4,2,1,80,0,0
85335,-100,4,2,2,80,0,0
85414,-100,4,2,1,80,0,0
87001,-100,4,2,1,5,0,0
87080,-100,4,2,1,80,0,0
90412,-100,4,2,2,80,0,0
90491,-100,4,2,1,80,0,0
90650,-100,4,2,1,5,0,0
90729,-100,4,2,1,80,0,0
91602,-100,4,2,1,5,0,0
91681,-100,4,2,1,80,0,0
93664,-100,4,2,1,5,0,0
93743,-100,4,2,1,80,0,0
95488,-100,4,2,2,80,0,0
95568,-100,4,2,1,80,0,0
95726,-100,4,2,1,5,0,0
95806,-100,4,2,1,80,0,0
96434,634.081902245707,4,2,1,80,1,0
98891,-100,4,2,1,5,0,0
98970,-100,4,2,1,80,0,0
99208,-100,4,2,1,5,0,0
99287,-100,4,2,1,80,0,0
100159,-100,4,2,1,5,0,0
100238,-100,4,2,1,80,0,0
100555,-100,4,2,2,80,0,0
100634,-100,4,2,1,80,0,0
103012,-100,4,2,1,5,0,0
103091,-100,4,2,1,80,0,0
105548,-100,4,2,1,5,0,0
105628,-100,4,2,2,80,0,0
105707,-100,4,2,1,80,0,0
110700,-100,4,2,2,80,0,0
110780,-100,4,2,1,80,0,0
113316,-100,4,2,1,5,0,0
113395,-100,4,2,1,80,0,0
115773,-100,4,2,2,80,0,0
115852,-100,4,2,1,80,0,0
116169,-100,4,2,1,5,0,0
116249,-100,4,2,1,80,0,0
116328,-100,4,2,1,5,0,0
116407,-100,4,2,1,80,0,0
116486,-100,4,2,1,5,0,0
116566,-100,4,2,1,80,0,0
116645,-100,4,2,1,5,0,0
116724,-100,4,2,1,80,0,0
116962,-100,4,2,1,5,0,0
117041,-125,4,2,1,80,0,0
117279,-125,4,2,1,5,0,0
117358,-100,4,2,1,80,0,0
117596,-100,4,2,1,5,0,0
117675,-90.9090909090909,4,2,1,80,0,0
117913,-90.9090909090909,4,2,1,5,0,0
117992,-83.3333333333333,4,2,1,80,0,0
118230,-83.3333333333333,4,2,1,5,0,0
118309,-90.9090909090909,4,2,1,80,0,0
118547,-90.9090909090909,4,2,1,5,0,0
118626,-100,4,2,1,80,0,0
118706,-100,4,2,1,5,0,0
118785,-100,4,2,1,80,0,0
119023,-100,4,2,1,5,0,0
119102,-100,4,2,1,80,0,0
119260,-125,4,2,1,80,0,0
119815,-125,4,2,1,5,0,0
119895,-125,4,2,1,80,0,0
120132,-125,4,2,1,5,0,0
120212,-100,4,2,1,80,0,0
120449,-100,4,2,1,5,0,0
120529,-100,4,2,1,80,0,0
120766,-100,4,2,1,5,0,0
120846,-100,4,2,2,80,0,0
120925,-100,4,2,1,80,0,0
121083,-100,4,2,1,5,0,0
121163,-100,4,2,1,80,0,0
121559,-100,4,2,1,5,0,0
121638,-100,4,2,1,80,0,0
122035,-100,4,2,1,5,0,0
122114,-125,4,2,1,80,0,0
122352,-125,4,2,1,5,0,0
122431,-100,4,2,1,80,0,0
122669,-100,4,2,1,5,0,0
122748,-90.9090909090909,4,2,1,80,0,0
122986,-90.9090909090909,4,2,1,5,0,0
123065,-83.3333333333333,4,2,1,80,0,0
123303,-83.3333333333333,4,2,1,5,0,0
123382,-90.9090909090909,4,2,1,80,0,0
123620,-90.9090909090909,4,2,1,5,0,0
123699,-100,4,2,1,80,0,0
123937,-100,4,2,1,5,0,0
124016,-100,4,2,1,80,0,0
124888,-100,4,2,1,5,0,0
124967,-100,4,2,1,80,0,0
125205,-100,4,2,1,5,0,0
125284,-125,4,2,1,80,0,0
125522,-125,4,2,1,5,0,0
125601,-125,4,2,1,80,0,0
125918,-125,4,2,2,80,0,0
125998,-125,4,2,1,80,0,0
126869,634.618435665556,4,2,1,80,1,0
126869,-100,4,2,1,80,0,0
127106,-100,4,2,1,5,0,0
127186,-100,4,2,1,80,0,0
128376,-100,4,2,1,5,0,0
128455,-100,4,2,1,80,0,0
129010,-100,4,2,1,5,0,0
129090,-100,4,2,1,80,0,0
130914,-100,4,2,1,5,0,0
130994,-100,4,2,2,80,0,0
131073,-100,4,2,1,80,0,0
132183,-100,4,2,1,5,0,0
132263,-100,4,2,1,80,0,0
136070,-100,4,2,2,80,0,0
136150,-100,4,2,1,80,0,0
136626,-100,4,2,1,5,0,0
136705,-100,4,2,1,80,0,0
137895,-100,4,2,1,5,0,0
137974,-100,4,2,1,80,0,0
141147,-100,4,2,2,80,0,0
141227,-100,4,2,1,80,0,0
141703,-100,4,2,1,5,0,0
141782,-100,4,2,1,80,0,0
143289,-100,4,2,1,5,0,0
143369,-100,4,2,1,80,0,0
144876,-100,4,2,1,5,0,0
144955,-100,4,2,1,80,0,0
146224,-100,4,2,2,80,0,0
146304,-100,4,2,1,80,0,0
147097,-100,4,2,1,5,0,0
147164,634.551319337951,4,2,1,80,1,0
151209,-100,4,2,1,5,0,0
151288,-100,4,2,2,80,0,0
151367,-100,4,2,1,80,0,0
153112,-100,4,2,1,5,0,0
153192,-100,4,2,1,80,0,0
155016,-100,4,2,1,5,0,0
155095,-100,4,2,1,80,0,0
155413,-50,4,2,1,80,0,1
155968,-50,4,2,1,5,0,1
156047,-50,4,2,1,80,0,1
156285,-50,4,2,1,5,0,1
156364,-50,4,2,2,80,0,0
156444,-50,4,2,1,80,0,0
156523,-50,4,2,1,80,0,0
156682,-100,4,2,1,80,0,0
157310,635.256749602965,4,2,1,80,1,0
157548,-100,4,2,1,5,0,0
157627,-100,4,2,1,80,0,0
158818,-100,4,2,1,5,0,0
158898,-100,4,2,1,80,0,0
161359,-100,4,2,1,5,0,0
161439,-100,4,2,2,80,0,0
161518,-100,4,2,1,80,0,0
166521,-100,4,2,2,80,0,0
166600,-100,4,2,1,80,0,0
167394,-100,4,2,1,5,0,0
167457,635.930047694754,4,2,1,80,1,0
167695,-100,4,2,1,5,0,0
167774,-100,4,2,1,80,0,0
168967,-100,4,2,1,5,0,0
169046,-100,4,2,1,80,0,0
171590,-100,4,2,2,80,0,0
171670,-100,4,2,1,80,0,0
171829,-100,4,2,1,5,0,0
171908,-100,4,2,1,80,0,0
172524,633.91442155309,4,2,1,80,1,0
177595,635.930047694754,4,2,1,80,1,0
181728,-100,4,2,2,80,0,0
181808,-100,4,2,1,80,0,0
185464,-100,4,2,1,5,0,0
185544,-100,4,2,1,80,0,0
185941,-100,4,2,1,5,0,0
186021,-100,4,2,1,80,0,0
186736,-100,4,2,1,5,0,0
186815,-100,4,2,2,80,0,0
186895,-100,4,2,1,80,0,0
187213,-100,4,2,1,5,0,0
187292,-100,4,2,1,80,0,0
187751,634.584875727129,4,2,1,80,1,0
189258,-100,4,2,1,5,0,0
189337,-100,4,2,1,80,0,0
190210,-100,4,2,1,5,0,0
190289,-100,4,2,1,80,0,0
191875,-100,4,2,2,80,0,0
191955,-100,4,2,1,80,0,0
194334,-100,4,2,1,5,0,0
194414,-100,4,2,1,80,0,0
196238,-100,4,2,1,5,0,0
196317,-100,4,2,1,80,0,0
196952,-100,4,2,2,80,0,0
197031,-100,4,2,1,80,0,0
197825,-100,4,2,1,5,0,0
197904,-100,4,2,1,80,0,0
198142,-100,4,2,1,5,0,0
198221,-100,4,2,1,80,0,0
202029,-100,4,2,2,80,0,0
202108,-100,4,2,1,80,0,0
203219,-100,4,2,1,5,0,0
203298,-100,4,2,1,80,0,0
204646,-100,4,2,1,5,0,0
204726,-100,4,2,1,80,0,0
205122,-100,4,2,1,5,0,0
205202,-100,4,2,1,80,0,0
207105,-100,4,2,2,80,0,0
207185,-100,4,2,1,80,0,0
207502,-100,4,2,1,5,0,0
207581,-100,4,2,1,80,0,0
207661,-100,4,2,1,5,0,0
207740,-100,4,2,1,80,0,0
207819,-100,4,2,1,5,0,0
207899,-100,4,2,1,80,0,0
207978,-100,4,2,1,5,0,0
208057,-100,4,2,1,80,0,0
208295,-100,4,2,1,5,0,0
208375,-125,4,2,1,80,0,0
208612,-125,4,2,1,5,0,0
208692,-100,4,2,1,80,0,0
208930,-100,4,2,1,5,0,0
209009,-90.9090909090909,4,2,1,80,0,0
209247,-90.9090909090909,4,2,1,5,0,0
209326,-83.3333333333333,4,2,1,80,0,0
209564,-83.3333333333333,4,2,1,5,0,0
209644,-90.9090909090909,4,2,1,80,0,0
209882,-90.9090909090909,4,2,1,5,0,0
209961,-100,4,2,1,80,0,0
210040,-100,4,2,1,5,0,0
210120,-100,4,2,1,80,0,0
210199,-100,4,2,1,5,0,0
210278,-100,4,2,1,80,0,0
210358,-100,4,2,1,5,0,0
210437,-100,4,2,1,80,0,0
210516,-100,4,2,1,5,0,0
210596,-125,4,2,1,80,0,0
211151,-125,4,2,1,5,0,0
211230,-100,4,2,1,80,0,0
211468,-100,4,2,1,5,0,0
211547,-125,4,2,1,80,0,0
211785,-125,4,2,1,5,0,0
211865,-125,4,2,1,80,0,0
212103,-125,4,2,1,5,0,0
212182,-125,4,2,2,80,0,0
212261,-125,4,2,1,80,0,0
212420,-125,4,2,1,5,0,0
212499,-100,4,2,1,80,0,0
212737,-100,4,2,1,5,0,0
212817,-100,4,2,1,80,0,0
212896,-100,4,2,1,5,0,0
212975,-100,4,2,1,80,0,0
213372,-100,4,2,1,5,0,0
213451,-125,4,2,1,80,0,0
213689,-125,4,2,1,5,0,0
213768,-100,4,2,1,80,0,0
214006,-100,4,2,1,5,0,0
214086,-90.9090909090909,4,2,1,80,0,0
214324,-90.9090909090909,4,2,1,5,0,0
214403,-83.3333333333333,4,2,1,80,0,0
214641,-83.3333333333333,4,2,1,5,0,0
214720,-90.9090909090909,4,2,1,80,0,0
214958,-90.9090909090909,4,2,1,5,0,0
215038,-100,4,2,1,80,0,0
215276,-100,4,2,1,5,0,0
215355,-100,4,2,1,80,0,0
215593,-100,4,2,1,5,0,0
215672,633.91442155309,4,2,1,80,1,0
215672,-125,4,2,1,80,0,0
215909,-125,4,2,1,5,0,0
215988,-125,4,2,1,80,0,0
216226,-125,4,2,1,5,0,0
216305,-100,4,2,1,80,0,0
216543,-100,4,2,1,5,0,0
216622,-125,4,2,1,80,0,0
216860,-125,4,2,1,5,0,0
216939,-125,4,2,1,80,0,0
217177,-125,4,2,1,5,0,0
217256,-125,4,2,2,80,0,0
217336,-125,4,2,1,80,0,0
217494,-125,4,2,1,5,0,0
217573,-100,4,2,1,80,0,0
217652,-100,4,2,1,5,0,0
217732,-100,4,2,1,80,0,0
217969,-100,4,2,1,5,0,0
218049,-100,4,2,1,80,0,0
218445,-100,4,2,1,5,0,0
218524,-125,4,2,1,80,0,0
218762,-125,4,2,1,5,0,0
218841,-100,4,2,1,80,0,0
219079,-100,4,2,1,5,0,0
219158,-90.9090909090909,4,2,1,80,0,0
219396,-90.9090909090909,4,2,1,5,0,0
219475,-83.3333333333333,4,2,1,80,0,0
219713,-83.3333333333333,4,2,1,5,0,0
219792,-90.9090909090909,4,2,1,80,0,0
220030,-90.9090909090909,4,2,1,5,0,0
220109,-100,4,2,1,80,0,0
220188,-100,4,2,1,5,0,0
220267,-100,4,2,1,80,0,0
220347,-100,4,2,1,5,0,0
220426,-100,4,2,1,80,0,0
220505,-100,4,2,1,5,0,0
220584,-100,4,2,1,80,0,0
220664,-100,4,2,1,5,0,0
220743,-125,4,2,1,80,0,0
221297,-125,4,2,1,5,0,0
221377,-100,4,2,1,80,0,0
221614,-100,4,2,1,5,0,0
221694,-125,4,2,1,80,0,0
221931,-125,4,2,1,5,0,0
222011,-125,4,2,1,80,0,0
222248,-125,4,2,1,5,0,0
222328,-125,4,2,2,80,0,0
222407,-125,4,2,1,80,0,0
222565,-125,4,2,1,5,0,0
222645,-100,4,2,1,80,0,0
222882,-100,4,2,1,5,0,0
222962,-100,4,2,1,80,0,0
223041,-100,4,2,1,5,0,0
223120,-100,4,2,1,80,0,0
223199,-100,4,2,1,5,0,0
223278,-100,4,2,1,80,0,0
223516,-100,4,2,1,5,0,0
223595,-125,4,2,1,80,0,0
223833,-125,4,2,1,5,0,0
223912,-100,4,2,1,80,0,0
224150,-100,4,2,1,5,0,0
224229,-90.9090909090909,4,2,1,80,0,0
224467,-90.9090909090909,4,2,1,5,0,0
224546,-83.3333333333333,4,2,1,80,0,0
224784,-83.3333333333333,4,2,1,5,0,0
224863,-90.9090909090909,4,2,1,80,0,0
225101,-90.9090909090909,4,2,1,5,0,0
225180,-100,4,2,1,80,0,0
225259,-100,4,2,1,5,0,0
225339,-100,4,2,1,80,0,0
225418,-100,4,2,1,5,0,0
225497,-100,4,2,1,80,0,0
225576,-100,4,2,1,5,0,0
225656,-100,4,2,1,80,0,0
225735,-100,4,2,1,5,0,0
225814,-125,4,2,1,80,0,0
226369,-125,4,2,1,5,0,0
226448,-100,4,2,1,80,0,0
226686,-100,4,2,1,5,0,0
226765,-125,4,2,1,80,0,0
227003,-125,4,2,1,5,0,0
227082,-125,4,2,1,80,0,0
227320,-125,4,2,1,5,0,0
227399,-125,4,2,2,80,0,0
227478,-125,4,2,1,80,0,0
227637,-125,4,2,1,5,0,0
227716,-100,4,2,1,80,0,0
227795,-100,4,2,1,5,0,0
227874,-100,4,2,1,80,0,0
227954,-100,4,2,1,5,0,0
228033,-100,4,2,1,80,0,0
228112,-100,4,2,1,5,0,0
228191,-100,4,2,1,80,0,0
228271,-100,4,2,1,5,0,0
228350,-100,4,2,1,80,0,0
228588,-100,4,2,1,5,0,0
228667,-125,4,2,1,80,0,0
228904,-125,4,2,1,5,0,0
228984,-100,4,2,1,80,0,0
229221,-100,4,2,1,5,0,0
229301,-90.9090909090909,4,2,1,80,0,0
229538,-90.9090909090909,4,2,1,5,0,0
229618,-83.3333333333333,4,2,1,80,0,0
229855,-83.3333333333333,4,2,1,5,0,0
229935,-90.9090909090909,4,2,1,80,0,0
230172,-90.9090909090909,4,2,1,5,0,0
230252,-100,4,2,1,80,0,0
230331,-100,4,2,1,5,0,0
230410,-100,4,2,1,80,0,0
230648,-100,4,2,1,5,0,0
230727,-100,4,2,1,80,0,0
230885,-125,4,2,1,80,0,0
231440,-125,4,2,1,5,0,0
231519,-100,4,2,1,80,0,0
231757,-100,4,2,1,5,0,0
231836,-125,4,2,1,80,0,0
232074,-125,4,2,1,5,0,0
232153,-125,4,2,1,80,0,0
232391,-125,4,2,1,5,0,0
232470,-125,4,2,2,80,0,0
232549,-125,4,2,1,80,0,0
232708,-125,4,2,1,5,0,0
232787,-100,4,2,1,80,0,0
233025,-100,4,2,1,5,0,0
233104,-100,4,2,1,80,0,0
233183,-100,4,2,1,5,0,0
233263,-100,4,2,1,80,0,0
233342,-100,4,2,1,5,0,0
233421,-100,4,2,1,80,0,0
233659,-100,4,2,1,5,0,0
233738,-125,4,2,1,80,0,0
233976,-125,4,2,1,5,0,0
234055,-100,4,2,1,80,0,0
234293,-100,4,2,1,5,0,0
234372,-90.9090909090909,4,2,1,80,0,0
234610,-90.9090909090909,4,2,1,5,0,0
234689,-83.3333333333333,4,2,1,80,0,0
234927,-83.3333333333333,4,2,1,5,0,0
235006,-90.9090909090909,4,2,1,80,0,0
235244,-90.9090909090909,4,2,1,5,0,0
235323,-100,4,2,1,80,0,0
235561,-100,4,2,1,5,0,0
235640,-100,4,2,1,80,0,0
235878,-100,4,2,1,5,0,0
235957,-125,4,2,1,80,0,0
236511,-125,4,2,1,5,0,0
236591,-100,4,2,1,80,0,0
236828,-100,4,2,1,5,0,0
236908,-125,4,2,1,80,0,0
237145,-125,4,2,1,5,0,0
237225,-125,4,2,1,80,0,0
237462,-125,4,2,1,5,0,0
237542,-125,4,2,2,80,0,0
237621,-125,4,2,1,80,0,0
237779,-125,4,2,1,5,0,0
237859,-100,4,2,1,80,0,0
237938,-100,4,2,1,5,0,0
238017,-100,4,2,1,80,0,0
238096,-100,4,2,1,5,0,0
238175,-100,4,2,1,80,0,0
238255,-100,4,2,1,5,0,0
238334,-100,4,2,1,80,0,0
238413,-100,4,2,1,5,0,0

[Colours]
Combo1 : 0,64,128
Combo2 : 214,214,214
Combo3 : 64,64,64

[HitObjects]
88,272,10190,6,0,B|56:142|56:142|31:208,1,202.500002360344,2|0,3:2|0:0,0:0:0:0:
249,361,10824,2,0,B|227:327|180:319|180:319|219:318|250:299|275:251|229:204|187:213|165:253,1,269.999992847443,8|0,0:0|0:0,0:0:0:0:
329,311,11457,5,0,3:0:0:0:
329,311,11537,1,0,0:0:0:0:
329,311,11616,1,0,0:0:0:0:
447,367,11775,2,0,P|438:313|422:214,1,134.999996423721
417,225,12092,1,8,0:0:0:0:
489,120,12330,5,0,0:0:0:0:
497,111,12409,2,0,P|506:57|518:-8,1,89.9999976158143,0|0,3:0|0:0,0:0:0:0:
389,91,12726,6,0,B|356:98|324:69|340:61|323:18|267:31,1,134.999996423721,0|0,3:0|0:0,0:0:0:0:
268,38,13044,5,0,0:0:0:0:
402,15,13202,1,0,0:0:0:0:
267,113,13361,5,8,0:0:0:0:
173,86,13519,1,0,0:0:0:0:
275,125,13678,2,0,P|282:169|291:218,1,89.9999976158143,0|0,3:0|0:0,0:0:0:0:
178,307,13995,6,0,P|134:260|58:260,1,134.999996423721,0|0,3:0|0:0,0:0:0:0:
52,246,14312,1,2,3:2:0:0:
0,148,14550,5,0,0:0:0:0:
9,138,14629,2,0,P|17:85|41:55,1,89.9999976158143,8|0,0:0|0:0,0:0:0:0:
137,0,14946,2,0,P|147:43|177:76,1,89.9999976158143,0|0,3:0|0:0,0:0:0:0:
267,150,15263,5,2,3:2:0:0:
275,140,15369,5,0,0:0:0:0:
312,146,15475,5,0,0:0:0:0:
343,112,15581,6,0,P|398:125|475:143,1,119.999996821086
414,244,15898,6,0,P|367:256|290:274,1,89.9999976158143,8|0,0:0|0:0,0:0:0:0:
256,301,16136,1,0,0:0:0:0:
264,310,16215,2,0,P|264:363|296:387,1,89.9999976158143,0|0,3:0|0:0,0:0:0:0:
134,244,16532,6,0,P|90:233|-17:209,1,134.999996423721,0|0,3:0|0:0,0:0:0:0:
8,288,16849,2,0,P|51:297|95:307,1,89.9999976158143
213,230,17166,2,0,B|221:191|183:161|178:174|135:166|146:112,1,134.999996423721,8|0,0:0|0:0,0:0:0:0:
146,113,17483,5,0,3:0:0:0:
242,83,17642,1,0,0:0:0:0:
322,28,17800,5,0,3:0:0:0:
396,56,17959,1,0,0:0:0:0:
411,76,18118,5,0,0:0:0:0:
340,114,18277,1,0,0:0:0:0:
439,247,18435,6,0,P|432:203|423:152,1,89.9999976158143,8|0,0:0|0:0,0:0:0:0:
351,223,18752,1,0,3:0:0:0:
505,177,18910,1,0,0:0:0:0:
482,367,19069,2,0,P|449:328|351:329,1,134.999996423721,0|0,3:0|0:0,0:0:0:0:
301,293,19386,5,2,3:2:0:0:
291,284,19492,5,0,0:0:0:0:
256,287,19598,5,0,0:0:0:0:
236,256,19703,6,0,P|176:272|112:287,1,119.999996821086,8|0,0:0|0:0,0:0:0:0:
183,173,20020,2,0,P|125:159|68:144,1,89.9999976158143,0|0,3:0|0:0,0:0:0:0:
198,36,20337,6,0,B|188:81|223:106|233:89|272:113|261:160,1,134.999996423721,2|0,3:2|0:0,0:0:0:0:
275,155,20655,1,0,0:0:0:0:
367,126,20813,1,0,0:0:0:0:
461,0,20972,6,0,P|436:36|392:46,1,89.9999976158143,8|0,0:0|0:0,0:0:0:0:
512,209,21289,2,0,P|482:176|438:172,1,89.9999976158143,0|0,3:0|0:0,0:0:0:0:
357,117,21606,5,0,3:0:0:0:
272,283,21765,2,0,P|363:264|450:247,1,179.999995231629
366,354,22240,5,8,0:0:0:0:
387,284,22399,1,0,0:0:0:0:
374,367,22557,2,0,P|418:375|462:384,1,89.9999976158143,0|0,3:0|0:0,0:0:0:0:
260,295,22874,6,0,P|216:297|185:329,1,89.9999976158143,0|0,3:0|0:0,0:0:0:0:
176,339,23112,1,0,0:0:0:0:
8,199,23350,5,0,0:0:0:0:
130,238,23509,2,0,P|122:186|98:148,1,89.9999976158143,8|0,0:0|0:0,0:0:0:0:
183,3,23826,2,0,P|162:42|157:86,1,89.9999976158143,0|0,3:0|0:0,0:0:0:0:
233,122,24143,5,0,3:0:0:0:
308,100,24302,1,0,0:0:0:0:
351,23,24460,5,2,3:2:0:0:
276,1,24619,1,0,0:0:0:0:
324,178,24777,6,0,B|368:185|390:145|375:139|398:106|442:112,1,134.999996423721,8|0,0:0|0:0,0:0:0:0:
442,103,25094,1,0,3:0:0:0:
284,248,25411,5,2,3:2:0:0:
288,263,25570,1,0,0:0:0:0:
348,352,25729,5,0,0:0:0:0:
366,284,25888,1,0,0:0:0:0:
207,277,26046,6,0,P|170:308|126:308,1,89.9999976158143,8|0,0:0|0:0,0:0:0:0:
0,340,26363,2,0,P|47:342|79:373,1,89.9999976158143,0|0,3:0|0:0,0:0:0:0:
99,199,26680,22,0,B|116:159|75:122|62:140|-10:142|-10:19|89:-17|182:53|150:144|89:149|86:122|16:141|32:194,1,359.999990463257,0|8,3:0|0:0,0:0:0:0:
110,205,27631,2,0,P|65:212|21:219,1,89.9999976158143,0|0,3:0|0:0,0:0:0:0:
202,147,27948,6,0,P|242:186|338:174,1,134.999996423721,0|0,3:0|0:0,0:0:0:0:
311,281,28266,2,0,P|353:291|376:328,1,89.9999976158143
432,228,28583,5,8,0:0:0:0:
498,204,28741,1,0,0:0:0:0:
509,179,28900,5,0,3:0:0:0:
427,142,29058,1,0,0:0:0:0:
283,110,29217,6,0,B|246:71|263:-11|349:-39|413:-6|392:79|335:68,1,269.999992847443,0|0,3:0|0:0,0:0:0:0:
270,121,29851,2,0,P|214:132|162:142,1,89.9999976158143,8|0,0:0|0:0,0:0:0:0:
70,35,30168,2,0,P|114:44|159:53,1,89.9999976158143,0|0,3:0|0:0,0:0:0:0:
100,153,30485,6,0,B|94:214|149:231|154:213|212:233|197:296,1,179.999995231629,2|0,3:2|0:0,0:0:0:0:
86,162,30961,1,0,0:0:0:0:
126,316,31120,5,8,0:0:0:0:
98,384,31278,1,0,0:0:0:0:
115,306,31437,2,0,P|68:317|18:330,1,89.9999976158143,0|0,3:0|0:0,0:0:0:0:
287,372,31754,6,0,B|258:285|394:218|474:318|424:387|376:391|290:359|389:247,1,359.999990463257,0|8,3:0|0:0,0:0:0:0:
280,382,32705,2,0,P|236:370|192:360,1,89.9999976158143,0|0,3:0|0:0,0:0:0:0:
317,219,33022,5,0,3:0:0:0:
338,149,33181,1,0,0:0:0:0:
328,52,33340,5,0,0:0:0:0:
355,138,33499,1,0,0:0:0:0:
484,107,33657,5,8,0:0:0:0:
411,77,33816,1,0,0:0:0:0:
468,198,33974,1,0,3:0:0:0:
476,207,34053,2,0,P|485:258|495:307,1,89.9999976158143
421,341,34291,6,0,P|355:339|305:383,1,134.999996423721,0|0,3:0|0:0,0:0:0:0:
245,325,34608,2,0,P|179:324|130:279,1,134.999996423721,2|0,3:2|0:0,0:0:0:0:
56,217,34925,6,0,P|65:174|73:138,1,44.9999988079071,8|0,0:0|0:0,0:0:0:0:
18,118,35163,1,0,0:0:0:0:
26,106,35242,2,0,P|20:74|7:15,1,89.9999976158143,0|0,3:0|0:0,0:0:0:0:
151,163,35559,2,0,B|143:117|183:96|185:110|227:100|219:37,1,134.999996423721,2|0,3:2|0:0,0:0:0:0:
206,50,35877,5,0,0:0:0:0:
131,27,36035,1,0,0:0:0:0:
364,56,36194,5,8,0:0:0:0:
290,81,36352,1,0,0:0:0:0:
424,103,36511,2,0,P|464:112|521:123,1,89.9999976158143,0|0,3:0|0:0,0:0:0:0:
352,220,36828,5,0,3:0:0:0:
358,233,37462,1,8,0:0:0:0:
259,350,37779,5,0,3:0:0:0:
250,365,37938,1,0,0:0:0:0:
181,304,38096,5,0,3:0:0:0:
167,232,38255,1,0,0:0:0:0:
87,307,38414,5,0,0:0:0:0:
68,377,38572,1,0,0:0:0:0:
191,311,38731,5,8,0:0:0:0:
177,239,38890,1,0,0:0:0:0:
112,176,39048,5,0,3:0:0:0:
128,108,39207,1,0,0:0:0:0:
145,100,39365,5,0,3:0:0:0:
129,32,39524,1,0,0:0:0:0:
233,166,39682,6,0,P|242:108|253:26,1,134.999996423721,2|0,3:2|0:0,0:0:0:0:
329,10,39999,2,0,P|338:66|344:105,1,89.9999976158143,8|0,0:0|0:0,0:0:0:0:
418,39,40316,1,0,3:0:0:0:
477,147,40620,6,0,B|489:188|446:213|439:194|412:219|414:256,1,134.999996423721,2|0,3:2|0:0,0:0:0:0:
422,271,40937,5,0,0:0:0:0:
503,304,41096,1,0,0:0:0:0:
357,369,41254,2,0,P|316:318|243:318,1,134.999996423721,8|0,0:0|0:0,0:0:0:0:
186,276,41572,2,0,P|152:248|152:196,1,89.9999976158143,0|0,3:0|0:0,0:0:0:0:
248,205,41889,5,0,3:0:0:0:
113,81,42127,1,0,0:0:0:0:
208,34,42366,5,0,0:0:0:0:
208,34,42524,2,0,P|202:78|196:123,1,89.9999976158143,8|0,0:0|0:0,0:0:0:0:
33,143,42842,2,0,P|27:98|21:53,1,89.9999976158143,0|0,3:0|0:0,0:0:0:0:
135,211,43159,5,0,3:0:0:0:
63,236,43318,1,0,0:0:0:0:
168,328,43477,5,0,0:0:0:0:
180,316,43582,5,0,0:0:0:0:
171,295,43688,5,0,0:0:0:0:
192,269,43794,5,8,0:0:0:0:
262,302,43953,1,0,0:0:0:0:
346,291,44112,5,0,3:0:0:0:
274,316,44271,1,0,0:0:0:0:
365,279,44429,5,0,3:0:0:0:
432,313,44588,1,0,0:0:0:0:
358,367,44746,5,2,3:2:0:0:
512,315,44985,1,0,0:0:0:0:
404,185,45302,5,0,0:0:0:0:
397,176,45381,2,0,P|390:121|383:73,1,89.9999976158143,0|0,3:0|0:0,0:0:0:0:
226,20,45699,5,2,3:2:0:0:
205,85,45858,1,0,0:0:0:0:
238,12,46016,5,0,0:0:0:0:
270,135,46175,1,0,0:0:0:0:
256,151,46334,5,8,0:0:0:0:
232,222,46493,1,0,0:0:0:0:
269,304,46651,5,0,3:0:0:0:
245,233,46810,1,0,0:0:0:0:
92,331,46969,5,0,3:0:0:0:
189,291,47128,1,0,0:0:0:0:
92,331,47286,5,0,0:0:0:0:
237,383,47524,1,0,0:0:0:0:
115,243,47762,1,0,0:0:0:0:
162,175,47921,5,0,3:0:0:0:
65,135,48080,1,0,0:0:0:0:
162,175,48238,5,0,3:0:0:0:
10,225,48477,1,0,0:0:0:0:
145,94,48873,2,0,P|199:84|248:75,1,89.9999976158143,8|0,0:0|0:0,0:0:0:0:
328,123,49191,5,0,3:0:0:0:
398,154,49349,1,0,0:0:0:0:
318,109,49508,6,0,P|309:54|302:5,1,89.9999976158143,0|0,3:0|0:0,0:0:0:0:
479,123,49826,2,0,P|472:167|465:212,1,89.9999976158143,2|0,3:2|0:0,0:0:0:0:
332,329,50143,5,8,0:0:0:0:
303,235,50302,1,0,0:0:0:0:
332,329,50461,1,0,3:0:0:0:
187,373,50699,1,0,0:0:0:0:
179,377,50766,6,0,P|123:330|65:339,1,119.999996821086,2|0,3:2|0:0,0:0:0:0:
25,276,51086,2,0,P|31:231|38:187,1,89.9999976158143
120,89,51407,5,8,0:0:0:0:
186,117,51568,1,0,0:0:0:0:
198,140,51728,5,0,3:0:0:0:
132,168,51889,1,0,0:0:0:0:
197,38,52049,6,0,P|279:29|384:17,1,179.999995231629,0|0,3:0|0:0,0:0:0:0:
472,125,52584,1,0,0:0:0:0:
464,133,52691,6,0,B|467:178|436:197|424:183|394:201|398:247,1,134.999996423721,8|0,0:0|0:0,0:0:0:0:
493,343,53011,2,0,P|476:265|470:229,1,89.9999976158143,0|0,3:0|0:0,0:0:0:0:
352,320,53308,5,0,3:0:0:0:
285,296,53466,1,0,0:0:0:0:
266,282,53625,5,0,0:0:0:0:
199,306,53783,1,0,0:0:0:0:
126,249,53943,5,8,0:0:0:0:
59,225,54101,1,0,0:0:0:0:
142,232,54261,5,0,3:0:0:0:
209,208,54419,1,0,0:0:0:0:
126,132,54579,5,0,3:0:0:0:
103,50,54738,1,0,0:0:0:0:
117,147,54896,1,2,3:2:0:0:
212,34,55108,5,0,0:0:0:0:
219,28,55214,2,0,P|262:61|304:58,1,89.9999976158143,8|0,0:0|0:0,0:0:0:0:
448,71,55532,2,0,P|394:77|366:108,1,89.9999976158143,0|0,3:0|0:0,0:0:0:0:
281,228,55839,6,0,B|244:262|259:357|351:380|406:358|396:257|323:275,1,269.999992847443,2|0,3:2|0:0,0:0:0:0:
380,117,56473,2,0,B|389:136|376:174|352:176|349:207,1,89.9999976158143,8|0,0:0|0:0,0:0:0:0:
446,224,56790,1,0,3:0:0:0:
296,124,57108,6,0,B|278:121|249:97|259:56|299:43|240:-8|192:10,1,179.999995231629,0|0,3:0|0:0,0:0:0:0:
116,140,57584,1,0,0:0:0:0:
116,140,57742,2,0,B|144:137|165:119|153:106|192:83,1,89.9999976158143,8|0,0:0|0:0,0:0:0:0:
69,207,58060,2,0,B|94:229|138:207|170:247|169:282,1,134.999996423721,0|0,3:0|0:0,0:0:0:0:
291,351,58377,6,0,B|315:284|347:348|377:317|403:255|386:178|314:148|253:195|253:262|297:305|332:290,1,314.99999165535,0|0,3:0|0:0,0:0:0:0:
431,308,59011,2,0,B|437:336|456:318|485:338|483:375,1,89.9999976158143,8|0,0:0|0:0,0:0:0:0:
490,247,59329,2,0,B|485:225|493:204|514:158,1,89.9999976158143,0|0,3:0|0:0,0:0:0:0:
350,62,59646,6,0,B|319:71|324:105|306:117|283:116,1,89.9999976158143,0|0,3:0|0:0,0:0:0:0:
511,59,59963,2,0,B|489:49|492:76|441:73|415:34|464:20|400:-5,1,134.999996423721,2|0,3:2|0:0,0:0:0:0:
357,51,60281,6,0,B|306:38|296:17|302:4|269:-12,1,89.9999976158143,8|0,0:0|0:0,0:0:0:0:
181,139,60598,2,0,B|171:99|196:97|217:62,1,89.9999976158143,0|0,3:0|0:0,0:0:0:0:
120,281,60915,6,0,B|73:244|141:192|158:106|-30:131|-29:270|51:279|81:218,1,269.999992847443,2|0,3:2|0:0,0:0:0:0:
195,304,61550,2,0,B|198:317|180:349|165:341|141:349|148:393,1,89.9999976158143,8|0,0:0|0:0,0:0:0:0:
279,279,61867,1,0,3:0:0:0:
258,209,62026,1,0,0:0:0:0:
298,288,62184,2,0,B|335:285|352:266|354:242|387:239,1,89.9999976158143,0|0,3:0|0:0,0:0:0:0:
486,369,62502,2,0,B|447:381|432:347|430:323|397:320,1,89.9999976158143
474,233,62819,6,0,B|462:196|496:201|502:177|488:157|518:134,1,89.9999976158143,8|0,2:0|2:0,2:0:0:0:
401,90,63136,2,0,B|407:60|391:39|367:33|360:5,1,89.9999976158143,0|0,3:0|0:0,0:0:0:0:
286,119,63454,6,0,B|291:131|253:161|250:160|225:99|186:139|187:136|162:184|160:185|115:183,1,179.999995231629,0|0,3:0|0:0,0:0:0:0:
124,99,63929,1,0,0:0:0:0:
124,99,64088,2,0,B|125:64|145:49|174:52|177:29,1,89.9999976158143,8|0,0:0|0:0,0:0:0:0:
61,275,64405,2,0,B|75:287|90:269|125:270|127:271|174:292|181:342,1,134.999996423721,0|0,3:0|0:0,0:0:0:0:
252,368,64723,2,0,B|265:377|276:349|296:342|314:368|352:345,1,89.9999976158143,0|0,3:0|0:0,0:0:0:0:
470,252,65040,6,0,B|454:254|436:183|406:200|388:233|345:212,1,134.999996423721,2|0,3:2|0:0,0:0:0:0:
401,292,65357,2,0,B|417:345|444:328|446:368,1,89.9999976158143,8|0,0:0|0:0,0:0:0:0:
511,170,65675,1,0,3:0:0:0:
300,122,65992,5,2,3:2:0:0:
369,96,66150,1,0,0:0:0:0:
286,110,66308,2,0,P|272:68|231:33,1,89.9999976158143
190,276,66625,5,8,0:0:0:0:
121,250,66783,1,0,0:0:0:0:
204,264,66942,2,0,P|210:222|222:167,1,89.9999976158143,0|0,3:0|0:0,0:0:0:0:
313,120,67259,5,0,3:0:0:0:
380,95,67417,1,0,0:0:0:0:
297,109,67576,2,0,P|283:67|242:32,1,89.9999976158143
194,259,67893,6,0,P|200:217|212:162,1,89.9999976158143,8|0,0:0|0:0,0:0:0:0:
112,264,68210,2,0,P|121:308|127:352,1,89.9999976158143,0|0,3:0|0:0,0:0:0:0:
312,337,68527,5,0,3:0:0:0:
245,363,68686,1,0,0:0:0:0:
320,323,68844,2,0,P|357:298|401:293,1,89.9999976158143
472,202,69161,5,8,0:0:0:0:
401,170,69320,1,0,0:0:0:0:
487,192,69478,2,0,P|481:150|469:95,1,89.9999976158143,0|0,3:0|0:0,0:0:0:0:
312,327,69795,5,0,3:0:0:0:
245,353,69954,1,0,0:0:0:0:
320,313,70112,2,0,P|357:288|401:283,1,89.9999976158143,2|0,3:2|0:0,0:0:0:0:
473,189,70429,6,0,P|467:147|455:92,1,89.9999976158143,8|0,0:0|0:0,0:0:0:0:
384,1,70746,2,0,P|374:45|368:89,1,89.9999976158143,0|0,3:0|0:0,0:0:0:0:
199,71,71063,5,2,3:2:0:0:
124,100,71221,1,0,0:0:0:0:
211,84,71380,2,0,P|267:97|284:136,1,89.9999976158143
184,226,71697,5,8,0:0:0:0:
114,190,71855,1,0,0:0:0:0:
194,237,72014,2,0,P|181:293|168:344,1,89.9999976158143,0|0,3:0|0:0,0:0:0:0:
195,75,72331,5,0,3:0:0:0:
120,104,72489,1,0,0:0:0:0:
207,88,72648,2,0,P|263:101|280:140,1,89.9999976158143
178,234,72965,6,0,P|165:290|152:341,1,89.9999976158143,8|0,0:0|0:0,0:0:0:0:
298,302,73282,2,0,P|287:258|277:214,1,89.9999976158143,0|0,3:0|0:0,0:0:0:0:
367,378,73598,6,0,P|401:331|486:340,1,134.999996423721,0|0,3:0|0:0,0:0:0:0:
512,272,73915,1,0,0:0:0:0:
404,167,74232,6,0,P|393:123|383:79,1,89.9999976158143,8|0,0:0|0:0,0:0:0:0:
495,10,74549,2,0,P|484:53|474:97,1,89.9999976158143,0|0,3:0|0:0,0:0:0:0:
313,139,74866,2,0,B|268:146|253:103|269:102|241:60|204:73,1,134.999996423721,0|0,3:0|0:0,0:0:0:0:
192,60,75183,5,2,3:2:0:0:
117,36,75342,1,0,0:0:0:0:
7,43,75500,5,8,0:0:0:0:
103,16,75659,1,0,0:0:0:0:
0,62,75817,5,0,3:0:0:0:
36,171,75976,1,0,0:0:0:0:
141,228,76134,6,0,P|131:270|117:331,1,89.9999976158143,2|0,3:2|0:0,0:0:0:0:
44,272,76451,5,0,0:0:0:0:
214,256,76609,1,0,0:0:0:0:
126,234,76768,6,0,P|127:277|131:339,1,89.9999976158143,8|0,0:0|0:0,0:0:0:0:
34,264,77085,5,0,3:0:0:0:
224,267,77243,1,0,0:0:0:0:
124,251,77403,6,0,P|136:296|158:373,1,89.9999976158143,0|0,3:0|0:0,0:0:0:0:
236,254,77720,2,0,P|252:193|271:115,1,134.999996423721
261,111,78037,1,8,0:0:0:0:
403,202,78355,5,0,3:0:0:0:
422,270,78513,1,0,0:0:0:0:
386,189,78672,5,0,3:0:0:0:
465,139,78830,1,0,0:0:0:0:
299,0,78989,6,0,B|292:51|336:61|335:51|375:63|370:115,1,134.999996423721
361,113,79306,1,8,0:0:0:0:
167,156,79624,6,0,P|157:109|150:65,1,89.9999976158143,0|0,3:0|0:0,0:0:0:0:
78,135,79941,1,0,3:0:0:0:
6,113,80100,1,0,0:0:0:0:
85,300,80258,6,0,P|95:253|102:209,1,89.9999976158143,2|0,3:2|0:0,0:0:0:0:
77,114,80576,1,8,0:0:0:0:
5,136,80735,1,0,0:0:0:0:
174,269,80893,2,0,P|209:256|260:241,1,89.9999976158143,0|0,3:0|0:0,0:0:0:0:
321,172,81210,5,2,3:2:0:0:
399,189,81369,1,0,0:0:0:0:
416,202,81527,5,0,0:0:0:0:
494,185,81686,1,0,0:0:0:0:
397,14,81845,6,0,P|407:62|416:109,1,89.9999976158143,8|0,0:0|0:0,0:0:0:0:
323,70,82083,1,0,0:0:0:0:
313,75,82162,2,0,P|274:32|187:41,1,134.999996423721,0|0,3:0|0:0,0:0:0:0:
189,22,82479,5,0,3:0:0:0:
111,2,82638,1,0,0:0:0:0:
7,76,82797,2,0,P|50:89|93:102,1,89.9999976158143
128,189,83114,1,8,0:0:0:0:
13,274,83325,5,0,0:0:0:0:
8,284,83431,2,0,P|85:283|126:348,1,134.999996423721,0|0,3:0|0:0,0:0:0:0:
187,264,83749,6,0,P|251:248|312:233,1,89.9999976158143,0|0,3:0|0:0,0:0:0:0:
241,323,83986,1,0,0:0:0:0:
245,333,84066,2,0,P|282:340|370:355,1,89.9999976158143
381,219,84383,6,0,B|384:179|349:158|346:176|313:152|322:114,1,119.999996821086,8|0,0:0|0:0,0:0:0:0:
310,112,84700,1,0,3:0:0:0:
417,0,84912,1,0,0:0:0:0:
421,9,85018,2,0,P|410:54|399:106,1,89.9999976158143,0|0,3:0|0:0,0:0:0:0:
495,217,85335,2,0,P|485:173|474:129,1,89.9999976158143,2|0,3:2|0:0,0:0:0:0:
324,27,85652,5,8,0:0:0:0:
159,78,85864,1,0,0:0:0:0:
168,87,85970,5,0,3:0:0:0:
243,63,86128,1,0,0:0:0:0:
63,35,86287,5,2,3:2:0:0:
38,103,86446,1,0,0:0:0:0:
52,117,86604,5,0,0:0:0:0:
85,211,86763,2,0,P|151:224|216:240,1,134.999996423721
227,233,87080,1,0,0:0:0:0:
291,328,87239,2,0,P|246:337|203:347,1,89.9999976158143,0|0,3:0|0:0,0:0:0:0:
301,317,87556,5,0,3:0:0:0:
407,378,87715,2,0,B|402:360|402:360|474:291|464:208,1,179.999995231629
370,165,88191,2,0,P|361:113|337:74,1,89.9999976158143,8|0,0:0|0:0,0:0:0:0:
242,63,88508,5,0,3:0:0:0:
233,52,88614,5,0,0:0:0:0:
188,54,88719,5,0,0:0:0:0:
156,22,88825,6,0,P|102:59|43:47,1,119.999996821086,0|0,3:0|0:0,0:0:0:0:
98,139,89142,2,0,P|107:185|117:235,1,89.9999976158143
23,196,89460,1,8,0:0:0:0:
190,266,89671,5,0,0:0:0:0:
179,278,89777,2,0,P|170:324|160:374,1,89.9999976158143,0|0,3:0|0:0,0:0:0:0:
252,313,90094,5,0,3:0:0:0:
84,341,90253,1,0,0:0:0:0:
262,324,90412,6,0,P|306:286|389:300,1,134.999996423721,2|0,3:2|0:0,0:0:0:0:
424,231,90729,2,0,P|471:221|526:210,1,89.9999976158143,8|0,0:0|0:0,0:0:0:0:
337,153,91046,2,0,P|290:143|235:132,1,89.9999976158143,0|0,3:0|0:0,0:0:0:0:
380,12,91364,6,0,B|371:56|408:75|411:68|455:78|438:138,1,134.999996423721,2|0,3:2|0:0,0:0:0:0:
431,133,91681,2,0,P|422:178|411:234,1,89.9999976158143
236,127,91998,5,8,0:0:0:0:
219,57,92157,1,0,0:0:0:0:
226,142,92315,2,0,P|181:150|137:160,1,89.9999976158143,0|0,3:0|0:0,0:0:0:0:
1,58,92633,2,0,P|45:67|90:77,1,89.9999976158143,0|0,3:0|0:0,0:0:0:0:
66,221,92950,5,0,0:0:0:0:
41,291,93109,1,0,0:0:0:0:
52,209,93267,5,8,0:0:0:0:
119,328,93426,2,0,P|200:329|242:377,1,134.999996423721
250,360,93743,1,0,0:0:0:0:
353,289,93902,6,0,P|346:251|334:184,1,89.9999976158143,0|0,3:0|0:0,0:0:0:0:
436,328,94378,5,0,0:0:0:0:
352,217,94536,2,0,P|343:261|335:305,1,89.9999976158143,8|0,0:0|0:0,0:0:0:0:
269,151,95012,5,0,0:0:0:0:
443,234,95171,2,0,P|436:196|424:129,1,89.9999976158143,0|0,3:0|0:0,0:0:0:0:
244,0,95488,6,0,P|311:55|369:47,1,134.999996423721,2|0,3:2|0:0,0:0:0:0:
441,63,95806,2,0,P|491:22|526:31,1,89.9999976158143,8|0,0:0|0:0,0:0:0:0:
415,154,96123,1,0,3:0:0:0:
236,225,96434,6,0,B|178:227|164:151|234:155|172:116|119:109|66:149|99:278|132:217|182:197,1,269.999992847443,2|0,3:2|0:0,0:0:0:0:
299,276,97068,2,0,B|283:309|261:294|252:314|256:335|251:357,1,89.9999976158143,8|0,0:0|0:0,0:0:0:0:
424,319,97385,2,0,B|415:300|396:300|374:276|392:233,1,89.9999976158143,0|0,3:0|0:0,0:0:0:0:
493,177,97702,6,0,B|458:175|428:113|495:53|562:78|604:212|507:214|498:194|462:210|476:255,1,269.999992847443,0|0,3:0|0:0,0:0:0:0:
360,73,98336,2,0,B|361:43|374:26|382:39|416:-1,1,89.9999976158143,8|0,0:0|0:0,0:0:0:0:
364,168,98653,6,0,B|334:161|339:173|282:165|311:137|302:105|253:101,1,134.999996423721,0|0,3:0|0:0,0:0:0:0:
248,0,98970,2,0,B|234:47|182:10|137:81,1,134.999996423721,0|0,3:0|0:0,0:0:0:0:
130,82,99287,5,0,0:0:0:0:
61,59,99445,1,0,0:0:0:0:
206,180,99604,6,0,B|201:198|184:189|164:168|127:186|104:221,1,89.9999976158143,8|0,0:0|0:0,0:0:0:0:
36,295,99921,2,0,B|88:280|130:311|90:360|135:384,1,134.999996423721,0|0,3:0|0:0,0:0:0:0:
205,322,100238,6,0,B|227:312|231:281|259:270|295:291,1,89.9999976158143,0|0,3:0|0:0,0:0:0:0:
427,195,100555,2,0,B|444:214|408:261|371:245|350:264|374:328,1,134.999996423721,2|0,3:2|0:0,0:0:0:0:
457,317,100872,1,8,0:0:0:0:
352,168,101189,2,0,B|355:130|373:147|406:128|405:85,1,89.9999976158143,0|0,3:0|0:0,0:0:0:0:
262,185,101506,6,0,B|121:215|222:3|157:129|64:91|89:8,1,269.999992847443,2|0,3:2|0:0,0:0:0:0:
258,28,102140,2,0,B|273:34|291:65|255:105,1,89.9999976158143,8|0,0:0|0:0,0:0:0:0:
102,160,102457,1,0,3:0:0:0:
223,361,102774,6,0,B|244:318|202:272|157:339|135:245,1,134.999996423721,0|0,3:0|0:0,0:0:0:0:
132,268,103091,1,0,0:0:0:0:
328,334,103328,5,0,0:0:0:0:
334,323,103408,2,0,B|373:313|388:323|410:371,1,89.9999976158143,8|0,0:0|0:0,0:0:0:0:
505,220,103725,2,0,B|508:260|496:273|445:287,1,89.9999976158143,0|0,3:0|0:0,0:0:0:0:
363,199,104042,5,0,3:0:0:0:
350,123,104201,1,0,0:0:0:0:
455,15,104360,5,0,0:0:0:0:
432,87,104519,1,0,0:0:0:0:
331,115,104677,6,0,B|313:88|275:99|264:46,1,89.9999976158143,8|0,0:0|0:0,0:0:0:0:
222,156,104994,2,0,B|214:183|196:203|167:206|158:232,1,89.9999976158143,0|0,3:0|0:0,0:0:0:0:
0,94,105311,6,0,B|30:130|61:60|114:97|119:131|119:161,1,134.999996423721,0|0,3:0|0:0,0:0:0:0:
51,188,105628,2,0,B|23:245|86:257|99:285,1,89.9999976158143,2|0,3:2|0:0,0:0:0:0:
15,336,105945,1,8,0:0:0:0:
119,384,106262,2,0,B|125:361|176:356|152:295,1,89.9999976158143,0|0,3:0|0:0,0:0:0:0:
303,200,106579,5,2,3:2:0:0:
231,166,106737,1,0,0:0:0:0:
312,188,106896,2,0,P|358:180|408:149,1,89.9999976158143
413,307,107213,5,8,0:0:0:0:
485,273,107371,1,0,0:0:0:0:
399,296,107530,2,0,P|387:354|363:382,1,89.9999976158143,0|0,3:0|0:0,0:0:0:0:
303,177,107847,6,0,P|349:169|399:138,1,89.9999976158143,0|0,3:0|0:0,0:0:0:0:
512,109,108164,2,0,P|472:87|428:80,1,89.9999976158143
293,45,108481,5,8,0:0:0:0:
365,11,108639,1,0,0:0:0:0:
279,34,108798,2,0,P|235:25|176:13,1,89.9999976158143,0|0,3:0|0:0,0:0:0:0:
93,155,109115,5,0,3:0:0:0:
125,89,109274,1,0,0:0:0:0:
83,163,109432,2,0,P|116:201|127:251,1,89.9999976158143
241,279,109749,5,8,0:0:0:0:
319,261,109908,1,0,0:0:0:0:
234,292,110066,2,0,P|224:337|213:391,1,89.9999976158143,0|0,3:0|0:0,0:0:0:0:
96,165,110383,6,0,P|129:203|140:253,1,89.9999976158143,0|0,3:0|0:0,0:0:0:0:
19,81,110700,2,0,P|52:42|63:-7,1,89.9999976158143,2|0,3:2|0:0,0:0:0:0:
250,100,111017,5,8,0:0:0:0:
218,34,111176,1,0,0:0:0:0:
260,108,111334,2,0,P|227:146|216:196,1,89.9999976158143,0|0,3:0|0:0,0:0:0:0:
337,39,111651,6,0,P|403:107|486:91,1,179.999995231629,2|0,3:2|0:0,0:0:0:0:
383,241,112127,1,0,0:0:0:0:
471,281,112286,6,0,P|463:223|457:175,2,89.9999976158143,8|0|0,0:0|0:0|3:0,0:0:0:0:
309,295,112761,2,0,P|303:339|297:384,1,89.9999976158143,0|0,0:0|3:0,0:0:0:0:
211,269,113078,2,0,B|208:226|247:198|256:225|295:197|285:147,1,134.999996423721
281,159,113395,1,0,0:0:0:0:
132,88,113554,6,0,P|168:127|208:135,1,89.9999976158143,8|0,0:0|0:0,0:0:0:0:
2,209,113871,2,0,P|34:179|78:172,1,89.9999976158143,0|0,3:0|0:0,0:0:0:0:
113,336,114188,2,0,P|187:353|303:379,2,179.999995231629,0|0|8,3:0|0:0|0:0,0:0:0:0:
348,281,115139,5,0,3:0:0:0:
421,258,115297,1,0,0:0:0:0:
437,275,115456,5,0,3:0:0:0:
510,298,115614,1,0,0:0:0:0:
462,189,115773,5,2,3:2:0:0:
431,116,115931,1,0,0:0:0:0:
331,49,116090,6,0,P|338:25|347:-4,1,44.9999988079071,8|0,0:0|0:0,0:0:0:0:
329,26,116249,2,0,P|335:47|341:69,1,44.9999988079071
246,95,116407,6,0,P|239:71|230:42,1,44.9999988079071,0|0,3:0|0:0,0:0:0:0:
248,72,116566,2,0,P|241:93|235:115,1,44.9999988079071
143,167,116724,6,0,P|156:229|177:321,1,134.999996423721,2|0,3:2|0:0,0:0:0:0:
277,249,117041,6,0,P|267:290|246:382,1,107.999997138977
360,224,117358,6,0,P|373:281|394:373,1,134.999996423721,8|0,0:0|0:0,0:0:0:0:
491,152,117675,6,0,P|477:214|456:306,1,148.500000597954,0|0,3:0|0:0,0:0:0:0:
406,384,117992,6,0,P|387:305|371:224,1,161.999990764618,0|0,3:0|0:0,0:0:0:0:
409,147,118309,6,0,P|425:75|443:3,1,148.500000597954
320,78,118626,6,0,L|266:91,1,44.9999988079071,8|0,0:0|0:0,0:0:0:0:
329,90,118785,1,0,0:0:0:0:
181,11,118943,6,0,L|235:24,1,44.9999988079071,0|0,3:0|0:0,0:0:0:0:
172,23,119102,1,0,0:0:0:0:
259,181,119260,6,0,L|9:246,1,251.99999332428,0|0,3:0|0:0,0:0:0:0:
137,119,119895,6,0,L|32:89,1,107.999997138977,8|0,0:0|0:0,0:0:0:0:
166,38,120212,6,0,L|309:1,1,134.999996423721,0|0,3:0|0:0,0:0:0:0:
414,82,120529,6,0,B|404:126|448:150|452:136|494:161|474:216,1,134.999996423721,0|0,3:0|0:0,0:0:0:0:
397,217,120846,6,0,L|371:355,1,134.999996423721,2|0,3:2|0:0,0:0:0:0:
459,384,121163,5,8,0:0:0:0:
281,312,121480,6,0,L|298:367,1,44.9999988079071,0|0,3:0|0:0,0:0:0:0:
268,302,121638,1,0,0:0:0:0:
115,255,121797,6,0,L|283:217,1,134.999996423721,2|0,3:2|0:0,0:0:0:0:
62,133,122114,6,0,L|166:159,1,107.999997138977
144,61,122431,6,0,L|291:30,1,134.999996423721,8|0,0:0|0:0,0:0:0:0:
292,126,122748,6,0,L|458:160,1,148.500000597954,0|0,3:0|0:0,0:0:0:0:
349,270,123065,6,0,L|520:235,1,161.999990764618,0|0,3:0|0:0,0:0:0:0:
251,343,123382,6,0,L|396:375,1,148.500000597954
236,332,123699,6,0,L|90:370,1,134.999996423721,8|0,0:0|0:0,0:0:0:0:
252,319,124016,5,0,3:0:0:0:
12,332,124333,6,0,L|74:11,1,314.99999165535,0|0,3:0|0:0,0:0:0:0:
214,192,124967,6,0,L|181:39,1,134.999996423721,8|0,0:0|0:0,0:0:0:0:
326,20,125284,6,0,L|296:130,1,107.999997138977,0|0,3:0|0:0,0:0:0:0:
414,166,125601,6,0,L|391:77,1,71.9999980926514,0|0,3:0|0:0,0:0:0:0:
475,215,125918,5,2,3:2:0:0:
407,258,126077,1,0,0:0:0:0:
459,321,126235,5,8,0:0:0:0:
391,278,126394,1,0,0:0:0:0:
376,254,126552,5,0,3:0:0:0:
285,291,126711,1,0,0:0:0:0:
203,368,126869,6,0,P|147:321|79:330,1,134.999996423721,2|0,3:2|0:0,0:0:0:0:
38,271,127186,5,0,0:0:0:0:
20,198,127344,1,0,0:0:0:0:
56,107,127503,5,8,0:0:0:0:
38,180,127661,1,0,0:0:0:0:
76,98,127820,6,0,P|67:58|54:2,1,89.9999976158143,0|0,3:0|0:0,0:0:0:0:
188,120,128138,2,0,B|190:163|160:181|149:162|119:197|129:230,1,134.999996423721,0|0,3:0|0:0,0:0:0:0:
139,238,128455,1,0,0:0:0:0:
279,303,128667,5,0,0:0:0:0:
285,311,128772,2,0,P|349:301|399:343,1,134.999996423721,8|0,0:0|0:0,0:0:0:0:
476,296,129090,2,0,P|508:253|498:205,1,89.9999976158143,0|0,3:0|0:0,0:0:0:0:
406,181,129407,5,0,3:0:0:0:
390,108,129566,1,0,0:0:0:0:
324,152,129724,5,0,0:0:0:0:
371,88,129883,1,0,0:0:0:0:
249,0,130042,2,0,P|262:51|274:99,1,89.9999976158143,8|0,0:0|0:0,0:0:0:0:
155,67,130359,5,0,3:0:0:0:
168,72,130518,1,0,0:0:0:0:
182,196,130676,6,0,P|113:196|72:252,1,134.999996423721,0|0,3:0|0:0,0:0:0:0:
16,160,130994,2,0,P|7:109|-1:56,1,89.9999976158143,2|0,3:2|0:0,0:0:0:0:
84,107,131311,5,8,0:0:0:0:
0,283,131549,1,0,0:0:0:0:
90,337,131787,5,0,0:0:0:0:
90,337,131945,2,0,P|162:349|263:366,1,134.999996423721,2|0,3:2|0:0,0:0:0:0:
234,349,132263,5,0,0:0:0:0:
308,325,132421,1,0,0:0:0:0:
387,247,132580,5,8,0:0:0:0:
384,237,132660,1,0,0:0:0:0:
382,227,132739,1,0,0:0:0:0:
458,232,132897,5,0,3:0:0:0:
314,186,133056,1,0,0:0:0:0:
323,166,133214,5,0,3:0:0:0:
418,131,133373,1,0,0:0:0:0:
404,110,133532,5,0,0:0:0:0:
334,74,133691,1,0,0:0:0:0:
406,8,133849,5,8,0:0:0:0:
404,18,133928,1,0,0:0:0:0:
401,28,134008,1,0,0:0:0:0:
484,37,134167,5,0,3:0:0:0:
323,85,134484,5,0,3:0:0:0:
251,62,134643,1,0,0:0:0:0:
174,139,134801,5,0,0:0:0:0:
174,139,134960,1,0,0:0:0:0:
94,56,135119,5,8,0:0:0:0:
166,33,135278,1,0,0:0:0:0:
326,96,135436,5,0,3:0:0:0:
254,73,135595,1,0,0:0:0:0:
179,145,135753,5,0,3:0:0:0:
179,145,135912,1,0,0:0:0:0:
87,64,136070,5,2,3:2:0:0:
15,41,136229,1,0,0:0:0:0:
101,172,136388,6,0,B|108:222|147:224|154:212|189:242|176:284,1,134.999996423721,8|0,0:0|0:0,0:0:0:0:
170,282,136705,1,0,3:0:0:0:
354,372,137022,6,0,P|359:337|369:273,1,89.9999976158143,2|0,3:2|0:0,0:0:0:0:
270,318,137340,1,0,0:0:0:0:
501,224,137657,6,0,P|440:229|388:179,1,134.999996423721,8|0,0:0|0:0,0:0:0:0:
316,148,137974,2,0,P|343:105|343:54,1,89.9999976158143,0|0,3:0|0:0,0:0:0:0:
440,61,138292,5,0,3:0:0:0:
512,43,138450,1,0,0:0:0:0:
356,56,138609,5,0,0:0:0:0:
428,74,138767,1,0,0:0:0:0:
286,17,138926,2,0,P|238:27|181:38,1,89.9999976158143,8|0,0:0|0:0,0:0:0:0:
115,115,139244,5,0,3:0:0:0:
97,185,139402,1,0,0:0:0:0:
104,103,139561,2,0,P|89:57|57:20,1,89.9999976158143,0|0,3:0|0:0,0:0:0:0:
186,165,139878,1,0,0:0:0:0:
114,268,140037,5,0,0:0:0:0:
110,279,140116,1,0,0:0:0:0:
107,290,140195,2,0,P|155:300|212:311,1,89.9999976158143,8|0,0:0|0:0,0:0:0:0:
290,365,140513,5,0,3:0:0:0:
368,348,140671,1,0,0:0:0:0:
383,330,140830,5,0,3:0:0:0:
461,347,140989,1,0,0:0:0:0:
357,259,141147,5,2,3:2:0:0:
342,188,141306,1,0,0:0:0:0:
496,135,141465,6,0,P|432:143|381:84,1,134.999996423721,8|0,0:0|0:0,0:0:0:0:
372,91,141782,1,0,3:0:0:0:
220,237,142099,6,0,B|236:193|187:150|176:176|123:150|140:83,1,179.999995231629,2|0,3:2|0:0,0:0:0:0:
287,44,142575,1,0,0:0:0:0:
287,44,142734,6,0,P|258:82|214:89,1,89.9999976158143,8|0,0:0|0:0,0:0:0:0:
0,0,143051,2,0,P|47:2|78:34,1,89.9999976158143,0|0,3:0|0:0,0:0:0:0:
131,104,143369,6,0,P|115:192|101:281,1,179.999995231629,0|0,3:0|0:0,0:0:0:0:
26,232,143845,1,0,0:0:0:0:
171,349,144003,6,0,P|127:355|92:387,1,89.9999976158143,8|0,0:0|0:0,0:0:0:0:
229,245,144321,2,0,P|258:278|304:289,1,89.9999976158143,0|0,3:0|0:0,0:0:0:0:
505,332,144638,2,0,P|442:331|377:384,1,134.999996423721,0|0,3:0|0:0,0:0:0:0:
371,380,144955,5,0,0:0:0:0:
398,254,145114,1,0,0:0:0:0:
386,140,145272,5,8,0:0:0:0:
411,239,145431,1,0,0:0:0:0:
366,122,145590,5,0,3:0:0:0:
388,49,145749,1,0,0:0:0:0:
253,129,145907,6,0,P|214:137|144:152,1,89.9999976158143,0|0,3:0|0:0,0:0:0:0:
291,19,146224,2,0,P|330:27|400:42,1,89.9999976158143,2|0,3:2|0:0,0:0:0:0:
192,62,146542,1,8,0:0:0:0:
61,312,146859,6,0,P|74:260|98:163,1,134.999996423721,0|0,3:0|0:0,0:0:0:0:
0,217,147164,6,0,B|27:279|109:204|172:252|193:343|133:326|121:342|106:404,1,269.999992847443,2|0,3:2|0:0,0:0:0:0:
228,345,147798,1,8,0:0:0:0:
315,281,147957,2,0,B|300:268|323:252|406:206|320:93,1,179.999995231629
178,123,148433,6,0,B|223:121|271:89|264:45|235:17|305:-8,1,179.999995231629,0|0,3:0|0:0,0:0:0:0:
181,43,148909,1,0,0:0:0:0:
372,62,149067,6,0,B|387:48|392:120|307:112,1,89.9999976158143,8|0,0:0|0:0,0:0:0:0:
427,189,149384,2,0,B|447:183|476:195|505:244,1,89.9999976158143,0|0,3:0|0:0,0:0:0:0:
328,295,149702,6,0,B|285:270|241:284|293:357|216:370|217:313|188:308|158:334,1,179.999995231629,0|0,3:0|0:0,0:0:0:0:
207,228,150178,1,0,0:0:0:0:
207,228,150336,2,0,B|204:217|221:212|256:181|228:137,1,89.9999976158143,8|0,0:0|0:0,0:0:0:0:
28,141,150654,2,0,B|28:162|66:156|85:188|67:225,1,89.9999976158143,0|0,3:0|0:0,0:0:0:0:
132,108,150971,6,0,B|147:14|206:74|228:3,1,134.999996423721,0|0,3:0|0:0,0:0:0:0:
296,87,151288,2,0,B|324:86|353:98|364:141,1,89.9999976158143,2|0,3:2|0:0,0:0:0:0:
417,50,151605,2,0,B|430:53|440:39|511:23,1,89.9999976158143,8|0,0:0|0:0,0:0:0:0:
486,116,151923,1,0,3:0:0:0:
329,224,152240,6,0,B|331:253|364:291|426:251|433:300|432:384|367:350,1,179.999995231629,2|0,3:2|0:0,0:0:0:0:
399,192,152716,1,0,0:0:0:0:
307,338,152874,2,0,B|239:295|221:353|216:386|175:389,1,134.999996423721,8|0,0:0|0:0,0:0:0:0:
146,319,153192,2,0,B|132:297|108:269|72:277,1,89.9999976158143,0|0,3:0|0:0,0:0:0:0:
230,68,153509,6,0,B|271:84|276:150|202:157|217:139|168:157|176:205,1,179.999995231629,0|0,3:0|0:0,0:0:0:0:
256,216,153985,1,0,0:0:0:0:
130,83,154144,2,0,B|148:77|126:51|129:14|180:6,1,89.9999976158143,8|0,0:0|0:0,0:0:0:0:
47,53,154461,1,0,3:0:0:0:
223,61,154778,6,0,B|268:61|294:27|275:-7|354:-2|326:0,1,134.999996423721,0|0,3:0|0:0,0:0:0:0:
216,73,155095,1,0,0:0:0:0:
251,224,155413,6,0,P|199:263|284:286,1,179.999995231629,8|0,0:0|0:0,0:0:0:0:
374,161,155730,6,0,B|415:162|443:120|415:74|358:79|358:79|371:155|316:206,1,269.999992847443,0|0,3:0|0:0,0:0:0:0:
491,362,156047,6,0,B|467:261|467:261|514:238|514:238|460:260|403:260,1,269.999992847443,0|0,3:0|0:0,0:0:0:0:
394,252,156364,5,2,3:2:0:0:
200,328,156523,1,0,0:0:0:0:
269,384,156682,6,0,P|279:343|293:284,1,89.9999976158143,8|0,0:0|0:0,0:0:0:0:
181,206,156999,2,0,P|152:239|98:247,1,89.9999976158143,0|0,3:0|0:0,0:0:0:0:
243,140,157310,6,0,P|233:95|211:1,1,134.999996423721,2|0,3:2|0:0,0:0:0:0:
206,17,157627,5,0,0:0:0:0:
140,60,157786,1,0,0:0:0:0:
313,91,157945,2,0,P|323:46|340:-33,1,89.9999976158143,8|0,0:0|0:0,0:0:0:0:
413,63,158262,5,0,3:0:0:0:
431,134,158421,1,0,0:0:0:0:
366,263,158580,6,0,P|424:212|494:230,1,134.999996423721,0|0,3:0|0:0,0:0:0:0:
489,211,158898,1,0,0:0:0:0:
303,384,159215,6,0,P|293:325|284:266,1,119.999996821086,8|0,0:0|0:0,0:0:0:0:
278,278,159533,5,0,3:0:0:0:
205,309,159692,1,0,0:0:0:0:
48,206,159851,5,0,3:0:0:0:
121,183,160009,1,0,0:0:0:0:
138,199,160168,5,0,0:0:0:0:
211,222,160326,1,0,0:0:0:0:
300,183,160486,5,8,0:0:0:0:
227,206,160644,1,0,0:0:0:0:
278,95,160803,2,0,P|330:109|377:121,1,89.9999976158143,0|0,3:0|0:0,0:0:0:0:
193,42,161121,6,0,P|92:71|45:83,1,134.999996423721,0|0,3:0|0:0,0:0:0:0:
88,51,161439,2,0,P|140:65|187:77,1,89.9999976158143,2|0,3:2|0:0,0:0:0:0:
346,33,161756,5,8,0:0:0:0:
352,24,161862,5,0,0:0:0:0:
386,32,161968,5,0,0:0:0:0:
415,5,162074,5,0,3:0:0:0:
505,36,162233,1,0,0:0:0:0:
374,129,162392,6,0,P|421:133|458:165,1,89.9999976158143,2|0,3:2|0:0,0:0:0:0:
280,173,162709,5,0,0:0:0:0:
269,175,162789,1,0,0:0:0:0:
258,178,162868,1,0,0:0:0:0:
180,87,163027,6,0,P|145:120|96:126,1,89.9999976158143,8|0,0:0|0:0,0:0:0:0:
202,245,163344,2,0,P|210:290|219:340,1,89.9999976158143,0|0,3:0|0:0,0:0:0:0:
127,302,163662,5,0,3:0:0:0:
307,381,163980,2,0,P|348:341|429:349,1,134.999996423721
477,278,164297,6,0,P|512:233|493:193,1,89.9999976158143,8|0,0:0|0:0,0:0:0:0:
399,83,164615,2,0,P|406:139|447:154,1,89.9999976158143,0|0,3:0|0:0,0:0:0:0:
342,211,164933,5,0,3:0:0:0:
266,188,165091,1,0,0:0:0:0:
142,122,165251,5,0,0:0:0:0:
218,99,165409,1,0,0:0:0:0:
252,203,165568,5,8,0:0:0:0:
228,273,165726,1,0,0:0:0:0:
267,356,165885,5,0,3:0:0:0:
240,282,166044,2,0,P|194:289|154:335,1,89.9999976158143,0|0,0:0|3:0,0:0:0:0:
23,310,166362,1,0,0:0:0:0:
35,203,166521,6,0,P|67:236|128:241,1,89.9999976158143,2|0,3:2|0:0,0:0:0:0:
121,140,166838,1,8,0:0:0:0:
42,65,167050,5,0,0:0:0:0:
32,55,167156,2,0,P|99:39|190:18,1,134.999996423721,0|0,3:0|0:0,0:0:0:0:
228,63,167457,2,0,B|217:111|257:126|260:114|297:137|290:175,1,134.999996423721,2|0,3:2|0:0,0:0:0:0:
305,182,167774,5,0,0:0:0:0:
382,163,167933,1,0,0:0:0:0:
449,276,168092,5,8,0:0:0:0:
372,257,168251,1,0,0:0:0:0:
293,363,168410,6,0,P|283:318|258:273,1,89.9999976158143,0|0,3:0|0:0,0:0:0:0:
391,173,168728,2,0,P|401:128|447:43,1,134.999996423721,0|0,3:0|0:0,0:0:0:0:
435,39,169046,1,0,0:0:0:0:
255,57,169258,5,0,0:0:0:0:
245,64,169364,2,0,P|200:23|126:30,1,119.999996821086,8|0,0:0|0:0,0:0:0:0:
128,12,169682,5,0,3:0:0:0:
55,37,169841,1,0,0:0:0:0:
17,139,170000,5,0,3:0:0:0:
90,164,170159,1,0,0:0:0:0:
108,177,170318,5,0,0:0:0:0:
181,152,170477,1,0,0:0:0:0:
105,376,170636,6,0,P|113:310|122:244,1,119.999996821086,8|0,0:0|0:0,0:0:0:0:
134,246,170954,1,0,3:0:0:0:
5,215,171193,1,0,0:0:0:0:
0,225,171272,2,0,P|9:274|19:320,1,89.9999976158143,0|0,3:0|0:0,0:0:0:0:
210,333,171590,6,0,P|260:289|342:308,1,134.999996423721,2|0,3:2|0:0,0:0:0:0:
376,241,171908,2,0,P|414:232|482:212,1,89.9999976158143,8|0,0:0|0:0,0:0:0:0:
279,166,172226,2,0,P|241:157|173:137,1,89.9999976158143,0|0,3:0|0:0,0:0:0:0:
362,25,172524,6,0,B|370:29|370:29|394:121,1,89.9999976158143,2|0,3:2|0:0,0:0:0:0:
482,48,172840,1,0,0:0:0:0:
489,33,172999,1,0,0:0:0:0:
375,34,173157,6,0,B|381:40|381:40|379:135,1,89.9999976158143,8|0,0:0|0:0,0:0:0:0:
479,37,173474,1,0,3:0:0:0:
472,22,173633,1,0,0:0:0:0:
387,44,173791,6,0,B|392:51|392:51|368:143,1,89.9999976158143,0|0,3:0|0:0,0:0:0:0:
470,244,174320,5,0,0:0:0:0:
476,253,174425,2,0,B|485:294|452:311|444:301|414:316|417:345,1,119.999996821086,8|0,0:0|0:0,0:0:0:0:
407,355,174742,5,0,3:0:0:0:
318,327,174901,1,0,0:0:0:0:
259,255,175059,5,0,3:0:0:0:
186,278,175218,1,0,0:0:0:0:
95,242,175376,5,0,0:0:0:0:
168,265,175535,1,0,0:0:0:0:
342,217,175693,5,8,0:0:0:0:
269,240,175852,1,0,0:0:0:0:
148,175,176010,2,0,P|139:121|129:70,1,89.9999976158143,0|0,3:0|0:0,0:0:0:0:
222,126,176327,1,0,3:0:0:0:
19,197,176538,2,0,P|29:125|43:10,1,179.999995231629
139,70,176961,5,8,0:0:0:0:
146,62,177067,5,0,0:0:0:0:
172,67,177172,5,0,0:0:0:0:
187,48,177278,5,0,3:0:0:0:
231,55,177384,5,0,0:0:0:0:
258,19,177489,5,0,0:0:0:0:
309,32,177595,5,2,3:2:0:0:
339,96,177753,1,0,0:0:0:0:
403,181,177912,2,0,P|437:188|494:199,1,89.9999976158143
365,289,178230,1,8,0:0:0:0:
325,20,178548,5,0,3:0:0:0:
314,103,178706,1,0,0:0:0:0:
480,185,178866,2,0,B|471:194|471:194|382:211,1,89.9999976158143,0|0,3:0|0:0,0:0:0:0:
357,298,179183,1,0,0:0:0:0:
481,383,179502,2,0,P|474:339|462:273,1,89.9999976158143,8|0,0:0|0:0,0:0:0:0:
349,282,179820,5,0,3:0:0:0:
277,256,179979,1,0,0:0:0:0:
181,301,180138,5,0,3:0:0:0:
86,337,180297,1,0,0:0:0:0:
192,287,180456,2,0,P|199:243|211:177,1,89.9999976158143
33,130,180774,6,0,P|101:132|147:63,1,134.999996423721,8|0,0:0|0:0,0:0:0:0:
202,35,181092,2,0,P|253:23|309:9,1,89.9999976158143,0|0,3:0|0:0,0:0:0:0:
392,86,181410,5,0,3:0:0:0:
411,160,181569,1,0,0:0:0:0:
428,174,181728,5,2,3:2:0:0:
409,248,181887,1,0,0:0:0:0:
448,349,182046,5,8,0:0:0:0:
423,260,182205,1,0,0:0:0:0:
273,346,182364,2,0,P|316:356|360:367,1,89.9999976158143,0|0,3:0|0:0,0:0:0:0:
235,249,182682,6,0,B|185:239|156:296|188:307|171:370|108:366,1,179.999995231629,2|0,3:2|0:0,0:0:0:0:
249,258,183159,1,0,0:0:0:0:
77,292,183318,6,0,P|65:240|27:200,1,89.9999976158143,8|0,0:0|0:0,0:0:0:0:
174,88,183636,2,0,P|148:124|139:168,1,89.9999976158143,0|0,3:0|0:0,0:0:0:0:
21,77,183954,1,0,3:0:0:0:
253,58,184484,5,0,0:0:0:0:
258,49,184590,2,0,P|324:39|390:30,1,119.999996821086,8|0,0:0|0:0,0:0:0:0:
310,120,184908,2,0,P|348:127|410:140,1,89.9999976158143,0|0,3:0|0:0,0:0:0:0:
435,325,185226,6,0,B|440:285|391:256|393:284|351:263|357:221,1,134.999996423721,0|0,3:0|0:0,0:0:0:0:
365,219,185544,5,0,0:0:0:0:
466,186,185703,1,0,0:0:0:0:
365,341,185862,6,0,L|377:391,1,44.9999988079071,8|0,0:0|0:0,0:0:0:0:
261,286,186180,2,0,P|273:233|286:181,1,89.9999976158143,0|0,3:0|0:0,0:0:0:0:
70,361,186498,6,0,P|145:313|202:345,1,134.999996423721,0|0,3:0|0:0,0:0:0:0:
192,321,186815,1,2,3:2:0:0:
12,177,186974,6,0,P|56:224|121:220,1,134.999996423721
131,226,187292,1,0,0:0:0:0:
218,118,187451,2,0,P|255:110|318:97,1,89.9999976158143,0|0,3:0|0:0,0:0:0:0:
383,193,187751,5,2,3:2:0:0:
458,211,187909,1,0,0:0:0:0:
291,203,188068,5,0,0:0:0:0:
366,185,188226,1,0,0:0:0:0:
411,274,188385,2,0,P|418:312|429:375,1,89.9999976158143,8|0,0:0|0:0,0:0:0:0:
311,380,188702,2,0,P|318:335|326:291,1,89.9999976158143,0|0,3:0|0:0,0:0:0:0:
451,138,189020,2,0,P|443:93|427:1,1,134.999996423721,0|0,3:0|0:0,0:0:0:0:
414,16,189337,5,0,0:0:0:0:
329,0,189496,1,0,0:0:0:0:
258,75,189654,5,8,0:0:0:0:
173,91,189813,1,0,0:0:0:0:
122,176,189972,6,0,P|56:124|1:132,1,134.999996423721,0|0,3:0|0:0,0:0:0:0:
1,118,190289,2,0,P|22:72|20:24,1,89.9999976158143,0|0,3:0|0:0,0:0:0:0:
140,0,190606,2,0,P|141:44|161:84,1,89.9999976158143
207,215,190923,5,8,0:0:0:0:
225,283,191082,1,0,0:0:0:0:
216,201,191241,2,0,P|256:191|315:179,1,89.9999976158143,0|0,3:0|0:0,0:0:0:0:
490,296,191558,5,0,3:0:0:0:
414,273,191717,1,0,0:0:0:0:
395,288,191875,5,2,3:2:0:0:
319,311,192034,1,0,0:0:0:0:
401,198,192193,5,8,0:0:0:0:
426,86,192404,1,0,0:0:0:0:
415,76,192510,2,0,P|369:78|326:24,1,89.9999976158143,0|0,3:0|0:0,0:0:0:0:
158,163,192827,6,0,B|153:137|153:137|215:77|222:-15,1,179.999995231629,2|0,3:2|0:0,0:0:0:0:
111,36,193303,1,0,0:0:0:0:
240,163,193462,6,0,P|253:217|290:254,1,89.9999976158143,8|0,0:0|0:0,0:0:0:0:
145,368,193779,2,0,P|171:331|179:288,1,89.9999976158143,0|0,3:0|0:0,0:0:0:0:
316,343,194096,6,0,P|365:298|448:311,1,134.999996423721,0|0,3:0|0:0,0:0:0:0:
447,290,194414,1,0,0:0:0:0:
343,171,194572,2,0,P|389:182|430:193,1,89.9999976158143,0|8,0:0|0:0,0:0:0:0:
383,21,195048,5,0,3:0:0:0:
405,94,195207,1,0,0:0:0:0:
269,114,195365,5,0,3:0:0:0:
291,41,195524,1,0,0:0:0:0:
155,0,195683,5,0,0:0:0:0:
203,172,195921,1,0,0:0:0:0:
196,179,196000,6,0,P|141:132|77:141,1,134.999996423721,8|0,0:0|0:0,0:0:0:0:
43,73,196317,2,0,P|7:46|8:-11,1,89.9999976158143,0|0,3:0|0:0,0:0:0:0:
71,218,196635,5,0,3:0:0:0:
0,247,196793,1,0,0:0:0:0:
158,262,196952,5,2,3:2:0:0:
87,233,197110,1,0,0:0:0:0:
249,247,197269,5,8,0:0:0:0:
178,276,197427,1,0,0:0:0:0:
385,368,197587,2,0,P|376:318|360:231,1,134.999996423721,0|0,3:0|0:0,0:0:0:0:
432,144,197904,6,0,P|443:71|487:26,1,134.999996423721,2|0,3:2|0:0,0:0:0:0:
411,134,198221,2,0,P|366:135|328:105,1,89.9999976158143
206,131,198538,5,8,0:0:0:0:
130,107,198697,1,0,0:0:0:0:
220,118,198855,2,0,P|242:75|251:35,1,89.9999976158143,0|0,3:0|0:0,0:0:0:0:
415,149,199173,6,0,P|370:150|332:120,1,89.9999976158143,0|0,3:0|0:0,0:0:0:0:
487,238,199490,2,0,P|443:248|415:282,1,89.9999976158143
252,222,199808,5,8,0:0:0:0:
176,245,199967,1,0,0:0:0:0:
266,234,200125,2,0,P|288:277|297:317,1,89.9999976158143,0|0,3:0|0:0,0:0:0:0:
98,194,200442,5,0,3:0:0:0:
120,122,200601,1,0,0:0:0:0:
87,208,200759,2,0,P|49:218|-4:232,1,89.9999976158143
234,81,201077,5,8,0:0:0:0:
212,9,201236,1,0,0:0:0:0:
245,95,201394,2,0,P|304:107|336:131,1,89.9999976158143,0|0,3:0|0:0,0:0:0:0:
87,192,201711,6,0,P|49:202|-4:216,1,89.9999976158143,0|0,3:0|0:0,0:0:0:0:
41,92,202029,2,0,P|85:103|129:115,1,89.9999976158143,2|0,3:2|0:0,0:0:0:0:
215,313,202346,5,8,0:0:0:0:
145,343,202505,1,0,0:0:0:0:
227,301,202663,2,0,P|232:241|253:206,1,89.9999976158143,0|0,3:0|0:0,0:0:0:0:
435,176,202981,6,0,P|369:175|321:129,1,134.999996423721,2|0,3:2|0:0,0:0:0:0:
311,121,203298,5,0,0:0:0:0:
294,49,203456,1,0,0:0:0:0:
393,3,203615,5,8,0:0:0:0:
299,33,203773,1,0,0:0:0:0:
209,81,203932,5,0,3:0:0:0:
135,56,204090,1,0,0:0:0:0:
118,39,204250,5,0,3:0:0:0:
44,64,204408,2,0,P|36:112|18:228,1,134.999996423721
32,207,204726,1,0,0:0:0:0:
195,282,204884,6,0,P|131:275|79:338,1,134.999996423721,8|0,0:0|0:0,0:0:0:0:
70,333,205202,1,0,3:0:0:0:
261,216,205519,6,0,P|304:267|423:257,2,179.999995231629,0|0|8,3:0|0:0|0:0,0:0:0:0:
355,88,206471,5,0,3:0:0:0:
424,68,206629,1,0,0:0:0:0:
478,148,206788,5,0,3:0:0:0:
433,56,206946,1,0,0:0:0:0:
312,18,207105,5,2,3:2:0:0:
267,110,207263,1,0,0:0:0:0:
176,142,207423,6,0,L|160:85,1,44.9999988079071,8|0,0:0|0:0,0:0:0:0:
159,113,207581,2,0,L|146:156,1,44.9999988079071
65,93,207740,6,0,L|81:36,1,44.9999988079071,0|0,3:0|0:0,0:0:0:0:
51,78,207898,2,0,L|63:121,1,44.9999988079071
0,251,208057,6,0,L|150:228,1,134.999996423721,2|0,3:2|0:0,0:0:0:0:
89,322,208375,6,0,L|195:340,1,107.999997138977
228,257,208692,6,0,L|382:231,1,134.999996423721,8|0,0:0|0:0,0:0:0:0:
342,350,209009,6,0,L|497:376,1,148.500000597954,0|0,3:0|0:0,0:0:0:0:
451,279,209326,6,0,L|421:112,1,161.999990764618,0|0,3:0|0:0,0:0:0:0:
311,12,209644,6,0,L|276:182,1,148.500000597954
209,174,209961,6,0,L|151:187,1,44.9999988079071,8|0,0:0|0:0,0:0:0:0:
158,151,210120,2,0,L|202:163,1,44.9999988079071
34,223,210278,6,0,L|92:236,1,44.9999988079071,0|0,3:0|0:0,0:0:0:0:
84,200,210437,2,0,L|41:212,1,44.9999988079071
139,324,210596,6,0,L|388:367,1,251.99999332428,0|0,3:0|0:0,0:0:0:0:
368,242,211230,6,0,L|499:211,1,134.999996423721,8|0,0:0|0:0,0:0:0:0:
393,116,211547,6,0,L|272:89,1,107.999997138977,0|0,3:0|0:0,0:0:0:0:
231,27,211865,6,0,L|125:50,1,107.999997138977,0|0,3:0|0:0,0:0:0:0:
141,144,212182,6,0,L|35:120,1,107.999997138977,2|0,3:2|0:0,0:0:0:0:
206,210,212499,6,0,L|240:355,1,134.999996423721,8|0,0:0|0:0,0:0:0:0:
131,327,212817,6,0,L|143:277,1,44.9999988079071,0|0,3:0|0:0,0:0:0:0:
114,336,212975,1,0,0:0:0:0:
312,290,213134,6,0,L|346:141,1,134.999996423721,2|0,3:2|0:0,0:0:0:0:
429,363,213451,6,0,L|401:239,1,107.999997138977
485,131,213768,6,0,L|337:168,1,134.999996423721,8|0,0:0|0:0,0:0:0:0:
272,72,214086,6,0,L|118:30,1,148.500000597954,0|0,3:0|0:0,0:0:0:0:
156,159,214403,6,0,L|-10:204,1,161.999990764618,0|0,3:0|0:0,0:0:0:0:
108,309,214720,6,0,L|263:347,1,148.500000597954
361,184,215038,6,0,L|231:220,1,134.999996423721,8|0,0:0|0:0,0:0:0:0:
419,383,215355,6,0,L|441:242,1,134.999996423721,0|0,3:0|0:0,0:0:0:0:
371,171,215672,6,0,L|351:46,1,107.999997138977,0|0,3:0|0:0,0:0:0:0:
477,3,215988,6,0,L|459:109,1,107.999997138977
273,132,216305,6,0,L|121:95,1,134.999996423721,8|0,0:0|0:0,0:0:0:0:
15,34,216622,6,0,L|57:158,1,107.999997138977,0|0,3:0|0:0,0:0:0:0:
140,201,216939,6,0,L|98:325,1,107.999997138977,0|0,3:0|0:0,0:0:0:0:
235,276,217256,6,0,L|277:400,1,107.999997138977,2|0,3:2|0:0,0:0:0:0:
366,301,217573,6,0,L|317:287,1,44.9999988079071,8|0,0:0|0:0,0:0:0:0:
381,293,217732,1,0,0:0:0:0:
442,237,217890,6,0,L|491:223,1,44.9999988079071,0|0,3:0|0:0,0:0:0:0:
427,229,218049,1,0,0:0:0:0:
330,177,218207,6,0,L|366:33,1,134.999996423721,2|0,3:2|0:0,0:0:0:0:
213,2,218524,6,0,L|245:120,1,107.999997138977
114,262,218841,6,0,L|153:117,1,134.999996423721,8|0,0:0|0:0,0:0:0:0:
0,13,219158,6,0,L|43:160,1,148.500000597954,0|0,3:0|0:0,0:0:0:0:
46,370,219475,6,0,L|222:320,1,161.999990764618,0|0,3:0|0:0,0:0:0:0:
161,207,219792,6,0,L|309:249,1,148.500000597954
399,313,220109,6,0,L|411:372,1,44.9999988079071,8|0,0:0|0:0,0:0:0:0:
395,346,220268,2,0,L|417:297,1,44.9999988079071
508,236,220426,6,0,L|496:295,1,44.9999988079071,0|0,3:0|0:0,0:0:0:0:
512,269,220584,2,0,L|490:220,1,44.9999988079071
368,189,220743,6,0,B|324:99|411:58|441:109|496:57|470:0,1,251.99999332428,0|0,3:0|0:0,0:0:0:0:
432,149,221377,6,0,P|414:84|398:19,1,134.999996423721,8|0,0:0|0:0,0:0:0:0:
277,120,221694,6,0,P|263:172|249:224,1,107.999997138977,0|0,3:0|0:0,0:0:0:0:
74,165,222011,6,0,L|203:137,1,107.999997138977,0|0,3:0|0:0,0:0:0:0:
105,73,222328,6,0,L|-24:45,1,107.999997138977,2|0,3:2|0:0,0:0:0:0:
151,239,222645,6,0,L|188:396,1,134.999996423721,8|0,0:0|0:0,0:0:0:0:
252,301,222962,6,0,L|320:281,1,44.9999988079071,0|0,0:0|0:0,0:0:0:0:
309,327,223120,2,0,L|266:315,1,44.9999988079071
381,370,223278,6,0,L|523:332,1,134.999996423721,2|0,3:2|0:0,0:0:0:0:
337,220,223595,6,0,L|446:247,1,107.999997138977
381,122,223912,6,0,L|520:82,1,134.999996423721,8|0,0:0|0:0,0:0:0:0:
321,53,224229,6,0,L|177:21,1,148.500000597954,0|0,3:0|0:0,0:0:0:0:
123,169,224546,6,0,L|279:129,1,161.999990764618,0|0,3:0|0:0,0:0:0:0:
72,14,224863,6,0,L|22:187,1,148.500000597954
72,232,225180,6,0,L|87:288,1,44.9999988079071,8|0,0:0|0:0,0:0:0:0:
52,294,225339,2,0,L|72:243,1,44.9999988079071
162,288,225497,6,0,L|147:344,1,44.9999988079071,0|0,3:0|0:0,0:0:0:0:
177,346,225656,2,0,L|157:295,1,44.9999988079071
259,250,225814,6,0,B|269:206|335:199|363:262|334:284|344:326|394:370|451:313,1,251.99999332428,0|0,3:0|0:0,0:0:0:0:
455,195,226448,6,0,L|423:31,1,134.999996423721,8|0,0:0|0:0,0:0:0:0:
337,24,226765,6,0,L|316:130,1,107.999997138977,0|0,3:0|0:0,0:0:0:0:
247,242,227082,6,0,L|136:208,1,107.999997138977,0|0,3:0|0:0,0:0:0:0:
120,79,227399,6,0,L|16:110,1,107.999997138977,2|0,3:2|0:0,0:0:0:0:
232,120,227716,6,0,L|214:44,1,44.9999988079071,8|0,0:0|0:0,0:0:0:0:
213,88,227874,2,0,L|202:131,1,44.9999988079071
115,259,228033,6,0,L|133:183,1,44.9999988079071,0|0,3:0|0:0,0:0:0:0:
134,227,228191,2,0,L|144:270,1,44.9999988079071
225,384,228350,6,0,L|253:238,1,134.999996423721,2|0,3:2|0:0,0:0:0:0:
363,370,228667,6,0,L|338:244,1,107.999997138977
448,303,228984,6,0,L|479:155,1,134.999996423721,8|0,0:0|0:0,0:0:0:0:
354,251,229301,6,0,L|319:83,1,148.500000597954,0|0,3:0|0:0,0:0:0:0:
209,0,229618,6,0,L|174:166,1,161.999990764618,0|0,3:0|0:0,0:0:0:0:
10,119,229935,6,0,L|70:278,1,148.500000597954
34,365,230252,6,0,L|98:343,1,44.9999988079071,8|0,0:0|0:0,0:0:0:0:
21,355,230410,1,0,0:0:0:0:
214,313,230568,6,0,L|150:291,1,44.9999988079071,0|0,3:0|0:0,0:0:0:0:
227,303,230726,1,0,0:0:0:0:
374,351,230885,6,0,B|380:329|380:329|316:237|317:99,1,251.99999332428,0|0,3:0|0:0,0:0:0:0:
152,153,231519,6,0,L|189:-2,1,134.999996423721,8|0,0:0|0:0,0:0:0:0:
62,105,231836,6,0,L|37:0,1,107.999997138977,0|0,3:0|0:0,0:0:0:0:
0,246,232153,6,0,L|121:219,1,107.999997138977,0|0,3:0|0:0,0:0:0:0:
114,318,232470,6,0,L|219:341,1,107.999997138977,2|0,3:2|0:0,0:0:0:0:
259,206,232787,6,0,L|433:175,1,134.999996423721,8|0,0:0|0:0,0:0:0:0:
419,268,233104,6,0,L|482:286,1,44.9999988079071,0|0,3:0|0:0,0:0:0:0:
478,270,233263,2,0,L|435:283,1,44.9999988079071
473,140,233421,6,0,L|503:4,1,134.999996423721,2|0,3:2|0:0,0:0:0:0:
351,106,233738,6,0,L|328:-12,1,107.999997138977
180,166,234055,6,0,L|210:21,1,134.999996423721,8|0,0:0|0:0,0:0:0:0:
71,145,234372,6,0,L|39:-12,1,148.500000597954,0|0,3:0|0:0,0:0:0:0:
188,181,234689,6,0,L|142:344,1,161.999990764618,0|0,3:0|0:0,0:0:0:0:
318,367,235006,6,0,L|288:221,1,148.500000597954
512,242,235323,6,0,L|376:283,1,134.999996423721,8|0,0:0|0:0,0:0:0:0:
433,163,235640,6,0,L|298:125,1,134.999996423721,0|0,3:0|0:0,0:0:0:0:
400,3,235957,6,0,B|380:18|380:18|260:-2|159:71,1,251.99999332428,0|0,3:0|0:0,0:0:0:0:
50,11,236591,6,0,L|25:143,1,134.999996423721,8|0,0:0|0:0,0:0:0:0:
135,139,236908,6,0,L|157:255,1,107.999997138977,0|0,3:0|0:0,0:0:0:0:
59,278,237225,6,0,L|37:394,1,107.999997138977,0|0,3:0|0:0,0:0:0:0:
166,360,237542,6,0,L|145:253,1,107.999997138977,2|0,3:2|0:0,0:0:0:0:
265,272,237859,6,0,L|237:336,1,44.9999988079071,8|0,0:0|0:0,0:0:0:0:
276,287,238017,2,0,L|260:238,1,44.9999988079071
356,311,238176,6,0,L|384:375,1,44.9999988079071,0|0,3:0|0:0,0:0:0:0:
346,324,238334,2,0,L|362:275,1,44.9999988079071
