osu file format v14

[General]
AudioFilename: audio.mp3
AudioLeadIn: 0
PreviewTime: 10123
Countdown: 0
SampleSet: Soft
StackLeniency: 0.7
Mode: 0
LetterboxInBreaks: 0
WidescreenStoryboard: 1

[Editor]
Bookmarks: 10123,20337,30485,40620,50766,60915,65992,76134,86287,96434,106579,116724,126869,137022,147164,157310,167457,177595,187751,197904,208057,218207,228350,233421,238413
DistanceSpacing: 1.3
BeatDivisor: 8
GridSize: 32
TimelineZoom: 1.5

[Metadata]
Title:Nuthin' But A "G" Thang
TitleUnicode:Nuthin' But A "G" Thang
Artist:Dr. Dre, Snoop Dogg
ArtistUnicode:Dr. Dre, Snoop Dogg
Creator:The Honeysticks
Version:Hard
Source:
Tags:aakki & nothin nothing and english death row records the chronic rap old hip hop g funk 90s 1992 1990
BeatmapID:3188577
BeatmapSetID:1559917

[Difficulty]
HPDrainRate:3.5
CircleSize:4.5
OverallDifficulty:6
ApproachRate:7
SliderMultiplier:2.59999990463257
SliderTickRate:1

[Events]
//Background and Video events
0,0,"nuthinbuta.png",0,0
//Break Periods
//Storyboard Layer 0 (Background)
//Storyboard Layer 1 (Fail)
//Storyboard Layer 2 (Pass)
//Storyboard Layer 3 (Foreground)
//Storyboard Layer 4 (Overlay)
//Storyboard Sound Samples

[TimingPoints]
63,640,4,2,1,80,1,0
2623,631.578947368421,4,2,1,80,1,0
5149,638.297872340426,4,2,1,80,1,0
7702,625,4,2,1,80,1,0
10190,634.249471458774,4,2,1,80,1,0
14312,-100,4,2,2,80,0,0
14391,-100,4,2,1,80,0,0
19386,-100,4,2,2,80,0,0
19465,-100,4,2,1,80,0,0
24460,-100,4,2,2,80,0,0
24539,-100,4,2,1,80,0,0
29534,-100,4,2,2,80,0,0
29613,-100,4,2,1,80,0,0
34608,-100,4,2,2,80,0,0
34687,-100,4,2,1,80,0,0
39682,-100,4,2,2,80,0,0
39761,-100,4,2,1,80,0,0
40620,634.920634920635,4,2,1,80,1,0
44746,-100,4,2,2,80,0,0
44826,-100,4,2,1,80,0,0
49826,-100,4,2,2,80,0,0
49905,-100,4,2,1,80,0,0
50766,641.711229946524,4,2,1,80,1,0
53308,635.593220338983,4,2,1,80,1,0
54896,-100,4,2,2,80,0,0
54976,-100,4,2,1,80,0,0
55839,634.584875727129,4,2,1,80,1,0
59963,-100,4,2,2,80,0,0
60043,-100,4,2,1,80,0,0
65040,-100,4,2,2,80,0,0
65119,-100,4,2,1,80,0,0
65992,633.91442155309,4,2,1,80,1,0
70112,-100,4,2,2,80,0,0
70191,-100,4,2,1,80,0,0
75183,-100,4,2,2,80,0,0
75262,-100,4,2,1,80,0,0
76134,634.584875727129,4,2,1,80,1,0
80258,-100,4,2,2,80,0,0
80338,-100,4,2,1,80,0,0
85335,-100,4,2,2,80,0,0
85414,-100,4,2,1,80,0,0
90412,-100,4,2,2,80,0,0
90491,-100,4,2,1,80,0,0
95488,-100,4,2,2,80,0,0
95568,-100,4,2,1,80,0,0
96434,634.081902245707,4,2,1,80,1,0
100555,-100,4,2,2,80,0,0
100634,-100,4,2,1,80,0,0
105628,-100,4,2,2,80,0,0
105707,-100,4,2,1,80,0,0
110700,-100,4,2,2,80,0,0
110780,-100,4,2,1,80,0,0
115773,-100,4,2,2,80,0,0
115852,-100,4,2,1,80,0,0
120846,-100,4,2,2,80,0,0
120925,-100,4,2,1,80,0,0
125918,-100,4,2,2,80,0,0
125998,-100,4,2,1,80,0,0
126869,634.618435665556,4,2,1,80,1,0
130994,-100,4,2,2,80,0,0
131073,-100,4,2,1,80,0,0
136070,-100,4,2,2,80,0,0
136150,-100,4,2,1,80,0,0
141147,-100,4,2,2,80,0,0
141227,-100,4,2,1,80,0,0
146224,-100,4,2,2,80,0,0
146304,-100,4,2,1,80,0,0
147164,634.551319337951,4,2,1,80,1,0
151288,-100,4,2,2,80,0,0
151367,-100,4,2,1,80,0,0
155413,-66.6666666666667,4,2,1,80,0,0
156364,-66.6666666666667,4,2,2,80,0,0
156444,-66.6666666666667,4,2,1,80,0,0
156682,-100,4,2,1,80,0,0
157310,635.256749602965,4,2,1,80,1,0
161439,-100,4,2,2,80,0,0
161518,-100,4,2,1,80,0,0
166521,-100,4,2,2,80,0,0
166600,-100,4,2,1,80,0,0
167457,635.930047694754,4,2,1,80,1,0
171590,-100,4,2,2,80,0,0
171670,-100,4,2,1,80,0,0
172524,633.91442155309,4,2,1,80,1,0
177595,635.930047694754,4,2,1,80,1,0
181728,-100,4,2,2,80,0,0
181808,-100,4,2,1,80,0,0
186815,-100,4,2,2,80,0,0
186895,-100,4,2,1,80,0,0
187751,634.584875727129,4,2,1,80,1,0
191875,-100,4,2,2,80,0,0
191955,-100,4,2,1,80,0,0
196952,-100,4,2,2,80,0,0
197031,-100,4,2,1,80,0,0
198142,-100,4,2,1,5,0,0
198221,-100,4,2,1,80,0,0
202029,-100,4,2,2,80,0,0
202108,-100,4,2,1,80,0,0
207105,-100,4,2,2,80,0,0
207185,-100,4,2,1,80,0,0
212182,-100,4,2,2,80,0,0
212261,-100,4,2,1,80,0,0
215672,633.91442155309,4,2,1,80,1,0
217256,-100,4,2,2,80,0,0
217336,-100,4,2,1,80,0,0
222328,-100,4,2,2,80,0,0
222407,-100,4,2,1,80,0,0
227399,-100,4,2,2,80,0,0
227478,-100,4,2,1,80,0,0
232470,-100,4,2,2,80,0,0
232549,-100,4,2,1,80,0,0
237542,-100,4,2,2,80,0,0
237621,-100,4,2,1,80,0,0

[Colours]
Combo1 : 0,64,128
Combo2 : 214,214,214
Combo3 : 64,64,64

[HitObjects]
73,369,10190,6,0,P|125:326|200:335,1,129.999995231629,2|0,3:2|0:0,0:0:0:0:
242,266,10665,1,0,0:0:0:0:
242,266,10824,2,0,P|299:249|370:230,1,129.999995231629,8|0,0:0|0:0,0:0:0:0:
489,114,11458,6,0,P|471:86|465:55,1,64.9999976158142,0|0,3:0|0:0,0:0:0:0:
391,13,11775,2,0,P|384:44|367:71,1,64.9999976158142
280,91,12092,2,0,B|271:78|271:78|145:45,1,129.999995231629,8|0,0:0|3:0,0:0:0:0:
40,167,12726,6,0,P|46:193|57:240,1,64.9999976158142,0|0,3:0|0:0,0:0:0:0:
123,284,13044,2,0,P|130:252|137:220,1,64.9999976158142
205,271,13361,2,0,P|244:261|346:234,1,129.999995231628,8|0,0:0|3:0,0:0:0:0:
393,182,13836,1,0,0:0:0:0:
393,182,13995,6,0,P|425:206|468:210,1,64.9999976158142,0|0,3:0|0:0,0:0:0:0:
505,282,14312,2,0,P|473:290|449:311,1,64.9999976158142,2|0,3:2|0:0,0:0:0:0:
374,367,14629,2,0,P|363:309|322:244,1,129.999995231628,8|0,0:0|3:0,0:0:0:0:
369,21,15263,6,0,P|338:17|302:-10,1,64.9999976158142,2|0,3:2|0:0,0:0:0:0:
251,74,15581,2,0,P|219:78|191:95,1,64.9999976158142
113,164,15898,6,0,P|177:174|241:185,1,129.999995231628,8|0,0:0|3:0,0:0:0:0:
194,255,16373,1,0,0:0:0:0:
194,255,16532,2,0,P|129:265|65:276,2,129.999995231628,0|0|8,3:0|0:0|0:0,0:0:0:0:
359,286,17483,2,0,P|340:322|339:356,1,64.9999976158142,0|0,3:0|0:0,0:0:0:0:
421,335,17800,6,0,P|392:293|374:202,1,129.999995231628,0|0,3:0|0:0,0:0:0:0:
314,155,18276,1,0,0:0:0:0:
314,155,18435,6,0,P|334:130|343:98,1,64.9999976158142,8|0,0:0|0:0,0:0:0:0:
405,41,18752,2,0,P|440:37|496:29,1,64.9999976158142,0|0,3:0|0:0,0:0:0:0:
449,115,19069,1,0,3:0:0:0:
308,21,19386,6,0,P|276:16|229:10,1,64.9999976158142,2|0,3:2|0:0,0:0:0:0:
198,83,19703,2,0,P|162:92|64:115,1,129.999995231628,8|0,0:0|3:0,0:0:0:0:
36,190,20179,1,0,0:0:0:0:
36,190,20337,6,0,P|64:217|71:259,1,64.9999976158142,2|0,3:2|0:0,0:0:0:0:
142,287,20655,2,0,P|114:314|107:356,1,64.9999976158142
190,351,20972,2,0,P|253:364|317:377,1,129.999995231628,8|0,0:0|3:0,0:0:0:0:
371,312,21447,1,0,0:0:0:0:
371,312,21606,2,0,P|421:305|490:295,1,97.4999964237214,0|0,3:0|0:0,0:0:0:0:
396,98,22240,6,0,P|370:134|368:177,1,64.9999976158143,8|0,0:0|0:0,0:0:0:0:
302,97,22557,2,0,P|292:66|271:42,1,64.9999976158143,0|0,3:0|0:0,0:0:0:0:
194,5,22874,2,0,P|163:40|78:40,1,129.999995231629,0|0,3:0|0:0,0:0:0:0:
31,110,23350,1,0,0:0:0:0:
31,110,23509,6,0,P|25:147|18:185,1,64.9999976158143,8|0,0:0|0:0,0:0:0:0:
90,221,23826,2,0,P|96:258|103:296,1,64.9999976158143,0|0,3:0|0:0,0:0:0:0:
171,331,24143,6,0,P|209:306|245:310,1,64.9999976158143,0|0,3:0|0:0,0:0:0:0:
299,260,24460,2,0,P|336:285|372:281,1,64.9999976158143,2|0,3:2|0:0,0:0:0:0:
430,339,24777,6,0,P|401:292|413:192,1,129.999995231629,8|0,0:0|3:0,0:0:0:0:
335,156,25253,1,0,0:0:0:0:
335,156,25411,6,0,P|295:165|257:174,1,64.9999976158143,2|0,3:2|0:0,0:0:0:0:
208,113,25729,2,0,P|176:105|144:98,1,64.9999976158143
95,29,26046,2,0,P|158:14|221:-1,1,129.999995231629,8|0,0:0|3:0,0:0:0:0:
71,138,26680,6,0,B|75:180|40:201|30:185|-8:208|9:254,1,129.999995231629,0|0,3:0|0:0,0:0:0:0:
78,281,27156,1,0,0:0:0:0:
78,281,27314,2,0,P|87:325|94:360,1,64.9999976158143,8|0,0:0|0:0,0:0:0:0:
7,331,27631,1,0,3:0:0:0:
171,290,27948,6,0,P|217:300|316:321,1,129.999995231629,0|0,3:0|0:0,0:0:0:0:
356,255,28424,1,0,0:0:0:0:
356,255,28583,2,0,P|367:220|405:193,1,64.9999976158143,8|0,0:0|0:0,0:0:0:0:
475,150,28900,2,0,P|439:141|409:105,1,64.9999976158143,0|0,3:0|0:0,0:0:0:0:
366,56,29217,6,0,B|328:44|302:76|322:90|284:127|247:110,1,129.999995231629,0|2,3:0|3:2,0:0:0:0:
198,53,29693,1,0,0:0:0:0:
198,53,29851,2,0,P|166:46|121:37,1,64.9999976158143,8|0,0:0|0:0,0:0:0:0:
77,102,30168,1,0,3:0:0:0:
205,211,30485,6,0,P|226:240|233:287,1,64.9999976158143,2|0,3:2|0:0,0:0:0:0:
299,321,30803,2,0,P|307:289|327:264,1,64.9999976158143
382,200,31120,2,0,P|414:192|452:182,2,64.9999976158143,8|0|0,0:0|0:0|3:0,0:0:0:0:
506,371,31754,6,0,B|508:328|476:304|460:324|435:297|436:257,1,129.999995231629,0|0,3:0|0:0,0:0:0:0:
459,190,32230,1,0,0:0:0:0:
459,190,32388,2,0,P|467:152|475:110,1,64.9999976158143,8|0,0:0|0:0,0:0:0:0:
414,64,32705,1,0,3:0:0:0:
249,23,33022,6,0,P|256:55|266:98,2,64.9999976158143,0|0|0,3:0|0:0|0:0,0:0:0:0:
175,65,33498,1,0,0:0:0:0:
175,65,33657,6,0,P|131:42|103:45,1,64.9999976158143,8|0,0:0|0:0,0:0:0:0:
61,106,33974,2,0,P|37:128|6:136,1,64.9999976158143,0|0,3:0|0:0,0:0:0:0:
53,207,34291,1,0,3:0:0:0:
53,207,34450,6,0,P|62:249|72:294,1,64.9999976158143,0|2,0:0|3:2,0:0:0:0:
140,312,34767,2,0,P|146:280|153:248,1,64.9999976158143,0|8,0:0|0:0,0:0:0:0:
231,300,35084,1,0,0:0:0:0:
231,300,35242,1,0,3:0:0:0:
408,347,35559,6,0,P|381:314|368:217,1,129.999995231629,2|0,3:2|0:0,0:0:0:0:
317,159,36035,1,0,0:0:0:0:
317,159,36194,2,0,P|336:131|347:90,1,64.9999976158143,8|0,0:0|0:0,0:0:0:0:
416,55,36511,1,0,3:0:0:0:
252,99,36828,6,0,P|211:106|113:123,2,129.999995231629,0|0|8,3:0|0:0|0:0,0:0:0:0:
121,212,37779,2,0,P|93:193|54:188,1,64.9999976158143,0|0,3:0|0:0,0:0:0:0:
65,272,38096,6,0,P|72:305|82:344,1,64.9999976158143,0|0,3:0|0:0,0:0:0:0:
160,361,38414,2,0,P|167:329|174:297,1,64.9999976158143
248,257,38731,6,0,P|277:281|321:287,1,64.9999976158143,8|0,0:0|0:0,0:0:0:0:
357,223,39048,2,0,P|393:213|423:180,1,64.9999976158143,0|0,3:0|0:0,0:0:0:0:
485,151,39365,6,0,P|465:117|450:22,1,129.999995231629,0|2,3:0|3:2,0:0:0:0:
372,64,39841,1,0,0:0:0:0:
372,64,39999,2,0,P|339:36|299:37,1,64.9999976158143,8|0,0:0|0:0,0:0:0:0:
305,116,40316,2,0,P|282:139|251:146,1,64.9999976158143,0|0,3:0|0:0,0:0:0:0:
241,69,40620,6,0,P|201:78|101:101,1,129.999995231629,2|0,3:2|0:0,0:0:0:0:
54,160,41096,1,0,0:0:0:0:
54,160,41254,6,0,P|84:180|127:179,1,64.9999976158143,8|0,0:0|0:0,0:0:0:0:
161,268,41572,2,0,P|129:271|102:290,1,64.9999976158143,0|0,3:0|0:0,0:0:0:0:
68,380,41889,6,0,P|118:368|183:350,2,97.4999964237214,0|0|0,3:0|0:0|0:0,0:0:0:0:
88,287,42524,1,8,0:0:0:0:
252,326,42842,2,0,P|294:337|342:350,1,64.9999976158143,0|0,3:0|0:0,0:0:0:0:
371,279,43159,6,0,P|351:249|344:206,1,64.9999976158143,0|0,3:0|0:0,0:0:0:0:
292,153,43477,2,0,P|312:123|319:80,1,64.9999976158143
246,29,43794,6,0,P|181:37|117:46,1,129.999995231629,8|0,0:0|3:0,0:0:0:0:
63,128,44270,1,0,0:0:0:0:
63,128,44429,6,0,P|97:136|140:146,1,64.9999976158143,0|0,3:0|0:0,0:0:0:0:
184,223,44746,2,0,P|150:231|107:241,1,64.9999976158143,2|0,3:2|0:0,0:0:0:0:
62,331,45064,2,0,P|40:270|5:231,2,97.4999964237214
142,314,45699,6,0,P|176:322|219:332,1,64.9999976158143,2|0,3:2|0:0,0:0:0:0:
273,278,46016,2,0,P|304:270|336:263,1,64.9999976158143
396,202,46334,6,0,P|378:169|381:117,1,64.9999976158143,8|0,0:0|0:0,0:0:0:0:
459,129,46651,2,0,P|463:91|496:51,1,64.9999976158143,0|0,3:0|0:0,0:0:0:0:
406,12,46969,6,0,P|372:5|341:-1,2,64.9999976158143,0|0|0,3:0|0:0|0:0,0:0:0:0:
321,76,47445,1,0,0:0:0:0:
321,76,47604,2,0,P|281:83|239:91,1,64.9999976158143
177,59,47921,6,0,P|196:21|201:-7,2,64.9999976158143,0|0|0,3:0|0:0|3:0,0:0:0:0:
252,96,48397,1,0,0:0:0:0:
252,96,48556,2,0,P|259:127|275:155,1,64.9999976158143
215,214,48873,6,0,P|205:257|184:359,1,129.999995231629,8|0,0:0|3:0,0:0:0:0:
110,372,49350,1,0,0:0:0:0:
110,372,49508,6,0,P|76:337|-14:343,2,129.999995231629,0|2|8,3:0|3:2|0:0,0:0:0:0:
186,334,50302,1,0,0:0:0:0:
186,334,50461,2,0,P|217:328|247:293,1,64.9999976158143,0|0,3:0|0:0,0:0:0:0:
319,355,50766,6,0,P|353:361|402:370,1,64.9999976158143,2|0,3:2|0:0,0:0:0:0:
440,305,51086,2,0,P|471:299|503:293,1,64.9999976158143
453,225,51407,2,0,P|431:189|428:158,1,64.9999976158143,8|0,0:0|0:0,0:0:0:0:
364,110,51728,2,0,P|386:74|389:43,1,64.9999976158143,0|0,3:0|0:0,0:0:0:0:
304,49,52049,6,0,P|258:11|179:8,1,129.999995231629,0|0,3:0|0:0,0:0:0:0:
123,57,52530,1,0,0:0:0:0:
123,57,52691,2,0,P|130:94|141:140,1,64.9999976158143,8|0,0:0|0:0,0:0:0:0:
52,111,53011,2,0,P|45:148|34:194,1,64.9999976158143,0|0,3:0|0:0,0:0:0:0:
96,253,53308,6,0,P|142:215|221:212,1,129.999995231629,0|0,3:0|0:0,0:0:0:0:
273,152,53784,1,0,0:0:0:0:
273,152,53943,2,0,P|301:181|333:187,1,64.9999976158143,8|0,0:0|0:0,0:0:0:0:
389,241,54261,2,0,P|428:232|468:225,1,64.9999976158143,0|0,3:0|0:0,0:0:0:0:
472,144,54579,6,0,P|459:105|447:66,1,64.9999976158143,0|0,3:0|0:0,0:0:0:0:
368,68,54896,2,0,P|381:29|393:-10,1,64.9999976158143,2|0,3:2|0:0,0:0:0:0:
303,15,55214,1,8,0:0:0:0:
214,159,55532,2,0,P|176:148|131:135,1,64.9999976158143,0|0,3:0|0:0,0:0:0:0:
105,223,55839,6,0,B|92:220|88:256|76:281|38:289|20:254|-1:268,2,129.999995231629,2|0|8,3:2|0:0|0:0,0:0:0:0:
165,282,56632,1,0,0:0:0:0:
165,282,56790,2,0,B|170:301|197:301|205:323|212:346,1,64.9999976158143,0|0,3:0|0:0,0:0:0:0:
278,284,57108,6,0,B|295:288|308:289|329:277|341:255|343:231|392:218,1,129.999995231629,0|0,3:0|0:0,0:0:0:0:
422,295,57584,1,0,0:0:0:0:
422,295,57742,2,0,B|421:312|405:316|396:329|392:365,1,64.9999976158143,8|0,0:0|0:0,0:0:0:0:
478,359,58060,1,0,3:0:0:0:
458,191,58377,6,0,B|447:151|412:135|381:147|358:118|362:80,1,129.999995231629,0|0,3:0|0:0,0:0:0:0:
311,42,58853,1,0,0:0:0:0:
311,42,59011,6,0,B|300:34|291:44|271:32|228:23,1,64.9999976158143,8|0,0:0|0:0,0:0:0:0:
185,85,59329,2,0,B|159:79|141:101|132:91|121:99,1,64.9999976158143,0|0,3:0|0:0,0:0:0:0:
97,179,59646,6,0,B|105:191|124:179|151:197|155:231,1,64.9999976158143,0|0,3:0|0:0,0:0:0:0:
88,271,59963,2,0,B|84:285|62:280|44:307|52:340,1,64.9999976158143,2|0,3:2|0:0,0:0:0:0:
130,350,60281,2,0,B|158:369|176:331|166:322|195:277|252:293,1,129.999995231629,8|0,0:0|3:0,0:0:0:0:
317,328,60757,1,0,0:0:0:0:
317,328,60915,6,0,B|363:292|415:312|372:368|452:401|456:312|491:384,1,194.999992847443,2|0,3:2|0:0,0:0:0:0:
450,281,61550,2,0,B|455:235|470:247|490:210,1,64.9999976158143,8|0,0:0|0:0,0:0:0:0:
425,165,61867,2,0,B|420:129|404:122|381:87,1,64.9999976158143,0|0,3:0|0:0,0:0:0:0:
332,45,62184,6,0,B|300:34|301:76|281:94|249:101|211:78,1,129.999995231629,0|0,3:0|0:0,0:0:0:0:
174,158,62660,1,0,0:0:0:0:
174,158,62819,2,0,B|164:167|146:156|114:190|121:213,1,64.9999976158143,8|0,2:0|2:0,2:0:0:0:
73,125,63136,2,0,B|60:119|62:98|18:84|0:100,1,64.9999976158143,0|0,3:0|0:0,0:0:0:0:
2,177,63454,6,0,B|2:207|31:200|59:227|54:243|28:263|42:298,1,129.999995231629,0|0,3:0|0:0,0:0:0:0:
130,323,63929,1,0,0:0:0:0:
130,323,64088,6,0,B|110:341|88:362|106:387,1,64.9999976158143,8|0,0:0|0:0,0:0:0:0:
189,377,64405,2,0,B|216:370|222:358|226:346|262:342,1,64.9999976158143,0|0,3:0|0:0,0:0:0:0:
307,287,64723,6,0,B|318:302|336:317|357:308|376:313,1,64.9999976158143,0|0,3:0|0:0,0:0:0:0:
427,367,65040,2,0,B|445:362|465:352|465:329|477:313,1,64.9999976158143,2|0,3:2|0:0,0:0:0:0:
435,247,65357,2,0,B|418:228|449:196|412:153|384:185|373:122,1,129.999995231629,8|0,0:0|3:0,0:0:0:0:
247,28,65992,6,0,P|211:23|181:4,1,64.9999976158143,2|0,3:2|0:0,0:0:0:0:
184,93,66308,1,0,0:0:0:0:
24,148,66625,6,0,P|17:110|10:74,1,64.9999976158143,8|0,0:0|0:0,0:0:0:0:
73,25,66942,1,0,3:0:0:0:
241,35,67259,6,0,P|205:30|175:11,1,64.9999976158143,0|0,3:0|0:0,0:0:0:0:
178,100,67575,1,0,0:0:0:0:
18,157,67893,6,0,P|11:119|4:83,1,64.9999976158143,8|0,0:0|0:0,0:0:0:0:
67,34,68210,1,0,3:0:0:0:
145,183,68527,6,0,P|121:221|118:260,1,64.9999976158143,0|0,3:0|0:0,0:0:0:0:
168,307,68844,1,0,0:0:0:0:
304,206,69161,6,0,P|262:213|236:218,1,64.9999976158143,8|0,0:0|0:0,0:0:0:0:
262,135,69478,1,0,3:0:0:0:
137,176,69795,6,0,P|113:214|110:253,1,64.9999976158143,0|0,3:0|0:0,0:0:0:0:
160,300,70112,1,2,3:2:0:0:
309,199,70429,6,0,P|267:206|241:211,1,64.9999976158143,8|0,0:0|0:0,0:0:0:0:
267,128,70746,1,0,3:0:0:0:
393,15,71063,6,0,P|429:40|468:45,1,64.9999976158143,2|0,3:2|0:0,0:0:0:0:
498,114,71380,1,0,0:0:0:0:
401,252,71697,6,0,P|395:219|387:170,1,64.9999976158143,8|0,0:0|0:0,0:0:0:0:
472,207,72014,1,0,3:0:0:0:
385,23,72331,6,0,P|421:48|460:53,1,64.9999976158143,0|0,3:0|0:0,0:0:0:0:
490,122,72648,1,0,0:0:0:0:
397,262,72965,6,0,P|391:229|383:180,1,64.9999976158143,8|0,0:0|0:0,0:0:0:0:
468,217,73282,1,0,3:0:0:0:
301,243,73598,6,0,P|263:252|163:275,2,129.999995231629,0|0|8,3:0|0:0|0:0,0:0:0:0:
211,98,74549,2,0,P|228:142|219:169,1,64.9999976158143,0|0,3:0|0:0,0:0:0:0:
142,135,74866,6,0,P|182:93|185:0,1,129.999995231629,0|2,3:0|3:2,0:0:0:0:
279,48,75342,1,0,0:0:0:0:
279,48,75500,2,0,P|317:57|417:80,1,129.999995231629,8|0,0:0|3:0,0:0:0:0:
453,147,75976,1,0,0:0:0:0:
453,147,76134,6,0,P|431:176|429:223,1,64.9999976158142,2|0,3:2|0:0,0:0:0:0:
371,268,76451,2,0,P|391:293|398:324,1,64.9999976158142
313,326,76768,6,0,P|249:340|228:347,1,64.9999976158142,8|0,0:0|0:0,0:0:0:0:
188,281,77085,2,0,P|156:273|124:266,1,64.9999976158142,0|0,3:0|0:0,0:0:0:0:
128,352,77403,2,0,P|28:367|-1:372,2,129.999995231628,0|0|8,3:0|0:0|0:0,0:0:0:0:
87,187,78355,2,0,P|53:206|41:239,1,64.9999976158142,0|0,3:0|0:0,0:0:0:0:
123,253,78672,6,0,P|112:211|146:114,1,129.999995231628,0|0,3:0|0:0,0:0:0:0:
69,81,79148,1,0,0:0:0:0:
69,81,79306,6,0,P|55:37|43:-2,1,64.9999976158143,8|0,0:0|0:0,0:0:0:0:
138,35,79624,2,0,P|174:41|207:77,1,64.9999976158143,0|0,3:0|0:0,0:0:0:0:
274,27,79941,2,0,P|312:18|364:5,1,64.9999976158143,0|0,3:0|0:0,0:0:0:0:
321,95,80258,1,2,3:2:0:0:
454,199,80576,6,0,P|419:164|391:159,1,64.9999976158143,8|0,0:0|0:0,0:0:0:0:
378,240,80893,2,0,P|329:251|310:272,1,64.9999976158143,0|0,3:0|0:0,0:0:0:0:
188,243,81210,6,0,P|225:272|257:351,1,129.999995231629,2|0,3:2|0:0,0:0:0:0:
360,384,81686,1,0,0:0:0:0:
360,384,81845,6,0,P|369:338|387:316,1,64.9999976158143,8|0,0:0|0:0,0:0:0:0:
469,338,82162,2,0,P|465:306|450:278,1,64.9999976158143,0|0,3:0|0:0,0:0:0:0:
512,185,82479,2,0,P|454:198|374:218,2,129.999995231629,0|0|8,3:0|0:0|0:0,0:0:0:0:
445,115,83273,1,0,0:0:0:0:
445,115,83431,2,0,P|415:108|374:98,1,64.9999976158143,0|0,3:0|0:0,0:0:0:0:
322,38,83749,6,0,P|306:64|255:74,1,64.9999976158143,0|0,3:0|0:0,0:0:0:0:
215,136,84066,2,0,P|191:114|159:110,1,64.9999976158143
96,53,84383,6,0,P|64:61|32:68,1,64.9999976158143,8|0,0:0|0:0,0:0:0:0:
18,152,84700,2,0,P|49:160|81:167,1,64.9999976158143,0|0,3:0|0:0,0:0:0:0:
136,232,85018,6,0,P|112:259|109:302,1,64.9999976158143,0|0,3:0|0:0,0:0:0:0:
27,318,85335,2,0,P|102:333|135:386,1,129.999995231629,2|8,3:2|0:0,0:0:0:0:
202,327,85811,1,0,0:0:0:0:
202,327,85970,2,0,P|233:319|265:311,1,64.9999976158143,0|0,3:0|0:0,0:0:0:0:
322,248,86287,6,0,P|343:272|351:303,1,64.9999976158143,2|0,3:2|0:0,0:0:0:0:
424,347,86604,2,0,P|440:305|459:288,1,64.9999976158143
505,224,86921,2,0,B|489:214|489:214|463:97,1,129.999995231629,0|0,0:0|3:0,0:0:0:0:
396,54,87397,1,0,0:0:0:0:
396,54,87556,6,0,P|341:55|276:-1,2,129.999995231629,0|0|8,3:0|0:0|0:0,0:0:0:0:
232,98,88508,2,0,P|203:100|167:141,1,64.9999976158143,0|0,3:0|0:0,0:0:0:0:
101,162,88825,6,0,P|129:193|138:239,1,64.9999976158143,0|0,3:0|0:0,0:0:0:0:
210,255,89142,2,0,P|182:286|173:332,1,64.9999976158143
258,322,89460,6,0,P|312:307|397:283,1,129.999995231629,8|0,0:0|3:0,0:0:0:0:
448,341,89936,1,0,0:0:0:0:
448,341,90094,2,0,P|470:302|466:270,1,64.9999976158143,0|0,3:0|0:0,0:0:0:0:
429,207,90412,2,0,P|407:168|411:136,1,64.9999976158143,2|0,3:2|0:0,0:0:0:0:
471,93,90729,5,8,0:0:0:0:
321,13,91046,2,0,P|291:20|249:29,1,64.9999976158143,0|0,3:0|0:0,0:0:0:0:
189,79,91364,6,0,P|151:36|72:37,1,129.999995231629,2|0,3:2|0:0,0:0:0:0:
18,88,91839,1,0,0:0:0:0:
18,88,91998,2,0,P|42:112|55:157,1,64.9999976158143,8|0,0:0|0:0,0:0:0:0:
126,183,92315,2,0,P|157:189|189:196,1,64.9999976158143,0|0,3:0|0:0,0:0:0:0:
234,288,92633,6,0,P|202:294|97:319,1,129.999995231629,0|0,3:0|0:0,0:0:0:0:
30,291,93109,1,0,0:0:0:0:
30,291,93267,6,0,P|51:252|46:214,1,64.9999976158143,8|0,0:0|0:0,0:0:0:0:
119,187,93585,1,0,3:0:0:0:
76,27,93902,5,0,3:0:0:0:
76,27,94061,2,0,P|120:32|213:43,1,129.999995231629
269,113,94536,5,8,0:0:0:0:
269,113,94695,2,0,P|312:104|404:85,1,129.999995231629
455,159,95171,6,0,P|426:184|425:226,1,64.9999976158143,0|0,3:0|0:0,0:0:0:0:
460,284,95489,2,0,P|418:241|331:240,2,129.999995231629,2|8|0,3:2|0:0|3:0,0:0:0:0:
299,323,96434,6,0,B|295:355|271:368|230:358|225:338|198:317|166:326|146:355|156:381|135:371,1,194.999992847443,2|0,3:2|0:0,0:0:0:0:
97,298,97068,2,0,B|93:284|119:283|130:261|122:226|110:218,1,64.9999976158143,8|0,0:0|0:0,0:0:0:0:
160,165,97385,2,0,B|158:143|144:126|123:134|113:108,1,64.9999976158143,0|0,3:0|0:0,0:0:0:0:
165,46,97702,6,0,B|179:48|183:8|243:-15|285:19,1,129.999995231629,0|0,3:0|0:0,0:0:0:0:
345,66,98177,1,0,0:0:0:0:
345,66,98336,2,0,B|345:78|325:74|310:99|312:118,1,64.9999976158143,8|0,0:0|0:0,0:0:0:0:
394,139,98653,1,0,3:0:0:0:
398,307,98970,6,0,B|414:276|402:244|361:246|336:234|324:204,1,129.999995231629,0|0,3:0|0:0,0:0:0:0:
248,191,99445,1,0,0:0:0:0:
248,191,99604,2,0,B|239:201|231:193|211:167|168:170,1,64.9999976158143,8|0,0:0|0:0,0:0:0:0:
163,251,99921,2,0,B|151:253|113:265|127:286|104:303,1,64.9999976158143,0|0,3:0|0:0,0:0:0:0:
64,222,100238,6,0,B|51:209|65:184|82:160|36:142|14:161|-2:104,1,129.999995231629,0|2,3:0|3:2,0:0:0:0:
70,66,100714,1,0,0:0:0:0:
70,66,100872,2,0,B|69:50|82:27|122:20,1,64.9999976158143,8|0,0:0|0:0,0:0:0:0:
151,96,101189,1,0,3:0:0:0:
319,17,101506,6,0,B|318:33|299:22|258:36|232:72|251:116,1,129.999995231629,2|0,3:2|0:0,0:0:0:0:
349,158,101982,1,0,0:0:0:0:
349,158,102140,2,0,B|367:131|336:125|324:101,1,64.9999976158143,8|0,0:0|0:0,0:0:0:0:
394,60,102457,2,0,B|403:66|418:49|467:36,1,64.9999976158143,0|0,3:0|0:0,0:0:0:0:
459,133,102774,6,0,B|453:159|495:159|522:179|515:223|510:256,1,129.999995231629,0|0,3:0|0:0,0:0:0:0:
442,289,103250,1,0,0:0:0:0:
442,289,103408,6,0,B|430:295|405:310|410:348,1,64.9999976158143,8|0,0:0|0:0,0:0:0:0:
343,275,103725,2,0,B|323:276|307:267|304:253|276:248,1,64.9999976158143,0|0,3:0|0:0,0:0:0:0:
250,329,104042,6,0,B|234:331|210:340|206:373,1,64.9999976158143,0|0,3:0|0:0,0:0:0:0:
147,308,104360,2,0,B|154:278|135:261|121:253,1,64.9999976158143
185,198,104677,2,0,B|210:185|150:129|210:83|247:93,1,129.999995231629,8|0,0:0|3:0,0:0:0:0:
302,48,105152,1,0,0:0:0:0:
302,48,105311,6,0,B|317:63|329:53|334:32|371:29,1,64.9999976158143,0|0,3:0|0:0,0:0:0:0:
399,105,105628,2,0,B|419:103|435:108|442:127|459:147,1,64.9999976158143,2|0,3:2|0:0,0:0:0:0:
486,213,105945,2,0,B|473:213|448:233|444:259|460:280|413:321,1,129.999995231629,8|0,0:0|3:0,0:0:0:0:
255,366,106579,6,0,P|263:324|270:288,1,64.9999976158143,2|0,3:2|0:0,0:0:0:0:
210,238,106896,1,0,0:0:0:0:
52,176,107213,6,0,P|78:205|83:258,1,64.9999976158143,8|0,0:0|0:0,0:0:0:0:
55,308,107530,1,0,3:0:0:0:
247,364,107847,6,0,P|255:322|262:286,1,64.9999976158143,0|0,3:0|0:0,0:0:0:0:
202,236,108164,1,0,0:0:0:0:
349,153,108481,6,0,P|341:111|334:75,1,64.9999976158143,8|0,0:0|0:0,0:0:0:0:
394,25,108798,1,0,3:0:0:0:
495,160,109115,6,0,P|471:138|439:132,1,64.9999976158143,0|0,3:0|0:0,0:0:0:0:
434,217,109432,1,0,0:0:0:0:
394,342,109749,6,0,P|362:348|330:355,1,64.9999976158143,8|0,0:0|0:0,0:0:0:0:
267,297,110066,1,0,3:0:0:0:
488,166,110383,6,0,P|464:144|432:138,1,64.9999976158143,0|0,3:0|0:0,0:0:0:0:
427,223,110700,1,2,3:2:0:0:
203,144,111017,6,0,P|234:150|266:157,1,64.9999976158143,8|0,0:0|0:0,0:0:0:0:
330,99,111334,1,0,3:0:0:0:
214,228,111651,6,0,P|167:230|108:293,1,129.999995231629,2|0,3:2|0:0,0:0:0:0:
55,220,112127,1,0,0:0:0:0:
55,220,112286,6,0,P|18:185|12:152,1,64.9999976158143,8|0,0:0|0:0,0:0:0:0:
47,95,112603,2,0,P|84:60|90:27,1,64.9999976158143,0|0,3:0|0:0,0:0:0:0:
164,11,112920,6,0,P|204:4|251:-6,1,64.9999976158143,0|0,3:0|0:0,0:0:0:0:
291,54,113237,2,0,P|322:60|354:65,1,64.9999976158143
384,145,113554,2,0,P|431:138|529:121,1,129.999995231629,8|0,0:0|3:0,0:0:0:0:
471,288,114188,6,0,P|433:248|355:254,2,129.999995231629,0|0|8,3:0|0:0|0:0,0:0:0:0:
307,330,115139,2,0,P|276:302|270:267,1,64.9999976158143,0|0,3:0|0:0,0:0:0:0:
198,235,115456,6,0,P|166:228|134:222,1,64.9999976158143,0|0,3:0|0:0,0:0:0:0:
78,286,115773,2,0,P|46:292|14:298,1,64.9999976158143,2|0,3:2|0:0,0:0:0:0:
36,216,116090,6,0,P|58:187|60:146,1,64.9999976158143,8|0,0:0|0:0,0:0:0:0:
133,113,116407,6,0,P|111:84|109:43,1,64.9999976158143,0|0,3:0|0:0,0:0:0:0:
191,60,116724,6,0,P|242:70|335:88,1,129.999995231629,2|0,3:2|0:0,0:0:0:0:
397,151,117200,1,0,0:0:0:0:
397,151,117358,6,0,P|346:161|253:179,1,129.999995231629,8|0,0:0|3:0,0:0:0:0:
184,243,117834,1,0,0:0:0:0:
184,243,117992,6,0,P|235:253|275:261,1,64.9999976158143,0|0,3:0|0:0,0:0:0:0:
314,321,118309,2,0,P|345:314|377:308,1,64.9999976158143
448,261,118626,6,0,P|458:222|478:198,1,64.9999976158143,8|0,0:0|0:0,0:0:0:0:
505,125,118943,2,0,P|495:86|475:62,1,64.9999976158143,0|0,3:0|0:0,0:0:0:0:
411,116,119260,6,0,P|360:106|267:88,1,129.999995231629,0|0,3:0|0:0,0:0:0:0:
227,27,119736,1,0,0:0:0:0:
227,27,119895,6,0,P|163:39|137:44,1,64.9999976158143,8|0,0:0|0:0,0:0:0:0:
104,100,120212,2,0,P|72:94|40:87,1,64.9999976158143,0|0,3:0|0:0,0:0:0:0:
59,170,120529,6,0,P|69:201|82:236,1,64.9999976158143,0|0,3:0|0:0,0:0:0:0:
161,256,120846,2,0,P|151:287|138:322,1,64.9999976158143,2|0,3:2|0:0,0:0:0:0:
224,322,121163,2,0,P|233:352|245:383,1,64.9999976158143,8|0,0:0|0:0,0:0:0:0:
309,328,121480,6,0,P|346:311|365:279,1,64.9999976158143,0|0,3:0|0:0,0:0:0:0:
440,266,121797,6,0,P|450:213|467:128,1,129.999995231629,2|0,3:2|0:0,0:0:0:0:
385,126,122272,1,0,0:0:0:0:
385,126,122431,6,0,P|375:73|358:-12,1,129.999995231629,8|0,0:0|3:0,0:0:0:0:
288,40,122906,1,0,0:0:0:0:
288,40,123065,6,0,P|281:80|276:119,1,64.9999976158143,0|0,3:0|0:0,0:0:0:0:
201,151,123382,2,0,P|196:118|190:86,1,64.9999976158143
120,16,123699,2,0,P|111:80|102:144,1,129.999995231629,8|0,0:0|3:0,0:0:0:0:
26,199,124175,1,0,0:0:0:0:
26,199,124333,6,0,P|34:263|43:327,1,129.999995231629,0|0,3:0|0:0,0:0:0:0:
116,253,124809,1,0,0:0:0:0:
116,253,124967,6,0,P|150:259|185:265,1,64.9999976158143,8|0,0:0|0:0,0:0:0:0:
248,314,125284,2,0,P|310:302|392:286,1,129.999995231629,0|0,3:0|3:0,0:0:0:0:
430,224,125760,1,0,0:0:0:0:
430,224,125918,6,0,P|441:187|466:166,1,64.9999976158143,2|0,3:2|0:0,0:0:0:0:
500,95,126235,2,0,P|489:58|464:37,1,64.9999976158143,8|0,0:0|0:0,0:0:0:0:
410,99,126552,2,0,P|375:90|343:83,1,64.9999976158143,0|0,3:0|0:0,0:0:0:0:
281,29,126869,6,0,P|248:63|168:68,1,129.999995231629,2|0,3:2|0:0,0:0:0:0:
112,126,127344,1,0,0:0:0:0:
112,126,127503,2,0,P|86:86|88:60,1,64.9999976158143,8|0,0:0|0:0,0:0:0:0:
12,28,127820,1,0,3:0:0:0:
106,230,128138,6,0,P|133:212|184:218,1,64.9999976158143,0|0,3:0|0:0,0:0:0:0:
144,299,128455,1,0,0:0:0:0:
144,299,128614,2,0,P|108:267|17:262,1,129.999995231629
0,179,129090,2,0,P|8:147|17:116,1,64.9999976158143,0|0,3:0|0:0,0:0:0:0:
95,60,129407,6,0,P|130:83|170:78,1,64.9999976158143,0|0,3:0|0:0,0:0:0:0:
224,40,129724,2,0,P|249:20|281:16,1,64.9999976158143
346,70,130042,6,0,P|395:83|476:103,1,129.999995231629,8|0,0:0|3:0,0:0:0:0:
416,165,130518,1,0,0:0:0:0:
416,165,130676,2,0,P|367:178|286:198,1,129.999995231629,0|2,3:0|3:2,0:0:0:0:
347,265,131152,1,0,0:0:0:0:
347,265,131311,6,0,P|396:278|438:289,1,64.9999976158143,8|0,0:0|0:0,0:0:0:0:
354,345,131628,2,0,P|305:358|263:369,1,64.9999976158143
238,295,131945,6,0,P|180:295|117:240,1,129.999995231629,2|0,3:2|0:0,0:0:0:0:
54,204,132421,1,0,0:0:0:0:
54,204,132580,6,0,P|46:168|36:122,1,64.9999976158143,8|0,0:0|0:0,0:0:0:0:
108,91,132897,1,0,3:0:0:0:
108,91,133056,1,0,0:0:0:0:
192,84,133215,2,0,P|185:115|177:147,1,64.9999976158143,0|0,3:0|0:0,0:0:0:0:
256,179,133532,1,0,0:0:0:0:
256,179,133691,1,0,0:0:0:0:
339,189,133849,6,0,P|331:157|324:125,1,64.9999976158143,8|0,0:0|0:0,0:0:0:0:
396,78,134167,2,0,P|403:46|410:14,1,64.9999976158143,0|0,3:0|0:0,0:0:0:0:
492,107,134484,6,0,P|464:134|455:173,1,64.9999976158143,0|0,3:0|0:0,0:0:0:0:
413,237,134801,2,0,P|440:264|449:303,1,64.9999976158143
401,359,135119,2,0,P|367:353|332:348,1,64.9999976158143,8|0,0:0|0:0,0:0:0:0:
271,294,135436,6,0,P|239:322|202:324,1,64.9999976158143,0|0,3:0|0:0,0:0:0:0:
143,285,135753,2,0,P|111:257|73:255,1,64.9999976158143,0|0,3:0|0:0,0:0:0:0:
41,183,136070,2,0,P|34:148|25:104,1,64.9999976158143,2|0,3:2|0:0,0:0:0:0:
85,56,136388,2,0,P|140:43|213:25,1,129.999995231629,8|0,0:0|3:0,0:0:0:0:
342,131,137022,6,0,P|372:137|429:149,1,64.9999976158143,2|0,3:2|0:0,0:0:0:0:
388,60,137340,1,0,0:0:0:0:
468,208,137657,6,0,P|448:220|428:263,1,64.9999976158143,8|0,0:0|0:0,0:0:0:0:
361,308,137974,2,0,P|347:278|321:260,1,64.9999976158143,0|0,3:0|0:0,0:0:0:0:
247,217,138292,6,0,P|215:223|183:229,1,64.9999976158143,0|0,3:0|0:0,0:0:0:0:
124,290,138609,2,0,P|92:283|60:277,1,64.9999976158143
16,204,138926,1,8,0:0:0:0:
71,44,139244,2,0,P|81:83|91:120,1,64.9999976158143,0|0,3:0|0:0,0:0:0:0:
164,152,139561,5,0,3:0:0:0:
164,152,139720,1,0,0:0:0:0:
238,112,139878,2,0,P|246:80|254:49,1,64.9999976158143
323,97,140195,2,0,P|331:128|356:234,1,129.999995231629,8|0,0:0|3:0,0:0:0:0:
426,274,140671,1,0,0:0:0:0:
426,274,140830,6,0,P|400:303|371:312,1,64.9999976158143,0|0,3:0|0:0,0:0:0:0:
309,363,141147,2,0,P|282:344|250:340,1,64.9999976158143,2|0,3:2|0:0,0:0:0:0:
197,273,141465,2,0,P|148:266|97:198,1,129.999995231629,8|0,0:0|3:0,0:0:0:0:
37,148,141941,1,0,0:0:0:0:
37,148,142099,6,0,P|67:99|75:5,2,129.999995231629,2|0|8,3:2|0:0|0:0,0:0:0:0:
111,198,142893,1,0,0:0:0:0:
111,198,143051,2,0,P|150:189|193:179,1,64.9999976158143,0|0,3:0|0:0,0:0:0:0:
230,118,143369,2,0,P|272:127|360:146,1,129.999995231629,0|0,3:0|0:0,0:0:0:0:
422,206,143845,1,0,0:0:0:0:
422,206,144003,6,0,P|415:237|396:263,1,64.9999976158143,8|0,0:0|0:0,0:0:0:0:
337,325,144321,2,0,P|318:298|311:267,1,64.9999976158143,0|0,3:0|0:0,0:0:0:0:
228,252,144638,2,0,P|186:261|98:280,1,129.999995231629,0|0,3:0|0:0,0:0:0:0:
32,229,145114,1,0,0:0:0:0:
32,229,145272,2,0,P|13:191|16:146,1,64.9999976158143,8|0,0:0|0:0,0:0:0:0:
73,110,145590,2,0,P|89:82|93:50,1,64.9999976158143,0|0,3:0|0:0,0:0:0:0:
171,16,145907,6,0,B|183:29|183:29|306:63,1,129.999995231629,0|2,3:0|3:2,0:0:0:0:
350,119,146383,1,0,0:0:0:0:
350,119,146542,2,0,P|361:89|375:53,1,64.9999976158143,8|0,0:0|0:0,0:0:0:0:
437,3,146859,2,0,P|448:33|459:63,1,64.9999976158143,0|0,3:0|0:0,0:0:0:0:
432,158,147164,6,0,B|438:171|417:166|387:188|367:227|374:256|410:278|402:306|347:335,1,194.999992847443,2|0,3:2|0:0,0:0:0:0:
295,275,147798,1,8,0:0:0:0:
295,275,147957,2,0,B|266:288|224:232|249:246|231:195|196:201,1,129.999995231629
154,272,148433,6,0,B|142:270|113:277|104:311,1,64.9999976158143,0|0,3:0|0:0,0:0:0:0:
59,235,148750,2,0,B|54:204|26:194|14:195,1,64.9999976158143
89,128,149067,6,0,B|97:115|106:130|128:117|169:102,1,64.9999976158143,8|0,0:0|0:0,0:0:0:0:
190,19,149384,2,0,B|205:16|199:34|224:41|263:61,1,64.9999976158143,0|0,3:0|0:0,0:0:0:0:
303,113,149702,2,0,B|332:113|318:53|382:18|404:50,1,129.999995231629,0|0,3:0|0:0,0:0:0:0:
447,117,150178,1,0,0:0:0:0:
447,117,150336,6,0,B|458:128|467:116|493:135|502:168,1,64.9999976158143,8|0,0:0|0:0,0:0:0:0:
429,206,150654,2,0,B|432:221|446:215|459:245|449:278,1,64.9999976158143,0|0,3:0|0:0,0:0:0:0:
459,366,150971,6,0,B|451:372|446:357|416:332|408:334|337:322,1,129.999995231629,0|2,3:0|3:2,0:0:0:0:
272,256,151447,1,0,0:0:0:0:
272,256,151605,6,0,B|267:265|261:257|245:264|223:283|227:314,1,64.9999976158143,8|0,0:0|0:0,0:0:0:0:
271,371,151923,1,0,3:0:0:0:
117,301,152240,6,0,B|108:309|101:263|74:240|50:248|27:260|0:225,1,129.999995231629,2|0,3:2|0:0,0:0:0:0:
60,167,152716,1,0,0:0:0:0:
60,167,152874,2,0,B|56:153|63:118|101:114,1,64.9999976158143,8|0,0:0|0:0,0:0:0:0:
140,46,153192,2,0,B|148:55|167:43|193:55|199:87,1,64.9999976158143,0|0,3:0|0:0,0:0:0:0:
275,98,153509,6,0,B|287:100|283:80|303:33|347:54|394:49,1,129.999995231629,0|0,3:0|0:0,0:0:0:0:
444,115,153985,1,0,0:0:0:0:
444,115,154144,6,0,B|453:124|448:140|458:165|475:172,1,64.9999976158143,8|0,0:0|0:0,0:0:0:0:
414,236,154461,1,0,3:0:0:0:
305,365,154778,6,0,B|297:358|310:338|295:305|265:301,1,64.9999976158143,0|0,3:0|0:0,0:0:0:0:
205,269,155095,1,0,0:0:0:0:
24,89,155413,6,0,P|81:99|145:111,1,97.5000001430512,8|0,0:0|0:0,0:0:0:0:
179,27,155730,2,0,P|226:18|274:9,1,97.5000001430512,0|0,3:0|0:0,0:0:0:0:
321,99,156047,2,0,P|369:107|416:116,1,97.5000001430512,0|0,3:0|0:0,0:0:0:0:
417,21,156364,2,0,P|464:12|512:3,1,97.5000001430512,2|0,3:2|0:0,0:0:0:0:
424,124,156682,6,0,P|412:176|401:188,1,64.9999976158143,8|0,0:0|0:0,0:0:0:0:
459,248,156999,2,0,P|471:300|482:312,1,64.9999976158143,0|0,3:0|0:0,0:0:0:0:
420,365,157310,2,0,P|363:352|273:333,1,129.999995231629,2|0,3:2|0:0,0:0:0:0:
245,267,157786,1,0,0:0:0:0:
245,267,157945,6,0,P|204:278|176:285,1,64.9999976158143,8|0,0:0|0:0,0:0:0:0:
119,340,158262,2,0,P|87:331|56:323,1,64.9999976158143,0|0,3:0|0:0,0:0:0:0:
3,239,158580,6,0,P|67:237|126:170,1,129.999995231629,0|0,3:0|0:0,0:0:0:0:
199,159,159056,1,0,0:0:0:0:
199,159,159215,2,0,P|181:123|180:90,1,64.9999976158143,8|0,0:0|0:0,0:0:0:0:
94,93,159533,2,0,P|105:54|127:29,1,64.9999976158143,0|0,3:0|0:0,0:0:0:0:
201,8,159851,6,0,P|249:16|346:33,1,129.999995231629,0|0,3:0|0:0,0:0:0:0:
387,98,160327,1,0,0:0:0:0:
387,98,160486,2,0,P|427:90|469:82,1,64.9999976158143,8|0,0:0|0:0,0:0:0:0:
493,12,160803,1,0,3:0:0:0:
433,170,161121,6,0,P|422:218|415:248,1,64.9999976158143,0|0,3:0|0:0,0:0:0:0:
473,297,161439,2,0,P|484:345|491:375,1,64.9999976158143,2|0,3:2|0:0,0:0:0:0:
398,343,161756,6,0,P|365:334|338:305,1,64.9999976158143,8|0,0:0|0:0,0:0:0:0:
261,360,162074,1,0,3:0:0:0:
261,360,162233,1,0,0:0:0:0:
199,302,162392,6,0,P|223:274|243:175,1,129.999995231629,2|0,3:2|0:0,0:0:0:0:
305,126,162868,1,0,0:0:0:0:
305,126,163027,6,0,P|298:82|277:59,1,64.9999976158143,8|0,0:0|0:0,0:0:0:0:
220,13,163344,2,0,P|185:6|149:0,1,64.9999976158143,0|0,3:0|0:0,0:0:0:0:
131,82,163662,2,0,P|91:90|-6:110,1,129.999995231629,0|0,3:0|0:0,0:0:0:0:
172,215,164297,6,0,P|201:253|228:260,1,64.9999976158143,8|0,0:0|0:0,0:0:0:0:
280,313,164615,2,0,P|297:286|326:272,1,64.9999976158143,0|0,3:0|0:0,0:0:0:0:
322,381,164933,6,0,P|253:343|187:346,1,129.999995231629,0|0,3:0|0:0,0:0:0:0:
130,299,165409,1,0,0:0:0:0:
130,299,165568,6,0,P|89:292|43:286,1,64.9999976158143,8|0,0:0|0:0,0:0:0:0:
26,213,165885,2,0,P|67:206|113:200,1,64.9999976158143,0|0,3:0|0:0,0:0:0:0:
148,140,166203,1,0,3:0:0:0:
148,140,166362,6,0,P|199:149|263:161,2,97.4999964237214,0|0|8,0:0|0:0|0:0,0:0:0:0:
103,68,166997,1,0,0:0:0:0:
103,68,167156,1,0,3:0:0:0:
236,0,167457,6,0,P|245:42|271:68,1,64.9999976158143,2|0,3:2|0:0,0:0:0:0:
339,105,167774,2,0,P|357:78|361:46,1,64.9999976158143
443,14,168092,2,0,P|484:5|535:-7,1,64.9999976158143,8|0,0:0|0:0,0:0:0:0:
492,86,168410,1,0,3:0:0:0:
286,169,168728,6,0,P|290:215|337:282,1,129.999995231629,0|0,3:0|0:0,0:0:0:0:
274,333,169205,1,0,0:0:0:0:
274,333,169364,2,0,P|298:355|329:364,1,64.9999976158143,8|0,0:0|0:0,0:0:0:0:
405,326,169682,2,0,P|429:305|461:297,1,64.9999976158143,0|0,3:0|0:0,0:0:0:0:
507,226,170000,6,0,P|502:192|494:150,1,64.9999976158143,0|0,3:0|0:0,0:0:0:0:
462,83,170318,2,0,P|467:49|475:7,1,64.9999976158143
391,43,170636,6,0,P|357:49|308:56,1,64.9999976158143,8|0,0:0|0:0,0:0:0:0:
259,105,170954,2,0,P|226:100|119:83,2,129.999995231629,0|0|2,3:0|3:0|3:2,0:0:0:0:
104,174,171908,6,0,P|77:143|35:137,1,64.9999976158143,8|0,0:0|0:0,0:0:0:0:
25,215,172226,2,0,P|22:247|3:273,1,64.9999976158143,0|0,3:0|0:0,0:0:0:0:
77,332,172524,6,0,P|125:328|196:379,1,129.999995231629,2|0,3:2|0:0,0:0:0:0:
253,305,172999,1,0,0:0:0:0:
253,305,173157,6,0,P|316:300|364:257,1,129.999995231629,8|0,0:0|3:0,0:0:0:0:
437,328,173633,1,0,0:0:0:0:
437,328,173791,2,0,P|471:342|492:375,1,64.9999976158143,0|0,3:0|0:0,0:0:0:0:
434,209,174267,1,0,0:0:0:0:
434,209,174426,6,0,P|424:159|417:127,1,64.9999976158143,8|0,0:0|0:0,0:0:0:0:
350,99,174742,2,0,P|343:130|337:162,1,64.9999976158143,0|0,3:0|0:0,0:0:0:0:
256,190,175059,6,0,P|227:165|189:163,1,64.9999976158143,0|0,3:0|0:0,0:0:0:0:
192,76,175376,2,0,P|154:85|131:115,1,64.9999976158143
77,164,175693,6,0,P|103:191|107:229,1,64.9999976158143,0|0,3:0|0:0,0:0:0:0:
174,270,176010,1,0,3:0:0:0:
40,372,176327,5,0,3:0:0:0:
40,372,176485,2,0,P|96:361|179:345,1,129.999995231629
242,306,176961,6,0,P|275:313|323:323,1,64.9999976158143,8|0,0:0|0:0,0:0:0:0:
380,359,177278,2,0,P|411:352|443:345,1,64.9999976158143,0|0,3:0|0:0,0:0:0:0:
472,266,177595,6,0,P|440:238|427:198,1,64.9999976158143,2|0,3:2|0:0,0:0:0:0:
362,168,177912,2,0,P|389:136|419:38,1,129.999995231629,0|8,0:0|0:0,0:0:0:0:
495,122,178389,1,0,0:0:0:0:
495,122,178548,2,0,P|506:161|516:201,1,64.9999976158143,0|0,3:0|0:0,0:0:0:0:
481,264,178866,6,0,P|449:236|436:196,1,64.9999976158143,0|0,3:0|0:0,0:0:0:0:
371,166,179184,2,0,P|398:134|428:36,2,129.999995231629,0|8|0,0:0|0:0|3:0,0:0:0:0:
298,210,179979,1,0,0:0:0:0:
298,210,180138,6,0,P|262:176|225:178,1,64.9999976158143,0|0,3:0|0:0,0:0:0:0:
182,119,180456,2,0,P|161:143|130:152,1,64.9999976158143
49,178,180774,2,0,P|42:216|24:311,1,129.999995231629,8|0,0:0|3:0,0:0:0:0:
75,379,181251,1,0,0:0:0:0:
75,379,181410,6,0,P|107:345|113:308,1,64.9999976158143,0|0,3:0|0:0,0:0:0:0:
197,287,181728,2,0,P|165:253|159:216,1,64.9999976158143,2|0,3:2|0:0,0:0:0:0:
241,213,182046,2,0,P|303:197|371:182,1,129.999995231629,8|0,0:0|3:0,0:0:0:0:
455,189,182523,1,0,0:0:0:0:
455,189,182682,6,0,B|473:141|424:89|405:125|343:97|363:25,1,194.999992847443,2|0,3:2|0:0,0:0:0:0:
506,12,183318,6,0,P|475:21|444:30,1,64.9999976158143,8|0,0:0|0:0,0:0:0:0:
352,47,183636,2,0,P|320:38|289:29,1,64.9999976158143,0|0,3:0|0:0,0:0:0:0:
221,81,183954,6,0,P|172:83|105:133,1,129.999995231629,0|0,3:0|0:0,0:0:0:0:
29,162,184431,1,0,0:0:0:0:
29,162,184590,2,0,P|50:197|82:212,1,64.9999976158143,8|0,0:0|0:0,0:0:0:0:
116,279,184908,1,0,3:0:0:0:
258,369,185226,6,0,P|250:325|231:236,1,129.999995231629,0|0,3:0|0:0,0:0:0:0:
319,260,185703,1,0,0:0:0:0:
319,260,185862,6,0,P|326:215|330:172,1,64.9999976158143,8|0,0:0|0:0,0:0:0:0:
411,143,186180,2,0,P|401:102|378:79,1,64.9999976158143,0|0,3:0|0:0,0:0:0:0:
420,7,186498,6,0,P|359:55|300:51,1,129.999995231629,0|2,3:0|3:2,0:0:0:0:
218,103,186974,2,0,P|208:143|185:166,1,64.9999976158143
117,93,187292,1,0,0:0:0:0:
117,93,187451,2,0,P|97:67|92:35,1,64.9999976158143,0|0,3:0|0:0,0:0:0:0:
173,1,187751,6,0,P|204:8|236:15,1,64.9999976158143,2|0,3:2|0:0,0:0:0:0:
309,64,188068,1,0,0:0:0:0:
309,64,188226,1,0,0:0:0:0:
382,22,188385,6,0,P|413:15|445:7,1,64.9999976158143,8|0,0:0|0:0,0:0:0:0:
435,91,188702,2,0,P|466:98|498:105,1,64.9999976158143,0|0,3:0|0:0,0:0:0:0:
449,175,189020,2,0,P|440:217|420:315,1,129.999995231629,0|0,3:0|0:0,0:0:0:0:
368,367,189496,1,0,0:0:0:0:
368,367,189654,2,0,P|337:339|334:309,1,64.9999976158143,8|0,0:0|0:0,0:0:0:0:
265,265,189972,2,0,P|243:288|239:320,1,64.9999976158143,0|0,3:0|0:0,0:0:0:0:
161,352,190289,6,0,P|111:362|23:382,1,129.999995231629,0|0,3:0|0:0,0:0:0:0:
60,299,190765,1,0,0:0:0:0:
60,299,190923,2,0,P|47:269|34:239,1,64.9999976158143,8|0,0:0|0:0,0:0:0:0:
119,237,191241,1,0,3:0:0:0:
239,118,191558,6,0,P|272:144|309:144,1,64.9999976158143,0|0,3:0|0:0,0:0:0:0:
303,62,191875,2,0,P|294:27|288:-1,1,64.9999976158143,2|0,3:2|0:0,0:0:0:0:
389,48,192193,2,0,P|382:79|373:111,1,64.9999976158143,8|0,0:0|0:0,0:0:0:0:
456,93,192510,1,0,3:0:0:0:
358,230,192827,6,0,P|398:197|479:203,2,129.999995231629,2|0|8,3:2|0:0|0:0,0:0:0:0:
289,279,193620,1,0,0:0:0:0:
289,279,193779,2,0,P|313:305|326:351,1,64.9999976158143,0|0,3:0|0:0,0:0:0:0:
240,348,194096,2,0,P|176:333|112:320,1,129.999995231629,0|0,3:0|0:0,0:0:0:0:
155,247,194572,6,0,P|144:213|134:179,1,64.9999976158143,0|8,0:0|0:0,0:0:0:0:
43,177,194890,1,0,0:0:0:0:
43,177,195048,2,0,P|54:143|64:109,1,64.9999976158143,0|0,3:0|0:0,0:0:0:0:
109,43,195366,6,0,P|136:73|164:80,1,64.9999976158143,0|0,3:0|0:0,0:0:0:0:
226,130,195683,2,0,P|266:96|346:100,2,129.999995231629,0|8|0,0:0|0:0|3:0,0:0:0:0:
282,192,196476,1,0,0:0:0:0:
282,192,196635,6,0,P|290:234|300:278,1,64.9999976158143,0|0,3:0|0:0,0:0:0:0:
367,298,196952,2,0,P|373:266|379:234,1,64.9999976158143,2|0,3:2|0:0,0:0:0:0:
441,176,197269,6,0,P|472:201|509:203,1,64.9999976158143,8|0,0:0|0:0,0:0:0:0:
505,120,197587,1,0,3:0:0:0:
425,5,197904,6,0,P|383:13|306:31,1,97.4999964237214,2|0,3:2|0:0,0:0:0:0:
316,17,198221,1,0,0:0:0:0:
170,18,198538,6,0,P|197:52|205:96,1,64.9999976158143,8|0,0:0|0:0,0:0:0:0:
241,148,198856,1,0,3:0:0:0:
433,14,199173,6,0,P|402:21|355:33,1,64.9999976158143,0|0,3:0|0:0,0:0:0:0:
326,110,199490,1,0,0:0:0:0:
493,132,199808,6,0,P|466:166|458:210,1,64.9999976158143,8|0,0:0|0:0,0:0:0:0:
389,234,200126,1,0,3:0:0:0:
264,347,200442,6,0,P|226:340|193:334,1,64.9999976158143,0|0,3:0|0:0,0:0:0:0:
149,267,200759,1,0,0:0:0:0:
5,357,201077,6,0,P|14:312|20:276,1,64.9999976158143,8|0,0:0|0:0,0:0:0:0:
73,229,201394,1,0,3:0:0:0:
273,341,201711,6,0,P|235:334|202:328,1,64.9999976158143,0|0,3:0|0:0,0:0:0:0:
158,261,202028,1,2,3:2:0:0:
15,156,202346,6,0,P|62:141|81:109,1,64.9999976158143,8|0,0:0|0:0,0:0:0:0:
10,69,202663,1,0,3:0:0:0:
171,18,202981,6,0,P|217:29|313:50,1,129.999995231629,2|0,3:2|0:0,0:0:0:0:
351,111,203456,1,0,0:0:0:0:
351,111,203615,2,0,P|384:102|417:95,2,64.9999976158143,8|0|0,0:0|0:0|3:0,0:0:0:0:
281,172,204091,6,0,P|254:154|210:156,1,64.9999976158143,0|0,0:0|3:0,0:0:0:0:
239,239,204408,1,0,0:0:0:0:
239,239,204567,2,0,P|292:199|362:197,2,129.999995231629,0|8|0,0:0|0:0|3:0,0:0:0:0:
145,97,205519,6,0,P|98:86|16:66,2,129.999995231629,0|0|8,3:0|0:0|0:0,0:0:0:0:
71,232,206471,2,0,P|54:268|26:290,1,64.9999976158143,0|0,3:0|0:0,0:0:0:0:
94,353,206788,6,0,P|131:362|184:376,1,64.9999976158143,0|0,3:0|0:0,0:0:0:0:
225,318,207105,2,0,P|259:310|295:302,1,64.9999976158143,2|0,3:2|0:0,0:0:0:0:
361,347,207423,6,0,P|388:317|427:313,1,64.9999976158143,8|0,0:0|0:0,0:0:0:0:
461,243,207740,2,0,P|488:273|527:277,1,64.9999976158143,0|0,3:0|0:0,0:0:0:0:
442,229,208057,6,0,P|435:170|426:92,1,129.999995231629,2|0,3:2|0:0,0:0:0:0:
348,44,208533,1,0,0:0:0:0:
348,44,208692,6,0,P|339:86|331:121,1,64.9999976158143,8|0,0:0|0:0,0:0:0:0:
253,157,209009,2,0,P|245:125|239:93,1,64.9999976158143,0|0,3:0|0:0,0:0:0:0:
158,38,209326,6,0,P|151:69|144:101,1,64.9999976158143,0|0,3:0|0:0,0:0:0:0:
78,156,209644,2,0,P|91:213|98:246,1,64.9999976158143
168,270,209961,6,0,P|205:244|237:245,1,64.9999976158143,8|0,0:0|0:0,0:0:0:0:
232,326,210278,2,0,P|214:352|212:384,1,64.9999976158143,0|0,3:0|0:0,0:0:0:0:
296,373,210596,6,0,P|353:358|439:336,1,129.999995231629,0|0,3:0|0:0,0:0:0:0:
379,267,211071,1,0,0:0:0:0:
379,267,211230,2,0,P|343:260|311:255,1,64.9999976158143,8|0,0:0|0:0,0:0:0:0:
365,184,211547,6,0,P|373:125|386:37,2,129.999995231629,0|0|2,3:0|3:0|3:2,0:0:0:0:
297,132,212341,1,0,0:0:0:0:
297,132,212499,2,0,P|288:92|282:65,1,64.9999976158143,8|0,0:0|0:0,0:0:0:0:
215,15,212817,2,0,P|191:47|160:56,1,64.9999976158143,0|0,3:0|0:0,0:0:0:0:
111,118,213134,6,0,P|104:155|98:192,1,64.9999976158143,2|0,3:2|0:0,0:0:0:0:
48,249,213451,2,0,P|54:280|59:312,1,64.9999976158143
141,359,213768,6,0,P|146:326|152:295,1,64.9999976158143,8|0,0:0|0:0,0:0:0:0:
238,249,214086,2,0,P|244:280|249:312,1,64.9999976158143,0|0,3:0|0:0,0:0:0:0:
337,354,214403,6,0,P|375:361|419:371,1,64.9999976158143,0|0,3:0|0:0,0:0:0:0:
387,276,214720,2,0,P|439:261|520:242,2,129.999995231629,0|8|0,0:0|0:0|3:0,0:0:0:0:
334,208,215514,1,0,0:0:0:0:
334,208,215672,2,0,P|326:161|310:66,1,129.999995231629,0|0,3:0|0:0,0:0:0:0:
236,42,216147,1,0,0:0:0:0:
236,42,216305,6,0,P|198:49|154:59,1,64.9999976158143,8|0,0:0|0:0,0:0:0:0:
122,123,216622,2,0,P|153:128|185:135,1,64.9999976158143,0|0,3:0|0:0,0:0:0:0:
140,207,216939,6,0,P|108:212|76:219,1,64.9999976158143,0|0,3:0|0:0,0:0:0:0:
126,287,217256,2,0,P|157:292|189:299,1,64.9999976158143,2|0,3:2|0:0,0:0:0:0:
249,360,217573,6,0,P|270:325|271:282,1,64.9999976158143,8|0,0:0|0:0,0:0:0:0:
367,293,217890,2,0,P|360:262|341:236,1,64.9999976158143,0|0,3:0|0:0,0:0:0:0:
388,165,218207,6,0,P|425:156|476:143,1,64.9999976158143,2|0,3:2|0:0,0:0:0:0:
397,84,218524,2,0,P|360:75|309:62,1,64.9999976158143
267,121,218841,6,0,P|235:128|203:136,1,64.9999976158143,8|0,0:0|0:0,0:0:0:0:
209,51,219158,2,0,P|177:43|145:35,1,64.9999976158143,0|0,3:0|0:0,0:0:0:0:
99,106,219475,6,0,P|67:113|35:121,1,64.9999976158143,0|0,3:0|0:0,0:0:0:0:
86,189,219792,2,0,P|79:235|74:273,1,64.9999976158143
155,283,220109,6,0,P|168:323|195:344,1,64.9999976158143,8|0,0:0|0:0,0:0:0:0:
265,360,220426,2,0,P|272:328|294:304,1,64.9999976158143,0|0,3:0|0:0,0:0:0:0:
341,234,220743,6,0,P|403:223|482:206,2,129.999995231629,0|0|8,3:0|0:0|0:0,0:0:0:0:
277,184,221535,1,0,0:0:0:0:
277,184,221694,6,0,P|235:174|204:169,1,64.9999976158143,0|0,3:0|0:0,0:0:0:0:
267,105,222011,2,0,P|298:97|330:91,1,64.9999976158143,0|0,3:0|0:0,0:0:0:0:
273,28,222328,2,0,P|233:20|145:1,1,129.999995231629,2|8,3:2|0:0,0:0:0:0:
79,54,222803,1,0,0:0:0:0:
79,54,222962,6,0,P|72:91|46:122,1,64.9999976158143,0|0,0:0|0:0,0:0:0:0:
96,186,223278,6,0,P|102:219|110:260,1,64.9999976158143,2|0,3:2|0:0,0:0:0:0:
192,247,223595,2,0,P|186:280|178:321,1,64.9999976158143
264,304,223912,6,0,P|269:335|275:367,1,64.9999976158143,8|0,0:0|0:0,0:0:0:0:
348,323,224229,2,0,P|354:291|359:259,1,64.9999976158143,0|0,3:0|0:0,0:0:0:0:
442,239,224546,6,0,P|431:203|420:166,1,64.9999976158143,0|0,3:0|0:0,0:0:0:0:
401,94,224863,2,0,P|479:109|494:112,1,64.9999976158143
399,17,225180,6,0,P|375:19|337:46,1,64.9999976158143,8|0,0:0|0:0,0:0:0:0:
297,113,225497,2,0,P|271:93|257:64,1,64.9999976158143,0|0,3:0|0:0,0:0:0:0:
179,31,225814,6,0,P|130:25|44:14,2,129.999995231629,0|0|8,3:0|0:0|0:0,0:0:0:0:
132,102,226607,1,0,0:0:0:0:
132,102,226765,2,0,P|93:108|54:115,1,64.9999976158143,0|0,3:0|0:0,0:0:0:0:
117,181,227082,2,0,P|128:218|138:257,1,64.9999976158143,0|0,3:0|0:0,0:0:0:0:
219,238,227399,2,0,P|207:275|197:314,1,64.9999976158143,2|0,3:2|0:0,0:0:0:0:
284,285,227716,6,0,P|328:271|346:240,1,64.9999976158143,8|0,0:0|0:0,0:0:0:0:
407,306,228033,2,0,P|451:320|469:351,1,64.9999976158143,0|0,3:0|0:0,0:0:0:0:
493,254,228350,6,0,P|484:217|473:167,1,64.9999976158143,2|0,3:2|0:0,0:0:0:0:
394,179,228667,2,0,P|403:142|414:92,1,64.9999976158143
324,108,228984,6,0,P|315:71|304:21,1,64.9999976158143,8|0,0:0|0:0,0:0:0:0:
240,0,229301,2,0,P|233:30|226:62,1,64.9999976158143,0|0,3:0|0:0,0:0:0:0:
158,113,229618,6,0,P|126:106|94:99,1,64.9999976158143,0|0,3:0|0:0,0:0:0:0:
104,183,229935,2,0,P|72:190|40:196,1,64.9999976158143
89,266,230252,6,0,P|110:300|149:315,1,64.9999976158143,8|0,0:0|0:0,0:0:0:0:
201,264,230568,2,0,P|226:244|258:241,1,64.9999976158143,0|0,3:0|0:0,0:0:0:0:
330,285,230885,2,0,P|387:299|482:325,1,129.999995231629,0|0,3:0|0:0,0:0:0:0:
444,232,231361,1,0,0:0:0:0:
444,232,231519,6,0,P|435:191|428:153,1,64.9999976158143,8|0,0:0|0:0,0:0:0:0:
356,126,231836,2,0,P|365:85|387:-19,2,129.999995231629,0|0|2,3:0|3:0|3:2,0:0:0:0:
294,47,232629,1,0,0:0:0:0:
294,47,232787,6,0,P|257:54|225:61,1,64.9999976158143,8|0,0:0|0:0,0:0:0:0:
181,128,233104,2,0,P|156:107|115:102,1,64.9999976158143,0|0,3:0|0:0,0:0:0:0:
119,189,233421,6,0,P|132:252|146:316,1,129.999995231629,2|0,3:2|0:0,0:0:0:0:
225,347,233897,1,0,0:0:0:0:
225,347,234055,2,0,P|233:313|241:270,1,64.9999976158143,8|0,0:0|0:0,0:0:0:0:
320,261,234372,2,0,P|326:292|333:324,1,64.9999976158143,0|0,3:0|0:0,0:0:0:0:
410,360,234689,6,0,P|442:354|473:347,1,64.9999976158143,0|0,3:0|0:0,0:0:0:0:
426,277,235006,2,0,P|433:245|457:134,2,129.999995231629,0|8|0,0:0|0:0|3:0,0:0:0:0:
366,190,235798,1,0,0:0:0:0:
366,190,235957,6,0,P|333:184|226:165,1,129.999995231629,0|0,3:0|0:0,0:0:0:0:
185,97,236432,1,0,0:0:0:0:
185,97,236591,6,0,P|229:85|260:77,1,64.9999976158143,8|0,0:0|0:0,0:0:0:0:
194,14,236908,2,0,P|155:7|129:2,1,64.9999976158143,0|0,3:0|0:0,0:0:0:0:
61,51,237225,6,0,P|53:89|47:120,1,64.9999976158143,0|0,3:0|0:0,0:0:0:0:
117,162,237542,2,0,P|125:200|131:231,1,64.9999976158143,2|0,3:2|0:0,0:0:0:0:
70,286,237859,6,0,P|104:308|136:308,1,64.9999976158143,8|0,0:0|0:0,0:0:0:0:
197,358,238175,2,0,P|212:329|239:312,1,64.9999976158143,0|0,3:0|0:0,0:0:0:0:
