osu file format v14

[General]
AudioFilename: audio.mp3
AudioLeadIn: 0
PreviewTime: 34141
Countdown: 0
SampleSet: Normal
StackLeniency: 0.7
Mode: 1
LetterboxInBreaks: 0
WidescreenStoryboard: 1

[Editor]
Bookmarks: 149013
DistanceSpacing: 1
BeatDivisor: 4
GridSize: 32
TimelineZoom: 2.959999

[Metadata]
Title:Shaky Snake
TitleUnicode:Shaky Snake
Artist:Dr Bombay
ArtistUnicode:Dr Bombay
Creator:RuinedChicken
Version:Chickenspawn
Source:
Tags:coop co-op gimmick
BeatmapID:1572059
BeatmapSetID:745743

[Difficulty]
HPDrainRate:5
CircleSize:5
OverallDifficulty:7
ApproachRate:5
SliderMultiplier:1.4
SliderTickRate:1

[Events]
//Background and Video events
0,0,"snekk.jpg",0,0
//Break Periods
//Storyboard Layer 0 (Background)
//Storyboard Layer 1 (Fail)
//Storyboard Layer 2 (Pass)
//Storyboard Layer 3 (Foreground)
//Storyboard Layer 4 (Overlay)
//Storyboard Sound Samples

[TimingPoints]
1321,512.820512820513,4,1,0,100,1,0
15679,-100,4,1,0,100,0,0
15808,-102.040816326531,4,1,0,100,0,0
16064,-100,4,1,0,100,0,0
16192,-102.040816326531,4,1,0,100,0,0
16449,-100,4,1,0,100,0,0
16577,-102.040816326531,4,1,0,100,0,0
16833,-100,4,1,0,100,0,0
16962,-102.040816326531,4,1,0,100,0,0
17218,-35.7142857142857,4,1,0,100,0,0
17731,-76.9230769230769,4,1,0,100,0,0
21064,-66.6666666666667,4,1,0,100,0,0
21192,-62.5,4,1,0,100,0,0
21321,-55.5555555555556,4,1,0,100,0,0
21577,-100,4,1,0,100,0,0
29269,-66.6666666666667,4,1,0,100,0,0
29397,-62.5,4,1,0,100,0,0
29526,-55.5555555555556,4,1,0,100,0,0
29782,-100,4,1,0,100,0,0
34141,-83.3333333333333,4,1,0,100,0,0
34205,-84.7457627118644,4,1,0,100,0,0
34269,-83.3333333333333,4,1,0,100,0,0
34397,-84.7457627118644,4,1,0,100,0,0
34526,-83.3333333333333,4,1,0,100,0,0
34654,-84.7457627118644,4,1,0,100,0,0
34718,-83.3333333333333,4,1,0,100,0,0
34782,-84.7457627118644,4,1,0,100,0,0
34910,-83.3333333333333,4,1,0,100,0,0
35038,-84.7457627118644,4,1,0,100,0,0
35167,-83.3333333333333,4,1,0,100,0,0
36192,-50,4,1,0,100,0,1
36448,-100,4,1,0,100,0,0
36705,-50,4,1,0,100,0,1
36961,-100,4,1,0,100,0,0
37218,-50,4,1,0,100,0,1
37474,-100,4,1,0,100,0,0
38244,-83.3333333333333,4,1,0,100,0,0
38308,-84.7457627118644,4,1,0,100,0,0
38372,-83.3333333333333,4,1,0,100,0,0
38500,-84.7457627118644,4,1,0,100,0,0
38629,-83.3333333333333,4,1,0,100,0,0
38757,-84.7457627118644,4,1,0,100,0,0
38821,-83.3333333333333,4,1,0,100,0,0
38885,-84.7457627118644,4,1,0,100,0,0
39013,-83.3333333333333,4,1,0,100,0,0
39141,-84.7457627118644,4,1,0,100,0,0
39270,-83.3333333333333,4,1,0,100,0,0
40295,-50,4,1,0,100,0,1
40551,-100,4,1,0,100,0,0
40808,-50,4,1,0,100,0,1
41064,-100,4,1,0,100,0,0
41321,-50,4,1,0,100,0,1
41577,-100,4,1,0,100,0,0
42346,-83.3333333333333,4,1,0,100,0,0
42410,-84.7457627118644,4,1,0,100,0,0
42474,-83.3333333333333,4,1,0,100,0,0
42602,-84.7457627118644,4,1,0,100,0,0
42731,-83.3333333333333,4,1,0,100,0,0
42859,-84.7457627118644,4,1,0,100,0,0
42923,-83.3333333333333,4,1,0,100,0,0
42987,-84.7457627118644,4,1,0,100,0,0
43115,-83.3333333333333,4,1,0,100,0,0
43243,-84.7457627118644,4,1,0,100,0,0
43372,-83.3333333333333,4,1,0,100,0,0
44397,-50,4,1,0,100,0,1
44653,-100,4,1,0,100,0,0
44910,-50,4,1,0,100,0,1
45166,-100,4,1,0,100,0,0
45423,-50,4,1,0,100,0,1
45679,-100,4,1,0,100,0,0
46449,-83.3333333333333,4,1,0,100,0,0
46513,-84.7457627118644,4,1,0,100,0,0
46577,-83.3333333333333,4,1,0,100,0,0
46705,-84.7457627118644,4,1,0,100,0,0
46834,-83.3333333333333,4,1,0,100,0,0
46962,-84.7457627118644,4,1,0,100,0,0
47026,-83.3333333333333,4,1,0,100,0,0
47090,-84.7457627118644,4,1,0,100,0,0
47218,-83.3333333333333,4,1,0,100,0,0
47346,-84.7457627118644,4,1,0,100,0,0
47475,-83.3333333333333,4,1,0,100,0,0
48500,-50,4,1,0,100,0,1
48756,-100,4,1,0,100,0,0
49013,-50,4,1,0,100,0,1
49269,-100,4,1,0,100,0,0
49526,-50,4,1,0,100,0,1
49782,-100,4,1,0,100,0,0
51064,-100,4,1,0,30,0,0
51164,-100,4,1,0,60,0,0
57218,-100,4,1,0,80,0,0
57731,-100,4,1,0,100,0,0
62089,-66.6666666666667,4,1,0,100,0,0
62217,-62.5,4,1,0,100,0,0
62346,-55.5555555555556,4,1,0,100,0,0
62474,-52.6315789473684,4,1,0,100,0,0
62603,-50,4,1,0,100,0,0
62731,-47.6190476190476,4,1,0,100,0,0
62859,-45.4545454545455,4,1,0,100,0,0
63115,-100,4,1,0,100,0,0
70038,-66.6666666666667,4,1,0,100,0,0
70166,-62.5,4,1,0,100,0,0
70295,-55.5555555555556,4,1,0,100,0,0
70423,-52.6315789473684,4,1,0,100,0,0
70552,-50,4,1,0,100,0,0
70680,-47.6190476190476,4,1,0,100,0,0
71320,-100,4,1,0,100,0,0
75167,-83.3333333333333,4,1,0,100,0,0
75231,-84.7457627118644,4,1,0,100,0,0
75295,-83.3333333333333,4,1,0,100,0,0
75423,-84.7457627118644,4,1,0,100,0,0
75552,-83.3333333333333,4,1,0,100,0,0
75680,-84.7457627118644,4,1,0,100,0,0
75744,-83.3333333333333,4,1,0,100,0,0
75808,-84.7457627118644,4,1,0,100,0,0
75936,-83.3333333333333,4,1,0,100,0,0
76064,-84.7457627118644,4,1,0,100,0,0
76193,-83.3333333333333,4,1,0,100,0,0
77218,-50,4,1,0,100,0,1
77474,-100,4,1,0,100,0,0
77731,-50,4,1,0,100,0,1
77987,-100,4,1,0,100,0,0
78244,-50,4,1,0,100,0,1
78500,-100,4,1,0,100,0,0
79270,-83.3333333333333,4,1,0,100,0,0
79334,-84.7457627118644,4,1,0,100,0,0
79398,-83.3333333333333,4,1,0,100,0,0
79526,-84.7457627118644,4,1,0,100,0,0
79655,-83.3333333333333,4,1,0,100,0,0
79783,-84.7457627118644,4,1,0,100,0,0
79847,-83.3333333333333,4,1,0,100,0,0
79911,-84.7457627118644,4,1,0,100,0,0
80039,-83.3333333333333,4,1,0,100,0,0
80167,-84.7457627118644,4,1,0,100,0,0
80296,-83.3333333333333,4,1,0,100,0,0
81321,-50,4,1,0,100,0,1
81578,-100,4,1,0,100,0,0
81834,-50,4,1,0,100,0,1
82091,-100,4,1,0,100,0,0
82346,-50,4,1,0,100,0,1
82603,-100,4,1,0,100,0,0
83372,-83.3333333333333,4,1,0,100,0,0
83436,-84.7457627118644,4,1,0,100,0,0
83500,-83.3333333333333,4,1,0,100,0,0
83628,-84.7457627118644,4,1,0,100,0,0
83757,-83.3333333333333,4,1,0,100,0,0
83885,-84.7457627118644,4,1,0,100,0,0
83949,-83.3333333333333,4,1,0,100,0,0
84013,-84.7457627118644,4,1,0,100,0,0
84141,-83.3333333333333,4,1,0,100,0,0
84269,-84.7457627118644,4,1,0,100,0,0
84398,-83.3333333333333,4,1,0,100,0,0
85423,-50,4,1,0,100,0,1
85679,-100,4,1,0,100,0,0
85936,-50,4,1,0,100,0,1
86192,-100,4,1,0,100,0,0
86449,-50,4,1,0,100,0,1
86705,-100,4,1,0,100,0,0
87475,-83.3333333333333,4,1,0,100,0,0
87539,-84.7457627118644,4,1,0,100,0,0
87603,-83.3333333333333,4,1,0,100,0,0
87731,-84.7457627118644,4,1,0,100,0,0
87860,-83.3333333333333,4,1,0,100,0,0
87988,-84.7457627118644,4,1,0,100,0,0
88052,-83.3333333333333,4,1,0,100,0,0
88116,-84.7457627118644,4,1,0,100,0,0
88244,-83.3333333333333,4,1,0,100,0,0
88372,-84.7457627118644,4,1,0,100,0,0
88501,-83.3333333333333,4,1,0,100,0,0
89526,-50,4,1,0,100,0,1
89782,-100,4,1,0,100,0,0
90039,-50,4,1,0,100,0,1
90295,-100,4,1,0,100,0,0
90552,-50,4,1,0,100,0,1
90808,-100,4,1,0,100,0,0
91577,-100,4,1,0,100,0,0
91662,-101.010101010101,4,1,0,100,0,0
91748,-100,4,1,0,100,0,0
91833,-99.009900990099,4,1,0,100,0,0
91919,-100,4,1,0,100,0,0
92004,-101.010101010101,4,1,0,100,0,0
92090,-100,4,1,0,100,0,0
92175,-99.009900990099,4,1,0,100,0,0
92261,-100,4,1,0,100,0,0
92346,-101.010101010101,4,1,0,100,0,0
92432,-100,4,1,0,100,0,0
92517,-99.009900990099,4,1,0,100,0,0
92603,-100,4,1,0,100,0,0
92688,-101.010101010101,4,1,0,100,0,0
92774,-100,4,1,0,100,0,0
92859,-99.009900990099,4,1,0,100,0,0
92945,-100,4,1,0,100,0,0
93030,-101.010101010101,4,1,0,100,0,0
93116,-100,4,1,0,100,0,0
93201,-99.009900990099,4,1,0,100,0,0
93287,-100,4,1,0,100,0,0
93372,-101.010101010101,4,1,0,100,0,0
95679,-100,4,1,0,100,0,0
95764,-101.010101010101,4,1,0,100,0,0
95850,-100,4,1,0,100,0,0
95935,-99.009900990099,4,1,0,100,0,0
96021,-100,4,1,0,100,0,0
96106,-101.010101010101,4,1,0,100,0,0
96192,-100,4,1,0,100,0,0
96277,-99.009900990099,4,1,0,100,0,0
96363,-100,4,1,0,100,0,0
96448,-101.010101010101,4,1,0,100,0,0
96534,-100,4,1,0,100,0,0
96619,-99.009900990099,4,1,0,100,0,0
96705,-100,4,1,0,100,0,0
96790,-101.010101010101,4,1,0,100,0,0
96876,-100,4,1,0,100,0,0
96961,-99.009900990099,4,1,0,100,0,0
97047,-100,4,1,0,100,0,0
97132,-101.010101010101,4,1,0,100,0,0
97218,-100,4,1,0,100,0,0
97303,-99.009900990099,4,1,0,100,0,0
97389,-100,4,1,0,100,0,0
99782,-100,4,1,0,100,0,0
99867,-101.010101010101,4,1,0,100,0,0
99953,-100,4,1,0,100,0,0
100038,-99.009900990099,4,1,0,100,0,0
100124,-100,4,1,0,100,0,0
100209,-101.010101010101,4,1,0,100,0,0
100295,-100,4,1,0,100,0,0
100380,-99.009900990099,4,1,0,100,0,0
100466,-100,4,1,0,100,0,0
100551,-101.010101010101,4,1,0,100,0,0
100637,-100,4,1,0,100,0,0
100722,-99.009900990099,4,1,0,100,0,0
100808,-100,4,1,0,100,0,0
100893,-101.010101010101,4,1,0,100,0,0
100979,-100,4,1,0,100,0,0
101064,-99.009900990099,4,1,0,100,0,0
101150,-100,4,1,0,100,0,0
101235,-101.010101010101,4,1,0,100,0,0
101321,-100,4,1,0,100,0,0
101406,-99.009900990099,4,1,0,100,0,0
101492,-100,4,1,0,100,0,0
103885,-100,4,1,0,100,0,0
103970,-101.010101010101,4,1,0,100,0,0
104056,-100,4,1,0,100,0,0
104141,-99.009900990099,4,1,0,100,0,0
104227,-100,4,1,0,100,0,0
104312,-101.010101010101,4,1,0,100,0,0
104398,-100,4,1,0,100,0,0
104483,-99.009900990099,4,1,0,100,0,0
104569,-100,4,1,0,100,0,0
104654,-101.010101010101,4,1,0,100,0,0
104740,-100,4,1,0,100,0,0
104825,-99.009900990099,4,1,0,100,0,0
104911,-100,4,1,0,100,0,0
104996,-101.010101010101,4,1,0,100,0,0
105082,-100,4,1,0,100,0,0
105167,-99.009900990099,4,1,0,100,0,0
105253,-100,4,1,0,100,0,0
105338,-101.010101010101,4,1,0,100,0,0
105424,-100,4,1,0,100,0,0
105509,-99.009900990099,4,1,0,100,0,0
105595,-100,4,1,0,100,0,0
124397,-83.3333333333333,4,1,0,100,0,0
124461,-84.7457627118644,4,1,0,100,0,0
124525,-83.3333333333333,4,1,0,100,0,0
124653,-84.7457627118644,4,1,0,100,0,0
124782,-83.3333333333333,4,1,0,100,0,0
124910,-84.7457627118644,4,1,0,100,0,0
124974,-83.3333333333333,4,1,0,100,0,0
125038,-84.7457627118644,4,1,0,100,0,0
125166,-83.3333333333333,4,1,0,100,0,0
125294,-84.7457627118644,4,1,0,100,0,0
125423,-83.3333333333333,4,1,0,100,0,0
126448,-50,4,1,0,100,0,1
126704,-100,4,1,0,100,0,0
126961,-50,4,1,0,100,0,1
127217,-100,4,1,0,100,0,0
127474,-50,4,1,0,100,0,1
127730,-100,4,1,0,100,0,0
128500,-83.3333333333333,4,1,0,100,0,0
128564,-84.7457627118644,4,1,0,100,0,0
128628,-83.3333333333333,4,1,0,100,0,0
128756,-84.7457627118644,4,1,0,100,0,0
128885,-83.3333333333333,4,1,0,100,0,0
129013,-84.7457627118644,4,1,0,100,0,0
129077,-83.3333333333333,4,1,0,100,0,0
129141,-84.7457627118644,4,1,0,100,0,0
129269,-83.3333333333333,4,1,0,100,0,0
129397,-84.7457627118644,4,1,0,100,0,0
129526,-83.3333333333333,4,1,0,100,0,0
130551,-50,4,1,0,100,0,1
130807,-100,4,1,0,100,0,0
131064,-50,4,1,0,100,0,1
131320,-100,4,1,0,100,0,0
131577,-50,4,1,0,100,0,1
131833,-100,4,1,0,100,0,0
132602,-83.3333333333333,4,1,0,100,0,0
132666,-84.7457627118644,4,1,0,100,0,0
132730,-83.3333333333333,4,1,0,100,0,0
132858,-84.7457627118644,4,1,0,100,0,0
132987,-83.3333333333333,4,1,0,100,0,0
133115,-84.7457627118644,4,1,0,100,0,0
133179,-83.3333333333333,4,1,0,100,0,0
133243,-84.7457627118644,4,1,0,100,0,0
133371,-83.3333333333333,4,1,0,100,0,0
133499,-84.7457627118644,4,1,0,100,0,0
133628,-83.3333333333333,4,1,0,100,0,0
134653,-50,4,1,0,100,0,1
134909,-100,4,1,0,100,0,0
135166,-50,4,1,0,100,0,1
135422,-100,4,1,0,100,0,0
135679,-50,4,1,0,100,0,1
135935,-100,4,1,0,100,0,0
136705,-83.3333333333333,4,1,0,100,0,0
136769,-84.7457627118644,4,1,0,100,0,0
136833,-83.3333333333333,4,1,0,100,0,0
136961,-84.7457627118644,4,1,0,100,0,0
137090,-83.3333333333333,4,1,0,100,0,0
137218,-84.7457627118644,4,1,0,100,0,0
137282,-83.3333333333333,4,1,0,100,0,0
137346,-84.7457627118644,4,1,0,100,0,0
137474,-83.3333333333333,4,1,0,100,0,0
137602,-84.7457627118644,4,1,0,100,0,0
137731,-83.3333333333333,4,1,0,100,0,0
138756,-50,4,1,0,100,0,1
139012,-100,4,1,0,100,0,0
139269,-50,4,1,0,100,0,1
139525,-100,4,1,0,100,0,0
139782,-50,4,1,0,100,0,1
140038,-100,4,1,0,100,0,1
140295,-100,4,1,0,100,0,1
140808,-101.010101010101,4,1,0,100,0,0
141064,-100,4,1,0,100,0,0
141192,-99.009900990099,4,1,0,100,0,0
141321,-100,4,1,0,100,0,0
141577,-101.010101010101,4,1,0,100,0,0
141705,-100,4,1,0,100,0,0
141833,-99.009900990099,4,1,0,100,0,0
142090,-100,4,1,0,100,0,0
142218,-101.010101010101,4,1,0,100,0,0
142346,-100,4,1,0,100,0,0
142474,-99.009900990099,4,1,0,100,0,0
142603,-100,4,1,0,100,0,0
142731,-101.010101010101,4,1,0,100,0,0
142859,-50,4,1,0,100,0,1
143115,-100,4,1,0,100,0,0
143372,-50,4,1,0,100,0,1
143628,-100,4,1,0,100,0,0
143885,-50,4,1,0,100,0,1
144141,-100,4,1,0,100,0,0
144910,-101.010101010101,4,1,0,100,0,0
145166,-100,4,1,0,100,0,0
145294,-99.009900990099,4,1,0,100,0,0
145423,-100,4,1,0,100,0,0
145679,-101.010101010101,4,1,0,100,0,0
145807,-100,4,1,0,100,0,0
145935,-99.009900990099,4,1,0,100,0,0
146192,-100,4,1,0,100,0,0
146320,-101.010101010101,4,1,0,100,0,0
146448,-100,4,1,0,100,0,0
146576,-99.009900990099,4,1,0,100,0,0
146705,-100,4,1,0,100,0,0
146833,-101.010101010101,4,1,0,100,0,0
146962,-100,4,1,0,100,0,1
147218,-100,4,1,0,100,0,0
147475,-100,4,1,0,100,0,1
147731,-100,4,1,0,100,0,0
147988,-100,4,1,0,100,0,1
148244,-100,4,1,0,100,0,0
149013,-101.010101010101,4,1,0,100,0,0
149269,-100,4,1,0,100,0,0
149397,-99.009900990099,4,1,0,100,0,0
149526,-100,4,1,0,100,0,0
149782,-101.010101010101,4,1,0,100,0,0
149910,-100,4,1,0,100,0,0
150038,-99.009900990099,4,1,0,100,0,0
150295,-100,4,1,0,100,0,0
150423,-101.010101010101,4,1,0,100,0,0
150551,-100,4,1,0,100,0,0
150679,-99.009900990099,4,1,0,100,0,0
150808,-100,4,1,0,100,0,0
150936,-101.010101010101,4,1,0,100,0,0
151064,-50,4,1,0,100,0,1
151320,-100,4,1,0,100,0,0
151577,-50,4,1,0,100,0,1
151833,-100,4,1,0,100,0,0
152090,-50,4,1,0,100,0,1
152346,-100,4,1,0,100,0,0
153115,-101.010101010101,4,1,0,100,0,0
153371,-100,4,1,0,100,0,0
153499,-99.009900990099,4,1,0,100,0,0
153628,-100,4,1,0,100,0,0
153884,-101.010101010101,4,1,0,100,0,0
154012,-100,4,1,0,100,0,0
154140,-99.009900990099,4,1,0,100,0,0
154397,-100,4,1,0,100,0,0
154525,-101.010101010101,4,1,0,100,0,0
154653,-100,4,1,0,100,0,0
154781,-99.009900990099,4,1,0,100,0,0
154910,-100,4,1,0,100,0,0
155038,-101.010101010101,4,1,0,100,0,0
155167,-100,4,1,0,100,0,1
155423,-100,4,1,0,100,0,0
155680,-100,4,1,0,100,0,1
155936,-100,4,1,0,100,0,0
156193,-100,4,1,0,100,0,1
156449,-100,4,1,0,100,0,0
157218,-100,4,1,0,100,0,0
157303,-101.010101010101,4,1,0,100,0,0
157389,-100,4,1,0,100,0,0
157474,-99.009900990099,4,1,0,100,0,0
157560,-100,4,1,0,100,0,0
157645,-101.010101010101,4,1,0,100,0,0
157731,-100,4,1,0,100,0,0
157816,-99.009900990099,4,1,0,100,0,0
157902,-100,4,1,0,100,0,0
157987,-101.010101010101,4,1,0,100,0,0
158073,-100,4,1,0,100,0,0
158158,-99.009900990099,4,1,0,100,0,0
158244,-100,4,1,0,100,0,0
158329,-101.010101010101,4,1,0,100,0,0
158415,-100,4,1,0,100,0,0
158500,-99.009900990099,4,1,0,100,0,0
158586,-100,4,1,0,100,0,0
158671,-101.010101010101,4,1,0,100,0,0
158757,-100,4,1,0,100,0,0
158842,-99.009900990099,4,1,0,100,0,0
158928,-100,4,1,0,100,0,0
161320,-100,4,1,0,100,0,0
161405,-101.010101010101,4,1,0,100,0,0
161491,-100,4,1,0,100,0,0
161576,-99.009900990099,4,1,0,100,0,0
161662,-100,4,1,0,100,0,0
161747,-101.010101010101,4,1,0,100,0,0
161833,-100,4,1,0,100,0,0
161918,-99.009900990099,4,1,0,100,0,0
162004,-100,4,1,0,100,0,0
162089,-101.010101010101,4,1,0,100,0,0
162175,-100,4,1,0,100,0,0
162260,-99.009900990099,4,1,0,100,0,0
162346,-100,4,1,0,100,0,0
162431,-101.010101010101,4,1,0,100,0,0
162517,-100,4,1,0,100,0,0
162602,-99.009900990099,4,1,0,100,0,0
162688,-100,4,1,0,100,0,0
162773,-101.010101010101,4,1,0,100,0,0
162859,-100,4,1,0,100,0,0
162944,-99.009900990099,4,1,0,100,0,0
163030,-100,4,1,0,100,0,0
165423,-100,4,1,0,100,0,0
165508,-101.010101010101,4,1,0,100,0,0
165594,-100,4,1,0,100,0,0
165679,-99.009900990099,4,1,0,100,0,0
165765,-100,4,1,0,100,0,0
165850,-101.010101010101,4,1,0,100,0,0
165936,-100,4,1,0,100,0,0
166021,-99.009900990099,4,1,0,100,0,0
166107,-100,4,1,0,100,0,0
166192,-101.010101010101,4,1,0,100,0,0
166278,-100,4,1,0,100,0,0
166363,-99.009900990099,4,1,0,100,0,0
166449,-100,4,1,0,100,0,0
166534,-101.010101010101,4,1,0,100,0,0
166620,-100,4,1,0,100,0,0
166705,-99.009900990099,4,1,0,100,0,0
166791,-100,4,1,0,100,0,0
166876,-101.010101010101,4,1,0,100,0,0
166962,-100,4,1,0,100,0,0
167047,-99.009900990099,4,1,0,100,0,0
167133,-100,4,1,0,100,0,0
169526,-100,4,1,0,100,0,0
169611,-101.010101010101,4,1,0,100,0,0
169697,-100,4,1,0,100,0,0
169782,-99.009900990099,4,1,0,100,0,0
169868,-100,4,1,0,100,0,0
169953,-101.010101010101,4,1,0,100,0,0
170039,-100,4,1,0,100,0,0
170124,-99.009900990099,4,1,0,100,0,0
170210,-100,4,1,0,100,0,0
170295,-101.010101010101,4,1,0,100,0,0
170381,-100,4,1,0,100,0,0
170466,-99.009900990099,4,1,0,100,0,0
170552,-100,4,1,0,100,0,0
170637,-101.010101010101,4,1,0,100,0,0
170723,-100,4,1,0,100,0,0
170808,-99.009900990099,4,1,0,100,0,0
170894,-100,4,1,0,100,0,0
170979,-101.010101010101,4,1,0,100,0,0
171065,-100,4,1,0,100,0,0
171150,-99.009900990099,4,1,0,100,0,0
171236,-100,4,1,0,100,0,0
173628,-90.9090909090909,4,1,0,100,0,0
173756,-92.5925925925926,4,1,0,100,0,0
174013,-90.9090909090909,4,1,0,100,0,0
174141,-92.5925925925926,4,1,0,100,0,0
174397,-90.9090909090909,4,1,0,100,0,0
174526,-92.5925925925926,4,1,0,100,0,0
174654,-90.9090909090909,4,1,0,100,0,0
174782,-92.5925925925926,4,1,0,100,0,0
175038,-90.9090909090909,4,1,0,100,0,0
175167,-92.5925925925926,4,1,0,100,0,0
175423,-91.743119266055,4,1,0,100,0,0
175509,-93.4579439252336,4,1,0,100,0,0
175594,-94.3396226415094,4,1,0,100,0,0
175679,-95.2380952380952,4,1,0,100,0,0
175808,-96.1538461538461,4,1,0,100,0,0
175936,-97.0873786407767,4,1,0,100,0,0
176064,-98.0392156862745,4,1,0,100,0,0
176192,-99.009900990099,4,1,0,100,0,0
176321,-100,4,1,0,100,0,0
176449,-101.010101010101,4,1,0,100,0,0
176577,-102.040816326531,4,1,0,100,0,0
176705,-103.092783505155,4,1,0,100,0,0
176833,-105.263157894737,4,1,0,100,0,0
177090,-107.52688172043,4,1,0,100,0,0
177218,-66.6666666666667,4,1,0,100,0,1
177346,-66.6666666666667,4,1,0,100,0,0

[HitObjects]
256,192,15679,5,8,0:0:0:0:
256,192,15808,1,8,0:0:0:0:
256,192,16064,5,8,0:0:0:0:
256,192,16192,1,8,0:0:0:0:
256,192,16449,5,8,0:0:0:0:
256,192,16577,1,8,0:0:0:0:
256,192,16833,5,8,0:0:0:0:
256,192,16962,1,8,0:0:0:0:
256,192,17218,5,0,0:0:0:0:
256,192,17731,1,0,0:0:0:0:
256,192,17987,1,8,0:0:0:0:
256,192,18115,1,0,0:0:0:0:
256,192,18244,1,8,0:0:0:0:
256,192,18500,1,0,0:0:0:0:
256,192,18756,5,0,0:0:0:0:
256,192,19013,1,8,0:0:0:0:
256,192,19141,1,0,0:0:0:0:
256,192,19269,1,0,0:0:0:0:
256,192,19526,1,8,0:0:0:0:
256,192,19782,5,0,0:0:0:0:
256,192,20038,1,8,0:0:0:0:
256,192,20167,1,8,0:0:0:0:
256,192,20295,1,0,0:0:0:0:
256,192,20551,1,8,0:0:0:0:
256,192,20808,1,0,0:0:0:0:
256,192,21064,5,8,0:0:0:0:
256,192,21192,5,0,0:0:0:0:
256,192,21321,5,8,0:0:0:0:
256,192,21577,5,0,0:0:0:0:
256,192,21833,1,0,0:0:0:0:
256,192,22090,1,8,0:0:0:0:
256,192,22218,1,0,0:0:0:0:
256,192,22346,1,0,0:0:0:0:
256,192,22603,1,0,0:0:0:0:
256,192,22859,5,8,0:0:0:0:
256,192,22987,1,0,0:0:0:0:
256,192,23115,1,8,0:0:0:0:
256,192,23372,1,0,0:0:0:0:
256,192,23628,1,0,0:0:0:0:
256,192,23885,5,0,0:0:0:0:
256,192,24013,1,8,0:0:0:0:
256,192,24141,1,8,0:0:0:0:
256,192,24269,1,0,0:0:0:0:
256,192,24397,1,0,0:0:0:0:
256,192,24526,1,8,0:0:0:0:
256,192,24654,1,0,0:0:0:0:
256,192,24782,1,8,0:0:0:0:
256,192,24910,5,0,0:0:0:0:
256,192,24974,1,0,0:0:0:0:
256,192,25038,1,0,0:0:0:0:
256,192,25167,1,0,0:0:0:0:
256,192,25295,1,0,0:0:0:0:
256,192,25423,1,0,0:0:0:0:
256,192,25551,1,8,0:0:0:0:
256,192,25679,1,8,0:0:0:0:
256,192,25808,1,0,0:0:0:0:
256,192,25936,5,0,0:0:0:0:
256,192,26192,1,8,0:0:0:0:
256,192,26320,1,0,0:0:0:0:
256,192,26449,1,8,0:0:0:0:
256,192,26577,1,0,0:0:0:0:
256,192,26705,1,0,0:0:0:0:
256,192,26961,5,0,0:0:0:0:
256,192,27090,1,8,0:0:0:0:
256,192,27218,1,8,0:0:0:0:
256,192,27346,1,0,0:0:0:0:
256,192,27474,1,0,0:0:0:0:
256,192,27731,1,8,0:0:0:0:
256,192,27859,1,0,0:0:0:0:
256,192,27987,5,0,0:0:0:0:
256,192,28243,1,8,0:0:0:0:
256,192,28372,1,8,0:0:0:0:
256,192,28500,1,0,0:0:0:0:
256,192,28756,1,8,0:0:0:0:
256,192,29013,1,0,0:0:0:0:
256,192,29141,1,8,0:0:0:0:
256,192,29269,1,8,0:0:0:0:
256,192,29397,1,0,0:0:0:0:
256,192,29526,5,8,0:0:0:0:
256,192,29782,1,0,0:0:0:0:
256,192,30038,1,0,0:0:0:0:
256,192,30295,1,8,0:0:0:0:
256,192,30423,1,0,0:0:0:0:
256,192,30551,1,0,0:0:0:0:
256,192,30679,1,0,0:0:0:0:
256,192,30808,1,0,0:0:0:0:
256,192,31064,1,8,0:0:0:0:
256,192,31192,1,0,0:0:0:0:
256,192,31320,1,8,0:0:0:0:
256,192,31577,1,0,0:0:0:0:
256,192,31833,1,0,0:0:0:0:
256,192,32090,5,0,0:0:0:0:
256,192,32218,1,8,0:0:0:0:
256,192,32346,1,8,0:0:0:0:
256,192,32474,1,0,0:0:0:0:
256,192,32603,1,0,0:0:0:0:
256,192,32731,1,8,0:0:0:0:
256,192,32859,1,8,0:0:0:0:
256,192,32987,1,8,0:0:0:0:
256,192,33115,1,0,0:0:0:0:
256,192,33244,1,8,0:0:0:0:
256,192,33372,1,0,0:0:0:0:
256,192,33500,1,0,0:0:0:0:
256,192,33628,1,8,0:0:0:0:
256,192,34141,5,8,0:0:0:0:
256,192,34205,1,8,0:0:0:0:
256,192,34269,1,8,0:0:0:0:
256,192,34397,5,0,0:0:0:0:
256,192,34526,1,0,0:0:0:0:
256,192,34654,5,8,0:0:0:0:
256,192,34718,1,8,0:0:0:0:
256,192,34782,1,8,0:0:0:0:
256,192,34910,5,0,0:0:0:0:
256,192,35038,1,0,0:0:0:0:
256,192,35167,1,8,0:0:0:0:
256,192,36192,5,12,0:0:0:0:
256,192,36321,1,12,0:0:0:0:
256,192,36449,1,0,0:0:0:0:
256,192,36705,5,12,0:0:0:0:
256,192,36962,1,0,0:0:0:0:
256,192,37218,5,12,0:0:0:0:
256,192,37346,1,12,0:0:0:0:
256,192,37474,1,0,0:0:0:0:
256,192,37731,5,12,0:0:0:0:
256,192,37987,1,0,0:0:0:0:
256,192,38244,5,8,1:1:0:0:
256,192,38308,1,8,1:1:0:0:
256,192,38372,1,8,1:1:0:0:
256,192,38500,5,0,1:1:0:0:
256,192,38629,1,0,1:1:0:0:
256,192,38757,5,8,1:1:0:0:
256,192,38821,1,8,1:1:0:0:
256,192,38885,1,8,1:1:0:0:
256,192,39013,5,0,1:1:0:0:
256,192,39141,1,0,1:1:0:0:
256,192,39270,1,8,1:1:0:0:
256,192,40295,5,12,0:0:0:0:
256,192,40424,1,12,0:0:0:0:
256,192,40552,1,0,0:0:0:0:
256,192,40808,5,12,0:0:0:0:
256,192,41065,1,0,0:0:0:0:
256,192,41321,5,12,0:0:0:0:
256,192,41449,1,12,0:0:0:0:
256,192,41577,1,0,0:0:0:0:
256,192,41833,5,12,0:0:0:0:
256,192,42090,1,0,0:0:0:0:
256,192,42346,5,8,0:0:0:0:
256,192,42410,1,8,0:0:0:0:
256,192,42474,1,8,0:0:0:0:
256,192,42602,5,0,0:0:0:0:
256,192,42731,1,0,0:0:0:0:
256,192,42859,5,8,0:0:0:0:
256,192,42923,1,8,0:0:0:0:
256,192,42987,1,8,0:0:0:0:
256,192,43115,5,0,0:0:0:0:
256,192,43243,1,0,0:0:0:0:
256,192,43372,1,8,0:0:0:0:
256,192,44397,5,12,0:0:0:0:
256,192,44526,1,12,0:0:0:0:
256,192,44654,1,0,0:0:0:0:
256,192,44910,5,12,0:0:0:0:
256,192,45167,1,0,0:0:0:0:
256,192,45423,5,12,0:0:0:0:
256,192,45551,1,12,0:0:0:0:
256,192,45679,1,0,0:0:0:0:
256,192,45936,5,12,0:0:0:0:
256,192,46192,1,0,0:0:0:0:
256,192,46449,5,8,1:1:0:0:
256,192,46513,1,8,1:1:0:0:
256,192,46577,1,8,1:1:0:0:
256,192,46705,5,0,1:1:0:0:
256,192,46834,1,0,1:1:0:0:
256,192,46962,5,8,1:1:0:0:
256,192,47026,1,8,1:1:0:0:
256,192,47090,1,8,1:1:0:0:
256,192,47218,5,0,1:1:0:0:
256,192,47346,1,0,1:1:0:0:
256,192,47475,5,8,1:1:0:0:
256,192,48500,5,12,0:0:0:0:
256,192,48629,1,12,0:0:0:0:
256,192,48757,1,0,0:0:0:0:
256,192,49013,5,12,0:0:0:0:
256,192,49270,1,0,0:0:0:0:
256,192,49526,5,12,0:0:0:0:
256,192,49654,1,12,0:0:0:0:
256,192,49782,1,0,0:0:0:0:
256,192,50038,5,12,0:0:0:0:
256,192,50295,1,0,0:0:0:0:
256,192,51321,5,8,0:0:0:0:
256,192,51577,1,8,0:0:0:0:
256,192,51705,1,8,0:0:0:0:
256,192,51962,1,8,0:0:0:0:
256,192,52090,1,8,0:0:0:0:
256,192,52346,1,8,0:0:0:0:
256,192,53372,5,8,0:0:0:0:
256,192,53500,1,8,0:0:0:0:
256,192,53628,1,0,0:0:0:0:
256,192,53756,1,8,0:0:0:0:
256,192,54013,1,8,0:0:0:0:
256,192,54141,1,8,0:0:0:0:
256,192,54397,1,8,0:0:0:0:
256,192,55679,5,8,0:0:0:0:
256,192,55808,1,8,0:0:0:0:
256,192,56064,1,8,0:0:0:0:
256,192,56192,1,8,0:0:0:0:
256,192,56449,1,8,0:0:0:0:
256,192,56705,5,0,0:0:0:0:
256,192,56833,1,0,0:0:0:0:
256,192,56962,1,0,0:0:0:0:
256,192,57090,1,0,0:0:0:0:
256,192,57218,5,8,0:0:0:0:
256,192,57346,1,8,0:0:0:0:
256,192,57474,1,8,0:0:0:0:
256,192,57603,1,8,0:0:0:0:
256,192,57731,5,0,0:0:0:0:
256,192,57795,1,0,0:0:0:0:
256,192,57859,1,0,0:0:0:0:
256,192,57987,1,0,0:0:0:0:
256,192,58115,1,0,0:0:0:0:
256,192,58244,5,8,0:0:0:0:
256,192,58372,1,0,0:0:0:0:
256,192,58500,1,8,0:0:0:0:
256,192,58628,1,8,0:0:0:0:
256,192,58756,1,0,0:0:0:0:
256,192,59012,5,8,0:0:0:0:
256,192,59140,1,0,0:0:0:0:
256,192,59269,1,8,0:0:0:0:
256,192,59397,1,0,0:0:0:0:
256,192,59525,1,0,0:0:0:0:
256,192,59781,5,0,0:0:0:0:
256,192,59910,1,8,0:0:0:0:
256,192,60038,1,8,0:0:0:0:
256,192,60166,1,0,0:0:0:0:
256,192,60294,1,0,0:0:0:0:
256,192,60551,1,8,0:0:0:0:
256,192,60679,1,0,0:0:0:0:
256,192,60807,1,0,0:0:0:0:
256,192,61063,1,8,0:0:0:0:
256,192,61192,1,8,0:0:0:0:
256,192,61320,1,0,0:0:0:0:
256,192,61576,1,8,0:0:0:0:
256,192,61833,5,0,0:0:0:0:
256,192,61962,1,8,0:0:0:0:
256,192,62089,1,8,0:0:0:0:
256,192,62218,5,0,0:0:0:0:
256,192,62346,1,8,0:0:0:0:
256,192,62474,5,0,0:0:0:0:
256,192,62603,1,8,0:0:0:0:
256,192,62731,5,0,0:0:0:0:
256,192,62859,1,0,0:0:0:0:
256,192,63115,5,8,0:0:0:0:
256,192,63243,1,0,0:0:0:0:
256,192,63371,1,0,0:0:0:0:
256,192,63628,1,0,0:0:0:0:
256,192,63884,1,8,0:0:0:0:
256,192,64012,1,0,0:0:0:0:
256,192,64140,1,8,0:0:0:0:
256,192,64397,1,0,0:0:0:0:
256,192,64653,1,0,0:0:0:0:
256,192,64910,5,0,0:0:0:0:
256,192,65038,1,8,0:0:0:0:
256,192,65166,1,8,0:0:0:0:
256,192,65294,1,0,0:0:0:0:
256,192,65422,1,0,0:0:0:0:
256,192,65551,1,8,0:0:0:0:
256,192,65679,1,0,0:0:0:0:
256,192,65807,1,8,0:0:0:0:
256,192,65935,5,0,0:0:0:0:
256,192,65999,1,0,0:0:0:0:
256,192,66063,1,0,0:0:0:0:
256,192,66192,1,0,0:0:0:0:
256,192,66320,1,0,0:0:0:0:
256,192,66448,1,0,0:0:0:0:
256,192,66576,1,8,0:0:0:0:
256,192,66704,1,8,0:0:0:0:
256,192,66833,1,0,0:0:0:0:
256,192,66961,1,0,0:0:0:0:
256,192,67218,5,8,0:0:0:0:
256,192,67345,1,0,0:0:0:0:
256,192,67474,1,8,0:0:0:0:
256,192,67602,1,0,0:0:0:0:
256,192,67730,1,0,0:0:0:0:
256,192,67986,1,0,0:0:0:0:
256,192,68115,1,8,0:0:0:0:
256,192,68243,1,8,0:0:0:0:
256,192,68371,1,0,0:0:0:0:
256,192,68499,1,0,0:0:0:0:
256,192,68756,5,8,0:0:0:0:
256,192,68884,1,0,0:0:0:0:
256,192,69012,1,0,0:0:0:0:
256,192,69268,1,8,0:0:0:0:
256,192,69397,1,8,0:0:0:0:
256,192,69525,1,0,0:0:0:0:
256,192,69781,1,8,0:0:0:0:
256,192,70038,5,0,0:0:0:0:
256,192,70167,5,8,0:0:0:0:
256,192,70294,1,8,0:0:0:0:
256,192,70422,5,0,0:0:0:0:
256,192,70551,5,8,0:0:0:0:
256,192,70679,5,0,0:0:0:0:
256,192,70808,5,8,0:0:0:0:
256,192,70936,5,0,0:0:0:0:
256,192,71064,1,0,0:0:0:0:
256,192,71320,5,8,0:0:0:0:
256,192,71448,1,0,0:0:0:0:
256,192,71576,1,0,0:0:0:0:
256,192,71704,1,0,0:0:0:0:
256,192,71833,1,0,0:0:0:0:
256,192,72089,1,8,0:0:0:0:
256,192,72217,1,0,0:0:0:0:
256,192,72345,1,8,0:0:0:0:
256,192,72602,1,0,0:0:0:0:
256,192,72858,1,0,0:0:0:0:
256,192,73115,5,0,0:0:0:0:
256,192,73243,1,8,0:0:0:0:
256,192,73371,1,8,0:0:0:0:
256,192,73499,1,0,0:0:0:0:
256,192,73628,1,0,0:0:0:0:
256,192,73756,5,8,0:0:0:0:
256,192,73884,1,8,0:0:0:0:
256,192,74012,1,8,0:0:0:0:
256,192,74140,5,0,0:0:0:0:
256,192,74269,1,8,0:0:0:0:
256,192,74397,1,0,0:0:0:0:
256,192,74525,1,0,0:0:0:0:
256,192,74653,1,8,0:0:0:0:
256,192,75167,5,8,0:0:0:0:
256,192,75231,1,8,0:0:0:0:
256,192,75295,1,8,0:0:0:0:
256,192,75423,5,0,0:0:0:0:
256,192,75552,1,0,0:0:0:0:
256,192,75680,5,8,0:0:0:0:
256,192,75744,1,8,0:0:0:0:
256,192,75808,1,8,0:0:0:0:
256,192,75936,5,0,0:0:0:0:
256,192,76064,1,0,0:0:0:0:
256,192,76193,1,8,0:0:0:0:
256,192,77218,5,12,0:0:0:0:
256,192,77347,1,12,0:0:0:0:
256,192,77475,1,0,0:0:0:0:
256,192,77731,5,12,0:0:0:0:
256,192,77988,1,0,0:0:0:0:
256,192,78244,5,12,0:0:0:0:
256,192,78372,1,12,0:0:0:0:
256,192,78500,1,0,0:0:0:0:
256,192,78757,5,12,0:0:0:0:
256,192,79013,1,0,0:0:0:0:
256,192,79270,5,8,1:1:0:0:
256,192,79334,1,8,1:1:0:0:
256,192,79398,1,8,1:1:0:0:
256,192,79526,5,0,1:1:0:0:
256,192,79655,1,0,1:1:0:0:
256,192,79783,5,8,1:1:0:0:
256,192,79847,1,8,1:1:0:0:
256,192,79911,1,8,1:1:0:0:
256,192,80039,5,0,1:1:0:0:
256,192,80167,1,0,1:1:0:0:
256,192,80296,1,8,1:1:0:0:
256,192,81321,5,12,0:0:0:0:
256,192,81450,1,12,0:0:0:0:
256,192,81578,1,0,0:0:0:0:
256,192,81834,5,12,0:0:0:0:
256,192,82091,1,0,0:0:0:0:
256,192,82346,5,12,0:0:0:0:
256,192,82475,1,12,0:0:0:0:
256,192,82603,1,0,0:0:0:0:
256,192,82860,5,12,0:0:0:0:
256,192,83116,1,0,0:0:0:0:
256,192,83372,5,8,0:0:0:0:
256,192,83436,1,8,0:0:0:0:
256,192,83500,1,8,0:0:0:0:
256,192,83628,5,0,0:0:0:0:
256,192,83757,1,0,0:0:0:0:
256,192,83885,5,8,0:0:0:0:
256,192,83949,1,8,0:0:0:0:
256,192,84013,1,8,0:0:0:0:
256,192,84141,5,0,0:0:0:0:
256,192,84269,1,0,0:0:0:0:
256,192,84398,1,8,0:0:0:0:
256,192,85423,5,12,0:0:0:0:
256,192,85552,1,12,0:0:0:0:
256,192,85680,1,0,0:0:0:0:
256,192,85936,5,12,0:0:0:0:
256,192,86193,1,0,0:0:0:0:
256,192,86449,5,12,0:0:0:0:
256,192,86577,1,12,0:0:0:0:
256,192,86705,1,0,0:0:0:0:
256,192,86962,5,12,0:0:0:0:
256,192,87218,1,0,0:0:0:0:
256,192,87475,5,8,1:1:0:0:
256,192,87539,1,8,1:1:0:0:
256,192,87603,1,8,1:1:0:0:
256,192,87731,5,0,1:1:0:0:
256,192,87860,1,0,1:1:0:0:
256,192,87988,5,8,1:1:0:0:
256,192,88052,1,8,1:1:0:0:
256,192,88116,1,8,1:1:0:0:
256,192,88244,5,0,1:1:0:0:
256,192,88372,1,0,1:1:0:0:
256,192,88501,1,8,1:1:0:0:
256,192,89526,5,12,0:0:0:0:
256,192,89655,1,12,0:0:0:0:
256,192,89783,1,0,0:0:0:0:
256,192,90039,5,12,0:0:0:0:
256,192,90296,1,0,0:0:0:0:
256,192,90552,5,12,0:0:0:0:
256,192,90680,1,12,0:0:0:0:
256,192,90808,1,0,0:0:0:0:
256,192,91065,5,12,0:0:0:0:
256,192,91321,1,0,0:0:0:0:
256,192,91577,5,8,0:0:0:0:
256,192,91662,5,0,0:0:0:0:
256,192,91748,1,0,0:0:0:0:
256,192,91833,5,8,0:0:0:0:
256,192,91919,5,0,0:0:0:0:
256,192,92004,1,0,0:0:0:0:
256,192,92090,5,8,0:0:0:0:
256,192,92175,5,0,0:0:0:0:
256,192,92261,1,0,0:0:0:0:
256,192,92346,5,8,0:0:0:0:
256,192,92432,5,0,0:0:0:0:
256,192,92517,1,0,0:0:0:0:
256,192,92603,5,8,0:0:0:0:
256,192,92688,5,0,0:0:0:0:
256,192,92774,1,0,0:0:0:0:
256,192,92859,5,8,0:0:0:0:
256,192,92945,5,0,0:0:0:0:
256,192,93030,1,0,0:0:0:0:
256,192,93116,5,8,0:0:0:0:
256,192,93201,5,0,0:0:0:0:
256,192,93287,1,0,0:0:0:0:
256,192,93372,5,8,0:0:0:0:
256,192,95679,5,8,0:0:0:0:
256,192,95765,1,8,0:0:0:0:
256,192,95850,5,0,0:0:0:0:
256,192,95936,5,8,0:0:0:0:
256,192,96021,1,8,0:0:0:0:
256,192,96107,5,0,0:0:0:0:
256,192,96192,5,8,0:0:0:0:
256,192,96278,1,8,0:0:0:0:
256,192,96363,5,0,0:0:0:0:
256,192,96449,5,8,0:0:0:0:
256,192,96534,1,8,0:0:0:0:
256,192,96620,5,0,0:0:0:0:
256,192,96705,5,8,0:0:0:0:
256,192,96791,1,8,0:0:0:0:
256,192,96876,5,0,0:0:0:0:
256,192,96962,5,8,0:0:0:0:
256,192,97047,1,8,0:0:0:0:
256,192,97132,5,0,0:0:0:0:
256,192,97218,5,8,0:0:0:0:
256,192,97303,1,8,0:0:0:0:
256,192,97389,5,0,0:0:0:0:
256,192,97474,1,0,0:0:0:0:
256,192,99782,5,8,0:0:0:0:
256,192,99867,5,0,0:0:0:0:
256,192,99953,1,0,0:0:0:0:
256,192,100038,5,8,0:0:0:0:
256,192,100124,5,0,0:0:0:0:
256,192,100209,1,0,0:0:0:0:
256,192,100295,5,8,0:0:0:0:
256,192,100380,5,0,0:0:0:0:
256,192,100466,1,0,0:0:0:0:
256,192,100551,5,8,0:0:0:0:
256,192,100637,5,0,0:0:0:0:
256,192,100722,1,0,0:0:0:0:
256,192,100808,5,8,0:0:0:0:
256,192,100893,5,0,0:0:0:0:
256,192,100979,1,0,0:0:0:0:
256,192,101064,5,8,0:0:0:0:
256,192,101150,5,0,0:0:0:0:
256,192,101235,1,0,0:0:0:0:
256,192,101321,5,8,0:0:0:0:
256,192,101406,5,0,0:0:0:0:
256,192,101492,1,0,0:0:0:0:
256,192,101577,5,8,0:0:0:0:
256,192,103885,5,8,0:0:0:0:
256,192,103970,5,0,0:0:0:0:
256,192,104056,1,0,0:0:0:0:
256,192,104141,5,8,0:0:0:0:
256,192,104226,5,0,0:0:0:0:
256,192,104312,1,0,0:0:0:0:
256,192,104397,5,8,0:0:0:0:
256,192,104483,5,0,0:0:0:0:
256,192,104568,1,0,0:0:0:0:
256,192,104654,5,8,0:0:0:0:
256,192,104739,5,0,0:0:0:0:
256,192,104826,1,0,0:0:0:0:
256,192,104911,5,8,0:0:0:0:
256,192,104997,1,8,0:0:0:0:
256,192,105082,5,0,0:0:0:0:
256,192,105168,5,8,0:0:0:0:
256,192,105253,1,8,0:0:0:0:
256,192,105338,5,0,0:0:0:0:
256,192,105424,5,8,0:0:0:0:
256,192,105509,1,8,0:0:0:0:
256,192,105595,5,0,0:0:0:0:
256,192,105680,1,0,0:0:0:0:
256,192,107987,5,0,0:0:0:0:
256,192,108500,1,0,0:0:0:0:
256,192,108756,5,8,0:0:0:0:
256,192,108885,1,8,0:0:0:0:
256,192,109013,5,0,0:0:0:0:
256,192,109141,5,8,0:0:0:0:
256,192,109397,1,8,0:0:0:0:
256,192,109526,5,0,0:0:0:0:
256,192,109782,5,8,0:0:0:0:
256,192,110038,5,0,0:0:0:0:
256,192,110551,5,0,0:0:0:0:
256,192,110679,1,8,0:0:0:0:
256,192,110808,1,8,0:0:0:0:
256,192,110936,1,8,0:0:0:0:
256,192,111064,5,0,0:0:0:0:
256,192,111192,5,8,0:0:0:0:
256,192,111449,1,8,0:0:0:0:
256,192,111577,5,0,0:0:0:0:
256,192,111833,5,8,0:0:0:0:
256,192,111962,1,8,0:0:0:0:
256,192,112090,5,0,0:0:0:0:
256,192,112603,1,0,0:0:0:0:
256,192,112859,5,8,0:0:0:0:
256,192,112987,1,8,0:0:0:0:
256,192,113115,5,0,0:0:0:0:
256,192,113244,5,8,0:0:0:0:
256,192,113500,1,8,0:0:0:0:
256,192,113628,5,0,0:0:0:0:
256,192,113885,5,8,0:0:0:0:
256,192,114141,5,0,0:0:0:0:
256,192,114654,1,0,0:0:0:0:
256,192,114782,5,8,0:0:0:0:
256,192,114910,1,8,0:0:0:0:
256,192,115038,1,8,0:0:0:0:
256,192,115167,5,0,0:0:0:0:
256,192,115295,5,8,0:0:0:0:
256,192,115551,1,8,0:0:0:0:
256,192,115679,5,0,0:0:0:0:
256,192,115808,1,0,0:0:0:0:
256,192,115936,5,8,0:0:0:0:
256,192,116064,1,8,0:0:0:0:
256,192,116192,5,0,0:0:0:0:
256,192,116705,5,8,0:0:0:0:
256,192,116833,5,0,0:0:0:0:
256,192,116962,5,8,0:0:0:0:
256,192,117090,1,8,0:0:0:0:
256,192,117218,5,0,0:0:0:0:
256,192,117346,5,8,0:0:0:0:
256,192,117603,1,8,0:0:0:0:
256,192,117731,5,0,0:0:0:0:
256,192,117987,5,8,0:0:0:0:
256,192,118115,1,8,0:0:0:0:
256,192,118244,5,0,0:0:0:0:
256,192,118372,1,0,0:0:0:0:
256,192,118500,5,8,0:0:0:0:
256,192,118756,1,8,0:0:0:0:
256,192,118885,5,0,0:0:0:0:
256,192,119013,5,8,0:0:0:0:
256,192,119141,1,8,0:0:0:0:
256,192,119269,5,0,0:0:0:0:
256,192,119397,5,8,0:0:0:0:
256,192,119654,1,8,0:0:0:0:
256,192,119782,5,0,0:0:0:0:
256,192,120038,1,8,0:0:0:0:
256,192,120295,5,0,0:0:0:0:
256,192,120808,5,8,0:0:0:0:
256,192,120936,5,0,0:0:0:0:
256,192,121064,5,8,0:0:0:0:
256,192,121192,1,8,0:0:0:0:
256,192,121321,5,0,0:0:0:0:
256,192,121449,5,8,0:0:0:0:
256,192,121705,1,8,0:0:0:0:
256,192,121833,5,0,0:0:0:0:
256,192,122090,5,8,0:0:0:0:
256,192,122346,5,0,0:0:0:0:
256,192,122474,5,8,0:0:0:0:
256,192,122603,1,8,0:0:0:0:
256,192,122731,1,8,0:0:0:0:
256,192,122859,5,0,0:0:0:0:
256,192,122987,1,0,0:0:0:0:
256,192,123115,1,0,0:0:0:0:
256,192,123244,1,0,0:0:0:0:
256,192,123372,5,8,0:0:0:0:
256,192,123436,1,8,0:0:0:0:
256,192,123500,1,8,0:0:0:0:
256,192,123628,1,8,0:0:0:0:
256,192,123756,5,0,0:0:0:0:
256,192,123885,1,0,0:0:0:0:
256,192,124013,5,8,0:0:0:0:
256,192,124141,1,8,0:0:0:0:
256,192,124269,1,8,0:0:0:0:
256,192,124397,5,8,0:0:0:0:
256,192,124461,1,8,0:0:0:0:
256,192,124525,1,8,0:0:0:0:
256,192,124653,5,0,0:0:0:0:
256,192,124782,1,0,0:0:0:0:
256,192,124910,5,8,0:0:0:0:
256,192,124974,1,8,0:0:0:0:
256,192,125038,1,8,0:0:0:0:
256,192,125166,5,0,0:0:0:0:
256,192,125294,1,0,0:0:0:0:
256,192,125423,1,8,0:0:0:0:
256,192,126448,5,12,0:0:0:0:
256,192,126577,1,12,0:0:0:0:
256,192,126705,1,0,0:0:0:0:
256,192,126961,5,12,0:0:0:0:
256,192,127218,1,0,0:0:0:0:
256,192,127474,5,12,0:0:0:0:
256,192,127602,1,12,0:0:0:0:
256,192,127730,1,0,0:0:0:0:
256,192,127987,5,12,0:0:0:0:
256,192,128243,1,0,0:0:0:0:
256,192,128500,5,8,1:1:0:0:
256,192,128564,1,8,1:1:0:0:
256,192,128628,1,8,1:1:0:0:
256,192,128756,5,0,1:1:0:0:
256,192,128885,1,0,1:1:0:0:
256,192,129013,5,8,1:1:0:0:
256,192,129077,1,8,1:1:0:0:
256,192,129141,1,8,1:1:0:0:
256,192,129269,5,0,1:1:0:0:
256,192,129397,1,0,1:1:0:0:
256,192,129526,1,8,1:1:0:0:
256,192,130551,5,12,0:0:0:0:
256,192,130680,1,12,0:0:0:0:
256,192,130808,1,0,0:0:0:0:
256,192,131064,5,12,0:0:0:0:
256,192,131321,1,0,0:0:0:0:
256,192,131577,5,12,0:0:0:0:
256,192,131705,1,12,0:0:0:0:
256,192,131833,1,0,0:0:0:0:
256,192,132090,5,12,0:0:0:0:
256,192,132346,1,0,0:0:0:0:
256,192,132602,5,8,0:0:0:0:
256,192,132666,1,8,0:0:0:0:
256,192,132730,1,8,0:0:0:0:
256,192,132859,5,0,0:0:0:0:
256,192,132987,1,0,0:0:0:0:
256,192,133115,5,8,0:0:0:0:
256,192,133179,1,8,0:0:0:0:
256,192,133243,1,8,0:0:0:0:
256,192,133371,5,0,0:0:0:0:
256,192,133499,1,0,0:0:0:0:
256,192,133628,1,8,0:0:0:0:
256,192,134653,5,12,0:0:0:0:
256,192,134782,1,12,0:0:0:0:
256,192,134910,1,0,0:0:0:0:
256,192,135166,5,12,0:0:0:0:
256,192,135423,1,0,0:0:0:0:
256,192,135679,5,12,0:0:0:0:
256,192,135807,1,12,0:0:0:0:
256,192,135935,1,0,0:0:0:0:
256,192,136192,5,12,0:0:0:0:
256,192,136448,1,0,0:0:0:0:
256,192,136705,5,8,1:1:0:0:
256,192,136769,1,8,1:1:0:0:
256,192,136833,1,8,1:1:0:0:
256,192,136961,5,0,1:1:0:0:
256,192,137090,1,0,1:1:0:0:
256,192,137218,5,8,1:1:0:0:
256,192,137282,1,8,1:1:0:0:
256,192,137346,1,8,1:1:0:0:
256,192,137474,5,0,1:1:0:0:
256,192,137602,1,0,1:1:0:0:
256,192,137731,1,8,1:1:0:0:
256,192,138756,5,12,0:0:0:0:
256,192,138885,1,12,0:0:0:0:
256,192,139013,1,0,0:0:0:0:
256,192,139269,5,12,0:0:0:0:
256,192,139526,1,0,0:0:0:0:
256,192,139782,5,12,0:0:0:0:
256,192,139910,1,12,0:0:0:0:
256,192,140038,1,0,0:0:0:0:
256,192,140295,5,12,0:0:0:0:
256,192,140551,1,0,0:0:0:0:
256,192,140808,1,0,0:0:0:0:
256,192,141064,5,8,0:0:0:0:
256,192,141192,1,8,0:0:0:0:
256,192,141321,5,0,0:0:0:0:
256,192,141577,5,8,0:0:0:0:
256,192,141705,1,8,0:0:0:0:
256,192,141833,5,0,0:0:0:0:
256,192,142090,5,8,0:0:0:0:
256,192,142218,1,8,0:0:0:0:
256,192,142346,5,0,0:0:0:0:
256,192,142474,1,0,0:0:0:0:
256,192,142603,5,8,0:0:0:0:
256,192,142731,1,8,0:0:0:0:
256,192,142859,5,0,0:0:0:0:
256,192,143115,5,8,0:0:0:0:
256,192,143201,1,8,0:0:0:0:
256,192,143286,1,8,0:0:0:0:
256,192,143372,5,0,0:0:0:0:
256,192,143628,5,8,0:0:0:0:
256,192,143714,1,8,0:0:0:0:
256,192,143799,1,8,0:0:0:0:
256,192,143885,5,0,0:0:0:0:
256,192,144141,5,8,0:0:0:0:
256,192,144226,1,8,0:0:0:0:
256,192,144312,1,8,0:0:0:0:
256,192,144397,5,0,0:0:0:0:
256,192,144483,1,0,0:0:0:0:
256,192,144568,1,0,0:0:0:0:
256,192,144654,5,8,0:0:0:0:
256,192,144739,1,8,0:0:0:0:
256,192,144825,1,8,0:0:0:0:
256,192,144910,5,0,0:0:0:0:
256,192,145167,5,8,0:0:0:0:
256,192,145295,1,8,0:0:0:0:
256,192,145423,5,0,0:0:0:0:
256,192,145679,5,8,0:0:0:0:
256,192,145808,1,8,0:0:0:0:
256,192,145936,5,0,0:0:0:0:
256,192,146192,5,8,0:0:0:0:
256,192,146321,5,0,0:0:0:0:
256,192,146449,1,0,0:0:0:0:
256,192,146577,5,8,0:0:0:0:
256,192,146705,5,0,0:0:0:0:
256,192,146833,5,8,0:0:0:0:
256,192,146962,5,0,0:0:0:0:
256,192,147047,5,8,0:0:0:0:
256,192,147132,1,8,0:0:0:0:
256,192,147218,5,0,0:0:0:0:
256,192,147474,5,8,0:0:0:0:
256,192,147560,1,8,0:0:0:0:
256,192,147645,1,8,0:0:0:0:
256,192,147731,5,0,0:0:0:0:
256,192,147987,1,0,0:0:0:0:
256,192,148073,1,0,0:0:0:0:
256,192,148158,1,0,0:0:0:0:
256,192,148244,5,8,0:0:0:0:
256,192,148329,1,8,0:0:0:0:
256,192,148415,1,8,0:0:0:0:
256,192,148500,5,0,0:0:0:0:
256,192,148585,5,8,0:0:0:0:
256,192,148671,1,8,0:0:0:0:
256,192,148756,5,0,0:0:0:0:
256,192,148842,1,0,0:0:0:0:
256,192,148927,5,8,0:0:0:0:
256,192,149013,5,0,0:0:0:0:
256,192,149269,5,8,0:0:0:0:
256,192,149397,1,8,0:0:0:0:
256,192,149526,5,0,0:0:0:0:
256,192,149782,5,8,0:0:0:0:
256,192,149910,1,8,0:0:0:0:
256,192,150038,5,0,0:0:0:0:
256,192,150295,5,8,0:0:0:0:
256,192,150423,5,0,0:0:0:0:
256,192,150551,1,0,0:0:0:0:
256,192,150679,1,0,0:0:0:0:
256,192,150808,5,8,0:0:0:0:
256,192,150936,1,8,0:0:0:0:
256,192,151064,5,0,0:0:0:0:
256,192,151321,5,8,0:0:0:0:
256,192,151406,1,8,0:0:0:0:
256,192,151491,1,8,0:0:0:0:
256,192,151577,5,0,0:0:0:0:
256,192,151833,5,8,0:0:0:0:
256,192,151919,1,8,0:0:0:0:
256,192,152004,1,8,0:0:0:0:
256,192,152090,5,0,0:0:0:0:
256,192,152346,5,8,0:0:0:0:
256,192,152432,1,8,0:0:0:0:
256,192,152517,1,8,0:0:0:0:
256,192,152603,5,0,0:0:0:0:
256,192,152688,1,0,0:0:0:0:
256,192,152773,1,0,0:0:0:0:
256,192,152859,5,8,0:0:0:0:
256,192,152944,1,8,0:0:0:0:
256,192,153030,1,8,0:0:0:0:
256,192,153115,5,0,0:0:0:0:
256,192,153372,5,8,0:0:0:0:
256,192,153500,1,8,0:0:0:0:
256,192,153628,5,0,0:0:0:0:
256,192,153885,5,8,0:0:0:0:
256,192,154013,1,8,0:0:0:0:
256,192,154141,5,0,0:0:0:0:
256,192,154397,5,8,0:0:0:0:
256,192,154526,5,0,0:0:0:0:
256,192,154654,1,0,0:0:0:0:
256,192,154782,5,8,0:0:0:0:
256,192,154910,5,0,0:0:0:0:
256,192,155038,5,8,0:0:0:0:
256,192,155167,5,0,0:0:0:0:
256,192,155252,5,8,0:0:0:0:
256,192,155337,1,8,0:0:0:0:
256,192,155423,5,0,0:0:0:0:
256,192,155679,5,8,0:0:0:0:
256,192,155765,1,8,0:0:0:0:
256,192,155850,1,8,0:0:0:0:
256,192,155936,5,0,0:0:0:0:
256,192,156192,5,0,0:0:0:0:
256,192,156278,1,0,0:0:0:0:
256,192,156363,1,0,0:0:0:0:
256,192,156449,5,8,0:0:0:0:
256,192,156534,1,8,0:0:0:0:
256,192,156620,1,8,0:0:0:0:
256,192,156705,5,0,0:0:0:0:
256,192,156962,5,8,0:0:0:0:
256,192,157218,1,8,0:0:0:0:
256,192,157303,5,0,0:0:0:0:
256,192,157389,1,0,0:0:0:0:
256,192,157474,5,8,0:0:0:0:
256,192,157560,5,0,0:0:0:0:
256,192,157645,1,0,0:0:0:0:
256,192,157731,5,8,0:0:0:0:
256,192,157816,5,0,0:0:0:0:
256,192,157902,1,0,0:0:0:0:
256,192,157987,5,8,0:0:0:0:
256,192,158073,5,0,0:0:0:0:
256,192,158158,1,0,0:0:0:0:
256,192,158244,5,8,0:0:0:0:
256,192,158329,5,0,0:0:0:0:
256,192,158415,1,0,0:0:0:0:
256,192,158500,5,8,0:0:0:0:
256,192,158586,5,0,0:0:0:0:
256,192,158671,1,0,0:0:0:0:
256,192,158757,5,8,0:0:0:0:
256,192,158842,5,0,0:0:0:0:
256,192,158928,1,0,0:0:0:0:
256,192,159013,5,8,0:0:0:0:
256,192,161320,5,8,0:0:0:0:
256,192,161406,1,8,0:0:0:0:
256,192,161491,5,0,0:0:0:0:
256,192,161577,5,8,0:0:0:0:
256,192,161662,1,8,0:0:0:0:
256,192,161748,5,0,0:0:0:0:
256,192,161833,5,8,0:0:0:0:
256,192,161919,1,8,0:0:0:0:
256,192,162004,5,0,0:0:0:0:
256,192,162090,5,8,0:0:0:0:
256,192,162175,1,8,0:0:0:0:
256,192,162261,5,0,0:0:0:0:
256,192,162346,5,8,0:0:0:0:
256,192,162432,1,8,0:0:0:0:
256,192,162517,5,0,0:0:0:0:
256,192,162603,5,8,0:0:0:0:
256,192,162688,1,8,0:0:0:0:
256,192,162773,5,0,0:0:0:0:
256,192,162859,5,8,0:0:0:0:
256,192,162944,1,8,0:0:0:0:
256,192,163030,5,0,0:0:0:0:
256,192,163115,1,0,0:0:0:0:
256,192,165423,5,8,0:0:0:0:
256,192,165508,5,0,0:0:0:0:
256,192,165594,1,0,0:0:0:0:
256,192,165679,5,8,0:0:0:0:
256,192,165765,5,0,0:0:0:0:
256,192,165850,1,0,0:0:0:0:
256,192,165936,5,8,0:0:0:0:
256,192,166021,5,0,0:0:0:0:
256,192,166107,1,0,0:0:0:0:
256,192,166192,5,8,0:0:0:0:
256,192,166278,5,0,0:0:0:0:
256,192,166363,1,0,0:0:0:0:
256,192,166449,5,8,0:0:0:0:
256,192,166534,5,0,0:0:0:0:
256,192,166620,1,0,0:0:0:0:
256,192,166705,5,8,0:0:0:0:
256,192,166791,5,0,0:0:0:0:
256,192,166876,1,0,0:0:0:0:
256,192,166962,5,8,0:0:0:0:
256,192,167047,5,0,0:0:0:0:
256,192,167133,1,0,0:0:0:0:
256,192,167218,5,8,0:0:0:0:
256,192,169526,5,8,0:0:0:0:
256,192,169611,5,0,0:0:0:0:
256,192,169697,1,0,0:0:0:0:
256,192,169782,5,8,0:0:0:0:
256,192,169867,5,0,0:0:0:0:
256,192,169953,1,0,0:0:0:0:
256,192,170038,5,8,0:0:0:0:
256,192,170124,5,0,0:0:0:0:
256,192,170209,1,0,0:0:0:0:
256,192,170295,5,8,0:0:0:0:
256,192,170380,5,0,0:0:0:0:
256,192,170467,1,0,0:0:0:0:
256,192,170552,5,8,0:0:0:0:
256,192,170638,1,8,0:0:0:0:
256,192,170723,5,0,0:0:0:0:
256,192,170809,5,8,0:0:0:0:
256,192,170894,1,8,0:0:0:0:
256,192,170979,5,0,0:0:0:0:
256,192,171065,5,8,0:0:0:0:
256,192,171150,1,8,0:0:0:0:
256,192,171236,5,0,0:0:0:0:
256,192,171321,1,0,0:0:0:0:
256,192,173628,5,8,0:0:0:0:
256,192,173756,1,8,0:0:0:0:
256,192,174013,5,8,0:0:0:0:
256,192,174141,1,8,0:0:0:0:
256,192,174397,5,0,0:0:0:0:
256,192,174526,1,0,0:0:0:0:
256,192,174654,5,8,0:0:0:0:
256,192,174782,1,8,0:0:0:0:
256,192,175038,5,8,0:0:0:0:
256,192,175167,1,8,0:0:0:0:
256,192,175423,5,0,0:0:0:0:
256,192,175509,1,0,0:0:0:0:
256,192,175594,1,0,0:0:0:0:
256,192,175679,5,8,0:0:0:0:
256,192,175808,1,8,0:0:0:0:
256,192,175936,5,0,0:0:0:0:
256,192,176064,1,0,0:0:0:0:
256,192,176192,5,8,0:0:0:0:
256,192,176321,1,8,0:0:0:0:
256,192,176449,5,0,0:0:0:0:
256,192,176577,1,0,0:0:0:0:
256,192,176705,1,0,0:0:0:0:
256,192,176833,1,0,0:0:0:0:
256,192,177090,1,0,0:0:0:0:
256,192,177218,5,12,0:0:0:0:
