osu file format v14

[General]
AudioFilename: audio.mp3
AudioLeadIn: 0
PreviewTime: 0
Countdown: 0
SampleSet: None
StackLeniency: 0
Mode: 0
LetterboxInBreaks: 0
WidescreenStoryboard: 0

[Editor]
DistanceSpacing: 1.2
BeatDivisor: 1
GridSize: 8
TimelineZoom: 2.5

[Metadata]
Title:BubbleSort
TitleUnicode:BubbleSort
Artist:Doyak
ArtistUnicode:Doyak
Creator:Doyak
Version:10
Source:
Tags:Sorting
BeatmapID:1427462
BeatmapSetID:674671

[Difficulty]
HPDrainRate:0
CircleSize:7
OverallDifficulty:0
ApproachRate:9.5
SliderMultiplier:1
SliderTickRate:1

[Events]
//Background and Video events
0,0,"BG.png",0,0
//Break Periods
//Storyboard Layer 0 (Background)
//Storyboard Layer 1 (Fail)
//Storyboard Layer 2 (Pass)
//Storyboard Layer 3 (Foreground)
//Storyboard Sound Samples

[TimingPoints]
1000,400,4,2,0,0,1,0
1000,-0.01,4,2,1,0,0,0

[Colours]
Combo1 : 60,200,60
Combo2 : 127,127,127
Combo3 : 200,60,60

[HitObjects]
32,360,1000,6,0,L|32:159,1,201
82,360,1000,2,0,L|82:327,1,33
132,360,1000,2,0,L|132:192,1,168
182,360,1000,2,0,L|182:260,1,100
232,360,1000,2,0,L|232:58,1,302
282,360,1000,2,0,L|282:92,1,268
332,360,1000,2,0,L|332:125,1,235
382,360,1000,2,0,L|382:24,1,336
432,360,1000,2,0,L|432:226,1,134
482,360,1000,2,0,L|482:293,1,67
32,360,1301,6,0,L|32:327,1,33
82,360,1301,2,0,L|82:159,1,201
132,360,1302,22,0,L|132:192,1,168
182,360,1302,2,0,L|182:260,1,100
232,360,1302,2,0,L|232:58,1,302
282,360,1302,2,0,L|282:92,1,268
332,360,1302,2,0,L|332:125,1,235
382,360,1302,2,0,L|382:24,1,336
432,360,1302,2,0,L|432:226,1,134
482,360,1302,2,0,L|482:293,1,67
32,360,1600,2,0,L|32:327,1,33
82,360,1601,6,0,L|82:192,1,168
132,360,1601,2,0,L|132:159,1,201
182,360,1602,22,0,L|182:260,1,100
232,360,1602,2,0,L|232:58,1,302
282,360,1602,2,0,L|282:92,1,268
332,360,1602,2,0,L|332:125,1,235
382,360,1602,2,0,L|382:24,1,336
432,360,1602,2,0,L|432:226,1,134
482,360,1602,2,0,L|482:293,1,67
32,360,1900,2,0,L|32:327,1,33
82,360,1900,2,0,L|82:192,1,168
132,360,1901,6,0,L|132:260,1,100
182,360,1901,2,0,L|182:159,1,201
232,360,1902,22,0,L|232:58,1,302
282,360,1902,2,0,L|282:92,1,268
332,360,1902,2,0,L|332:125,1,235
382,360,1902,2,0,L|382:24,1,336
432,360,1902,2,0,L|432:226,1,134
482,360,1902,2,0,L|482:293,1,67
32,360,2200,2,0,L|32:327,1,33
82,360,2200,2,0,L|82:192,1,168
132,360,2200,2,0,L|132:260,1,100
182,360,2201,6,0,L|182:159,1,201
232,360,2201,2,0,L|232:58,1,302
282,360,2202,22,0,L|282:92,1,268
332,360,2202,2,0,L|332:125,1,235
382,360,2202,2,0,L|382:24,1,336
432,360,2202,2,0,L|432:226,1,134
482,360,2202,2,0,L|482:293,1,67
32,360,2500,2,0,L|32:327,1,33
82,360,2500,2,0,L|82:192,1,168
132,360,2500,2,0,L|132:260,1,100
182,360,2500,2,0,L|182:159,1,201
232,360,2501,6,0,L|232:92,1,268
282,360,2501,2,0,L|282:58,1,302
332,360,2502,22,0,L|332:125,1,235
382,360,2502,2,0,L|382:24,1,336
432,360,2502,2,0,L|432:226,1,134
482,360,2502,2,0,L|482:293,1,67
32,360,2800,2,0,L|32:327,1,33
82,360,2800,2,0,L|82:192,1,168
132,360,2800,2,0,L|132:260,1,100
182,360,2800,2,0,L|182:159,1,201
232,360,2800,2,0,L|232:92,1,268
282,360,2801,6,0,L|282:125,1,235
332,360,2801,2,0,L|332:58,1,302
382,360,2802,22,0,L|382:24,1,336
432,360,2802,2,0,L|432:226,1,134
482,360,2802,2,0,L|482:293,1,67
32,360,3100,2,0,L|32:327,1,33
82,360,3100,2,0,L|82:192,1,168
132,360,3100,2,0,L|132:260,1,100
182,360,3100,2,0,L|182:159,1,201
232,360,3100,2,0,L|232:92,1,268
282,360,3100,2,0,L|282:125,1,235
332,360,3101,6,0,L|332:58,1,302
382,360,3101,2,0,L|382:24,1,336
432,360,3102,22,0,L|432:226,1,134
482,360,3102,2,0,L|482:293,1,67
32,360,3400,2,0,L|32:327,1,33
82,360,3400,2,0,L|82:192,1,168
132,360,3400,2,0,L|132:260,1,100
182,360,3400,2,0,L|182:159,1,201
232,360,3400,2,0,L|232:92,1,268
282,360,3400,2,0,L|282:125,1,235
332,360,3400,2,0,L|332:58,1,302
382,360,3401,6,0,L|382:226,1,134
432,360,3401,2,0,L|432:24,1,336
482,360,3402,22,0,L|482:293,1,67
32,360,3700,2,0,L|32:327,1,33
82,360,3700,2,0,L|82:192,1,168
132,360,3700,2,0,L|132:260,1,100
182,360,3700,2,0,L|182:159,1,201
232,360,3700,2,0,L|232:92,1,268
282,360,3700,2,0,L|282:125,1,235
332,360,3700,2,0,L|332:58,1,302
382,360,3700,2,0,L|382:226,1,134
432,360,3701,6,0,L|432:293,1,67
482,360,3701,2,0,L|482:24,1,336
32,360,4001,2,0,L|32:327,1,33
82,360,4001,2,0,L|82:192,1,168
132,360,4002,22,0,L|132:260,1,100
182,360,4002,2,0,L|182:159,1,201
232,360,4002,2,0,L|232:92,1,268
282,360,4002,2,0,L|282:125,1,235
332,360,4002,2,0,L|332:58,1,302
382,360,4002,2,0,L|382:226,1,134
432,360,4002,2,0,L|432:293,1,67
482,360,4002,2,0,L|482:24,1,336
32,360,4300,2,0,L|32:327,1,33
82,360,4301,6,0,L|82:260,1,100
132,360,4301,2,0,L|132:192,1,168
182,360,4302,22,0,L|182:159,1,201
232,360,4302,2,0,L|232:92,1,268
282,360,4302,2,0,L|282:125,1,235
332,360,4302,2,0,L|332:58,1,302
382,360,4302,2,0,L|382:226,1,134
432,360,4302,2,0,L|432:293,1,67
482,360,4302,2,0,L|482:24,1,336
32,360,4600,2,0,L|32:327,1,33
82,360,4600,2,0,L|82:260,1,100
132,360,4601,6,0,L|132:192,1,168
182,360,4601,2,0,L|182:159,1,201
232,360,4602,22,0,L|232:92,1,268
282,360,4602,2,0,L|282:125,1,235
332,360,4602,2,0,L|332:58,1,302
382,360,4602,2,0,L|382:226,1,134
432,360,4602,2,0,L|432:293,1,67
482,360,4602,2,0,L|482:24,1,336
32,360,4900,2,0,L|32:327,1,33
82,360,4900,2,0,L|82:260,1,100
132,360,4900,2,0,L|132:192,1,168
182,360,4901,6,0,L|182:159,1,201
232,360,4901,2,0,L|232:92,1,268
282,360,4902,22,0,L|282:125,1,235
332,360,4902,2,0,L|332:58,1,302
382,360,4902,2,0,L|382:226,1,134
432,360,4902,2,0,L|432:293,1,67
482,360,4902,2,0,L|482:24,1,336
32,360,5200,2,0,L|32:327,1,33
82,360,5200,2,0,L|82:260,1,100
132,360,5200,2,0,L|132:192,1,168
182,360,5200,2,0,L|182:159,1,201
232,360,5201,6,0,L|232:125,1,235
282,360,5201,2,0,L|282:92,1,268
332,360,5202,22,0,L|332:58,1,302
382,360,5202,2,0,L|382:226,1,134
432,360,5202,2,0,L|432:293,1,67
482,360,5202,2,0,L|482:24,1,336
32,360,5500,2,0,L|32:327,1,33
82,360,5500,2,0,L|82:260,1,100
132,360,5500,2,0,L|132:192,1,168
182,360,5500,2,0,L|182:159,1,201
232,360,5500,2,0,L|232:125,1,235
282,360,5501,6,0,L|282:92,1,268
332,360,5501,2,0,L|332:58,1,302
382,360,5502,22,0,L|382:226,1,134
432,360,5502,2,0,L|432:293,1,67
482,360,5502,2,0,L|482:24,1,336
32,360,5800,2,0,L|32:327,1,33
82,360,5800,2,0,L|82:260,1,100
132,360,5800,2,0,L|132:192,1,168
182,360,5800,2,0,L|182:159,1,201
232,360,5800,2,0,L|232:125,1,235
282,360,5800,2,0,L|282:92,1,268
332,360,5801,6,0,L|332:226,1,134
382,360,5801,2,0,L|382:58,1,302
432,360,5802,22,0,L|432:293,1,67
482,360,5802,2,0,L|482:24,1,336
32,360,6100,2,0,L|32:327,1,33
82,360,6100,2,0,L|82:260,1,100
132,360,6100,2,0,L|132:192,1,168
182,360,6100,2,0,L|182:159,1,201
232,360,6100,2,0,L|232:125,1,235
282,360,6100,2,0,L|282:92,1,268
332,360,6100,2,0,L|332:226,1,134
382,360,6101,6,0,L|382:293,1,67
432,360,6101,2,0,L|432:58,1,302
482,360,6102,22,0,L|482:24,1,336
32,360,6401,6,0,L|32:327,1,33
82,360,6401,2,0,L|82:260,1,100
132,360,6402,22,0,L|132:192,1,168
182,360,6402,2,0,L|182:159,1,201
232,360,6402,2,0,L|232:125,1,235
282,360,6402,2,0,L|282:92,1,268
332,360,6402,2,0,L|332:226,1,134
382,360,6402,2,0,L|382:293,1,67
432,360,6402,2,0,L|432:58,1,302
482,360,6402,2,0,L|482:24,1,336
32,360,6700,2,0,L|32:327,1,33
82,360,6701,6,0,L|82:260,1,100
132,360,6701,2,0,L|132:192,1,168
182,360,6702,22,0,L|182:159,1,201
232,360,6702,2,0,L|232:125,1,235
282,360,6702,2,0,L|282:92,1,268
332,360,6702,2,0,L|332:226,1,134
382,360,6702,2,0,L|382:293,1,67
432,360,6702,2,0,L|432:58,1,302
482,360,6702,2,0,L|482:24,1,336
32,360,7000,2,0,L|32:327,1,33
82,360,7000,2,0,L|82:260,1,100
132,360,7001,6,0,L|132:192,1,168
182,360,7001,2,0,L|182:159,1,201
232,360,7002,22,0,L|232:125,1,235
282,360,7002,2,0,L|282:92,1,268
332,360,7002,2,0,L|332:226,1,134
382,360,7002,2,0,L|382:293,1,67
432,360,7002,2,0,L|432:58,1,302
482,360,7002,2,0,L|482:24,1,336
32,360,7300,2,0,L|32:327,1,33
82,360,7300,2,0,L|82:260,1,100
132,360,7300,2,0,L|132:192,1,168
182,360,7301,6,0,L|182:159,1,201
232,360,7301,2,0,L|232:125,1,235
282,360,7302,22,0,L|282:92,1,268
332,360,7302,2,0,L|332:226,1,134
382,360,7302,2,0,L|382:293,1,67
432,360,7302,2,0,L|432:58,1,302
482,360,7302,2,0,L|482:24,1,336
32,360,7600,2,0,L|32:327,1,33
82,360,7600,2,0,L|82:260,1,100
132,360,7600,2,0,L|132:192,1,168
182,360,7600,2,0,L|182:159,1,201
232,360,7601,6,0,L|232:125,1,235
282,360,7601,2,0,L|282:92,1,268
332,360,7602,22,0,L|332:226,1,134
382,360,7602,2,0,L|382:293,1,67
432,360,7602,2,0,L|432:58,1,302
482,360,7602,2,0,L|482:24,1,336
32,360,7900,2,0,L|32:327,1,33
82,360,7900,2,0,L|82:260,1,100
132,360,7900,2,0,L|132:192,1,168
182,360,7900,2,0,L|182:159,1,201
232,360,7900,2,0,L|232:125,1,235
282,360,7901,6,0,L|282:226,1,134
332,360,7901,2,0,L|332:92,1,268
382,360,7902,22,0,L|382:293,1,67
432,360,7902,2,0,L|432:58,1,302
482,360,7902,2,0,L|482:24,1,336
32,360,8200,2,0,L|32:327,1,33
82,360,8200,2,0,L|82:260,1,100
132,360,8200,2,0,L|132:192,1,168
182,360,8200,2,0,L|182:159,1,201
232,360,8200,2,0,L|232:125,1,235
282,360,8200,2,0,L|282:226,1,134
332,360,8201,6,0,L|332:293,1,67
382,360,8201,2,0,L|382:92,1,268
432,360,8202,22,0,L|432:58,1,302
482,360,8202,2,0,L|482:24,1,336
32,360,8501,6,0,L|32:327,1,33
82,360,8501,2,0,L|82:260,1,100
132,360,8502,22,0,L|132:192,1,168
182,360,8502,2,0,L|182:159,1,201
232,360,8502,2,0,L|232:125,1,235
282,360,8502,2,0,L|282:226,1,134
332,360,8502,2,0,L|332:293,1,67
382,360,8502,2,0,L|382:92,1,268
432,360,8502,2,0,L|432:58,1,302
482,360,8502,2,0,L|482:24,1,336
32,360,8800,2,0,L|32:327,1,33
82,360,8801,6,0,L|82:260,1,100
132,360,8801,2,0,L|132:192,1,168
182,360,8802,22,0,L|182:159,1,201
232,360,8802,2,0,L|232:125,1,235
282,360,8802,2,0,L|282:226,1,134
332,360,8802,2,0,L|332:293,1,67
382,360,8802,2,0,L|382:92,1,268
432,360,8802,2,0,L|432:58,1,302
482,360,8802,2,0,L|482:24,1,336
32,360,9100,2,0,L|32:327,1,33
82,360,9100,2,0,L|82:260,1,100
132,360,9101,6,0,L|132:192,1,168
182,360,9101,2,0,L|182:159,1,201
232,360,9102,22,0,L|232:125,1,235
282,360,9102,2,0,L|282:226,1,134
332,360,9102,2,0,L|332:293,1,67
382,360,9102,2,0,L|382:92,1,268
432,360,9102,2,0,L|432:58,1,302
482,360,9102,2,0,L|482:24,1,336
32,360,9400,2,0,L|32:327,1,33
82,360,9400,2,0,L|82:260,1,100
132,360,9400,2,0,L|132:192,1,168
182,360,9401,6,0,L|182:159,1,201
232,360,9401,2,0,L|232:125,1,235
282,360,9402,22,0,L|282:226,1,134
332,360,9402,2,0,L|332:293,1,67
382,360,9402,2,0,L|382:92,1,268
432,360,9402,2,0,L|432:58,1,302
482,360,9402,2,0,L|482:24,1,336
32,360,9700,2,0,L|32:327,1,33
82,360,9700,2,0,L|82:260,1,100
132,360,9700,2,0,L|132:192,1,168
182,360,9700,2,0,L|182:159,1,201
232,360,9701,6,0,L|232:226,1,134
282,360,9701,2,0,L|282:125,1,235
332,360,9702,22,0,L|332:293,1,67
382,360,9702,2,0,L|382:92,1,268
432,360,9702,2,0,L|432:58,1,302
482,360,9702,2,0,L|482:24,1,336
32,360,10000,2,0,L|32:327,1,33
82,360,10000,2,0,L|82:260,1,100
132,360,10000,2,0,L|132:192,1,168
182,360,10000,2,0,L|182:159,1,201
232,360,10000,2,0,L|232:226,1,134
282,360,10001,6,0,L|282:293,1,67
332,360,10001,2,0,L|332:125,1,235
382,360,10002,22,0,L|382:92,1,268
432,360,10002,2,0,L|432:58,1,302
482,360,10002,2,0,L|482:24,1,336
32,360,10301,6,0,L|32:327,1,33
82,360,10301,2,0,L|82:260,1,100
132,360,10302,22,0,L|132:192,1,168
182,360,10302,2,0,L|182:159,1,201
232,360,10302,2,0,L|232:226,1,134
282,360,10302,2,0,L|282:293,1,67
332,360,10302,2,0,L|332:125,1,235
382,360,10302,2,0,L|382:92,1,268
432,360,10302,2,0,L|432:58,1,302
482,360,10302,2,0,L|482:24,1,336
32,360,10600,2,0,L|32:327,1,33
82,360,10601,6,0,L|82:260,1,100
132,360,10601,2,0,L|132:192,1,168
182,360,10602,22,0,L|182:159,1,201
232,360,10602,2,0,L|232:226,1,134
282,360,10602,2,0,L|282:293,1,67
332,360,10602,2,0,L|332:125,1,235
382,360,10602,2,0,L|382:92,1,268
432,360,10602,2,0,L|432:58,1,302
482,360,10602,2,0,L|482:24,1,336
32,360,10900,2,0,L|32:327,1,33
82,360,10900,2,0,L|82:260,1,100
132,360,10901,6,0,L|132:192,1,168
182,360,10901,2,0,L|182:159,1,201
232,360,10902,22,0,L|232:226,1,134
282,360,10902,2,0,L|282:293,1,67
332,360,10902,2,0,L|332:125,1,235
382,360,10902,2,0,L|382:92,1,268
432,360,10902,2,0,L|432:58,1,302
482,360,10902,2,0,L|482:24,1,336
32,360,11200,2,0,L|32:327,1,33
82,360,11200,2,0,L|82:260,1,100
132,360,11200,2,0,L|132:192,1,168
182,360,11201,6,0,L|182:226,1,134
232,360,11201,2,0,L|232:159,1,201
282,360,11202,22,0,L|282:293,1,67
332,360,11202,2,0,L|332:125,1,235
382,360,11202,2,0,L|382:92,1,268
432,360,11202,2,0,L|432:58,1,302
482,360,11202,2,0,L|482:24,1,336
32,360,11500,2,0,L|32:327,1,33
82,360,11500,2,0,L|82:260,1,100
132,360,11500,2,0,L|132:192,1,168
182,360,11500,2,0,L|182:226,1,134
232,360,11501,6,0,L|232:293,1,67
282,360,11501,2,0,L|282:159,1,201
332,360,11502,22,0,L|332:125,1,235
382,360,11502,2,0,L|382:92,1,268
432,360,11502,2,0,L|432:58,1,302
482,360,11502,2,0,L|482:24,1,336
32,360,11801,6,0,L|32:327,1,33
82,360,11801,2,0,L|82:260,1,100
132,360,11802,22,0,L|132:192,1,168
182,360,11802,2,0,L|182:226,1,134
232,360,11802,2,0,L|232:293,1,67
282,360,11802,2,0,L|282:159,1,201
332,360,11802,2,0,L|332:125,1,235
382,360,11802,2,0,L|382:92,1,268
432,360,11802,2,0,L|432:58,1,302
482,360,11802,2,0,L|482:24,1,336
32,360,12100,2,0,L|32:327,1,33
82,360,12101,6,0,L|82:260,1,100
132,360,12101,2,0,L|132:192,1,168
182,360,12102,22,0,L|182:226,1,134
232,360,12102,2,0,L|232:293,1,67
282,360,12102,2,0,L|282:159,1,201
332,360,12102,2,0,L|332:125,1,235
382,360,12102,2,0,L|382:92,1,268
432,360,12102,2,0,L|432:58,1,302
482,360,12102,2,0,L|482:24,1,336
32,360,12400,2,0,L|32:327,1,33
82,360,12400,2,0,L|82:260,1,100
132,360,12401,6,0,L|132:226,1,134
182,360,12401,2,0,L|182:192,1,168
232,360,12402,22,0,L|232:293,1,67
282,360,12402,2,0,L|282:159,1,201
332,360,12402,2,0,L|332:125,1,235
382,360,12402,2,0,L|382:92,1,268
432,360,12402,2,0,L|432:58,1,302
482,360,12402,2,0,L|482:24,1,336
32,360,12700,2,0,L|32:327,1,33
82,360,12700,2,0,L|82:260,1,100
132,360,12700,2,0,L|132:226,1,134
182,360,12701,6,0,L|182:293,1,67
232,360,12701,2,0,L|232:192,1,168
282,360,12702,22,0,L|282:159,1,201
332,360,12702,2,0,L|332:125,1,235
382,360,12702,2,0,L|382:92,1,268
432,360,12702,2,0,L|432:58,1,302
482,360,12702,2,0,L|482:24,1,336
32,360,13001,6,0,L|32:327,1,33
82,360,13001,2,0,L|82:260,1,100
132,360,13002,22,0,L|132:226,1,134
182,360,13002,2,0,L|182:293,1,67
232,360,13002,2,0,L|232:192,1,168
282,360,13002,2,0,L|282:159,1,201
332,360,13002,2,0,L|332:125,1,235
382,360,13002,2,0,L|382:92,1,268
432,360,13002,2,0,L|432:58,1,302
482,360,13002,2,0,L|482:24,1,336
32,360,13300,2,0,L|32:327,1,33
82,360,13301,6,0,L|82:260,1,100
132,360,13301,2,0,L|132:226,1,134
182,360,13302,22,0,L|182:293,1,67
232,360,13302,2,0,L|232:192,1,168
282,360,13302,2,0,L|282:159,1,201
332,360,13302,2,0,L|332:125,1,235
382,360,13302,2,0,L|382:92,1,268
432,360,13302,2,0,L|432:58,1,302
482,360,13302,2,0,L|482:24,1,336
32,360,13600,2,0,L|32:327,1,33
82,360,13600,2,0,L|82:260,1,100
132,360,13601,6,0,L|132:293,1,67
182,360,13601,2,0,L|182:226,1,134
232,360,13602,22,0,L|232:192,1,168
282,360,13602,2,0,L|282:159,1,201
332,360,13602,2,0,L|332:125,1,235
382,360,13602,2,0,L|382:92,1,268
432,360,13602,2,0,L|432:58,1,302
482,360,13602,2,0,L|482:24,1,336
32,360,13901,6,0,L|32:327,1,33
82,360,13901,2,0,L|82:260,1,100
132,360,13902,22,0,L|132:293,1,67
182,360,13902,2,0,L|182:226,1,134
232,360,13902,2,0,L|232:192,1,168
282,360,13902,2,0,L|282:159,1,201
332,360,13902,2,0,L|332:125,1,235
382,360,13902,2,0,L|382:92,1,268
432,360,13902,2,0,L|432:58,1,302
482,360,13902,2,0,L|482:24,1,336
32,360,14200,2,0,L|32:327,1,33
82,360,14201,6,0,L|82:293,1,67
132,360,14201,2,0,L|132:260,1,100
182,360,14202,22,0,L|182:226,1,134
232,360,14202,2,0,L|232:192,1,168
282,360,14202,2,0,L|282:159,1,201
332,360,14202,2,0,L|332:125,1,235
382,360,14202,2,0,L|382:92,1,268
432,360,14202,2,0,L|432:58,1,302
482,360,14202,2,0,L|482:24,1,336
32,360,14501,6,0,L|32:327,1,33
82,360,14501,2,0,L|82:293,1,67
132,360,14502,22,0,L|132:260,1,100
182,360,14502,2,0,L|182:226,1,134
232,360,14502,2,0,L|232:192,1,168
282,360,14502,2,0,L|282:159,1,201
332,360,14502,2,0,L|332:125,1,235
382,360,14502,2,0,L|382:92,1,268
432,360,14502,2,0,L|432:58,1,302
482,360,14502,2,0,L|482:24,1,336
32,360,14800,22,0,L|32:327,1,33
82,360,14900,2,0,L|82:293,1,67
132,360,15000,2,0,L|132:260,1,100
182,360,15100,2,0,L|182:226,1,134
232,360,15200,2,0,L|232:192,1,168
282,360,15300,2,0,L|282:159,1,201
332,360,15400,2,0,L|332:125,1,235
382,360,15500,2,0,L|382:92,1,268
432,360,15600,2,0,L|432:58,1,302
482,360,15700,2,0,L|482:24,1,336
