osu file format v14

[General]
AudioFilename: audio.mp3
AudioLeadIn: 0
PreviewTime: -1
Countdown: 0
SampleSet: None
StackLeniency: 0.7
Mode: 0
LetterboxInBreaks: 0
WidescreenStoryboard: 0

[Editor]
DistanceSpacing: 1.2
BeatDivisor: 4
GridSize: 32
TimelineZoom: 1

[Metadata]
Title:Princess Kenny Kawaii Theme
TitleUnicode:Princess Kenny Kawaii Theme
Artist:Doxa
ArtistUnicode:Doxa
Creator:vick
Version:Princess Doxa Kawaii-desu
Source:
Tags:
BeatmapID:1046252
BeatmapSetID:490905

[Difficulty]
HPDrainRate:6
CircleSize:4
OverallDifficulty:7
ApproachRate:9
SliderMultiplier:1.6
SliderTickRate:1

[Events]
//Background and Video events
0,0,"Doxa princess kawaii desu.jpg",0,0
//Break Periods
//Storyboard Layer 0 (Background)
//Storyboard Layer 1 (Fail)
//Storyboard Layer 2 (Pass)
//Storyboard Layer 3 (Foreground)
//Storyboard Sound Samples

[TimingPoints]
865,370.37037037037,4,2,0,30,1,0
865,-133.333333333333,4,2,0,30,0,0
6790,-100,4,2,0,30,0,0
12716,-100,4,2,0,30,0,0

[HitObjects]
73,229,865,6,0,L|196:226,1,120.000004577637
273,249,1420,1,0,0:0:0:0:
273,249,1605,1,0,0:0:0:0:
233,85,1976,1,0,0:0:0:0:
218,315,2346,6,0,P|273:336|342:299,1,120.000004577637
174,254,3087,2,0,L|172:394,1,120.000004577637
273,249,3642,1,0,0:0:0:0:
209,169,3827,6,0,B|86:166,1,120.000004577637
23,112,4383,1,0,0:0:0:0:
23,112,4568,1,0,0:0:0:0:
124,246,4939,1,0,0:0:0:0:
148,80,5309,6,0,P|201:71|252:82,1,90.0000034332277
254,87,5679,1,0,0:0:0:0:
273,97,5771,1,0,0:0:0:0:
293,103,5864,1,0,0:0:0:0:
313,107,5956,1,0,0:0:0:0:
334,107,6049,1,0,0:0:0:0:
355,105,6141,1,0,0:0:0:0:
375,99,6234,1,0,0:0:0:0:
394,91,6327,1,0,0:0:0:0:
410,77,6420,2,0,L|451:70,1,30.0000011444092
512,187,6605,2,0,L|471:180,1,30.0000011444092
376,193,6790,6,0,B|340:236|340:236|341:356,1,160
417,281,7346,1,0,0:0:0:0:
261,299,7531,2,0,L|181:299,2,80
138,376,8087,6,0,P|97:306|134:228,1,160
212,202,8642,1,0,0:0:0:0:
163,119,8827,2,0,L|162:17,2,80
212,202,9383,1,0,0:0:0:0:
306,127,9568,6,0,L|471:126,1,160
404,52,10124,1,0,0:0:0:0:
397,215,10309,1,0,0:0:0:0:
465,126,10494,1,0,0:0:0:0:
472,289,10679,1,0,0:0:0:0:
301,205,10864,1,0,0:0:0:0:
488,207,11050,1,0,0:0:0:0:
212,202,11235,5,0,0:0:0:0:
465,126,11420,1,0,0:0:0:0:
133,88,11605,1,0,0:0:0:0:
133,88,12161,5,0,0:0:0:0:
197,233,12346,1,0,0:0:0:0:
207,147,12531,1,0,0:0:0:0:
122,278,12716,6,0,P|189:322|271:278,1,160
303,210,13272,1,0,0:0:0:0:
382,157,13457,2,0,L|465:156,1,80
512,61,13827,2,0,L|429:60,1,80
341,25,14198,6,0,B|265:5|265:5|171:33,1,160
126,102,14753,1,0,0:0:0:0:
182,180,14939,2,0,L|182:270,2,80
126,102,15494,1,0,0:0:0:0:
215,67,15679,6,0,L|400:65,1,160
466,96,16235,1,0,0:0:0:0:
399,165,16420,2,0,P|393:210|404:257,1,80
403,339,16790,2,0,P|362:348|304:337,1,80
262,270,17161,6,0,L|83:273,1,160
163,346,17716,1,0,0:0:0:0:
197,198,17902,2,0,L|199:118,1,80
225,25,18272,1,0,0:0:0:0:
225,25,18457,1,0,0:0:0:0:
292,93,18642,6,0,P|377:118|457:81,1,160
225,25,19198,1,0,0:0:0:0:
142,73,19383,2,0,L|55:75,2,80
225,25,19939,1,0,0:0:0:0:
253,116,20124,6,0,L|250:216,1,80
171,250,20494,2,0,L|174:350,1,80
253,383,20864,1,0,0:0:0:0:
324,318,21050,2,0,P|365:310|410:312,1,80
483,363,21420,6,0,B|513:318|513:318|505:198,1,160
443,138,21976,1,0,0:0:0:0:
443,138,22161,1,0,0:0:0:0:
351,165,22346,2,0,P|307:171|248:162,1,80
201,121,22716,1,0,0:0:0:0:
258,243,22902,1,0,0:0:0:0:
301,73,23087,5,0,0:0:0:0:
156,218,23272,1,0,0:0:0:0:
364,267,23457,1,0,0:0:0:0:
364,267,23827,1,0,0:0:0:0:
399,177,24013,1,0,0:0:0:0:
273,281,24198,1,0,0:0:0:0:
457,308,24383,1,0,0:0:0:0:
230,206,24568,6,0,P|191:254|228:356,1,160
301,380,25124,1,0,0:0:0:0:
364,267,25309,1,0,0:0:0:0:
396,360,25494,1,0,0:0:0:0:
273,281,25679,1,0,0:0:0:0:
273,281,25864,6,0,L|111:283,1,160
34,227,26420,1,0,0:0:0:0:
34,227,26605,1,0,0:0:0:0:
110,168,26790,2,0,P|139:95|95:19,1,160
34,227,27346,1,0,0:0:0:0:
113,282,27531,6,0,L|217:284,1,80
287,262,27902,1,0,0:0:0:0:
287,262,28087,1,0,0:0:0:0:
360,323,28272,2,0,P|406:330|464:313,1,80
287,262,28642,1,0,0:0:0:0:
256,352,28827,6,0,L|86:350,1,160
16,295,29383,1,0,0:0:0:0:
77,221,29568,2,0,L|83:133,1,80
172,61,29939,2,0,L|177:140,1,80
193,235,30309,1,0,0:0:0:0:
193,235,30494,6,0,B|231:197|231:197|355:194,1,160
410,256,31050,2,0,L|500:255,2,80
337,194,31605,1,0,0:0:0:0:
323,301,31790,1,0,0:0:0:0:
411,146,31976,6,0,P|356:108|272:136,1,160
210,207,32531,1,0,0:0:0:0:
121,242,32716,2,0,L|30:238,1,80
210,207,33087,2,0,P|219:252|200:303,1,80
144,353,33457,6,0,B|185:379|185:379|318:376,1,160
372,316,34013,1,0,0:0:0:0:
319,235,34198,2,0,P|311:188|324:141,1,80
383,87,34568,1,0,0:0:0:0:
305,29,34753,6,0,B|223:13|223:13|129:41,1,160
64,79,35309,1,0,0:0:0:0:
84,100,35401,1,0,0:0:0:0:
100,126,35494,1,0,0:0:0:0:
111,154,35586,1,0,0:0:0:0:
116,183,35679,1,0,0:0:0:0:
115,213,35771,1,0,0:0:0:0:
108,242,35864,1,0,0:0:0:0:
95,269,35957,1,0,0:0:0:0:
77,293,36050,2,0,L|66:343,1,40
166,384,36235,2,0,L|175:345,1,40
201,262,36420,6,0,B|250:236|250:236|361:240,1,160
442,279,36976,1,0,0:0:0:0:
497,200,37161,2,0,L|494:116,1,80
476,25,37531,1,0,0:0:0:0:
476,25,37716,6,0,P|412:62|313:35,1,160
229,0,38272,1,0,0:0:0:0:
255,146,38457,1,0,0:0:0:0:
330,47,38642,1,0,0:0:0:0:
167,114,38827,1,0,0:0:0:0:
352,164,39013,1,0,0:0:0:0:
255,146,39198,1,0,0:0:0:0:
403,94,39383,6,0,P|438:153|404:233,1,160
310,251,39939,1,0,0:0:0:0:
231,306,40124,2,0,P|226:354|237:391,1,80
310,251,40494,1,0,0:0:0:0:
229,198,40679,6,0,L|43:200,1,160
130,273,41235,1,0,0:0:0:0:
171,123,41420,2,0,L|172:36,2,80
229,198,41976,1,0,0:0:0:0:
94,119,42161,1,0,0:0:0:0:
262,93,42346,6,0,L|350:91,1,80
426,136,42716,1,0,0:0:0:0:
365,210,42902,2,0,P|355:255|371:301,1,80
267,362,43272,2,0,P|277:317|261:271,1,80
200,217,43642,1,0,0:0:0:0:
115,172,43827,6,0,L|19:173,2,80
200,217,44383,1,0,0:0:0:0:
183,102,44568,1,0,0:0:0:0:
133,271,44753,2,0,P|216:303|281:249,1,160
305,178,45309,6,0,P|352:170|398:180,1,80
460,231,45679,1,0,0:0:0:0:
398,304,45864,2,0,L|396:387,2,80
460,231,46420,1,0,0:0:0:0:
460,231,46605,1,0,0:0:0:0:
383,173,46790,6,0,P|311:138|236:182,1,160
218,244,47346,1,0,0:0:0:0:
256,331,47531,1,0,0:0:0:0:
312,225,47716,1,0,0:0:0:0:
135,207,47902,1,0,0:0:0:0:
383,173,48087,1,0,0:0:0:0:
256,192,48272,12,0,53087,0:0:0:0:
