osu file format v14

[General]
AudioFilename: audio.mp3
AudioLeadIn: 0
PreviewTime: 108941
Countdown: 1
SampleSet: Normal
StackLeniency: 0.7
Mode: 0
LetterboxInBreaks: 0
WidescreenStoryboard: 1

[Editor]
Bookmarks: 19355,44156,52294,77831,108687,142555,169679,208001
DistanceSpacing: 0.7
BeatDivisor: 6
GridSize: 8
TimelineZoom: 1.477664

[Metadata]
Title:Swing Orchestral Showreel
TitleUnicode:Swing Orchestral Showreel
Artist:Down For The Count
ArtistUnicode:Down For The Count
Creator:banter
Version:Jazz Compilation
Source:
Tags:
BeatmapID:1759816
BeatmapSetID:840274

[Difficulty]
HPDrainRate:4
CircleSize:3.9
OverallDifficulty:8
ApproachRate:9.4
SliderMultiplier:1.25
SliderTickRate:1

[Events]
//Background and Video events
//Break Periods
//Storyboard Layer 0 (Background)
//Storyboard Layer 1 (Fail)
//Storyboard Layer 2 (Pass)
//Storyboard Layer 3 (Foreground)
//Storyboard Sound Samples

[TimingPoints]
1063,346,4,1,0,60,1,0
1063,-80,4,1,0,60,0,0
1409,246.939565217391,4,1,0,60,1,0
1409,-80,4,1,0,60,0,0
2396,243,4,1,0,60,1,0
2396,-80,4,1,0,60,0,0
3368,246,4,1,0,60,1,0
3368,-80,4,1,0,60,0,0
4352,249.36,4,1,0,60,1,0
4352,-80,4,1,0,60,0,0
4975,-100,4,1,0,60,0,0
5349,241,4,1,0,60,1,0
6313,249.7,4,1,0,60,1,0
7311,251,4,1,0,60,1,0
8105,-100,4,2,0,5,0,0
8315,246,4,1,0,60,1,0
9299,240,4,1,0,60,1,0
10259,255,4,1,0,60,1,0
11279,262.869565217391,4,1,0,60,1,0
11279,-75.187969924812,4,1,0,60,0,0
12330,232.869565217391,4,1,0,60,1,0
12330,-75.187969924812,4,1,0,60,0,0
12562,265.869565217391,4,1,0,60,1,0
12761,-75.187969924812,4,1,0,60,0,0
13359,260.869565217391,4,1,0,60,1,0
13359,-75.187969924812,4,1,0,60,0,0
14098,-75.187969924812,4,2,0,5,0,0
14141,-75.187969924812,4,1,0,60,0,0
14402,258.269565217391,4,1,0,60,1,0
14402,-75.187969924812,4,1,0,60,0,0
14595,-75.187969924812,4,1,0,5,0,0
14660,-75.187969924812,4,1,0,60,0,0
14757,-75.187969924812,4,1,0,5,0,0
14853,-75.187969924812,4,1,0,60,0,0
15047,-75.187969924812,4,1,0,5,0,0
15112,-75.187969924812,4,1,0,60,0,0
15435,257.869565217391,4,1,0,60,1,0
15435,-75.187969924812,4,1,0,60,0,0
15628,-75.187969924812,4,1,0,5,0,0
15692,-75.187969924812,4,1,0,60,0,0
16305,-75.187969924812,4,1,0,5,0,0
16423,-67.0241286863271,4,1,0,60,0,0
16466,256.869565217391,4,1,0,60,1,0
16594,-100,4,1,0,5,0,0
16658,-100,4,1,0,60,0,0
17407,-100,4,1,0,45,0,0
17493,264.869565217391,4,1,0,60,1,0
17493,-100,4,1,0,60,0,0
18022,-67.3854447439353,4,1,0,50,0,0
18199,-75.187969924812,4,1,0,30,0,0
18287,-67.3854447439353,4,1,0,40,0,0
18464,-75.187969924812,4,1,0,20,0,0
18552,262.869565217391,4,1,0,60,1,0
18552,-67.3854447439353,4,1,0,35,0,0
18727,-75.187969924812,4,1,0,15,0,0
18814,-96.1538461538461,4,1,0,10,0,0
19355,550.45871559633,4,1,0,40,1,0
19355,-50,4,1,0,40,0,0
19905,594,4,1,0,40,1,0
20201,288,4,1,0,40,1,0
21353,298.3,4,1,0,40,1,0
22098,-100,4,1,0,33,0,0
22247,-100,4,1,0,40,0,0
22397,-100,4,1,0,33,0,0
22546,290.682926829268,4,1,0,40,1,0
22836,-100,4,1,0,40,0,0
23708,296.682926829268,4,1,0,40,1,0
24894,294.682926829268,4,1,0,40,1,0
26072,292.582926829268,4,1,0,40,1,0
26072,-100,4,1,0,50,0,0
26218,-100,4,1,0,40,0,0
26657,-100,4,1,0,50,0,0
26803,-100,4,1,0,60,0,0
27242,294.282926829268,4,1,0,60,1,0
27781,-100,4,1,0,40,0,0
28026,-100,4,1,0,60,0,0
28321,-33.3333333333333,4,1,0,40,0,0
28419,294.332926829268,4,1,0,60,1,0
29596,302.282926829269,4,1,0,60,1,0
29898,-100,4,2,0,10,0,0
30805,296.382926829268,4,1,0,60,1,0
33176,309.682926829268,4,1,0,60,1,0
34414,288.682926829268,4,1,0,60,1,0
34654,-100,4,2,0,10,0,0
35568,295.782926829268,4,1,0,60,1,0
36751,297.382926829268,4,1,0,60,1,0
37605,-100.704934541793,4,1,0,60,0,0
37940,304.282926829268,4,1,0,60,1,0
39157,302.382926829268,4,1,0,60,1,0
40366,299.082926829268,4,1,0,60,1,0
41562,305.382926829268,4,1,0,60,1,0
42783,305.382926829268,4,1,0,60,1,0
43126,-100,4,1,0,20,0,0
43775,-100,4,2,0,5,0,0
44004,293.882926829268,4,1,0,60,1,0
44156,509.40272530458,4,1,0,35,1,0
44601,-100,4,2,0,5,0,0
44729,-100,4,1,0,35,0,0
45111,-100,4,2,0,5,0,0
45174,503,4,1,0,60,1,0
45551,-100,4,2,0,10,0,0
45677,-100,4,1,0,40,0,0
46683,-100,4,1,0,55,0,0
47018,-100,4,1,0,40,0,0
47186,477,4,1,0,60,1,0
47663,-100,4,1,0,40,0,0
47981,-100,4,1,0,60,0,0
48140,-100,4,1,0,36,0,0
48458,-100,4,1,0,45,0,0
48617,-100,4,1,0,60,0,0
48935,-100,4,1,0,47,0,0
49094,492,4,1,0,60,1,0
49524,-100,4,2,0,5,0,0
49586,-100,4,1,0,40,0,0
50078,-100,4,1,0,50,0,0
50406,-100,4,1,0,45,0,0
50570,-100,4,1,0,55,0,0
50898,-100,4,1,0,45,0,0
51062,493,4,1,0,60,1,0
51390,-100,4,1,0,50,0,0
52048,-100,4,1,0,60,0,0
52130,-100,4,1,0,40,0,0
52869,-100,4,2,0,35,0,0
53034,483.8,4,1,0,60,1,0
54324,-100,4,2,0,5,0,0
54485,-100,4,1,0,60,0,0
54969,469.6,4,1,0,60,1,0
55438,-100,4,1,0,40,0,0
55516,-100,4,1,0,60,0,0
56847,513.6,4,1,0,60,1,0
57189,-100,4,1,0,45,0,0
57360,479.6,4,1,0,60,1,0
57679,-100,4,1,0,45,0,0
57839,-100,4,1,0,60,0,0
58159,-100,4,1,0,45,0,0
58319,476.6,4,1,0,60,1,0
58477,-100,4,1,0,60,0,0
58795,490.6,4,1,0,60,1,0
59694,-100,4,2,0,5,0,0
59776,-100,4,1,0,60,0,0
60757,503.6,4,1,0,60,1,0
61260,487.80487804878,4,1,0,60,1,0
62723,488.50487804878,4,1,0,60,1,0
69887,-100,4,2,0,5,0,0
70050,-100,4,1,0,60,0,0
72493,500.31487804878,4,1,0,60,1,0
74494,494.80487804878,4,1,0,60,1,0
76473,487.80487804878,4,1,0,60,1,0
76473,-100,4,1,0,39,0,0
76960,-100,4,2,0,5,0,0
77831,425,4,1,0,60,1,0
78681,427.371428571429,4,1,0,60,1,0
79856,-100,4,1,0,5,0,0
79963,-100,4,1,0,60,0,0
81138,-100,4,1,0,5,0,0
81245,-100,4,1,0,60,0,0
81993,-102.669404517454,4,1,0,60,0,0
82099,443.971428571429,4,1,0,60,1,0
83430,432.971428571429,4,1,0,60,1,0
85161,333.333333333333,4,1,0,60,1,0
85496,402.971428571429,4,1,0,60,1,0
85898,607.666666666667,4,1,0,60,1,0
85898,-52.6315789473684,4,1,0,60,0,0
86505,438.538461538462,4,1,0,60,1,0
86505,-71.4285714285714,4,1,0,60,0,0
87820,411.971428571429,4,1,0,60,1,0
89467,443.571428571429,4,1,0,60,1,0
90797,426.971428571429,4,1,0,60,1,0
91223,-117.647058823529,4,1,0,60,0,0
91650,-142.857142857143,4,1,0,60,0,0
92077,435.77142857143,4,1,0,60,1,0
94255,485.971428571429,4,1,0,60,1,0
94740,431.371428571429,4,1,0,60,1,0
96034,-80,4,1,0,60,0,0
96896,-90.9090909090909,4,1,0,60,0,0
97328,-71.4285714285714,4,1,0,60,0,0
98083,-79.8084596967279,4,1,0,60,0,0
98190,446.071428571429,4,1,0,60,1,0
98636,-71.4285714285714,4,1,0,60,0,0
101758,440.771428571429,4,1,0,60,1,0
105284,435.971428571429,4,1,0,60,1,0
107027,445,4,1,0,60,1,0
108687,254.869565217391,4,1,0,60,1,0
109451,251.046025104603,4,1,0,60,1,0
113467,256.069565217391,4,1,0,60,1,0
116539,252.869565217391,4,1,0,60,1,0
118561,260.869565217391,4,1,0,60,1,0
119604,258.969565217391,4,1,0,60,1,0
127891,265.669565217391,4,1,0,60,1,0
130016,263.069565217391,4,1,0,60,1,0
134225,263.669565217391,4,1,0,60,1,0
137389,262.669565217391,4,1,0,60,1,0
139490,258.969565217391,4,1,0,60,1,0
141561,263.669565217391,4,1,0,60,1,0
142555,385.296774193548,4,1,0,60,1,0
144096,385.296774193548,4,1,0,60,1,0
148719,370.296774193548,4,1,0,60,1,0
149459,395.296774193548,4,1,0,60,1,0
150249,382.496774193548,4,1,0,60,1,0
154838,385.096774193548,4,1,0,60,1,0
159459,380.696774193548,4,1,0,60,1,0
164027,386.796774193548,4,1,0,60,1,0
165574,387.196774193548,4,1,0,60,1,0
168671,395.296774193548,4,1,0,60,1,0
169679,565.2,4,1,0,60,1,0
171939,566.5,4,1,0,60,1,0
174205,569.9,4,1,0,60,1,0
176484,565.2,4,1,0,60,1,0
178744,579.9,4,1,0,60,1,0
183383,585.9,4,1,0,60,1,0
188070,580.8,4,1,0,60,1,0
195039,575.5,4,1,0,60,1,0
197341,560.9,4,1,0,60,1,0
199584,567.3,4,1,0,60,1,0
201853,572.3,4,1,0,60,1,0
206431,560.9,4,1,0,60,1,0
208001,507,4,1,0,60,1,0
208508,447.538461538462,4,1,0,60,1,0
209850,450.538461538462,4,1,0,60,1,0
211652,439.838461538462,4,1,0,60,1,0
215170,446.838461538462,4,1,0,60,1,0
216957,444.438461538462,4,1,0,60,1,0
220512,447.838461538462,4,1,0,60,1,0
224094,437.038461538462,4,1,0,60,1,0
224968,456.838461538462,4,1,0,60,1,0
225424,439.838461538462,4,1,0,60,1,0
225754,439.838461538462,4,1,0,60,1,0
225865,442.838461538462,4,1,0,60,1,0
229407,437.938461538462,4,1,0,60,1,0
232910,455.538461538462,4,1,0,60,1,0
233365,453.838461538462,4,1,0,60,1,0
234045,421.654676258993,4,1,0,60,1,0
234888,455.538461538462,4,1,0,60,1,0
236522,414.571428571429,4,1,0,60,1,0
237351,451.538461538462,4,1,0,60,1,0
239157,583.43057176196,4,1,0,60,1,0
239448,453.538461538462,4,1,0,60,1,0
239901,546.139702535909,4,1,0,60,1,0
240174,452.001235470044,4,1,0,60,1,0
240287,824.00604271098,4,1,0,60,1,0
240493,349.757142857143,4,1,0,60,1,0
240842,408,4,1,0,60,1,0
241250,1717.66666666667,4,1,0,60,1,0
242967,342.857142857143,4,1,0,60,1,0

[HitObjects]
192,92,1063,6,0,P|291:80|345:96,1,156.25
417,210,1655,2,0,L|409:296,1,78.125
231,208,2057,2,0,B|133:233|127:176|20:201,1,214.84375
34,380,2639,2,0,P|51:345|57:306,1,78.125
167,345,3033,6,0,P|172:231|137:126,1,214.84375
111,117,3614,1,0,0:0:0:0:
111,117,3737,2,0,L|202:106,1,78.125
234,23,4013,2,0,L|399:170,1,214.84375
483,120,4601,2,0,L|495:217,1,97.65625
351,333,4975,6,0,L|374:146,1,187.5
313,2,5590,2,0,L|324:95,1,62.5
226,351,5951,2,0,L|249:164,1,187.5
188,20,6562,2,0,L|199:113,1,62.5
101,369,6937,6,0,L|118:229,1,125
210,199,7311,2,0,L|192:59,1,125
22,72,7813,1,0,0:0:0:0:
28,85,7980,2,0,P|58:95|97:92,1,62.5
213,51,8315,2,0,L|274:55,2,41.6666666666667
316,126,8561,2,0,L|413:116,1,93.75
409,117,8807,1,0,0:0:0:0:
476,183,8930,6,0,P|463:277|480:369,1,187.5
374,352,9539,2,0,P|341:346|309:349,1,62.5
95,262,9899,2,0,P|187:280|280:268,1,187.5
257,126,10429,2,0,L|248:200,1,62.5
341,74,10684,2,0,L|333:11,1,62.5
436,134,10939,5,0,0:0:0:0:
436,134,11024,1,0,0:0:0:0:
512,268,11279,2,0,P|451:279|390:267,1,125
345,196,11541,1,0,0:0:0:0:
95,262,11804,2,0,P|156:252|209:220,1,124.687494863033
227,137,12067,1,0,0:0:0:0:
427,33,12330,6,0,P|372:63|333:111,1,125
345,196,12562,1,0,0:0:0:0:
363,350,12761,2,0,B|380:288|380:288|370:228,1,125
333,111,13027,1,0,0:0:0:0:
333,111,13126,1,0,0:0:0:0:
164,46,13359,2,0,B|147:88|148:136|148:136|118:101,1,138.541660958926
12,15,13793,5,0,0:0:0:0:
12,15,13924,2,0,P|27:79|27:136,1,110.833328767141
8,204,14141,1,0,0:0:0:0:
144,218,14402,2,0,L|274:203,1,125
315,299,14660,2,0,L|392:241,1,62.5
457,304,14853,2,0,L|509:183,1,125
488,90,15133,5,0,0:0:0:0:
488,90,15176,2,0,P|420:85|348:61,1,138.541660958926
231,1,15435,2,0,P|193:50|179:110,1,125
222,188,15692,1,0,0:0:0:0:
390,234,15950,2,0,P|405:293|391:372,1,138.541660958926
310,373,16208,2,0,L|220:362,1,62.5
142,289,16423,6,0,L|276:272,1,125
390,234,16680,1,0,0:0:0:0:
326,109,16936,2,0,P|307:149|300:185,1,62.5
404,21,17150,2,0,P|345:-2|266:3,1,125
193,70,17493,1,0,0:0:0:0:
110,0,17713,1,0,0:0:0:0:
110,0,17802,1,0,0:0:0:0:
14,158,18022,6,0,L|138:148,1,125
270,245,18287,2,0,L|145:235,1,125
44,247,18552,2,0,L|33:372,1,123.666666855367
145,235,18814,2,0,L|135:110,1,87.499997329712
303,356,19355,6,0,B|365:342|365:342|425:354,2,125
155,382,20202,2,0,P|130:324|124:262,1,125
151,28,20777,2,0,P|175:85|181:147,1,125
297,223,21353,6,0,P|357:208|419:213,1,125
293,325,21949,2,0,P|252:313|217:290,1,62.5
164,367,22247,2,0,P|143:330|134:289,1,62.5
43,305,22546,2,0,P|54:264|77:229,1,62.5
166,143,22836,2,0,P|67:148|22:131,2,125
264,66,23708,6,0,L|284:152,1,62.5
383,139,24004,2,0,L|363:225,1,62.5
275,282,24301,2,0,L|260:221,1,62.5
379,294,24598,2,0,L|359:380,1,62.5
243,369,24894,2,0,L|153:360,2,62.5
58,361,25385,2,0,P|82:303|94:242,1,125
53,84,25778,2,0,P|39:112|34:147,1,62.5
179,12,26072,6,0,P|192:40|198:75,1,62.5
218,153,26364,2,0,P|231:124|237:90,1,62.5
414,74,26657,2,0,P|384:63|356:42,1,62.5
342,12,26949,1,0,0:0:0:0:
432,234,27242,2,0,L|442:330,1,93.75
335,354,27781,2,0,L|323:240,1,104.166666666667
322,225,28124,1,0,0:0:0:0:
110,209,28321,5,0,0:0:0:0:
110,209,28419,2,0,L|114:327,1,104.166666666667
190,154,28958,1,0,0:0:0:0:
190,154,29105,2,0,L|187:101,1,41.6666666666667
186,23,29301,1,0,0:0:0:0:
186,23,29400,1,0,0:0:0:0:
15,75,29646,2,0,L|23:283,1,187.5
360,274,30805,6,0,P|298:281|237:269,1,125
114,302,31447,2,0,L|135:162,1,125
196,31,31941,1,0,0:0:0:0:
195,30,32039,2,0,L|209:129,1,83.3333333333333
299,224,32336,2,0,L|311:141,1,83.3333333333333
458,29,32830,2,0,P|470:90|463:141,1,104.166666666667
428,164,33176,6,0,P|419:210|429:272,1,104.166666666667
488,345,33537,1,0,0:0:0:0:
355,324,33846,2,0,P|292:316|233:335,1,125
5,234,34462,2,0,P|95:259|189:237,1,187.5
104,19,35617,6,0,P|92:80|99:141,1,125
5,234,36110,2,0,P|36:286|83:328,1,125
107,332,36504,1,0,0:0:0:0:
279,232,36701,1,0,0:0:0:0:
278,231,36800,2,0,L|195:238,1,83.3333333333333
266,327,37097,2,0,L|328:331,1,62.5
510,356,37605,6,0,P|472:287|461:210,1,156.25
448,96,38244,2,0,B|432:88|432:88|416:96|416:96|400:88|400:88|384:96|384:96|368:88|368:88|352:96|352:96|336:88|336:88|320:96|320:96|304:88|304:88|288:96|288:96|272:88|272:88|256:96|256:96|240:88|240:88|224:96|224:96|208:88|208:88|192:96|192:96|176:88|176:88|160:96|160:96|137:87,1,343.75
317,8,39383,1,0,0:0:0:0:
116,74,39686,1,0,0:0:0:0:
193,132,39799,2,0,P|204:164|203:196,1,62.5
109,178,40064,1,0,0:0:0:0:
19,320,40366,6,0,P|78:302|138:315,1,125
259,357,40852,2,0,B|322:364|322:364|382:348,1,125
322,252,41263,2,0,L|316:294,1,31.25
400,271,41450,1,0,0:0:0:0:
400,271,41752,2,0,L|420:130,1,140.625
407,51,42210,2,0,P|338:58|292:48,1,109.375
151,173,42783,6,0,P|179:146|202:90,1,93.75
126,46,43088,2,0,B|74:73|14:48|14:48|31:109|31:109|13:160|25:209,1,281.25
205,360,44219,6,0,P|237:326|250:281,1,93.75
184,175,44729,2,0,P|197:219|229:253,1,93.75
263,249,45174,2,0,P|308:238|354:249,1,93.75
373,156,45677,2,0,B|423:178|423:178|454:241,1,125
270,149,46683,2,0,P|282:104|314:70,1,83.3333333333333
398,29,47186,6,0,P|352:40|307:29,1,93.75
213,0,47663,2,0,L|229:99,1,83.3333333333333
128,186,48140,2,0,L|142:93,1,83.3333333333333
109,9,48617,2,0,P|69:33|51:66,1,83.3333333333333
0,179,49094,2,0,P|50:188|127:166,1,125
281,141,50078,6,0,P|315:164|335:200,1,83.3333333333333
427,169,50570,2,0,P|434:209|423:249,1,83.3333333333333
509,290,51062,2,0,P|486:323|450:343,1,83.3333333333333
298,294,52048,2,0,B|198:262|198:320|94:291,1,208.333333333333
65,112,53034,2,0,P|126:151|143:199,1,125
221,122,54001,2,0,P|262:132|303:126,1,83.3333333333333
388,14,54485,6,0,L|403:112,1,83.3333333333333
484,147,54969,2,0,L|469:245,1,83.3333333333333
401,357,55438,2,0,L|388:274,1,83.3333333333333
303,126,55908,2,0,L|284:249,1,125
264,348,56690,1,0,0:0:0:0:
173,331,56847,6,0,P|155:285|158:240,1,83.3333333333333
65,232,57360,2,0,P|84:186|118:157,1,83.3333333333333
58,85,57839,2,0,P|104:67|149:70,2,83.3333333333333
53,242,58716,1,0,0:0:0:0:
230,278,59285,6,0,P|297:271|348:288,1,104.166666666667
371,302,59776,2,0,L|386:212,1,83.3333333333333
475,193,60266,2,0,L|461:110,1,83.3333333333333
508,17,60757,2,0,L|384:37,1,125
264,141,61747,2,0,P|201:143|174:131,1,83.3333333333333
146,62,62235,1,0,0:0:0:0:
154,245,62560,1,0,0:0:0:0:
153,280,62723,2,0,P|91:285|20:252,1,125
47,81,63700,6,0,P|63:118|62:174,1,83.3333333333333
32,262,64188,2,0,P|15:300|14:342,1,83.3333333333333
108,381,64677,2,0,L|202:372,1,83.3333333333333
281,364,65165,1,0,0:0:0:0:
222,251,65491,1,0,0:0:0:0:
312,241,65654,2,0,L|394:233,1,83.3333333333333
498,287,66142,2,0,P|511:244|505:189,1,83.3333333333333
361,139,66631,2,0,P|402:140|442:127,1,83.3333333333333
482,38,67119,1,0,0:0:0:0:
189,146,67608,6,0,P|147:139|111:120,1,83.3333333333333
185,245,68096,2,0,P|226:238|262:219,1,83.3333333333333
189,344,68585,2,0,P|139:338|73:299,1,125
160,167,69562,2,0,P|179:203|185:244,1,83.3333333333333
189,344,70050,6,0,P|230:337|266:318,1,83.3333333333333
321,235,70539,2,0,P|305:273|304:315,1,83.3333333333333
421,363,71027,2,0,P|384:343|343:337,1,83.3333333333333
399,261,71516,2,0,P|442:258|521:211,1,125
430,71,72330,1,0,0:0:0:0:
336,43,72493,6,0,L|350:137,1,83.3333333333333
237,197,72993,2,0,L|249:114,1,83.3333333333333
138,43,73493,2,0,L|150:125,1,83.3333333333333
70,177,73993,2,0,L|57:259,1,83.3333333333333
210,221,74494,1,0,0:0:0:0:
328,375,74988,6,0,P|317:327|316:282,1,83.3333333333333
439,351,75483,2,0,P|450:303|449:250,1,83.3333333333333
495,179,75978,2,0,P|457:171|415:172,1,62.5
326,203,76473,2,0,P|256:203|187:188,1,125
290,75,78149,5,0,0:0:0:0:
290,75,78256,1,0,0:0:0:0:
154,30,78681,2,0,L|171:181,1,125
343,252,79428,2,0,L|192:235,1,125
161,313,79963,2,0,L|68:324,1,93.75
284,153,80711,2,0,L|408:166,1,125
509,209,81245,2,0,L|496:102,1,93.75
264,19,81993,2,0,L|250:143,1,125
152,135,82542,2,0,L|162:228,1,93.75
378,351,83430,6,0,P|320:355|236:327,1,125
247,241,84295,1,0,0:0:0:0:
120,315,84728,2,0,P|173:314|223:333,1,93.75
256,338,85161,2,0,L|355:329,1,83.3333333333333
433,317,85494,1,0,0:0:0:0:
441,306,85630,1,0,0:0:0:0:
334,234,85898,6,0,P|301:144|308:29,1,197.916661381722
392,0,86505,2,0,P|336:11|279:1,1,116.666663106283
209,59,86943,2,0,P|151:48|95:60,1,116.666663106283
66,146,87382,1,0,0:0:0:0:
103,304,87674,1,0,0:0:0:0:
128,317,87820,6,0,L|226:303,1,83.3333333333333
210,305,88163,1,0,0:0:0:0:
210,305,88231,1,0,0:0:0:0:
341,337,88506,1,0,0:0:0:0:
341,337,88643,2,0,L|327:239,1,83.3333333333333
456,302,89055,2,0,L|444:384,1,83.3333333333333
411,221,89467,5,0,0:0:0:0:
286,99,89799,1,0,0:0:0:0:
300,81,89910,2,0,P|340:72|395:77,1,93.75
512,108,90354,2,0,P|472:117|417:112,1,93.75
340,173,90797,6,0,L|311:266,1,93.75
219,214,91223,2,0,L|191:300,1,79.6875015199185
98,255,91650,2,0,L|77:321,1,65.624997997284
0,206,92077,5,0,0:0:0:0:
184,126,92403,1,0,0:0:0:0:
184,126,92839,2,0,B|117:121|117:121|82:108|68:73,1,125
208,27,93384,2,0,P|251:44|280:80,1,93.75
375,52,93820,2,0,P|383:86|379:118,1,62.5
474,138,94146,1,0,0:0:0:0:
474,138,94255,2,0,P|457:181|421:210,1,93.75
315,183,94740,1,0,0:0:0:0:
67,316,95171,6,0,L|174:321,1,93.75
259,361,95602,2,0,L|254:267,1,93.75
169,206,96034,2,0,B|158:147|158:147|178:94,1,117.1875
290,103,96465,2,0,B|280:44|280:44|244:0,1,117.1875
116,26,96896,2,0,L|0:13,1,103.125003147125
40,132,97328,2,0,L|201:114,1,131.249995994568
290,103,97759,1,0,0:0:0:0:
402,348,98083,6,0,B|376:294|376:294|394:157,1,160
512,103,98636,2,0,B|375:85,1,131.249995994568
270,72,99082,1,0,0:0:0:0:
259,345,99528,5,0,0:0:0:0:
28,198,99974,5,0,0:0:0:0:
