osu file format v14

[General]
AudioFilename: audio.mp3
AudioLeadIn: 0
PreviewTime: 28509
Countdown: 0
SampleSet: Normal
StackLeniency: 0.7
Mode: 0
LetterboxInBreaks: 1
WidescreenStoryboard: 1

[Editor]
DistanceSpacing: 1.9
BeatDivisor: 4
GridSize: 32
TimelineZoom: 1.7

[Metadata]
Title:nanoya
TitleUnicode:nanoya
Artist:Down
ArtistUnicode:Down
Creator:nanoya
Version:nanoya
Source:東方妖々夢 ~ Perfect Cherry Blossom.
Tags:西行寺幽々子 Saigyouji Yuyuko 幽雅に咲かせ、墨染の桜 ~ Border of Life ZUN Yuuga ni sakase, sumizome no sakura Bloom Nobly Ink-Black Cherry Blossom th7 touhou Youyoumu 7 instrumental video game folk 東方Project etn satonodiamond erisu momoyo zekk down Pigeons Arsalan kowari
BeatmapID:4192228
BeatmapSetID:2014469

[Difficulty]
HPDrainRate:4
CircleSize:4
OverallDifficulty:9
ApproachRate:8.5
SliderMultiplier:1.8
SliderTickRate:1

[Events]
//Background and Video events
0,0,"bg.jpg",0,0
//Break Periods
2,127119,134688
//Storyboard Layer 0 (Background)
//Storyboard Layer 1 (Fail)
//Storyboard Layer 2 (Pass)
//Storyboard Layer 3 (Foreground)
//Storyboard Layer 4 (Overlay)
//Storyboard Sound Samples

[TimingPoints]
1510,428.571428571429,4,2,0,50,1,0
1510,-125,4,2,0,50,0,0
15438,428.571428571429,4,2,0,70,1,0
15438,-111.111111111111,4,2,0,70,0,0
29152,-99.9999999999999,4,1,0,80,0,0
56580,-125,4,2,0,60,0,0
63438,-111.111111111111,4,2,0,60,0,0
70295,-999.99999999999,4,2,0,60,0,0
72009,-125,4,2,0,50,0,0
85723,-76.9230769230769,4,1,0,80,0,0
92580,-100,4,1,0,80,0,0
113152,-58.8235294117647,4,1,0,100,0,1
120009,-55.5555555555556,4,1,0,100,0,1
126866,-100,4,1,0,80,0,0
126920,-100,4,1,0,5,0,0
135438,-100,4,1,0,70,0,0
138866,-100,4,1,0,50,0,0
140473,-100,4,1,0,5,0,0
140580,-125,4,2,0,60,0,0
147438,-111.111111111111,4,1,0,80,0,0
154295,-111.111111111111,4,1,0,5,0,0

[Colours]
Combo1 : 140,140,140
Combo2 : 236,183,249
Combo3 : 185,228,244
Combo4 : 173,115,225
Combo5 : 77,105,221
Combo6 : 196,196,196

[HitObjects]
63,35,1510,70,0,B|15:147|92:250,2,216,2|0|2,0:3|0:0|0:0,0:0:0:0:
368,5,3224,2,0,B|437:97|389:209,2,216,2|0|2,0:3|0:0|0:0,0:0:0:0:
156,129,4938,2,0,P|208:122|301:104,1,144,2|2,0:3|0:0,0:0:0:0:
415,333,5795,2,0,P|345:315|275:305,1,144,2|2,0:3|0:0,0:0:0:0:
278,309,6652,5,2,0:3:0:0:
278,309,6867,1,0,0:0:0:0:
189,253,7081,1,2,0:3:0:0:
189,253,7295,1,0,0:0:0:0:
227,156,7510,1,2,0:3:0:0:
227,156,7724,1,0,0:0:0:0:
337,176,7938,1,2,0:3:0:0:
307,37,8152,1,2,0:0:0:0:
425,97,8367,70,0,B|364:108|369:75|272:89,1,144,2|0,0:3|0:0,0:0:0:0:
161,12,9010,2,0,P|172:55|175:99,1,72,2|0,0:3|0:0,0:0:0:0:
130,181,9438,1,2,0:0:0:0:
215,258,9652,2,0,P|221:204|231:171,1,72,2|0,0:3|0:0,0:0:0:0:
53,131,10081,6,0,B|131:177|102:268,1,144,2|0,0:3|0:0,0:0:0:0:
33,369,10724,2,0,P|69:358|112:355,1,72,2|0,0:3|0:0,0:0:0:0:
206,363,11152,1,2,0:0:0:0:
225,187,11367,2,0,P|211:228|203:260,1,72,2|0,0:3|0:0,0:0:0:0:
286,296,11795,70,0,P|356:283|444:278,1,144,2|0,0:3|0:0,0:0:0:0:
283,103,12652,2,0,P|213:90|125:85,1,144,2|0,0:3|0:0,0:0:0:0:
140,84,13510,5,2,0:3:0:0:
81,150,13724,1,0,0:0:0:0:
118,225,13938,1,2,0:3:0:0:
206,213,14152,1,0,0:0:0:0:
257,282,14367,1,2,0:3:0:0:
215,349,14581,1,2,0:0:0:0:
310,198,14795,69,0,1:0:0:0:
320,162,14902,1,0,1:0:0:0:
318,122,15010,1,0,1:0:0:0:
302,90,15117,1,0,1:0:0:0:
302,90,15438,21,6,1:1:0:0:
478,128,15652,1,8,0:0:0:0:
408,16,15866,2,0,P|401:56|399:109,1,80.9999975280763,0|8,1:0|0:0,0:0:0:0:
219,219,16295,2,0,P|229:171|230:126,1,80.9999975280763,0|8,1:0|0:0,0:0:0:0:
231,98,16616,1,0,0:0:0:0:
195,114,16723,1,0,1:0:0:0:
154,113,16830,1,0,0:0:0:0:
118,101,16938,2,0,L|74:84,1,40.4999987640381,10|0,0:0|0:0,0:0:0:0:
8,36,17152,22,2,B|42:95|38:168,1,121.499996292114,0|0,1:0|0:0,1:0:0:0:
24,179,17580,1,0,1:0:0:0:
125,246,17795,1,8,0:0:0:0:
0,315,18009,1,0,1:0:0:0:
157,364,18223,53,8,0:0:0:0:
41,247,18438,1,0,1:0:0:0:
228,195,18652,1,10,0:0:0:0:
228,195,18759,1,0,0:0:0:0:
228,195,18866,2,2,P|234:230|234:288,1,80.9999975280763,0|8,1:0|0:0,0:0:0:0:
355,142,19295,2,0,P|349:107|349:49,1,80.9999975280763,0|8,1:0|0:0,0:0:0:0:
176,6,19723,2,0,P|182:41|182:99,1,80.9999975280763,0|8,1:0|0:0,0:0:0:0:
61,184,20152,1,0,1:0:0:0:
157,243,20366,22,2,B|236:227|334:227,1,161.999995056153,8|8,0:0|0:0,1:0:0:0:
481,362,21009,2,0,P|472:316|471:265,1,80.9999975280763,0|8,1:0|0:0,0:0:0:0:
357,320,21438,1,0,1:0:0:0:
440,187,21652,1,8,0:0:0:0:
440,187,21759,1,0,3:0:0:0:
440,187,21866,1,0,3:0:0:0:
379,44,22080,1,8,0:3:0:0:
213,14,22295,54,2,B|302:64|266:165,1,161.999995056153,0|0,1:3|1:0,1:0:0:0:
80,288,22938,1,8,0:0:0:0:
238,242,23152,1,0,1:0:0:0:
80,288,23366,1,8,0:0:0:0:
128,117,23580,1,0,1:0:0:0:
2,204,23795,22,2,B|91:188|73:224|168:209,1,161.999995056153,8|8,0:0|0:0,0:1:0:0:
307,306,24438,1,0,1:0:0:0:
428,235,24652,1,8,0:0:0:0:
428,235,24759,1,0,0:0:0:0:
428,235,24866,1,0,1:0:0:0:
441,72,25080,1,8,0:0:0:0:
414,88,25188,1,0,0:0:0:0:
383,98,25295,1,0,1:0:0:0:
357,103,25402,1,0,0:0:0:0:
327,101,25509,2,0,L|277:92,1,40.4999987640381,8|0,0:0|0:0,0:0:0:0:
156,2,25723,54,0,P|166:47|174:101,1,80.9999975280763,4|8,1:0|0:0,0:0:0:0:
291,222,26152,2,0,P|244:212|206:207,1,80.9999975280763,0|8,1:0|0:0,0:0:0:0:
0,164,26580,2,0,P|47:154|85:149,1,80.9999975280763,0|8,1:0|0:0,0:0:0:0:
150,325,27009,1,0,1:0:0:0:
31,379,27223,2,0,B|63:316|29:246,1,121.499996292114,8|0,0:0|0:0,0:0:0:0:
16,243,27652,1,8,0:0:0:0:
131,223,27866,1,0,1:0:0:0:
16,243,28080,21,8,0:0:0:0:
165,80,28295,1,0,1:0:0:0:
0,0,28509,1,8,0:0:0:0:
67,144,28723,1,8,0:3:0:0:
67,144,28938,1,4,0:3:0:0:
220,164,29152,54,2,P|280:157|319:152,1,90,6|8,0:2|0:0,0:0:0:0:
490,245,29580,1,0,0:0:0:0:
490,245,29688,1,0,0:0:0:0:
490,245,29795,1,10,0:0:0:0:
370,77,30009,1,0,0:0:0:0:
512,125,30223,1,8,0:0:0:0:
380,256,30438,1,2,0:0:0:0:
341,259,30545,1,0,0:0:0:0:
310,257,30652,1,8,0:0:0:0:
281,248,30759,1,0,0:0:0:0:
250,237,30866,22,2,P|261:282|266:331,1,90,4|8,0:2|0:0,0:0:0:0:
356,161,31295,1,0,0:0:0:0:
230,103,31509,1,10,0:0:0:0:
194,94,31616,1,0,0:0:0:0:
160,91,31723,1,0,0:0:0:0:
126,100,31830,1,0,0:0:0:0:
90,111,31938,1,8,0:0:0:0:
55,108,32045,1,0,0:0:0:0:
18,97,32152,2,2,B|63:164|27:253,1,135,2|0,0:0|0:0,0:0:0:0:
8,243,32580,53,4,0:2:0:0:
143,317,32795,1,8,0:0:0:0:
263,206,33009,1,2,0:0:0:0:
126,231,33223,1,8,0:0:0:0:
260,308,33438,1,4,0:2:0:0:
226,112,33652,1,8,0:0:0:0:
408,225,33866,1,2,0:0:0:0:
275,201,34080,1,8,0:0:0:0:
349,18,34295,22,2,P|362:63|362:115,1,90,4|8,0:2|0:0,0:0:0:0:
117,204,34723,2,2,P|104:159|104:107,1,90,4|8,0:2|0:0,0:0:0:0:
217,3,35152,1,4,0:2:0:0:
238,37,35259,1,0,0:0:0:0:
250,75,35366,1,8,0:0:0:0:
257,114,35473,1,0,0:0:0:0:
253,154,35580,1,8,0:3:0:0:
239,192,35688,1,8,0:3:0:0:
227,230,35795,1,8,0:0:0:0:
225,270,35902,1,4,0:3:0:0:
235,306,36009,54,2,B|276:206|384:250,1,180,4|0,0:1|0:0,0:0:0:0:
506,144,36652,1,10,0:0:0:0:
506,144,36759,1,0,0:0:0:0:
506,144,36866,1,0,0:0:0:0:
459,305,37080,1,8,0:0:0:0:
362,135,37295,2,0,P|355:90|357:35,1,90,2|8,0:0|0:0,0:0:0:0:
182,0,37723,22,2,P|189:45|187:100,1,90,4|8,0:1|0:0,0:0:0:0:
263,216,38152,1,0,0:0:0:0:
161,313,38366,1,10,0:0:0:0:
134,291,38473,1,0,0:0:0:0:
95,277,38580,1,0,0:0:0:0:
60,273,38688,1,0,0:0:0:0:
25,280,38795,1,8,0:0:0:0:
80,124,39009,1,2,0:0:0:0:
80,124,39116,1,0,0:0:0:0:
80,124,39223,1,8,0:0:0:0:
240,223,39438,53,4,0:2:0:0:
406,177,39652,1,8,0:0:0:0:
346,282,39866,1,2,0:0:0:0:
281,67,40080,1,8,0:0:0:0:
148,218,40295,1,4,0:2:0:0:
312,153,40509,1,8,0:0:0:0:
454,312,40723,1,2,0:0:0:0:
243,245,40938,1,8,0:0:0:0:
353,378,41152,22,0,P|297:372|252:370,1,90,6|8,0:0|0:0,0:0:0:0:
105,125,41580,2,0,P|161:131|206:133,1,90,4|8,0:0|0:0,0:0:0:0:
436,206,42009,1,0,0:0:0:0:
436,206,42116,1,0,0:0:0:0:
436,206,42223,1,8,0:0:0:0:
304,235,42438,53,2,0:0:0:0:
279,277,42545,1,0,0:0:0:0:
234,298,42652,1,10,0:0:0:0:
184,293,42759,1,0,0:0:0:0:
148,264,42866,2,2,P|138:217|122:172,1,90,4|8,0:2|0:0,0:0:0:0:
6,232,43295,1,0,0:0:0:0:
80,40,43509,1,10,0:0:0:0:
103,64,43616,1,0,0:0:0:0:
136,75,43723,1,0,0:0:0:0:
166,77,43830,1,0,0:0:0:0:
197,72,43938,1,8,0:0:0:0:
380,15,44152,2,0,P|433:12|485:3,1,90,2|8,0:0|0:0,0:0:0:0:
426,213,44580,22,2,P|379:202|325:195,1,90,4|8,0:2|0:0,0:0:0:0:
198,108,45009,1,0,0:0:0:0:
198,108,45116,1,0,0:0:0:0:
198,108,45223,1,10,0:0:0:0:
186,347,45438,1,0,0:0:0:0:
192,310,45545,1,0,0:0:0:0:
186,272,45652,1,8,0:0:0:0:
168,237,45759,1,0,0:0:0:0:
136,212,45866,1,2,0:0:0:0:
14,279,46080,53,8,0:0:0:0:
14,279,46188,1,0,0:0:0:0:
14,279,46295,1,4,0:2:0:0:
136,212,46509,1,8,0:0:0:0:
13,97,46723,1,2,0:0:0:0:
124,304,46938,1,8,0:0:0:0:
259,119,47152,1,4,0:2:0:0:
71,159,47366,1,8,0:0:0:0:
163,22,47580,1,2,0:0:0:0:
254,236,47795,1,8,0:0:0:0:
355,117,48009,22,2,P|346:67|342:23,1,90,4|8,0:2|0:0,0:0:0:0:
113,234,48438,2,2,P|122:284|126:328,1,90,4|8,0:2|0:0,0:0:0:0:
257,381,48866,1,4,0:2:0:0:
270,342,48973,1,0,0:0:0:0:
275,301,49080,1,8,0:0:0:0:
272,260,49188,1,0,0:0:0:0:
263,220,49295,1,8,0:3:0:0:
237,188,49402,1,8,0:3:0:0:
225,149,49509,1,8,0:0:0:0:
221,108,49616,1,4,0:3:0:0:
230,68,49723,54,2,B|221:177|103:162,1,180,4|0,0:1|0:0,0:0:0:0:
8,275,50366,2,0,P|63:265|106:262,1,90,10|0,0:0|0:0,0:0:0:0:
266,251,50795,1,8,0:0:0:0:
266,251,50902,1,0,0:0:0:0:
266,251,51009,1,2,0:0:0:0:
367,383,51223,1,8,0:0:0:0:
266,251,51438,22,2,P|274:213|279:150,1,90,4|8,0:2|0:0,0:0:0:0:
133,73,51866,1,0,0:0:0:0:
336,5,52080,1,10,0:0:0:0:
325,48,52188,1,0,0:0:0:0:
330,89,52295,1,0,0:0:0:0:
348,125,52402,1,0,0:0:0:0:
377,152,52509,1,8,0:0:0:0:
501,62,52723,1,2,0:0:0:0:
501,62,52830,1,0,0:0:0:0:
501,62,52937,1,8,0:0:0:0:
342,314,53152,53,4,0:2:0:0:
377,152,53366,1,8,0:0:0:0:
226,34,53580,1,2,0:0:0:0:
276,213,53795,1,8,0:0:0:0:
165,140,54009,1,6,0:2:0:0:
368,45,54223,1,8,0:0:0:0:
208,317,54438,1,2,0:0:0:0:
275,115,54652,1,8,0:0:0:0:
41,268,54866,21,6,0:0:0:0:
215,325,55080,1,8,0:0:0:0:
215,325,55188,1,0,0:0:0:0:
215,325,55295,1,0,0:0:0:0:
100,170,55509,53,8,0:0:0:0:
100,170,55616,1,0,0:0:0:0:
100,170,55723,1,0,0:0:0:0:
130,383,55938,1,8,0:0:0:0:
267,214,56152,1,8,0:3:0:0:
296,220,56259,1,8,0:3:0:0:
323,226,56366,1,4,0:3:0:0:
353,232,56473,1,4,0:3:0:0:
380,239,56580,22,0,B|329:289|363:373,1,144,4|0,1:0|0:0,0:0:0:0:
159,261,57223,2,0,B|211:212|177:128,1,144,2|0,0:3|0:0,0:0:0:0:
9,155,57866,1,2,1:0:0:0:
95,182,58080,1,0,0:0:0:0:
161,12,58295,54,0,P|110:22|65:24,1,72,4|0,0:3|0:0,0:0:0:0:
261,138,58723,2,0,P|253:91|248:54,1,72,2|0,0:0|0:0,0:0:0:0:
344,35,59152,2,0,P|386:44|432:48,1,72,2|0,1:0|0:0,0:0:0:0:
508,156,59580,1,0,0:0:0:0:
372,266,59795,21,8,0:3:0:0:
372,266,59902,1,4,0:3:0:0:
372,266,60009,2,0,B|427:202|374:130,1,144,4|0,0:3|0:0,0:0:0:0:
170,116,60652,2,0,B|115:180|168:252,1,144,2|0,0:3|0:0,0:0:0:0:
272,305,61295,2,0,P|269:261|266:211,1,72,2|0,1:0|0:0,0:0:0:0:
63,353,61723,53,6,0:3:0:0:
192,327,61938,1,0,0:0:0:0:
62,373,62152,1,2,0:3:0:0:
187,231,62580,21,2,0:0:0:0:
342,286,62795,1,0,0:0:0:0:
461,134,63009,1,0,1:0:0:0:
424,155,63116,1,0,1:0:0:0:
386,162,63223,1,0,1:0:0:0:
352,160,63330,1,0,1:0:0:0:
316,147,63438,54,0,P|326:103|333:61,1,80.9999975280763,4|4,1:2|0:3,0:0:0:0:
152,5,63866,2,0,P|158:44|168:84,1,80.9999975280763,8|8,0:0|0:3,0:0:0:0:
168,84,64188,1,4,0:3:0:0:
168,84,64295,1,4,0:3:0:0:
201,232,64509,1,2,0:2:0:0:
6,185,64723,1,8,0:0:0:0:
6,185,64830,2,0,L|52:178,1,40.4999987640381,8|0,0:3|0:0,0:0:0:0:
137,170,65045,21,8,0:3:0:0:
137,170,65152,1,4,0:3:0:0:
215,289,65366,1,0,0:0:0:0:
86,371,65580,2,0,P|91:328|93:270,1,80.9999975280763,8|8,0:0|0:3,0:0:0:0:
92,290,65902,1,4,0:3:0:0:
92,290,66009,1,4,0:3:0:0:
233,199,66223,1,2,0:3:0:0:
400,240,66438,1,8,0:0:0:0:
400,240,66545,1,8,0:3:0:0:
216,53,66759,53,4,0:3:0:0:
216,53,66866,2,0,B|161:137|240:205,1,161.999995056153,4|8,1:2|0:0,0:0:0:0:
369,122,67509,1,4,0:3:0:0:
369,122,67616,1,4,0:3:0:0:
369,122,67723,2,0,P|420:117|461:109,1,80.9999975280763,4|4,0:3|0:3,0:0:0:0:
507,235,68152,1,8,1:2:0:0:
507,235,68259,2,0,L|457:227,1,40.4999987640381,8|0,0:3|0:0,0:0:0:0:
380,206,68473,21,8,0:3:0:0:
380,206,68581,1,6,0:3:0:0:
429,365,68795,1,4,0:3:0:0:
429,365,68902,1,4,0:3:0:0:
429,365,69009,1,8,1:2:0:0:
512,319,69223,53,8,0:3:0:0:
512,319,69330,1,4,0:3:0:0:
512,319,69438,1,14,1:2:0:0:
286,274,69759,1,14,1:2:0:0:
74,220,70080,1,14,1:2:0:0:
177,340,70295,70,0,L|172:299,1,40.5,4|0,2:1|2:0,1:0:0:0:
196,267,71366,69,2,0:3:0:0:
239,204,71580,1,2,0:0:0:0:
221,126,71795,1,2,0:0:0:0:
144,109,72009,2,0,P|153:160|155:186,1,72,4|0,1:0|0:0,0:0:0:0:
297,91,72438,2,0,P|288:40|286:14,1,72,0|0,1:0|0:0,0:0:0:0:
470,144,72866,1,0,1:0:0:0:
470,144,73080,5,2,0:3:0:0:
460,225,73295,1,2,1:2:0:0:
387,266,73509,1,2,0:0:0:0:
309,240,73723,2,0,P|273:248|234:254,1,72,0|0,1:0|0:0,0:0:0:0:
79,359,74152,2,0,P|115:351|154:345,1,72,0|0,1:0|0:0,0:0:0:0:
59,163,74580,1,0,1:0:0:0:
59,163,74795,69,2,0:3:0:0:
124,229,75009,1,2,1:2:0:0:
219,226,75223,1,2,0:0:0:0:
286,157,75438,5,6,1:2:0:0:
251,22,75652,1,0,3:0:0:0:
377,86,75866,1,2,1:2:0:0:
340,232,76080,1,0,3:0:0:0:
436,185,76295,1,2,1:2:0:0:
278,141,76509,1,2,0:0:0:0:
430,198,76723,1,0,1:3:0:0:
236,254,76938,70,0,B|326:237|366:335,1,144,2|2,3:0|3:0,0:0:0:0:
468,375,77580,2,0,P|465:338|461:293,1,72,0|0,1:0|0:0,0:0:0:0:
491,171,78009,1,0,1:0:0:0:
491,171,78223,5,2,0:3:0:0:
388,206,78438,1,2,1:2:0:0:
306,135,78652,1,2,0:0:0:0:
346,29,78866,2,0,P|389:40|425:45,1,72,4|0,1:2|0:0,0:0:0:0:
328,155,79295,2,0,P|371:144|407:139,1,72,0|0,1:0|0:0,0:0:0:0:
199,49,79723,1,0,1:0:0:0:
199,49,79938,69,2,0:3:0:0:
245,164,80152,1,2,1:2:0:0:
157,236,80366,1,0,3:0:0:0:
157,236,80473,1,0,3:0:0:0:
157,236,80580,2,0,P|111:229|73:227,1,72,0|0,1:0|0:0,0:0:0:0:
124,75,81009,2,0,P|128:122|134:158,1,72,0|0,1:0|0:0,0:0:0:0:
170,320,81438,1,0,1:0:0:0:
170,320,81652,5,2,0:3:0:0:
269,241,81866,1,2,1:2:0:0:
378,279,82080,1,2,0:0:0:0:
348,185,82295,2,0,B|347:147|335:95,1,72,6|2,1:2|0:3,0:0:0:0:
242,31,82723,1,2,1:2:0:0:
373,12,82938,1,2,0:3:0:0:
235,124,83152,2,0,P|192:122|141:105,1,72,2|2,1:2|0:3,0:0:0:0:
419,84,83580,2,0,P|462:86|513:103,1,72,2|2,1:2|0:3,0:0:0:0:
298,196,84009,69,4,1:0:0:0:
164,114,84223,1,0,3:0:0:0:
335,90,84438,1,0,1:0:0:0:
197,274,84652,1,0,3:0:0:0:
205,251,84759,1,2,3:0:0:0:
199,233,84866,1,0,0:0:0:0:
209,215,84973,1,2,3:0:0:0:
205,196,85080,1,0,1:0:0:0:
87,269,85295,5,8,0:3:0:0:
133,267,85402,1,8,0:3:0:0:
174,288,85509,1,4,0:3:0:0:
194,330,85616,1,4,0:3:0:0:
187,368,85723,6,0,B|251:373|324:349,1,116.999994644165,6|8,0:0|0:0,0:0:0:0:
398,261,86045,1,8,0:3:0:0:
398,261,86152,2,0,P|404:298|415:334,1,58.4999973220826,4|4,0:3|0:3,0:0:0:0:
482,179,86366,2,0,P|449:176|415:170,1,58.4999973220826,8|0,0:0|0:0,0:0:0:0:
321,46,86580,21,8,0:3:0:0:
321,46,86688,1,4,0:3:0:0:
321,46,86795,2,0,P|332:79|332:108,1,58.4999973220826,10|0,0:0|0:0,0:0:0:0:
138,149,87009,2,0,P|127:116|127:87,1,58.4999973220826,8|4,0:3|0:3,0:0:0:0:
260,101,87223,2,2,P|230:101|199:98,1,58.4999973220826,10|0,0:0|0:0,0:0:0:0:
41,163,87438,54,0,B|107:163|125:235,1,116.999994644165,4|8,0:0|0:0,0:0:0:0:
193,351,87759,1,8,0:3:0:0:
193,351,87866,2,0,B|205:320|205:320|197:281,1,58.4999973220826,4|4,0:3|0:3,0:0:0:0:
51,311,88080,2,0,P|89:315|118:321,1,58.4999973220826,8|0,0:0|0:0,0:0:0:0:
274,209,88295,2,0,P|236:205|207:199,1,58.4999973220826,8|8,0:3|0:3,0:0:0:0:
330,350,88509,21,10,0:0:0:0:
330,350,88616,1,0,0:0:0:0:
330,350,88723,2,0,B|315:283|401:250,1,116.999994644165,4|10,0:3|0:0,0:0:0:0:
485,223,89045,53,8,0:0:0:0:
455,155,89152,2,0,P|422:164|393:169,1,58.4999973220826,4|0,0:0|0:0,0:0:0:0:
246,54,89366,2,0,P|279:63|308:68,1,58.4999973220826,8|0,0:0|0:0,0:0:0:0:
299,212,89580,2,0,B|285:185|285:185|287:149,1,58.4999973220826,4|4,0:3|0:3,0:0:0:0:
399,21,89795,2,0,B|413:48|413:48|411:84,1,58.4999973220826,8|0,0:0|0:0,0:0:0:0:
190,128,90009,22,0,P|133:133|66:137,1,116.999994644165,4|10,0:2|0:0,0:0:0:0:
160,281,90330,1,8,0:3:0:0:
160,281,90438,2,0,P|174:240|172:206,1,58.4999973220826,4|4,0:3|0:3,0:0:0:0:
198,359,90652,2,0,B|165:301|87:326,1,116.999994644165,10|0,0:0|0:0,0:0:0:0:
7,248,90973,53,0,0:0:0:0:
7,248,91080,2,0,P|59:245|89:239,1,58.4999973220826,8|0,0:0|0:0,0:0:0:0:
94,39,91295,2,0,P|105:80|109:113,1,58.4999973220826,4|4,0:3|0:3,0:0:0:0:
259,142,91509,2,0,P|207:145|177:151,1,58.4999973220826,8|0,0:0|0:0,0:0:0:0:
279,258,91723,2,0,B|312:200|393:222,1,116.999994644165,4|10,0:3|0:0,0:0:0:0:
366,365,92045,21,8,0:3:0:0:
366,365,92152,2,0,B|353:334|353:334|358:297,1,58.4999973220826,4|4,0:3|0:3,0:0:0:0:
475,236,92366,2,0,B|488:267|488:267|483:304,1,58.4999973220826,2|0,0:0|0:0,0:0:0:0:
346,2,92580,53,12,0:0:0:0:
435,115,92795,1,4,0:3:0:0:
435,115,92902,1,4,0:3:0:0:
435,115,93009,1,8,0:0:0:0:
273,147,93223,1,4,0:3:0:0:
252,142,93330,1,4,0:3:0:0:
232,137,93438,1,8,0:0:0:0:
213,133,93545,1,4,0:3:0:0:
192,129,93652,22,0,L|147:137,1,45,2|0,0:0|0:0,0:0:0:0:
0,13,93866,2,0,L|58:33,1,45,8|0,0:0|0:3,0:0:0:0:
141,226,94080,53,2,0:1:0:0:
141,226,94188,1,4,0:3:0:0:
141,226,94295,2,0,P|146:183|146:115,1,90,12|4,0:0|0:3,0:0:0:0:
147,136,94616,1,4,0:3:0:0:
147,136,94723,1,8,0:0:0:0:
0,298,94938,1,4,0:3:0:0:
22,295,95045,1,4,0:3:0:0:
44,292,95152,1,8,0:0:0:0:
66,289,95259,1,0,0:0:0:0:
89,287,95366,2,0,L|81:340,1,45,8|8,0:3|0:3,0:0:0:0:
180,367,95580,21,8,0:1:0:0:
222,384,95688,1,8,0:3:0:0:
270,379,95795,1,4,0:3:0:0:
305,355,95902,1,4,0:3:0:0:
327,318,96009,2,0,B|316:205|207:215,1,180,12|8,1:1|0:0,0:0:0:0:
335,96,96652,1,4,0:3:0:0:
335,96,96759,1,4,0:3:0:0:
335,96,96866,1,12,0:0:0:0:
309,228,97080,1,4,0:3:0:0:
198,124,97295,1,8,0:0:0:0:
422,182,97509,1,4,0:3:0:0:
281,2,97723,53,12,0:0:0:0:
310,141,97938,1,2,0:3:0:0:
130,54,98152,21,12,0:0:0:0:
310,141,98366,1,2,0:3:0:0:
122,232,98580,1,12,0:0:0:0:
205,131,98795,1,6,0:3:0:0:
205,131,98902,1,8,0:3:0:0:
205,131,99009,1,12,0:0:0:0:
291,322,99223,1,8,0:3:0:0:
291,322,99330,1,4,0:3:0:0:
291,322,99438,5,6,0:0:0:0:
259,296,99545,1,0,0:0:0:0:
220,285,99652,1,4,0:3:0:0:
179,286,99759,1,0,0:0:0:0:
143,304,99866,1,8,0:0:0:0:
114,332,99973,1,0,0:0:0:0:
75,344,100080,1,4,0:3:0:0:
36,330,100188,1,0,0:3:0:0:
18,293,100295,1,4,0:3:0:0:
22,252,100402,1,0,0:0:0:0:
50,223,100509,1,4,0:3:0:0:
90,222,100616,1,0,0:0:0:0:
124,243,100723,1,10,0:0:0:0:
124,243,100830,2,0,P|166:240|226:229,1,90,14|8,0:3|0:3,0:0:0:0:
330,316,101152,53,6,0:0:0:0:
308,281,101259,1,0,0:0:0:0:
304,240,101366,1,4,0:3:0:0:
313,200,101473,1,0,0:0:0:0:
329,162,101580,1,8,0:0:0:0:
338,122,101688,1,0,0:0:0:0:
338,81,101795,1,4,0:3:0:0:
315,47,101902,1,0,0:0:0:0:
277,32,102009,1,4,0:3:0:0:
237,38,102116,1,0,0:0:0:0:
211,69,102223,1,4,0:3:0:0:
206,109,102330,1,0,0:0:0:0:
219,147,102438,2,0,P|222:177|227:203,1,45,10|8,0:0|0:0,0:0:0:0:
296,261,102652,2,0,P|268:273|245:285,1,45,2|0,0:3|0:0,0:0:0:0:
0,162,102866,21,6,0:0:0:0:
35,155,102973,1,0,0:0:0:0:
70,159,103080,1,4,0:3:0:0:
104,170,103188,1,0,0:0:0:0:
133,191,103295,2,0,P|138:217|144:240,1,45,8|0,0:0|0:0,0:0:0:0:
110,375,103509,53,6,0:0:0:0:
145,347,103616,1,4,0:3:0:0:
187,332,103723,1,4,0:3:0:0:
231,325,103830,1,0,0:0:0:0:
276,328,103938,2,0,P|303:338|326:346,1,45,6|0,0:3|0:0,0:0:0:0:
433,384,104152,2,0,P|428:355|423:331,1,45,10|0,0:0|0:0,0:0:0:0:
408,236,104366,2,0,P|385:254|367:270,1,45,6|4,0:3|0:0,0:0:0:0:
499,159,104580,21,6,0:3:0:0:
443,145,104688,1,0,0:0:0:0:
387,152,104795,1,4,0:0:0:0:
341,185,104902,1,0,0:0:0:0:
307,225,105009,1,10,0:0:0:0:
271,244,105116,1,0,0:0:0:0:
230,245,105223,1,4,0:3:0:0:
191,232,105330,1,0,0:0:0:0:
158,208,105438,54,0,P|167:184|174:159,1,45,4|0,0:3|0:0,0:0:0:0:
67,102,105652,2,0,P|90:98|111:92,1,45,4|0,0:3|0:0,0:0:0:0:
292,5,105866,2,0,P|285:26|274:45,1,45,10|8,0:0|0:0,0:0:0:0:
312,154,106080,2,0,P|278:144|258:141,1,45,8|4,0:3|0:3,0:0:0:0:
168,0,106295,21,6,0:0:0:0:
187,35,106402,1,0,0:0:0:0:
194,74,106509,1,4,0:3:0:0:
189,114,106616,1,0,0:0:0:0:
173,151,106723,1,8,0:0:0:0:
163,190,106830,1,0,0:0:0:0:
159,230,106938,1,4,0:3:0:0:
164,270,107045,1,0,0:0:0:0:
187,302,107152,53,6,0:3:0:0:
204,260,107259,1,0,0:0:0:0:
199,215,107366,1,4,0:3:0:0:
177,175,107473,1,0,0:0:0:0:
138,151,107580,1,8,0:0:0:0:
92,145,107688,1,8,0:3:0:0:
48,156,107795,1,0,0:0:0:0:
15,186,107902,1,8,0:3:0:0:
2,229,108009,21,6,0:3:0:0:
33,254,108116,1,0,0:0:0:0:
73,256,108223,1,4,0:3:0:0:
112,248,108330,1,0,0:0:0:0:
143,221,108438,1,8,0:0:0:0:
163,186,108545,1,0,0:0:0:0:
191,157,108652,1,4,0:3:0:0:
227,139,108759,1,0,0:0:0:0:
267,134,108866,1,4,0:3:0:0:
307,144,108973,1,0,0:0:0:0:
337,170,109080,1,4,0:3:0:0:
346,209,109188,1,0,0:0:0:0:
342,249,109295,54,0,P|314:239|288:233,1,45,8|8,0:0|0:3,0:0:0:0:
211,296,109509,2,0,P|211:266|209:239,1,45,0|8,0:0|0:3,0:0:0:0:
201,58,109723,1,6,0:0:0:0:
239,81,109830,1,0,0:0:0:0:
282,93,109938,1,4,0:3:0:0:
326,95,110045,1,0,0:0:0:0:
369,82,110152,1,10,0:0:0:0:
411,68,110259,1,0,0:0:0:0:
454,77,110366,1,4,0:3:0:0:
478,114,110473,1,4,0:3:0:0:
480,158,110580,1,6,0:0:0:0:
459,198,110688,1,0,0:0:0:0:
416,212,110795,1,4,0:3:0:0:
372,199,110902,1,0,0:0:0:0:
327,190,111009,21,10,0:0:0:0:
351,232,111116,1,8,0:3:0:0:
360,280,111223,1,0,0:0:0:0:
350,328,111330,1,4,0:3:0:0:
353,368,111438,53,14,0:0:0:0:
315,329,111545,1,0,0:0:0:0:
264,309,111652,1,4,0:3:0:0:
210,316,111759,1,0,0:0:0:0:
165,346,111866,1,12,0:0:0:0:
113,362,111973,1,0,0:0:0:0:
60,348,112080,1,4,0:3:0:0:
19,311,112188,1,8,0:3:0:0:
14,257,112295,2,0,P|49:249|76:239,1,45,12|0,0:0|0:0,0:0:0:0:
264,164,112509,2,0,P|235:161|206:154,1,45,8|8,0:3|0:3,0:0:0:0:
62,6,112723,21,10,0:3:0:0:
97,36,112830,1,8,0:3:0:0:
87,82,112938,1,6,0:3:0:0:
120,108,113045,1,4,0:3:0:0:
100,152,113152,38,2,B|197:166|212:58,1,153.000002918243,6|8,0:0|0:0,0:0:0:0:
378,180,113473,1,0,0:3:0:0:
378,180,113580,2,0,B|390:219|390:219|381:259,1,76.5000014591217,4|4,0:3|0:3,0:0:0:0:
160,299,113795,2,0,B|148:260|148:260|157:220,1,76.5000014591217,8|0,0:0|0:0,0:0:0:0:
310,237,114009,1,4,0:3:0:0:
310,237,114116,1,4,0:3:0:0:
310,237,114223,2,0,P|279:243|232:250,1,76.5000014591217,8|0,0:0|0:0,0:0:0:0:
32,138,114438,22,0,P|63:144|110:151,1,76.5000014591217,2|0,0:0|0:0,0:0:0:0:
294,7,114652,2,0,P|282:42|284:92,1,76.5000014591217,10|0,0:0|0:0,0:0:0:0:
155,225,114866,70,0,B|218:162|160:82,1,153.000002918243,6|8,0:0|0:0,0:0:0:0:
40,226,115188,1,0,0:0:0:0:
40,226,115295,2,0,P|50:269|54:315,1,76.5000014591217,4|4,0:3|0:3,0:0:0:0:
189,376,115509,2,0,P|193:332|201:294,1,76.5000014591217,8|0,0:0|0:0,0:0:0:0:
460,193,115723,21,4,0:3:0:0:
427,160,115830,1,4,0:3:0:0:
382,147,115938,1,8,0:0:0:0:
336,147,116045,1,0,0:3:0:0:
295,168,116152,2,0,B|286:209|286:209|298:249,1,76.5000014591217,2|4,0:0|0:3,0:0:0:0:
439,355,116366,2,0,B|448:314|448:314|436:274,1,76.5000014591217,10|8,0:0|0:0,0:0:0:0:
205,145,116580,38,2,B|304:174|340:56,1,153.000002918243,6|8,0:1|0:0,0:0:0:0:
485,6,116902,1,0,0:0:0:0:
485,6,117009,2,0,P|473:54|467:102,1,76.5000014591217,2|4,0:1|0:3,0:0:0:0:
512,205,117223,2,0,B|429:208|452:176|359:186,1,153.000002918243,10|0,0:0|0:0,0:0:0:0:
224,0,117545,1,0,0:0:0:0:
224,0,117652,2,0,P|240:32|242:83,1,76.5000014591217,10|0,0:0|0:0,0:0:0:0:
87,257,117866,2,0,P|106:224|113:170,1,76.5000014591217,10|8,0:3|0:3,0:0:0:0:
7,53,118080,2,0,P|53:63|104:63,1,76.5000014591217,8|6,0:0|0:3,0:0:0:0:
344,266,118295,22,0,B|320:173|218:189,1,153.000002918243,6|8,0:0|0:0,0:0:0:0:
105,344,118616,1,0,0:0:0:0:
32,269,118723,2,0,B|129:242|104:283|196:263,1,153.000002918243,6|8,0:0|0:0,0:0:0:0:
182,265,119045,69,0,0:0:0:0:
230,187,119152,2,0,B|244:149|244:149|234:101,1,76.5000014591217,6|8,0:0|0:3,0:0:0:0:
7,53,119366,2,2,B|-7:91|-7:91|3:139,1,76.5000014591217,8|0,0:0|0:3,0:0:0:0:
164,112,119580,2,0,P|122:120|73:119,1,76.5000014591217,2|0,0:0|0:0,0:0:0:0:
311,10,119795,2,2,P|314:51|322:94,1,76.5000014591217,8|8,0:0|0:3,0:0:0:0:
454,266,120009,22,2,B|526:202|467:122,1,161.999995056153,6|8,0:0|0:0,0:0:0:0:
318,182,120330,1,4,0:3:0:0:
318,182,120438,2,0,P|363:191|421:193,1,80.9999975280763,8|0,0:3|0:0,0:0:0:0:
495,30,120652,2,0,P|455:36|412:40,1,80.9999975280763,8|0,0:0|0:0,0:0:0:0:
230,187,120866,2,0,P|239:227|244:272,1,80.9999975280763,8|8,0:3|0:3,0:0:0:0:
105,69,121080,2,0,P|150:77|194:79,1,80.9999975280763,8|0,0:0|0:0,0:0:0:0:
129,190,121295,38,0,P|88:192|48:200,1,80.9999975280763,2|8,0:0|0:3,0:0:0:0:
291,98,121509,2,0,P|295:57|304:18,1,80.9999975280763,10|4,0:0|0:3,0:0:0:0:
409,303,121723,22,0,B|316:310|347:273|243:282,1,161.999995056153,6|8,0:0|0:0,0:0:0:0:
65,384,122045,1,4,0:3:0:0:
65,384,122152,2,8,B|47:347|47:347|50:304,1,80.9999975280763,8|8,0:3|0:3,0:3:0:0:
157,265,122366,2,0,B|175:302|175:302|172:345,1,80.9999975280763,8|4,0:0|0:3,0:0:0:0:
36,100,122580,69,8,0:3:0:0:
68,136,122688,1,8,0:3:0:0:
114,150,122795,1,8,0:0:0:0:
162,145,122902,1,0,0:0:0:0:
202,117,123009,2,0,P|207:77|217:33,1,80.9999975280763,2|8,0:0|0:3,0:0:0:0:
349,142,123223,2,0,P|357:181|362:221,1,80.9999975280763,10|4,0:0|0:3,0:0:0:0:
316,309,123438,22,0,B|367:223|458:267,1,161.999995056153,6|8,0:0|0:0,0:0:0:0:
218,271,123759,1,4,0:3:0:0:
218,271,123866,2,0,P|228:311|234:364,1,80.9999975280763,2|0,0:0|0:0,0:0:0:0:
278,154,124080,2,0,B|196:139|199:172|110:160,1,161.999995056153,10|0,0:0|0:0,0:0:0:0:
24,65,124402,1,4,0:3:0:0:
24,65,124509,2,0,P|69:74|105:76,1,80.9999975280763,10|0,0:0|0:0,0:0:0:0:
92,247,124723,2,0,P|51:249|12:258,1,80.9999975280763,4|0,0:3|0:0,0:0:0:0:
191,175,124938,2,0,P|227:185|278:192,1,80.9999975280763,10|0,0:0|0:0,0:0:0:0:
496,353,125152,38,0,B|490:256|384:256,1,161.999995056153,6|8,0:0|0:0,0:0:0:0:
305,354,125473,1,0,0:3:0:0:
305,354,125580,2,0,P|350:346|397:344,1,80.9999975280763,4|0,0:3|0:0,0:0:0:0:
471,149,125795,2,0,P|426:157|379:159,1,80.9999975280763,8|0,0:0|0:0,0:0:0:0:
250,28,126009,21,8,0:0:0:0:
191,105,126152,1,8,0:0:0:0:
247,181,126295,1,8,0:3:0:0:
340,196,126438,69,8,0:3:0:0:
339,122,126580,1,4,0:3:0:0:
268,106,126723,1,4,0:3:0:0:
223,194,126866,54,0,L|228:220,1,22.5,6|0,0:2|0:0,0:0:0:0:
256,192,135438,12,0,140473,2:0:0:0:
66,269,140580,70,0,B|134:369|276:328,2,216,4|0|2,1:1|0:0|0:3,0:0:0:0:
430,164,142295,2,0,B|362:64|220:105,2,216,4|0|2,1:1|0:0|0:3,0:0:0:0:
163,220,144009,6,2,P|156:155|135:62,1,144,0|2,1:0|3:2,0:1:0:0:
363,225,144866,2,2,P|347:295|339:366,1,144,0|2,1:0|0:0,0:1:0:0:
338,366,145723,5,2,1:2:0:0:
426,325,145938,1,0,0:0:0:0:
412,229,146152,1,2,3:2:0:0:
412,229,146259,1,0,3:0:0:0:
412,229,146366,1,0,3:0:0:0:
329,184,146580,1,2,0:0:0:0:
250,235,146795,1,0,3:0:0:0:
53,118,147009,21,0,1:0:0:0:
79,107,147116,1,0,1:0:0:0:
107,106,147223,1,0,1:0:0:0:
134,113,147330,1,0,1:0:0:0:
158,128,147438,2,0,P|203:136|255:144,1,80.9999975280763,0|8,0:0|0:0,0:0:0:0:
384,27,147866,1,0,0:0:0:0:
384,27,147973,1,0,0:0:0:0:
384,27,148080,1,8,0:0:0:0:
344,138,148295,1,4,0:3:0:0:
349,164,148402,1,4,0:3:0:0:
354,192,148509,1,8,0:0:0:0:
359,220,148616,1,0,0:0:0:0:
363,248,148723,2,0,L|311:239,1,40.4999987640381,4|4,0:3|0:3,0:0:0:0:
263,321,148938,2,0,L|218:325,1,40.4999987640381,8|0,0:0|0:0,0:0:0:0:
148,378,149152,54,0,B|210:300|150:224,1,161.999995056153,4|4,0:1|0:3,0:0:0:0:
21,86,149795,1,8,0:0:0:0:
36,109,149902,1,0,0:0:0:0:
58,126,150009,1,4,0:3:0:0:
83,138,150116,1,4,0:3:0:0:
109,146,150223,1,8,0:0:0:0:
74,277,150438,1,8,0:3:0:0:
350,176,150652,21,8,0:3:0:0:
350,176,150759,1,4,0:3:0:0:
350,176,150866,1,8,0:0:0:0:
164,65,151080,1,0,0:0:0:0:
221,180,151295,1,8,0:0:0:0:
281,46,151509,1,0,0:0:0:0:
452,209,151723,1,8,0:0:0:0:
452,209,151830,1,8,0:3:0:0:
427,85,152045,1,4,0:3:0:0:
427,85,152152,1,8,0:0:0:0:
317,282,152366,1,8,0:3:0:0:
506,368,152580,1,8,0:0:0:0:
256,192,152688,12,0,154295,0:0:0:0:
