osu file format v14

[General]
AudioFilename: audio.mp3
AudioLeadIn: 0
PreviewTime: 28509
Countdown: 0
SampleSet: Soft
StackLeniency: 0.7
Mode: 0
LetterboxInBreaks: 1
WidescreenStoryboard: 1

[Editor]
DistanceSpacing: 0.5
BeatDivisor: 4
GridSize: 32
TimelineZoom: 1.7

[Metadata]
Title:nanoya
TitleUnicode:nanoya
Artist:Down
ArtistUnicode:Down
Creator:nanoya
Version:hard
Source:東方妖々夢 ~ Perfect Cherry Blossom.
Tags:西行寺幽々子 Saigyouji Yuyuko 幽雅に咲かせ、墨染の桜 ~ Border of Life ZUN Yuuga ni sakase, sumizome no sakura Bloom Nobly Ink-Black Cherry Blossom th7 touhou Youyoumu 7 instrumental video game folk 東方Project etn satonodiamond erisu momoyo zekk down Pigeons Arsalan kowari
BeatmapID:4192227
BeatmapSetID:2014469

[Difficulty]
HPDrainRate:4
CircleSize:4
OverallDifficulty:7
ApproachRate:6
SliderMultiplier:1.4
SliderTickRate:1

[Events]
//Background and Video events
0,0,"bg.jpg",0,0
//Break Periods
2,127066,135245
//Storyboard Layer 0 (Background)
//Storyboard Layer 1 (Fail)
//Storyboard Layer 2 (Pass)
//Storyboard Layer 3 (Foreground)
//Storyboard Layer 4 (Overlay)
//Storyboard Sound Samples

[TimingPoints]
1510,428.571428571429,4,2,0,50,1,0
1510,-125,4,2,0,50,0,0
15438,428.571428571429,4,2,0,70,1,0
15438,-111.111111111111,4,2,0,70,0,0
29152,-90.9090909090909,4,1,0,80,0,0
56580,-111.111111111111,4,2,0,60,0,0
72009,-125,4,2,0,50,0,0
85723,-90.9090909090909,4,1,0,80,0,0
99438,-100,4,1,0,80,0,0
113152,-90.9090909090909,4,1,0,100,0,0
126866,-100,4,1,0,80,0,0
126920,-100,4,1,0,5,0,0
135438,-100,4,1,0,70,0,0
138866,-100,4,1,0,50,0,0
140473,-100,4,1,0,5,0,0
140580,-125,4,2,0,60,0,0
147438,-111.111111111111,4,1,0,80,0,0
154295,-111.111111111111,4,1,0,5,0,0

[Colours]
Combo1 : 140,140,140
Combo2 : 236,183,249
Combo3 : 185,228,244
Combo4 : 173,115,225
Combo5 : 77,105,221
Combo6 : 196,196,196

[HitObjects]
309,255,1510,70,0,P|405:259|481:289,2,168,2|0|2,0:3|0:0|0:0,0:0:0:0:
189,98,3224,2,0,P|87:129|11:133,2,168,2|0|2,0:3|0:0|0:0,0:0:0:0:
327,22,4938,2,0,P|307:78|302:138,1,112,2|2,0:3|0:0,0:0:0:0:
187,289,5795,2,0,P|185:231|170:167,1,112,2|2,0:3|0:0,0:0:0:0:
28,52,6652,6,1,P|67:48|106:35,1,56,2|0,0:3|0:0,0:0:0:0:
173,81,7081,2,1,P|207:84|246:93,1,56,2|0,0:3|0:0,0:0:0:0:
333,53,7510,2,1,P|325:100|321:130,1,56,2|0,0:3|0:0,0:0:0:0:
368,201,7938,1,2,0:3:0:0:
368,201,8152,1,2,0:0:0:0:
265,280,8367,70,0,P|151:264|95:276,2,168,2|2|2,0:3|0:3|0:3,0:0:0:0:
274,98,10081,2,0,P|357:122|446:127,2,168,2|2|2,0:3|0:3|0:3,0:0:0:0:
143,9,11795,2,0,P|160:63|171:121,1,112,2|0,0:3|0:0,0:0:0:0:
30,256,12652,2,0,P|45:196|53:126,1,112,2|0,0:3|0:0,0:0:0:0:
176,270,13510,6,1,P|213:264|244:252,1,56,2|0,0:3|0:0,0:0:0:0:
312,309,13938,2,1,P|346:316|380:328,1,56,2|0,0:3|0:0,0:0:0:0:
455,284,14367,2,1,P|447:243|446:214,1,56,2|2,0:3|0:0,0:0:0:0:
365,159,14795,1,0,1:0:0:0:
365,159,14902,1,0,1:0:0:0:
365,159,15010,2,1,L|357:206,1,28,0|0,1:0|1:0,0:0:0:0:
211,31,15438,6,1,P|211:74|221:122,1,62.9999980773926,6|8,1:1|0:0,0:0:0:0:
237,198,15866,2,0,P|199:188|151:184,1,62.9999980773926,0|8,1:0|0:0,0:0:0:0:
54,129,16295,2,0,P|94:118|122:100,1,62.9999980773926,0|8,1:0|0:0,0:0:0:0:
175,184,16723,1,0,1:0:0:0:
175,184,16938,2,0,P|194:234|164:322,1,125.999996154785,10|8,0:0|0:0,0:0:0:0:
102,359,17580,2,1,P|56:351|23:349,1,62.9999980773926,0|8,1:0|0:0,0:0:0:0:
46,258,18009,2,1,P|93:251|127:240,1,62.9999980773926,0|8,1:0|0:0,0:0:0:0:
286,325,18652,21,10,0:0:0:0:
286,325,18759,1,0,0:0:0:0:
286,325,18866,2,2,B|359:315|343:342|416:331,1,125.999996154785,0|0,1:0|1:0,0:0:0:0:
468,247,19509,1,8,0:0:0:0:
398,168,19723,2,0,P|408:132|414:84,1,62.9999980773926,0|8,1:0|0:0,0:0:0:0:
314,55,20152,1,0,1:0:0:0:
314,55,20366,2,2,P|251:68|177:68,1,125.999996154785,8|8,0:0|0:0,1:0:0:0:
83,61,21009,2,0,P|94:21|96:-5,1,62.9999980773926,0|8,1:0|0:0,0:0:0:0:
15,111,21438,2,1,P|27:153|30:185,1,62.9999980773926,0|8,1:0|0:0,0:0:0:0:
107,210,21866,1,0,3:0:0:0:
55,290,22080,53,8,0:3:0:0:
55,290,22188,1,8,0:3:0:0:
55,290,22295,2,2,P|100:258|170:266,1,125.999996154785,0|0,1:3|1:0,1:0:0:0:
227,343,22938,1,8,0:0:0:0:
286,270,23152,2,1,P|324:277|356:279,1,62.9999980773926,0|8,1:0|0:0,0:0:0:0:
425,342,23580,21,0,1:0:0:0:
425,342,23688,1,0,0:0:0:0:
425,342,23795,2,2,P|450:295|437:215,1,125.999996154785,8|8,0:0|0:0,0:1:0:0:
479,139,24438,1,0,1:0:0:0:
407,81,24652,1,8,0:0:0:0:
451,10,24866,2,1,P|503:21|539:26,1,62.9999980773926,0|8,1:0|0:0,0:0:0:0:
403,87,25295,2,1,P|360:92|334:98,1,62.9999980773926,0|8,1:0|0:0,0:0:0:0:
263,47,25723,54,0,P|294:101|284:170,1,125.999996154785,4|0,1:0|1:0,0:0:0:0:
210,224,26366,1,8,0:0:0:0:
210,224,26473,1,0,0:0:0:0:
210,224,26580,2,0,P|168:215|139:212,1,62.9999980773926,0|8,1:0|0:0,0:0:0:0:
52,193,27009,1,0,1:0:0:0:
5,270,27223,2,0,P|14:308|19:339,1,62.9999980773926,8|0,0:0|0:0,0:0:0:0:
103,373,27652,1,8,0:0:0:0:
175,312,27866,1,0,1:0:0:0:
263,353,28080,1,8,0:0:0:0:
339,294,28295,2,1,P|329:252|325:213,1,62.9999980773926,0|8,1:0|0:0,0:0:0:0:
418,175,28723,2,1,P|413:212|411:245,1,62.9999980773926,8|4,0:3|0:3,0:0:0:0:
502,328,29152,22,2,B|427:337|442:305|343:320,1,154.000004699707,6|0,0:2|0:0,0:0:0:0:
245,273,29795,1,10,0:0:0:0:
156,356,30009,2,1,P|107:348|66:346,1,77.0000023498536,0|8,0:0|0:0,0:0:0:0:
4,251,30438,2,1,P|51:241|85:230,1,77.0000023498536,2|8,0:0|0:0,0:0:0:0:
200,257,30866,54,2,P|221:193|188:115,1,154.000004699707,4|0,0:2|0:0,0:0:0:0:
91,51,31509,1,10,0:0:0:0:
91,51,31616,1,0,0:0:0:0:
91,51,31723,2,1,P|131:45|178:23,1,77.0000023498536,0|8,0:0|0:0,0:0:0:0:
273,96,32152,1,2,0:0:0:0:
369,16,32366,1,0,0:0:0:0:
461,100,32580,22,1,P|451:144|446:189,1,77.0000023498536,4|8,0:2|0:0,0:0:0:0:
332,246,33009,2,1,P|327:199|313:156,1,77.0000023498536,2|8,0:0|0:0,0:0:0:0:
433,268,33438,2,1,P|479:270|517:279,1,77.0000023498536,4|8,0:2|0:0,0:0:0:0:
353,341,33866,2,1,P|310:346|274:358,1,77.0000023498536,2|8,0:0|0:0,0:0:0:0:
183,310,34295,2,2,P|192:259|181:156,1,154.000004699707,4|4,0:2|0:2,0:0:0:0:
89,126,34938,1,8,0:0:0:0:
50,215,35152,54,1,P|58:251|62:294,1,77.0000023498536,4|8,0:2|0:0,0:0:0:0:
143,360,35580,1,8,0:3:0:0:
143,360,35688,1,8,0:3:0:0:
143,360,35795,1,8,0:0:0:0:
246,308,36009,22,2,B|317:297|318:320|400:306,1,154.000004699707,4|0,0:1|0:0,0:0:0:0:
468,214,36652,1,10,0:0:0:0:
468,214,36759,1,0,0:0:0:0:
468,214,36866,2,1,P|457:164|457:122,1,77.0000023498536,0|8,0:0|0:0,0:0:0:0:
355,48,37295,2,0,P|349:92|338:141,1,77.0000023498536,2|8,0:0|0:0,0:0:0:0:
358,233,37723,54,2,P|320:196|224:197,1,154.000004699707,4|0,0:1|0:0,0:0:0:0:
137,105,38366,2,1,P|98:113|54:116,1,77.0000023498536,10|0,0:0|0:0,0:0:0:0:
14,227,38795,1,8,0:0:0:0:
130,254,39009,2,1,P|135:292|146:337,1,77.0000023498536,2|8,0:0|0:0,0:0:0:0:
248,374,39438,22,1,P|260:326|266:285,1,77.0000023498536,4|8,0:2|0:0,0:0:0:0:
358,205,39866,2,1,P|366:260|378:302,1,77.0000023498536,2|8,0:0|0:0,0:0:0:0:
248,204,40295,2,1,P|204:192|162:187,1,77.0000023498536,4|8,0:2|0:0,0:0:0:0:
293,113,40723,2,1,P|338:107|375:96,1,77.0000023498536,2|8,0:0|0:0,0:0:0:0:
495,43,41152,54,0,P|511:87|477:188,1,154.000004699707,6|4,0:0|0:0,0:0:0:0:
382,217,41795,1,8,0:0:0:0:
448,302,42009,1,0,0:0:0:0:
448,302,42116,1,0,0:0:0:0:
448,302,42223,1,8,0:0:0:0:
377,364,42438,1,2,0:0:0:0:
377,364,42652,1,10,0:0:0:0:
258,302,42866,22,2,P|211:309|101:318,1,154.000004699707,4|0,0:2|0:0,0:0:0:0:
33,211,43509,2,1,P|42:162|47:111,1,77.0000023498536,10|0,0:0|0:0,0:0:0:0:
83,20,43938,1,8,0:0:0:0:
165,113,44152,2,0,P|204:120|248:123,1,77.0000023498536,2|8,0:0|0:0,0:0:0:0:
374,54,44580,54,2,P|356:98|386:202,1,154.000004699707,4|0,0:2|0:0,0:0:0:0:
493,255,45223,1,10,0:0:0:0:
493,255,45330,1,0,0:0:0:0:
493,255,45438,2,1,P|485:299|487:344,1,77.0000023498536,0|8,0:0|0:0,0:0:0:0:
363,382,45866,2,1,P|354:328|341:285,1,77.0000023498536,2|8,0:0|0:0,0:0:0:0:
251,211,46295,22,1,P|197:222|154:228,1,77.0000023498536,4|8,0:2|0:0,0:0:0:0:
76,130,46723,2,1,P|84:90|89:53,1,77.0000023498536,2|8,0:0|0:0,0:0:0:0:
206,5,47152,2,1,P|210:53|224:100,1,77.0000023498536,4|8,0:2|0:0,0:0:0:0:
338,128,47580,1,2,0:0:0:0:
464,53,47795,53,8,0:0:0:0:
464,53,47902,1,0,0:0:0:0:
464,53,48009,2,2,B|446:130|481:116|455:207,1,154.000004699707,4|4,0:2|0:2,0:0:0:0:
380,283,48652,1,8,0:0:0:0:
472,371,48866,2,1,P|481:330|480:292,1,77.0000023498536,4|8,0:2|0:0,0:0:0:0:
367,207,49295,2,1,P|373:258|385:297,1,77.0000023498536,8|8,0:3|0:0,0:0:0:0:
275,364,49723,22,2,B|196:373|220:346|121:358,1,154.000004699707,4|0,0:1|0:0,0:0:0:0:
36,274,50366,2,0,P|46:230|47:183,1,77.0000023498536,10|0,0:0|0:0,0:0:0:0:
74,88,50795,1,8,0:0:0:0:
179,167,51009,2,1,P|184:219|194:260,1,77.0000023498536,2|8,0:0|0:0,0:0:0:0:
333,261,51438,54,2,P|380:247|490:238,1,154.000004699707,4|0,0:2|0:0,0:0:0:0:
509,112,52080,1,10,0:0:0:0:
509,112,52188,1,0,0:0:0:0:
509,112,52295,2,1,P|459:106|424:98,1,77.0000023498536,0|8,0:0|0:0,0:0:0:0:
315,33,52723,2,1,P|327:74|331:118,1,77.0000023498536,2|8,0:0|0:0,0:0:0:0:
243,191,53152,22,1,P|196:183|153:179,1,77.0000023498536,4|8,0:2|0:0,0:0:0:0:
46,133,53580,1,2,0:0:0:0:
109,239,53795,1,8,0:0:0:0:
27,329,54009,2,1,P|72:331|115:342,1,77.0000023498536,6|8,0:2|0:0,0:0:0:0:
224,383,54438,2,1,P|217:342|220:293,1,77.0000023498536,2|8,0:0|0:0,0:0:0:0:
285,218,54866,53,6,0:0:0:0:
408,261,55080,1,8,0:0:0:0:
408,261,55188,1,0,0:0:0:0:
408,261,55295,1,0,0:0:0:0:
478,156,55509,2,1,L|518:152,2,38.5000011749268,8|0|0,0:0|0:0|0:0,0:0:0:0:
402,67,55938,1,8,0:0:0:0:
307,125,56152,1,8,0:3:0:0:
307,125,56259,1,8,0:3:0:0:
307,125,56366,1,4,0:3:0:0:
213,77,56580,22,0,P|161:92|80:104,1,125.999996154785,4|0,1:0|0:0,0:0:0:0:
18,65,57223,2,0,P|50:110|39:193,1,125.999996154785,2|0,0:3|0:0,0:0:0:0:
11,266,57866,1,2,1:0:0:0:
11,266,58080,1,0,0:0:0:0:
91,331,58295,54,0,P|126:301|213:304,1,125.999996154785,4|2,0:3|0:0,0:0:0:0:
445,318,59152,2,0,P|409:358|329:362,1,125.999996154785,2|0,1:0|0:0,0:0:0:0:
299,274,59795,21,8,0:3:0:0:
299,274,59902,1,4,0:3:0:0:
299,274,60009,2,0,P|309:219|314:142,1,125.999996154785,4|0,0:3|0:0,0:0:0:0:
401,73,60652,2,0,P|407:140|427:218,1,125.999996154785,2|0,0:3|0:0,0:0:0:0:
472,286,61295,2,0,P|426:292|395:302,1,62.9999980773926,2|0,1:0|0:0,0:0:0:0:
294,341,61723,54,1,P|304:295|308:259,1,62.9999980773926,6|0,0:3|0:0,0:0:0:0:
236,210,62152,1,2,0:3:0:0:
76,54,62580,22,1,P|126:69|161:73,1,62.9999980773926,2|0,0:0|0:0,0:0:0:0:
236,32,63009,1,0,1:0:0:0:
236,32,63116,1,0,1:0:0:0:
236,32,63223,1,0,1:0:0:0:
332,59,63438,54,0,P|337:98|344:139,1,62.9999980773926,4|4,1:2|0:3,0:0:0:0:
418,193,63866,1,8,0:0:0:0:
368,278,64080,2,1,P|310:263|231:263,1,125.999996154785,8|2,0:3|0:2,0:0:0:0:
141,240,64723,2,1,P|151:288|154:321,1,62.9999980773926,8|0,0:0|0:0,0:0:0:0:
59,359,65152,2,1,P|29:305|35:232,1,125.999996154785,4|8,0:3|0:0,0:0:0:0:
0,56,66009,2,1,P|51:65|77:67,1,62.9999980773926,4|2,0:3|0:3,0:0:0:0:
166,100,66438,2,1,P|173:60|180:33,1,62.9999980773926,8|0,0:0|0:0,0:0:0:0:
248,133,66866,22,0,P|254:197|263:268,1,125.999996154785,4|8,1:2|0:0,0:0:0:0:
354,196,67509,2,1,P|404:189|494:172,1,125.999996154785,4|4,0:3|0:3,0:0:0:0:
416,86,68152,2,1,P|423:47|431:5,1,62.9999980773926,8|0,1:2|0:0,0:0:0:0:
330,52,68580,1,6,0:3:0:0:
242,1,68795,1,4,0:3:0:0:
242,1,68902,1,4,0:3:0:0:
242,1,69009,1,8,1:2:0:0:
150,38,69223,1,8,0:3:0:0:
150,38,69438,54,1,P|161:82|172:152,1,94.499997116089,14|14,1:2|1:2,0:0:0:0:
127,248,70080,21,14,1:2:0:0:
256,192,70295,12,2,71580,0:0:0:0:
128,120,72009,38,0,P|166:114|192:110,1,56,4|0,1:0|0:0,0:0:0:0:
270,149,72438,2,0,P|307:157|345:161,1,56,0|0,1:0|0:0,0:0:0:0:
418,138,72866,2,1,P|423:107|430:71,1,56,0|2,1:0|0:3,0:0:0:0:
503,162,73295,1,2,1:2:0:0:
503,162,73509,1,2,0:0:0:0:
422,231,73723,70,0,P|431:267|442:350,1,112,0|0,1:0|1:0,0:0:0:0:
348,314,74366,1,0,0:0:0:0:
348,314,74580,2,1,P|312:322|290:325,1,56,0|2,1:0|0:3,0:0:0:0:
201,369,75009,2,1,P|194:336|183:300,1,56,2|2,1:2|0:0,0:0:0:0:
95,239,75438,6,1,P|87:275|78:308,1,56,6|0,1:2|3:0,0:0:0:0:
190,211,75866,2,1,P|225:205|257:198,1,56,2|0,1:2|3:0,0:0:0:0:
127,139,76295,2,1,P|83:132|65:128,1,56,2|2,1:2|0:0,0:0:0:0:
191,65,76723,1,0,1:3:0:0:
191,65,76938,2,0,B|262:54|247:77|324:64,1,112,2|2,3:0|3:0,0:0:0:0:
398,21,77580,2,0,P|389:56|386:81,1,56,0|0,1:0|0:0,0:0:0:0:
488,110,78009,2,1,P|486:69|479:45,1,56,0|2,1:0|0:3,0:0:0:0:
402,160,78438,1,2,1:2:0:0:
402,160,78652,1,2,0:0:0:0:
476,233,78866,70,0,P|499:278|487:352,1,112,4|0,1:2|1:0,0:0:0:0:
315,363,79723,2,1,P|271:354|247:352,1,56,0|2,1:0|0:3,0:0:0:0:
247,258,80152,1,2,1:2:0:0:
330,191,80366,2,1,P|338:152|361:75,1,112,0|0,3:0|0:0,0:0:0:0:
297,8,81009,2,0,P|251:17|218:19,1,56,0|0,1:0|0:0,0:0:0:0:
176,91,81438,2,1,P|215:97|248:105,1,56,0|2,1:0|0:3,0:0:0:0:
193,186,81866,1,2,1:2:0:0:
193,186,82080,1,2,0:0:0:0:
93,141,82295,6,0,P|67:179|66:251,1,112,6|2,1:2|1:2,0:0:0:0:
134,317,82938,1,2,0:3:0:0:
214,262,83152,2,1,P|247:258|277:251,1,56,0|2,1:0|0:3,0:0:0:0:
350,322,83580,1,0,1:0:0:0:
350,322,83795,2,1,P|303:328|272:335,1,56,2|4,0:0|1:0,0:0:0:0:
437,200,84438,69,0,1:0:0:0:
356,150,84652,1,0,3:0:0:0:
356,150,84759,1,2,3:0:0:0:
356,150,84866,1,0,0:0:0:0:
341,50,85080,2,1,P|298:58|268:61,1,56,0|8,1:0|0:3,0:0:0:0:
203,111,85509,1,4,0:3:0:0:
141,45,85723,22,0,P|156:102|162:196,1,154.000004699707,6|4,0:0|0:3,0:0:0:0:
60,234,86366,1,8,0:0:0:0:
139,332,86580,1,8,0:3:0:0:
139,332,86688,1,4,0:3:0:0:
139,332,86795,2,0,P|188:335|230:347,1,77.0000023498536,10|8,0:0|0:3,0:0:0:0:
295,254,87223,1,10,0:0:0:0:
376,332,87438,22,0,P|428:300|516:320,1,154.000004699707,4|4,0:0|0:3,0:0:0:0:
433,211,88080,1,8,0:0:0:0:
314,246,88295,1,8,0:3:0:0:
314,246,88402,1,8,0:3:0:0:
314,246,88509,2,1,P|325:194|329:151,1,77.0000023498536,10|4,0:0|0:3,0:0:0:0:
277,78,88938,1,10,0:0:0:0:
380,10,89152,54,0,P|426:6|471:-3,1,77.0000023498536,4|8,0:0|0:0,0:0:0:0:
498,117,89580,2,0,P|453:107|410:102,1,77.0000023498536,4|8,0:3|0:0,0:0:0:0:
327,177,90009,1,4,0:2:0:0:
214,135,90223,2,1,P|173:128|128:117,1,77.0000023498536,10|4,0:0|0:3,0:0:0:0:
30,42,90652,2,0,P|52:85|19:182,1,154.000004699707,10|8,0:0|0:0,0:0:0:0:
1,297,91295,2,0,P|49:282|91:278,1,77.0000023498536,4|8,0:3|0:0,0:0:0:0:
186,213,91723,1,4,0:3:0:0:
274,311,91938,1,10,0:0:0:0:
274,311,92045,1,8,0:3:0:0:
274,311,92152,2,0,P|321:300|364:293,1,77.0000023498536,4|2,0:3|0:0,0:0:0:0:
457,222,92580,22,1,P|460:264|471:314,1,77.0000023498536,12|4,0:0|0:3,0:0:0:0:
346,195,93009,1,8,0:0:0:0:
459,121,93223,2,1,L|507:127,2,38.5000011749268,4|4|8,0:3|0:3|0:0,0:0:0:0:
353,51,93652,1,2,0:0:0:0:
353,51,93866,2,0,P|308:61|266:66,1,77.0000023498536,8|2,0:0|0:1,0:0:0:0:
169,153,94295,54,0,B|247:145|231:172|322:162,1,154.000004699707,12|8,0:0|0:0,0:0:0:0:
371,268,94938,1,4,0:3:0:0:
289,357,95152,1,8,0:0:0:0:
289,357,95259,1,0,0:0:0:0:
289,357,95366,2,0,P|238:350|206:352,1,77.0000023498536,8|8,0:3|0:1,0:0:0:0:
121,316,95795,1,4,0:3:0:0:
15,372,96009,22,0,P|36:305|41:206,1,154.000004699707,12|8,1:1|0:0,0:0:0:0:
122,140,96652,1,4,0:3:0:0:
22,68,96866,1,12,0:0:0:0:
138,11,97080,1,4,0:3:0:0:
138,11,97188,1,0,0:0:0:0:
138,11,97295,2,1,P|182:19|214:18,1,77.0000023498536,8|4,0:0|0:3,0:0:0:0:
312,93,97723,53,12,0:0:0:0:
312,93,97938,1,2,0:3:0:0:
211,169,98152,2,1,P|201:124|185:85,1,77.0000023498536,12|2,0:0|0:3,0:0:0:0:
311,201,98580,2,1,P|304:238|300:286,1,77.0000023498536,12|6,0:0|0:3,0:0:0:0:
303,292,98902,1,8,0:3:0:0:
307,303,99009,1,12,0:0:0:0:
416,371,99223,1,8,0:3:0:0:
512,267,99438,38,1,P|480:243|377:274,1,140,6|8,0:0|0:0,0:0:0:0:
290,176,100080,1,4,0:3:0:0:
177,227,100295,2,1,P|139:237|26:239,1,140,4|10,0:3|0:0,0:0:0:0:
108,60,101152,54,1,B|184:68|167:38|260:47,1,140,6|8,0:0|0:0,0:0:0:0:
377,65,101795,1,4,0:3:0:0:
322,174,102009,2,1,P|332:221|334:259,1,70,4|4,0:3|0:3,0:0:0:0:
405,345,102438,1,10,0:0:0:0:
405,327,102545,1,8,0:0:0:0:
406,309,102652,1,2,0:3:0:0:
406,291,102759,1,0,0:0:0:0:
408,273,102866,22,1,P|343:288|258:297,1,140,6|8,0:0|0:0,0:0:0:0:
155,352,103509,2,1,P|149:289|113:192,1,140,6|6,0:0|0:3,0:0:0:0:
115,98,104152,2,0,P|159:87|210:67,1,70,10|6,0:0|0:3,0:0:0:0:
286,8,104580,1,6,0:3:0:0:
471,151,105009,2,1,P|426:158|386:171,1,70,10|4,0:0|0:3,0:0:0:0:
386,161,105330,1,0,0:0:0:0:
373,157,105438,1,4,0:3:0:0:
252,120,105652,1,4,0:3:0:0:
151,204,105866,2,0,P|108:212|65:213,1,70,10|8,0:0|0:3,0:0:0:0:
17,327,106295,54,1,P|71:310|146:366,1,140,6|8,0:0|0:0,0:0:0:0:
244,284,106938,1,4,0:3:0:0:
244,284,107152,2,1,P|293:292|336:297,1,70,6|4,0:3|0:3,0:0:0:0:
410,361,107580,2,1,P|370:368|332:381,1,70,8|0,0:0|0:0,0:0:0:0:
435,255,108009,2,1,P|452:210|426:106,1,140,6|8,0:3|0:0,0:0:0:0:
326,50,108652,1,4,0:3:0:0:
326,50,108759,1,0,0:0:0:0:
326,50,108866,2,1,P|281:60|248:58,1,70,4|4,0:3|0:3,0:0:0:0:
145,118,109295,1,8,0:0:0:0:
145,118,109509,1,0,0:0:0:0:
43,32,109723,22,1,P|89:26|125:12,1,70,6|4,0:0|0:3,0:0:0:0:
160,121,110152,2,1,P|150:171|147:214,1,70,10|4,0:0|0:3,0:0:0:0:
35,261,110580,2,1,P|30:207|16:170,1,70,6|4,0:0|0:3,0:0:0:0:
147,292,111009,2,1,P|194:276|231:268,1,70,10|0,0:0|0:0,0:0:0:0:
323,360,111438,2,1,P|353:309|336:212,1,140,14|12,0:0|0:0,0:0:0:0:
265,139,112080,1,4,0:3:0:0:
343,38,112295,1,12,0:0:0:0:
360,34,112402,1,0,0:0:0:0:
377,31,112509,1,0,0:0:0:0:
394,28,112616,1,0,0:0:0:0:
411,25,112723,54,1,P|416:71|423:112,1,70,10|6,0:3|0:3,0:0:0:0:
512,213,113152,2,2,B|440:211|463:183|361:188,1,154.000004699707,6|4,0:0|0:3,0:0:0:0:
238,255,113795,1,8,0:0:0:0:
90,219,114009,1,4,0:3:0:0:
81,201,114116,1,4,0:3:0:0:
75,182,114223,1,8,0:0:0:0:
73,162,114330,1,0,0:0:0:0:
73,142,114438,2,0,P|84:81|85:51,1,77.0000023498536,2|10,0:0|0:0,0:0:0:0:
202,10,114866,70,0,B|278:-2|269:24|358:7,1,154.000004699707,6|4,0:0|0:3,0:0:0:0:
404,110,115509,1,8,0:0:0:0:
512,15,115723,2,1,P|501:52|498:91,1,77.0000023498536,4|8,0:3|0:0,0:0:0:0:
469,195,116152,1,2,0:0:0:0:
316,154,116366,1,10,0:0:0:0:
316,154,116473,1,8,0:0:0:0:
316,154,116580,22,2,P|294:199|311:300,1,154.000004699707,6|2,0:1|0:1,0:0:0:0:
377,352,117223,1,10,0:0:0:0:
160,290,117652,1,10,0:0:0:0:
160,290,117866,2,0,P|118:303|78:311,1,77.0000023498536,10|8,0:3|0:0,0:0:0:0:
30,370,118295,70,0,P|59:324|33:228,1,154.000004699707,6|6,0:0|0:0,0:0:0:0:
111,100,118938,1,8,0:0:0:0:
111,100,119045,1,0,0:0:0:0:
111,100,119152,2,0,P|71:110|26:118,1,77.0000023498536,6|8,0:0|0:0,0:0:0:0:
218,69,119580,2,0,P|264:80|318:82,1,77.0000023498536,2|8,0:0|0:0,0:0:0:0:
362,162,120009,22,2,P|381:123|351:7,1,154.000004699707,6|8,0:0|0:3,0:0:0:0:
218,69,120652,1,8,0:0:0:0:
94,12,120866,1,8,0:3:0:0:
94,12,120973,1,8,0:3:0:0:
94,12,121080,1,8,0:0:0:0:
31,130,121295,2,0,P|69:134|121:146,1,77.0000023498536,2|10,0:0|0:0,0:0:0:0:
205,222,121723,38,0,P|217:270|151:368,1,154.000004699707,6|8,0:0|0:3,0:0:0:0:
49,359,122366,1,8,0:0:0:0:
23,246,122580,2,1,P|62:255|102:256,1,77.0000023498536,8|8,0:3|0:0,0:0:0:0:
169,358,123009,1,2,0:0:0:0:
303,274,123223,1,10,0:0:0:0:
303,274,123330,1,4,0:3:0:0:
303,274,123438,22,0,B|386:263|370:293|457:283,1,154.000004699707,6|2,0:0|0:0,0:0:0:0:
512,152,124080,2,0,P|448:138|382:192,1,154.000004699707,10|10,0:0|0:0,0:0:0:0:
275,115,124723,2,0,P|227:123|183:124,1,77.0000023498536,4|10,0:3|0:0,0:0:0:0:
81,245,125152,2,0,P|73:186|48:96,1,154.000004699707,6|4,0:0|0:3,0:0:0:0:
163,13,125795,1,8,0:0:0:0:
291,47,126009,70,1,L|342:55,2,51.3333348999024,8|8|8,0:0|0:0|0:3,0:0:0:0:
274,83,126438,22,1,L|221:91,2,51.3333348999024,8|4|4,0:3|0:3|0:3,0:0:0:0:
290,116,126866,21,6,0:2:0:0:
256,192,136295,12,1,139723,0:0:0:0:
142,234,140580,70,0,P|121:191|127:69,2,168,4|0|2,1:1|0:0|0:3,0:0:0:0:
345,137,142295,2,0,P|366:180|360:302,2,168,4|0|2,1:1|0:0|0:3,0:0:0:0:
178,33,144009,2,2,P|231:24|304:1,1,112,0|2,1:0|3:2,0:1:0:0:
460,127,144866,2,2,P|396:116|328:112,1,112,0|2,1:0|0:0,0:1:0:0:
195,290,145723,2,1,P|166:248|183:116,1,168,2|0,1:2|3:0,0:0:0:0:
258,102,146580,1,2,0:0:0:0:
414,229,147009,21,0,1:0:0:0:
414,229,147116,1,0,1:0:0:0:
414,229,147223,1,0,1:0:0:0:
415,335,147438,2,0,P|357:322|334:319,1,62.9999980773926,0|8,0:0|0:0,0:0:0:0:
250,363,147866,2,1,P|257:316|256:283,1,62.9999980773926,0|8,0:0|0:0,0:0:0:0:
166,243,148295,1,4,0:3:0:0:
237,162,148509,1,8,0:0:0:0:
237,162,148616,1,0,0:0:0:0:
237,162,148723,2,0,P|283:168|311:169,1,62.9999980773926,4|8,0:3|0:0,0:0:0:0:
171,86,149152,22,0,B|106:95|114:70|26:83,1,125.999996154785,4|4,0:1|0:3,0:0:0:0:
103,168,149795,1,8,0:0:0:0:
23,232,150009,1,4,0:3:0:0:
23,232,150116,1,4,0:3:0:0:
23,232,150223,2,1,P|32:269|38:302,1,62.9999980773926,8|8,0:0|0:3,0:0:0:0:
103,365,150652,1,8,0:3:0:0:
183,304,150866,53,8,0:0:0:0:
366,359,151295,1,8,0:0:0:0:
432,173,151723,1,8,0:0:0:0:
250,119,152152,1,8,0:0:0:0:
388,262,152580,1,8,0:0:0:0:
256,192,153009,12,0,154295,0:0:0:0:
