osu file format v14

[General]
AudioFilename: audio.mp3
AudioLeadIn: 0
PreviewTime: 28688
Countdown: 0
SampleSet: Normal
StackLeniency: 0.7
Mode: 1
LetterboxInBreaks: 0
WidescreenStoryboard: 0

[Editor]
DistanceSpacing: 1.9
BeatDivisor: 4
GridSize: 32
TimelineZoom: 2.2

[Metadata]
Title:nanoya
TitleUnicode:nanoya
Artist:Down
ArtistUnicode:Down
Creator:Hivie
Version:nanoya
Source:東方妖々夢 ~ Perfect Cherry Blossom.
Tags:nanoya meiqth d3kuu 西行寺幽々子 Saigyouji Yuyuko 幽雅に咲かせ、墨染の桜 ~ Border of Life ZUN Yuuga ni sakase, sumizome no sakura Bloom Nobly Ink-Black Cherry Blossom th7 touhou Youyoumu 7 instrumental video game folk 東方Project satonodiamond
BeatmapID:4238553
BeatmapSetID:2033193

[Difficulty]
HPDrainRate:6
CircleSize:2
OverallDifficulty:6
ApproachRate:10
SliderMultiplier:1.4
SliderTickRate:1

[Events]
//Background and Video events
0,0,"mommy.jpg",0,40
//Break Periods
//Storyboard Layer 0 (Background)
//Storyboard Layer 1 (Fail)
//Storyboard Layer 2 (Pass)
//Storyboard Layer 3 (Foreground)
//Storyboard Layer 4 (Overlay)
//Storyboard Sound Samples

[TimingPoints]
1510,428.571428571429,4,1,0,50,1,0
1510,-125,4,1,0,50,0,0
14795,-112.359550561798,4,1,0,50,0,0
14902,-109.89010989011,4,1,0,50,0,0
15010,-107.52688172043,4,1,0,50,0,0
15117,-105.263157894737,4,1,0,50,0,0
15224,428.571428571429,4,1,0,50,1,8
15438,428.571428571429,4,1,0,70,1,0
15438,-100,4,1,0,70,0,0
25935,-99.068255687974,4,1,0,70,0,0
26149,-98.1579286358367,4,1,0,70,0,0
26256,-97.7090100871944,4,1,0,70,0,0
26363,-97.2641790409735,4,1,0,70,0,0
26577,-96.3865581650293,4,1,0,70,0,0
26685,-95.9496327387198,4,1,0,70,0,0
26792,-95.5206418184857,4,1,0,70,0,0
26899,-95.0954698614751,4,1,0,70,0,0
27006,-94.6740660979044,4,1,0,70,0,0
27220,-93.8423645320197,4,1,0,70,0,0
27327,-93.4319695916949,4,1,0,70,0,0
27435,-93.0213631739573,4,1,0,70,0,0
27649,-92.2183226431078,4,1,0,70,0,0
27863,-91.429028516578,4,1,0,70,0,0
27970,-91.0394265232975,4,1,0,70,0,0
28077,-90.6531308244438,4,1,0,70,0,0
28292,-89.8867568417742,4,1,0,70,0,0
28399,-89.5101609303418,4,1,0,70,0,0
28506,-89.1367074787491,4,1,0,70,0,0
28613,-88.7663573175941,4,1,0,70,0,0
28720,-88.3990719257541,4,1,0,70,0,0
28827,-88.0348134170293,4,1,0,70,0,0
28935,-87.6701821668265,4,1,0,70,0,0
29152,-86.9565217391304,4,1,0,80,0,1
56580,-86.9565217391304,4,1,0,60,0,0
56902,-111.111111111111,4,1,0,60,0,0
62792,-108.101297719541,4,1,0,60,0,0
63006,-105.263157894737,4,1,0,60,0,0
63113,-103.899249212884,4,1,0,60,0,0
63220,-102.570233114166,4,1,0,60,0,0
63327,-101.274787535411,4,1,0,60,0,0
63435,-100,4,1,0,70,0,0
68792,-97.5554292211484,4,1,0,70,0,0
68899,-96.3828353179061,4,1,0,70,0,0
69006,-95.2380952380952,4,1,0,70,0,0
69220,-93.028298818172,4,1,0,70,0,0
69435,-83.3333333333333,4,1,0,70,0,0
69756,-76.9230769230769,4,1,0,70,0,0
70077,-71.4285714285714,4,1,0,70,0,0
70292,-111.111111111111,4,1,0,40,0,0
71363,-117.647058823529,4,1,0,60,0,0
71577,-115.388066397488,4,1,0,60,0,0
71792,-113.204225352113,4,1,0,60,0,0
72006,-111.111111111111,4,1,0,60,0,0
84756,-108.110381961972,4,1,0,60,0,0
84863,-107.145835070458,4,1,0,60,0,0
85077,-105.267469484722,4,1,0,60,0,0
85185,-104.344295574503,4,1,0,60,0,0
85292,-103.445499919498,4,1,0,60,0,0
85399,-102.56205603001,4,1,0,60,0,0
85506,-101.693573915796,4,1,0,60,0,0
85720,-100,4,1,0,70,0,0
91078,-98.1531853972799,4,1,0,70,0,0
91292,-96.3814772120224,4,1,0,70,0,0
91399,-95.5193936691931,4,1,0,70,0,0
91506,-94.6725952111353,4,1,0,70,0,0
91721,-93.015683507896,4,1,0,70,0,0
91828,-92.212508406187,4,1,0,70,0,0
91935,-91.4230851290804,4,1,0,70,0,0
92042,-90.6470634899648,4,1,0,70,0,0
92149,-89.8841050920342,4,1,0,70,0,0
92256,-89.1338828362672,4,1,0,70,0,0
92363,-88.3960804538422,4,1,0,70,0,0
92577,-86.9565217391304,4,1,0,80,0,0
97935,-87.433086923273,4,1,0,80,0,0
98042,-87.672213276078,4,1,0,80,0,0
98149,-87.9126512200123,4,1,0,80,0,0
98256,-88.154411575728,4,1,0,80,0,0
98363,-88.3975052832328,4,1,0,80,0,0
98470,-88.6419434035405,4,1,0,80,0,0
98577,-88.8877371203483,4,1,0,80,0,0
98685,-89.1372141372141,4,1,0,80,0,0
98792,-89.3857660334089,4,1,0,80,0,0
98899,-89.6357079391627,4,1,0,80,0,0
99006,-89.8870515474724,4,1,0,80,0,0
99113,-90.139808682855,4,1,0,80,0,0
99220,-90.393991303202,4,1,0,80,0,0
99435,-90.9090909090909,4,1,0,80,0,0
111649,-89.8888189637088,4,1,0,80,0,0
111756,-89.387222946545,4,1,0,80,0,0
111863,-88.8911938595581,4,1,0,80,0,0
112077,-87.9154698399672,4,1,0,80,0,0
112185,-87.4311365027545,4,1,0,80,0,0
112292,-86.9565217391304,4,1,0,80,0,0
112506,-86.0225846925972,4,1,0,80,0,0
112720,-85.1084959531258,4,1,0,80,0,0
112827,-84.6586980144226,4,1,0,80,0,0
112935,-84.2094919917461,4,1,0,80,0,0
113152,-83.3333333333333,4,1,0,100,0,1
126866,-83.3333333333333,4,1,0,60,0,0
127077,-84.2378899315242,4,1,0,60,0,0
127292,-85.1666666666667,4,1,0,60,0,0
127506,-86.1116872342632,4,1,0,60,0,0
127720,-87.0779152684564,4,1,0,60,0,0
127935,-88.0707429601739,4,1,0,60,0,0
128149,-89.0816928605911,4,1,0,60,0,0
128363,-90.1161213305117,4,1,0,60,0,0
128577,-91.1748558880044,4,1,0,60,0,0
128792,-92.2638888888889,4,1,0,60,0,0
129006,-93.3740020240639,4,1,0,60,0,0
129220,-94.5111541088095,4,1,0,60,0,0
129435,-95.6818574638474,4,1,0,60,0,0
129649,-96.8762760310331,4,1,0,60,0,0
129863,-98.1008919605411,4,1,0,60,0,0
130077,-99.3568650912354,4,1,0,60,0,0
130292,-100.651515151515,4,1,0,60,0,0
130506,-101.974088173892,4,1,0,60,0,0
130720,-103.331881533101,4,1,0,60,0,0
130935,-104.732925521852,4,1,0,60,0,0
131149,-106.165697116921,4,1,0,60,0,0
131363,-107.638213753322,4,1,0,60,0,0
131577,-109.152152481104,4,1,0,60,0,0
131792,-110.716666666667,4,1,0,60,0,0
132006,-112.319085621534,4,1,0,60,0,0
132220,-113.968569860005,4,1,0,60,0,0
132435,-115.675280351048,4,1,0,60,0,0
132649,-117.425581559782,4,1,0,60,0,0
132756,-118.320746651468,4,1,0,60,0,0
132863,-119.229664728265,4,1,0,60,0,0
133077,-121.090047393365,4,1,0,60,0,0
133292,-123.018518518519,4,1,0,60,0,0
133506,-125,4,1,0,60,0,0
133720,-125,4,1,0,60,0,0
133935,-124.027782802156,4,1,0,60,0,0
134149,-123.074990128155,4,1,0,60,0,0
134363,-122.136724733711,4,1,0,60,0,0
134577,-121.212656885275,4,1,0,60,0,0
134792,-120.298245614035,4,1,0,60,0,0
135006,-119.401685588911,4,1,0,60,0,0
135220,-118.518390486726,4,1,0,60,0,0
135435,-117.64403115671,4,1,0,60,0,0
135649,-116.786456381783,4,1,0,60,0,0
135863,-115.941293835176,4,1,0,60,0,0
136077,-115.108275977841,4,1,0,60,0,0
136291,-114.287142904763,4,1,0,60,0,0
136506,-113.473886277884,4,1,0,60,0,0
136720,-112.67582489812,4,1,0,60,0,0
136934,-111.888910645519,4,1,0,60,0,0
137149,-111.109310691253,4,1,0,60,0,0
137363,-110.344050722539,4,1,0,60,0,0
137577,-109.589260028768,4,1,0,60,0,0
137792,-108.84126984127,4,1,0,60,0,0
138006,-108.106829791259,4,1,0,60,0,0
138220,-107.382235028815,4,1,0,60,0,0
138435,-106.663970382354,4,1,0,60,0,0
138649,-105.958525203202,4,1,0,60,0,0
138863,-105.262349943201,4,1,0,60,0,0
139077,-104.575263077627,4,1,0,60,0,0
139292,-103.893939393939,4,1,0,60,0,0
139506,-103.224543867044,4,1,0,60,0,0
139720,-102.563719037932,4,1,0,60,0,0
139935,-101.908272151711,4,1,0,60,0,0
140042,-101.585185185185,4,1,0,60,0,0
140149,-101.264140355023,4,1,0,60,0,0
140256,-100.945118360617,4,1,0,60,0,0
140363,-100.628100143817,4,1,0,60,0,0
140577,-100,4,1,0,70,0,0
147006,-95.2380952380952,4,1,0,70,0,0
147113,-93.028298818172,4,1,0,70,0,0
147220,-90.918724170817,4,1,0,70,0,0
147327,-88.9027043829655,4,1,0,70,0,0
147435,-86.9565217391304,4,1,0,80,0,0
150866,-80,4,1,0,80,0,0
152580,-80,4,1,0,80,0,0
152795,-50,4,1,0,40,0,0
154295,-111.111111111111,4,1,0,5,0,0

[HitObjects]
256,192,1510,5,0,0:0:0:0:
256,192,2152,1,8,0:0:0:0:
256,192,2795,1,8,0:0:0:0:
256,192,3224,1,0,0:0:0:0:
256,192,3867,1,8,0:0:0:0:
256,192,4510,1,8,0:0:0:0:
256,192,4938,1,8,0:0:0:0:
256,192,5367,1,0,0:0:0:0:
256,192,5795,1,8,0:0:0:0:
256,192,6224,1,0,0:0:0:0:
256,192,6652,1,8,0:0:0:0:
256,192,7938,1,8,0:0:0:0:
256,192,8152,1,8,0:0:0:0:
256,192,8367,1,0,0:0:0:0:
256,192,9010,1,0,0:0:0:0:
256,192,9652,1,8,0:0:0:0:
256,192,10081,1,0,0:0:0:0:
256,192,10724,1,0,0:0:0:0:
256,192,11367,1,8,0:0:0:0:
256,192,11795,1,0,0:0:0:0:
256,192,12224,1,8,0:0:0:0:
256,192,12652,1,0,0:0:0:0:
256,192,13081,1,8,0:0:0:0:
256,192,13510,1,0,0:0:0:0:
256,192,14795,1,8,0:0:0:0:
256,192,14902,1,8,0:0:0:0:
256,192,15010,1,8,0:0:0:0:
256,192,15117,1,8,0:0:0:0:
256,96,15438,1,4,0:0:0:0:
256,192,15652,1,8,0:0:0:0:
256,192,15866,1,0,0:0:0:0:
256,192,15973,1,0,0:0:0:0:
256,192,16080,1,8,0:0:0:0:
256,192,16295,1,0,0:0:0:0:
256,192,16402,1,0,0:0:0:0:
256,192,16509,1,8,0:0:0:0:
256,192,16616,1,0,0:0:0:0:
256,192,16723,1,0,0:0:0:0:
256,192,16938,1,8,0:0:0:0:
256,192,17045,1,8,0:0:0:0:
256,192,17152,1,0,0:0:0:0:
256,192,17366,1,8,0:0:0:0:
256,192,17580,1,0,0:0:0:0:
256,192,17688,1,0,0:0:0:0:
256,192,17795,1,8,0:0:0:0:
256,192,17902,1,0,0:0:0:0:
256,192,18009,1,0,0:0:0:0:
256,192,18116,1,0,0:0:0:0:
256,192,18223,1,8,0:0:0:0:
256,192,18438,1,0,0:0:0:0:
256,192,18652,1,8,0:0:0:0:
256,192,18759,1,0,0:0:0:0:
256,192,18866,1,8,0:0:0:0:
256,192,19080,1,8,0:0:0:0:
256,192,19295,1,0,0:0:0:0:
256,192,19402,1,0,0:0:0:0:
256,192,19509,1,8,0:0:0:0:
256,192,19723,1,0,0:0:0:0:
256,192,19830,1,0,0:0:0:0:
256,192,19938,1,8,0:0:0:0:
256,192,20045,1,8,0:0:0:0:
256,192,20152,1,0,0:0:0:0:
256,192,20366,1,8,0:0:0:0:
256,192,20473,1,8,0:0:0:0:
256,192,20580,1,8,0:0:0:0:
256,192,20795,1,8,0:0:0:0:
256,192,21009,1,0,0:0:0:0:
256,192,21116,1,0,0:0:0:0:
256,192,21223,1,8,0:0:0:0:
256,192,21330,1,8,0:0:0:0:
256,192,21438,1,0,0:0:0:0:
256,192,21545,1,8,0:0:0:0:
256,192,21652,1,0,0:0:0:0:
256,192,21866,1,0,0:0:0:0:
256,192,21973,1,0,0:0:0:0:
256,192,22188,1,0,0:0:0:0:
256,192,22295,1,8,0:0:0:0:
256,192,22509,1,8,0:0:0:0:
256,192,22723,1,0,0:0:0:0:
256,192,22830,1,0,0:0:0:0:
256,192,22938,1,8,0:0:0:0:
256,192,23152,1,0,0:0:0:0:
256,192,23259,1,0,0:0:0:0:
256,192,23366,1,8,0:0:0:0:
256,192,23473,1,0,0:0:0:0:
256,192,23580,1,0,0:0:0:0:
256,192,23795,1,8,0:0:0:0:
256,192,23902,1,8,0:0:0:0:
256,192,24009,1,0,0:0:0:0:
256,192,24223,1,8,0:0:0:0:
256,192,24438,1,0,0:0:0:0:
256,192,24545,1,0,0:0:0:0:
256,192,24652,1,8,0:0:0:0:
256,192,24759,1,0,0:0:0:0:
256,192,24866,1,0,0:0:0:0:
256,192,24973,1,0,0:0:0:0:
256,192,25080,1,8,0:0:0:0:
256,192,25188,1,8,0:0:0:0:
256,192,25295,1,0,0:0:0:0:
256,192,25509,1,8,0:0:0:0:
256,192,25616,1,0,0:0:0:0:
256,192,25723,1,8,0:0:0:0:
256,192,25938,1,8,0:0:0:0:
256,192,26152,1,0,0:0:0:0:
256,192,26259,1,0,0:0:0:0:
256,192,26366,1,8,0:0:0:0:
256,192,26580,1,0,0:0:0:0:
256,192,26688,1,0,0:0:0:0:
256,192,26795,1,8,0:0:0:0:
256,192,26902,1,8,0:0:0:0:
256,192,27009,1,0,0:0:0:0:
256,192,27223,1,8,0:0:0:0:
256,192,27330,1,8,0:0:0:0:
256,192,27438,1,8,0:0:0:0:
256,192,27652,1,8,0:0:0:0:
256,192,27866,1,0,0:0:0:0:
256,192,27973,1,0,0:0:0:0:
256,192,28080,1,8,0:0:0:0:
256,192,28295,1,0,0:0:0:0:
256,192,28402,1,0,0:0:0:0:
256,192,28509,1,8,0:0:0:0:
256,192,28616,1,0,0:0:0:0:
256,192,28723,1,8,0:0:0:0:
256,192,28830,1,8,0:0:0:0:
256,192,28938,1,0,0:0:0:0:
256,96,29152,1,4,0:0:0:0:
256,192,29366,1,8,0:0:0:0:
256,192,29473,1,0,0:0:0:0:
256,192,29688,1,0,0:0:0:0:
256,192,29795,1,8,0:0:0:0:
256,192,30009,1,0,0:0:0:0:
256,192,30223,1,8,0:0:0:0:
256,192,30330,1,0,0:0:0:0:
256,192,30438,1,8,0:0:0:0:
256,192,30545,1,8,0:0:0:0:
256,192,30652,1,0,0:0:0:0:
256,192,30866,1,0,0:0:0:0:
256,192,31080,1,8,0:0:0:0:
256,192,31188,1,0,0:0:0:0:
256,192,31402,1,0,0:0:0:0:
256,192,31509,1,8,0:0:0:0:
256,192,31723,1,0,0:0:0:0:
256,192,31830,1,8,0:0:0:0:
256,192,31938,1,0,0:0:0:0:
256,192,32045,1,0,0:0:0:0:
256,192,32152,1,8,0:0:0:0:
256,192,32366,1,0,0:0:0:0:
256,192,32580,1,8,0:0:0:0:
256,192,32688,1,8,0:0:0:0:
256,192,32795,1,0,0:0:0:0:
256,192,33009,1,8,0:0:0:0:
256,192,33116,1,0,0:0:0:0:
256,192,33223,1,0,0:0:0:0:
256,192,33438,1,8,0:0:0:0:
256,192,33545,1,8,0:0:0:0:
256,192,33652,1,0,0:0:0:0:
256,192,33866,1,8,0:0:0:0:
256,192,33973,1,0,0:0:0:0:
256,192,34080,1,0,0:0:0:0:
256,192,34188,1,0,0:0:0:0:
256,192,34295,1,8,0:0:0:0:
256,192,34509,1,8,0:0:0:0:
256,192,34616,1,0,0:0:0:0:
256,192,34830,1,0,0:0:0:0:
256,192,34938,1,8,0:0:0:0:
256,192,35152,1,0,0:0:0:0:
256,192,35259,1,0,0:0:0:0:
256,192,35366,1,8,0:0:0:0:
256,192,35473,1,0,0:0:0:0:
256,192,35580,1,0,0:0:0:0:
256,192,35688,1,0,0:0:0:0:
256,192,35795,1,8,0:0:0:0:
256,96,36009,1,4,0:0:0:0:
256,192,36223,1,8,0:0:0:0:
256,192,36330,1,0,0:0:0:0:
256,192,36545,1,0,0:0:0:0:
256,192,36652,1,8,0:0:0:0:
256,192,36866,1,0,0:0:0:0:
256,192,37080,1,8,0:0:0:0:
256,192,37188,1,0,0:0:0:0:
256,192,37295,1,8,0:0:0:0:
256,192,37402,1,0,0:0:0:0:
256,192,37509,1,0,0:0:0:0:
256,96,37723,1,8,0:0:0:0:
256,192,37938,1,0,0:0:0:0:
256,192,38045,1,0,0:0:0:0:
256,192,38259,1,0,0:0:0:0:
256,192,38366,1,8,0:0:0:0:
256,192,38580,1,0,0:0:0:0:
256,192,38688,1,8,0:0:0:0:
256,192,38795,1,0,0:0:0:0:
256,192,38902,1,0,0:0:0:0:
256,192,39009,1,8,0:0:0:0:
256,192,39116,1,8,0:0:0:0:
256,192,39223,1,0,0:0:0:0:
256,192,39438,1,8,0:0:0:0:
256,192,39545,1,0,0:0:0:0:
256,192,39652,1,0,0:0:0:0:
256,192,39866,1,8,0:0:0:0:
256,192,39973,1,8,0:0:0:0:
256,192,40080,1,0,0:0:0:0:
256,192,40295,1,8,0:0:0:0:
256,192,40402,1,0,0:0:0:0:
256,192,40509,1,0,0:0:0:0:
256,192,40723,1,8,0:0:0:0:
256,192,40830,1,0,0:0:0:0:
256,192,40938,1,0,0:0:0:0:
256,192,41045,1,0,0:0:0:0:
256,192,41152,1,8,0:0:0:0:
256,192,41366,1,8,0:0:0:0:
256,192,41473,1,0,0:0:0:0:
256,192,41688,1,0,0:0:0:0:
256,192,41795,1,8,0:0:0:0:
256,192,42009,1,0,0:0:0:0:
256,192,42116,1,0,0:0:0:0:
256,192,42223,1,8,0:0:0:0:
256,192,42330,1,8,0:0:0:0:
256,192,42438,1,0,0:0:0:0:
256,192,42545,1,8,0:0:0:0:
256,192,42652,1,0,0:0:0:0:
256,96,42866,1,4,0:0:0:0:
256,192,43080,1,8,0:0:0:0:
256,192,43188,1,0,0:0:0:0:
256,192,43402,1,0,0:0:0:0:
256,192,43509,1,8,0:0:0:0:
256,192,43723,1,0,0:0:0:0:
256,192,43938,1,8,0:0:0:0:
256,192,44045,1,0,0:0:0:0:
256,192,44152,1,8,0:0:0:0:
256,192,44259,1,8,0:0:0:0:
256,192,44366,1,0,0:0:0:0:
256,192,44473,1,8,0:0:0:0:
256,192,44580,1,0,0:0:0:0:
256,192,44795,1,8,0:0:0:0:
256,192,44902,1,0,0:0:0:0:
256,192,45116,1,0,0:0:0:0:
256,192,45223,1,8,0:0:0:0:
256,192,45438,1,0,0:0:0:0:
256,192,45545,1,8,0:0:0:0:
256,192,45652,1,8,0:0:0:0:
256,192,45759,1,0,0:0:0:0:
256,192,45866,1,8,0:0:0:0:
256,192,45973,1,8,0:0:0:0:
256,192,46080,1,0,0:0:0:0:
256,192,46295,1,8,0:0:0:0:
256,192,46402,1,8,0:0:0:0:
256,192,46509,1,8,0:0:0:0:
256,192,46723,1,8,0:0:0:0:
256,192,46830,1,0,0:0:0:0:
256,192,46938,1,0,0:0:0:0:
256,192,47152,1,8,0:0:0:0:
256,192,47259,1,8,0:0:0:0:
256,192,47366,1,0,0:0:0:0:
256,192,47580,1,8,0:0:0:0:
256,192,47688,1,8,0:0:0:0:
256,192,47795,1,8,0:0:0:0:
256,192,47902,1,0,0:0:0:0:
256,192,48009,1,8,0:0:0:0:
256,192,48223,1,8,0:0:0:0:
256,192,48330,1,0,0:0:0:0:
256,192,48545,1,0,0:0:0:0:
256,192,48652,1,8,0:0:0:0:
256,192,48866,1,0,0:0:0:0:
256,192,48973,1,0,0:0:0:0:
256,192,49080,1,8,0:0:0:0:
256,192,49188,1,0,0:0:0:0:
256,192,49295,1,0,0:0:0:0:
256,192,49402,1,0,0:0:0:0:
256,192,49509,1,8,0:0:0:0:
256,96,49723,1,4,0:0:0:0:
256,192,49938,1,8,0:0:0:0:
256,192,50045,1,0,0:0:0:0:
256,192,50259,1,0,0:0:0:0:
256,192,50366,1,8,0:0:0:0:
256,192,50580,1,0,0:0:0:0:
256,192,50795,1,8,0:0:0:0:
256,192,50902,1,0,0:0:0:0:
256,192,51009,1,8,0:0:0:0:
256,192,51116,1,8,0:0:0:0:
256,192,51223,1,0,0:0:0:0:
256,192,51438,1,8,0:0:0:0:
256,192,51652,1,0,0:0:0:0:
256,192,51759,1,0,0:0:0:0:
256,192,51973,1,0,0:0:0:0:
256,192,52080,1,8,0:0:0:0:
256,192,52295,1,0,0:0:0:0:
256,192,52402,1,8,0:0:0:0:
256,192,52509,1,0,0:0:0:0:
256,192,52616,1,0,0:0:0:0:
256,192,52723,1,8,0:0:0:0:
256,192,52830,1,8,0:0:0:0:
256,192,52938,1,0,0:0:0:0:
256,192,53152,1,8,0:0:0:0:
256,192,53259,1,0,0:0:0:0:
256,192,53366,1,0,0:0:0:0:
256,192,53580,1,8,0:0:0:0:
256,192,53688,1,8,0:0:0:0:
256,192,53795,1,0,0:0:0:0:
256,192,54009,1,8,0:0:0:0:
256,192,54116,1,8,0:0:0:0:
256,192,54223,1,0,0:0:0:0:
256,192,54438,1,8,0:0:0:0:
256,192,54545,1,8,0:0:0:0:
256,192,54652,1,8,0:0:0:0:
256,192,54759,1,8,0:0:0:0:
256,192,54866,1,0,0:0:0:0:
256,192,55080,1,0,0:0:0:0:
256,192,55188,1,0,0:0:0:0:
256,192,55295,1,8,0:0:0:0:
256,192,55402,1,0,0:0:0:0:
256,192,55509,1,0,0:0:0:0:
256,192,55616,1,0,0:0:0:0:
256,192,55723,1,8,0:0:0:0:
256,192,55830,1,8,0:0:0:0:
256,192,55938,1,0,0:0:0:0:
256,192,56045,1,8,0:0:0:0:
256,192,56152,1,8,0:0:0:0:
256,192,56259,1,8,0:0:0:0:
256,192,56366,1,0,0:0:0:0:
256,96,56580,1,12,0:0:0:0:
256,192,57009,1,0,0:0:0:0:
256,192,57223,1,8,0:0:0:0:
256,192,57652,1,8,0:0:0:0:
256,192,57866,1,0,0:0:0:0:
256,192,58080,1,8,0:0:0:0:
256,192,58295,1,0,0:0:0:0:
256,192,58723,1,8,0:0:0:0:
256,192,59152,1,8,0:0:0:0:
256,192,59580,1,0,0:0:0:0:
256,192,59795,1,8,0:0:0:0:
256,192,59902,1,0,0:0:0:0:
256,192,60009,1,8,0:0:0:0:
256,192,60438,1,0,0:0:0:0:
256,192,60652,1,8,0:0:0:0:
256,192,61080,1,8,0:0:0:0:
256,192,61295,1,0,0:0:0:0:
256,192,61509,1,8,0:0:0:0:
256,192,61723,1,0,0:0:0:0:
256,192,61938,1,0,0:0:0:0:
256,192,62152,1,8,0:0:0:0:
256,192,62580,1,8,0:0:0:0:
256,192,62795,1,0,0:0:0:0:
256,192,63009,1,8,0:0:0:0:
256,192,63116,1,8,0:0:0:0:
256,192,63223,1,8,0:0:0:0:
256,192,63330,1,8,0:0:0:0:
256,192,63438,1,0,0:0:0:0:
256,192,63652,1,0,0:0:0:0:
256,192,63866,1,8,0:0:0:0:
256,192,64080,1,0,0:0:0:0:
256,192,64188,1,0,0:0:0:0:
256,192,64402,1,8,0:0:0:0:
256,192,64509,1,0,0:0:0:0:
256,192,64723,1,8,0:0:0:0:
256,192,64830,1,0,0:0:0:0:
256,192,64938,1,8,0:0:0:0:
256,192,65045,1,8,0:0:0:0:
256,192,65152,1,0,0:0:0:0:
256,192,65366,1,0,0:0:0:0:
256,192,65580,1,8,0:0:0:0:
256,192,65795,1,0,0:0:0:0:
256,192,65902,1,0,0:0:0:0:
256,192,66009,1,8,0:0:0:0:
256,192,66223,1,0,0:0:0:0:
256,192,66438,1,8,0:0:0:0:
256,192,66545,1,0,0:0:0:0:
256,192,66759,1,0,0:0:0:0:
256,192,66866,1,8,0:0:0:0:
256,192,67080,1,0,0:0:0:0:
256,192,67295,1,8,0:0:0:0:
256,192,67509,1,0,0:0:0:0:
256,192,67616,1,0,0:0:0:0:
256,192,67723,1,8,0:0:0:0:
256,192,67938,1,0,0:0:0:0:
256,192,68152,1,8,0:0:0:0:
256,192,68259,1,0,0:0:0:0:
256,192,68366,1,8,0:0:0:0:
256,192,68473,1,8,0:0:0:0:
256,192,68580,1,0,0:0:0:0:
256,192,68795,1,0,0:0:0:0:
256,192,68902,1,0,0:0:0:0:
256,192,69009,1,8,0:0:0:0:
256,192,69223,1,0,0:0:0:0:
256,96,69438,1,12,0:0:0:0:
256,96,69759,1,12,0:0:0:0:
256,96,70080,1,12,0:0:0:0:
256,192,71366,1,0,0:0:0:0:
256,192,71580,1,8,0:0:0:0:
256,192,71795,1,8,0:0:0:0:
256,96,72009,1,4,0:0:0:0:
256,192,72438,1,0,0:0:0:0:
256,192,72866,1,0,0:0:0:0:
256,192,73080,1,8,0:0:0:0:
256,192,73295,1,8,0:0:0:0:
256,192,73509,1,8,0:0:0:0:
256,192,73723,1,0,0:0:0:0:
256,192,74152,1,0,0:0:0:0:
256,192,74580,1,0,0:0:0:0:
256,192,74795,1,8,0:0:0:0:
256,192,75009,1,0,0:0:0:0:
256,192,75223,1,0,0:0:0:0:
256,192,75438,1,8,0:0:0:0:
256,192,75652,1,0,0:0:0:0:
256,192,75866,1,8,0:0:0:0:
256,192,76080,1,0,0:0:0:0:
256,192,76295,1,8,0:0:0:0:
256,192,76509,1,8,0:0:0:0:
256,192,76723,1,0,0:0:0:0:
256,192,76938,1,8,0:0:0:0:
256,192,77152,1,0,0:0:0:0:
256,192,77580,1,0,0:0:0:0:
256,192,78009,1,0,0:0:0:0:
256,192,78223,1,8,0:0:0:0:
256,192,78438,1,8,0:0:0:0:
256,192,78652,1,0,0:0:0:0:
256,192,78866,1,12,0:0:0:0:
256,192,79295,1,0,0:0:0:0:
256,192,79723,1,0,0:0:0:0:
256,192,79938,1,0,0:0:0:0:
256,192,80152,1,8,0:0:0:0:
256,192,80366,1,8,0:0:0:0:
256,192,80580,1,0,0:0:0:0:
256,192,81009,1,0,0:0:0:0:
256,192,81438,1,0,0:0:0:0:
256,192,81652,1,8,0:0:0:0:
256,192,81866,1,8,0:0:0:0:
256,192,82080,1,0,0:0:0:0:
256,96,82295,1,12,0:0:0:0:
256,192,82509,1,0,0:0:0:0:
256,192,82723,1,0,0:0:0:0:
256,192,82938,1,8,0:0:0:0:
256,192,83152,1,8,0:0:0:0:
256,192,83366,1,0,0:0:0:0:
256,192,83580,1,0,0:0:0:0:
256,192,83795,1,8,0:0:0:0:
256,192,84009,1,0,0:0:0:0:
256,192,84438,1,8,0:0:0:0:
256,192,84759,1,8,0:0:0:0:
256,192,84866,1,0,0:0:0:0:
256,192,85080,1,8,0:0:0:0:
256,192,85188,1,8,0:0:0:0:
256,192,85295,1,0,0:0:0:0:
256,192,85402,1,8,0:0:0:0:
256,192,85509,1,0,0:0:0:0:
256,96,85723,1,4,0:0:0:0:
256,192,85938,1,8,0:0:0:0:
256,192,86152,1,0,0:0:0:0:
256,192,86259,1,0,0:0:0:0:
256,192,86366,1,8,0:0:0:0:
256,192,86580,1,0,0:0:0:0:
256,192,86688,1,0,0:0:0:0:
256,192,86795,1,8,0:0:0:0:
256,192,86902,1,8,0:0:0:0:
256,192,87009,1,0,0:0:0:0:
256,192,87116,1,0,0:0:0:0:
256,192,87223,1,8,0:0:0:0:
256,96,87438,1,4,0:0:0:0:
256,192,87652,1,8,0:0:0:0:
256,192,87866,1,0,0:0:0:0:
256,192,87973,1,0,0:0:0:0:
256,192,88080,1,8,0:0:0:0:
256,192,88295,1,0,0:0:0:0:
256,192,88402,1,0,0:0:0:0:
256,192,88509,1,8,0:0:0:0:
256,192,88616,1,8,0:0:0:0:
256,192,88723,1,0,0:0:0:0:
256,192,88830,1,8,0:0:0:0:
256,192,88938,1,0,0:0:0:0:
256,96,89152,1,12,0:0:0:0:
256,192,89366,1,8,0:0:0:0:
256,192,89580,1,0,0:0:0:0:
256,192,89688,1,8,0:0:0:0:
256,192,89795,1,0,0:0:0:0:
256,96,90009,1,12,0:0:0:0:
256,192,90223,1,8,0:0:0:0:
256,192,90330,1,8,0:0:0:0:
256,192,90438,1,0,0:0:0:0:
256,96,90652,1,12,0:0:0:0:
256,192,90866,1,0,0:0:0:0:
256,192,91080,1,8,0:0:0:0:
256,192,91295,1,0,0:0:0:0:
256,192,91402,1,0,0:0:0:0:
256,192,91509,1,8,0:0:0:0:
256,192,91723,1,0,0:0:0:0:
256,192,91830,1,0,0:0:0:0:
256,192,91938,1,8,0:0:0:0:
256,192,92045,1,8,0:0:0:0:
256,192,92152,1,0,0:0:0:0:
256,192,92259,1,0,0:0:0:0:
256,192,92366,1,8,0:0:0:0:
256,96,92580,1,12,0:0:0:0:
256,192,92795,1,0,0:0:0:0:
256,192,92902,1,0,0:0:0:0:
256,192,93009,1,8,0:0:0:0:
256,192,93223,1,0,0:0:0:0:
256,192,93330,1,0,0:0:0:0:
256,192,93438,1,8,0:0:0:0:
256,192,93545,1,0,0:0:0:0:
256,192,93652,1,0,0:0:0:0:
256,192,93759,1,0,0:0:0:0:
256,192,93866,1,8,0:0:0:0:
256,192,93973,1,0,0:0:0:0:
256,192,94080,1,8,0:0:0:0:
256,64,94295,1,12,0:0:0:0:
256,192,94509,1,0,0:0:0:0:
256,192,94616,1,0,0:0:0:0:
256,192,94723,1,8,0:0:0:0:
256,192,94938,1,0,0:0:0:0:
256,192,95045,1,0,0:0:0:0:
256,192,95152,1,8,0:0:0:0:
256,192,95259,1,0,0:0:0:0:
256,192,95366,1,0,0:0:0:0:
256,192,95473,1,0,0:0:0:0:
256,192,95580,1,8,0:0:0:0:
256,192,95688,1,8,0:0:0:0:
256,192,95795,1,0,0:0:0:0:
256,96,96009,1,12,0:0:0:0:
256,192,96223,1,0,0:0:0:0:
256,192,96330,1,8,0:0:0:0:
256,192,96438,1,0,0:0:0:0:
256,192,96652,1,8,0:0:0:0:
256,192,96759,1,0,0:0:0:0:
256,192,96866,1,8,0:0:0:0:
256,192,96973,1,8,0:0:0:0:
256,192,97080,1,0,0:0:0:0:
256,192,97188,1,0,0:0:0:0:
256,192,97295,1,8,0:0:0:0:
256,192,97509,1,0,0:0:0:0:
256,96,97723,1,12,0:0:0:0:
256,192,97938,1,0,0:0:0:0:
256,192,98045,1,0,0:0:0:0:
256,192,98152,1,8,0:0:0:0:
256,192,98259,1,0,0:0:0:0:
256,192,98366,1,0,0:0:0:0:
256,192,98473,1,0,0:0:0:0:
256,192,98580,1,8,0:0:0:0:
256,192,98688,1,0,0:0:0:0:
256,192,98795,1,8,0:0:0:0:
256,192,98902,1,8,0:0:0:0:
256,192,99009,1,0,0:0:0:0:
256,192,99116,1,0,0:0:0:0:
256,192,99223,1,8,0:0:0:0:
256,96,99438,1,4,0:0:0:0:
256,192,99652,1,0,0:0:0:0:
256,192,99759,1,0,0:0:0:0:
256,192,99866,1,8,0:0:0:0:
256,192,99973,1,0,0:0:0:0:
256,192,100080,1,0,0:0:0:0:
256,192,100188,1,0,0:0:0:0:
256,192,100295,1,8,0:0:0:0:
256,192,100402,1,8,0:0:0:0:
256,192,100509,1,0,0:0:0:0:
256,192,100616,1,0,0:0:0:0:
256,192,100723,1,8,0:0:0:0:
256,192,100830,1,0,0:0:0:0:
256,192,101045,1,0,0:0:0:0:
256,192,101152,1,8,0:0:0:0:
256,192,101366,1,0,0:0:0:0:
256,192,101473,1,0,0:0:0:0:
256,192,101580,1,8,0:0:0:0:
256,192,101688,1,0,0:0:0:0:
256,192,101795,1,8,0:0:0:0:
256,192,101902,1,8,0:0:0:0:
256,192,102009,1,0,0:0:0:0:
256,192,102116,1,0,0:0:0:0:
256,192,102223,1,0,0:0:0:0:
256,192,102330,1,0,0:0:0:0:
256,192,102438,1,8,0:0:0:0:
256,192,102545,1,8,0:0:0:0:
256,192,102652,1,0,0:0:0:0:
256,192,102866,1,8,0:0:0:0:
256,192,102973,1,0,0:0:0:0:
256,192,103080,1,0,0:0:0:0:
256,192,103295,1,8,0:0:0:0:
256,192,103402,1,0,0:0:0:0:
256,192,103509,1,8,0:0:0:0:
256,192,103616,1,0,0:0:0:0:
256,192,103723,1,0,0:0:0:0:
256,192,103938,1,8,0:0:0:0:
256,192,104045,1,0,0:0:0:0:
256,192,104152,1,8,0:0:0:0:
256,192,104259,1,0,0:0:0:0:
256,192,104366,1,0,0:0:0:0:
256,192,104473,1,0,0:0:0:0:
256,192,104580,1,8,0:0:0:0:
256,192,104688,1,8,0:0:0:0:
256,192,104795,1,0,0:0:0:0:
256,192,105009,1,8,0:0:0:0:
256,192,105116,1,8,0:0:0:0:
256,192,105223,1,8,0:0:0:0:
256,192,105438,1,0,0:0:0:0:
256,192,105545,1,0,0:0:0:0:
256,192,105652,1,8,0:0:0:0:
256,192,105759,1,0,0:0:0:0:
256,192,105866,1,8,0:0:0:0:
256,192,105973,1,8,0:0:0:0:
256,192,106080,1,8,0:0:0:0:
256,192,106188,1,0,0:0:0:0:
256,192,106295,1,8,0:0:0:0:
256,192,106509,1,0,0:0:0:0:
256,192,106616,1,0,0:0:0:0:
256,192,106723,1,8,0:0:0:0:
256,192,106830,1,0,0:0:0:0:
256,192,106938,1,0,0:0:0:0:
256,192,107045,1,0,0:0:0:0:
256,192,107152,1,8,0:0:0:0:
256,192,107259,1,8,0:0:0:0:
256,192,107366,1,8,0:0:0:0:
256,192,107473,1,8,0:0:0:0:
256,192,107580,1,0,0:0:0:0:
256,192,107688,1,0,0:0:0:0:
256,192,107795,1,0,0:0:0:0:
256,192,107902,1,0,0:0:0:0:
256,192,108009,1,8,0:0:0:0:
256,192,108223,1,0,0:0:0:0:
256,192,108330,1,0,0:0:0:0:
256,192,108438,1,8,0:0:0:0:
256,192,108545,1,0,0:0:0:0:
256,192,108652,1,8,0:0:0:0:
256,192,108759,1,8,0:0:0:0:
256,192,108866,1,0,0:0:0:0:
256,192,108973,1,0,0:0:0:0:
256,192,109080,1,0,0:0:0:0:
256,192,109188,1,0,0:0:0:0:
256,192,109295,1,8,0:0:0:0:
256,192,109402,1,8,0:0:0:0:
256,192,109509,1,0,0:0:0:0:
256,192,109723,1,8,0:0:0:0:
256,192,109830,1,8,0:0:0:0:
256,192,109938,1,0,0:0:0:0:
256,192,110045,1,0,0:0:0:0:
256,192,110152,1,8,0:0:0:0:
256,192,110259,1,8,0:0:0:0:
256,192,110366,1,8,0:0:0:0:
256,192,110473,1,0,0:0:0:0:
256,192,110580,1,8,0:0:0:0:
256,192,110688,1,0,0:0:0:0:
256,192,110795,1,0,0:0:0:0:
256,192,110902,1,0,0:0:0:0:
256,192,111009,1,8,0:0:0:0:
256,192,111116,1,8,0:0:0:0:
256,192,111223,1,8,0:0:0:0:
256,192,111330,1,8,0:0:0:0:
256,192,111438,1,0,0:0:0:0:
256,192,111652,1,0,0:0:0:0:
256,192,111759,1,0,0:0:0:0:
256,192,111866,1,8,0:0:0:0:
256,192,112080,1,0,0:0:0:0:
256,192,112188,1,8,0:0:0:0:
256,192,112295,1,0,0:0:0:0:
256,192,112509,1,8,0:0:0:0:
256,192,112723,1,0,0:0:0:0:
256,192,112830,1,0,0:0:0:0:
256,192,112938,1,0,0:0:0:0:
256,96,113152,1,12,0:0:0:0:
256,192,113366,1,0,0:0:0:0:
256,192,113473,1,0,0:0:0:0:
256,192,113580,1,8,0:0:0:0:
256,192,113688,1,0,0:0:0:0:
256,192,113795,1,0,0:0:0:0:
256,192,113902,1,0,0:0:0:0:
256,192,114009,1,8,0:0:0:0:
256,192,114116,1,8,0:0:0:0:
256,192,114223,1,0,0:0:0:0:
256,192,114330,1,0,0:0:0:0:
256,192,114438,1,8,0:0:0:0:
256,192,114545,1,0,0:0:0:0:
256,192,114652,1,8,0:0:0:0:
256,192,114759,1,0,0:0:0:0:
256,192,114866,1,8,0:0:0:0:
256,192,114973,1,8,0:0:0:0:
256,192,115080,1,8,0:0:0:0:
256,192,115188,1,8,0:0:0:0:
256,192,115295,1,0,0:0:0:0:
256,192,115402,1,8,0:0:0:0:
256,192,115509,1,8,0:0:0:0:
256,192,115616,1,8,0:0:0:0:
256,192,115723,1,0,0:0:0:0:
256,192,115830,1,0,0:0:0:0:
256,192,115938,1,0,0:0:0:0:
256,192,116045,1,0,0:0:0:0:
256,192,116152,1,8,0:0:0:0:
256,192,116259,1,0,0:0:0:0:
256,192,116366,1,8,0:0:0:0:
256,192,116473,1,0,0:0:0:0:
256,192,116580,1,8,0:0:0:0:
256,192,116688,1,8,0:0:0:0:
256,192,116795,1,0,0:0:0:0:
256,192,116902,1,0,0:0:0:0:
256,192,117009,1,8,0:0:0:0:
256,192,117116,1,0,0:0:0:0:
256,192,117223,1,8,0:0:0:0:
256,192,117330,1,8,0:0:0:0:
256,192,117438,1,0,0:0:0:0:
256,192,117545,1,0,0:0:0:0:
256,192,117652,1,8,0:0:0:0:
256,192,117759,1,0,0:0:0:0:
256,192,117866,1,8,0:0:0:0:
256,192,117973,1,0,0:0:0:0:
256,192,118080,1,8,0:0:0:0:
256,192,118188,1,8,0:0:0:0:
256,192,118295,1,0,0:0:0:0:
256,192,118402,1,8,0:0:0:0:
256,192,118509,1,0,0:0:0:0:
256,192,118616,1,0,0:0:0:0:
256,192,118723,1,8,0:0:0:0:
256,192,118830,1,8,0:0:0:0:
256,192,118938,1,8,0:0:0:0:
256,192,119045,1,0,0:0:0:0:
256,192,119152,1,8,0:0:0:0:
256,192,119259,1,0,0:0:0:0:
256,192,119366,1,8,0:0:0:0:
256,192,119473,1,8,0:0:0:0:
256,192,119580,1,0,0:0:0:0:
256,192,119688,1,0,0:0:0:0:
256,192,119795,1,8,0:0:0:0:
256,96,120009,1,12,0:0:0:0:
256,192,120223,1,0,0:0:0:0:
256,192,120330,1,0,0:0:0:0:
256,192,120438,1,8,0:0:0:0:
256,192,120545,1,0,0:0:0:0:
256,192,120652,1,0,0:0:0:0:
256,192,120759,1,0,0:0:0:0:
256,192,120866,1,8,0:0:0:0:
256,192,120973,1,8,0:0:0:0:
256,192,121080,1,0,0:0:0:0:
256,192,121188,1,0,0:0:0:0:
256,192,121295,1,8,0:0:0:0:
256,192,121402,1,0,0:0:0:0:
256,192,121509,1,8,0:0:0:0:
256,192,121616,1,0,0:0:0:0:
256,192,121723,1,8,0:0:0:0:
256,192,121830,1,8,0:0:0:0:
256,192,121938,1,0,0:0:0:0:
256,192,122045,1,0,0:0:0:0:
256,192,122152,1,8,0:0:0:0:
256,192,122259,1,0,0:0:0:0:
256,192,122366,1,0,0:0:0:0:
256,192,122473,1,0,0:0:0:0:
256,192,122580,1,8,0:0:0:0:
256,192,122688,1,0,0:0:0:0:
256,192,122795,1,0,0:0:0:0:
256,192,122902,1,0,0:0:0:0:
256,192,123009,1,8,0:0:0:0:
256,192,123116,1,0,0:0:0:0:
256,192,123223,1,8,0:0:0:0:
256,192,123330,1,0,0:0:0:0:
256,192,123438,1,8,0:0:0:0:
256,192,123545,1,8,0:0:0:0:
256,192,123652,1,0,0:0:0:0:
256,192,123759,1,0,0:0:0:0:
256,192,123866,1,8,0:0:0:0:
256,192,123973,1,0,0:0:0:0:
256,192,124080,1,8,0:0:0:0:
256,192,124188,1,0,0:0:0:0:
256,192,124295,1,0,0:0:0:0:
256,192,124402,1,0,0:0:0:0:
256,192,124509,1,8,0:0:0:0:
256,192,124616,1,0,0:0:0:0:
256,192,124723,1,8,0:0:0:0:
256,192,124830,1,0,0:0:0:0:
256,192,124938,1,8,0:0:0:0:
256,192,125045,1,8,0:0:0:0:
256,192,125152,1,0,0:0:0:0:
256,192,125259,1,0,0:0:0:0:
256,192,125366,1,8,0:0:0:0:
256,192,125473,1,8,0:0:0:0:
256,192,125580,1,0,0:0:0:0:
256,192,125688,1,8,0:0:0:0:
256,192,125795,1,8,0:0:0:0:
256,192,125902,1,8,0:0:0:0:
256,192,126009,1,0,0:0:0:0:
256,192,126152,1,8,0:0:0:0:
256,192,126295,1,8,0:0:0:0:
256,192,126438,1,0,0:0:0:0:
256,192,126580,1,0,0:0:0:0:
256,192,126723,1,0,0:0:0:0:
256,96,126866,1,12,0:0:0:0:
256,192,127080,1,0,0:0:0:0:
256,192,127295,1,8,0:0:0:0:
256,192,127509,1,0,0:0:0:0:
256,192,127723,1,8,0:0:0:0:
256,192,127938,1,0,0:0:0:0:
256,192,128152,1,8,0:0:0:0:
256,192,128366,1,0,0:0:0:0:
256,192,128795,1,8,0:0:0:0:
256,192,129009,1,8,0:0:0:0:
256,192,129223,1,0,0:0:0:0:
256,192,129438,1,8,0:0:0:0:
256,192,129652,1,0,0:0:0:0:
256,192,129866,1,8,0:0:0:0:
256,192,130080,1,0,0:0:0:0:
256,192,130295,1,8,0:0:0:0:
256,192,130509,1,8,0:0:0:0:
256,192,130723,1,0,0:0:0:0:
256,192,130938,1,8,0:0:0:0:
256,192,131152,1,8,0:0:0:0:
256,192,131366,1,0,0:0:0:0:
256,192,131580,1,0,0:0:0:0:
256,192,131795,1,0,0:0:0:0:
256,192,132009,1,8,0:0:0:0:
256,192,132223,1,8,0:0:0:0:
256,192,132438,1,8,0:0:0:0:
256,192,132652,1,0,0:0:0:0:
256,192,132759,1,8,0:0:0:0:
256,192,132866,1,0,0:0:0:0:
256,192,133080,1,0,0:0:0:0:
256,192,133295,1,8,0:0:0:0:
256,192,133509,1,0,0:0:0:0:
256,192,133938,1,0,0:0:0:0:
256,192,134152,1,8,0:0:0:0:
256,192,134366,1,8,0:0:0:0:
256,192,134580,1,0,0:0:0:0:
256,192,134795,1,0,0:0:0:0:
256,192,135009,1,8,0:0:0:0:
256,192,135223,1,0,0:0:0:0:
256,192,135652,1,0,0:0:0:0:
256,192,135866,1,8,0:0:0:0:
256,192,136080,1,8,0:0:0:0:
256,192,136295,1,0,0:0:0:0:
256,192,136509,1,8,0:0:0:0:
256,192,136723,1,8,0:0:0:0:
256,192,136938,1,0,0:0:0:0:
256,192,137152,1,8,0:0:0:0:
256,192,137366,1,8,0:0:0:0:
256,192,137580,1,0,0:0:0:0:
256,192,137795,1,8,0:0:0:0:
256,192,138009,1,8,0:0:0:0:
256,192,138223,1,8,0:0:0:0:
256,192,138438,1,0,0:0:0:0:
256,192,138652,1,8,0:0:0:0:
256,192,138866,1,0,0:0:0:0:
256,192,139080,1,0,0:0:0:0:
256,192,139295,1,0,0:0:0:0:
256,192,139509,1,8,0:0:0:0:
256,192,139723,1,0,0:0:0:0:
256,192,139938,1,8,0:0:0:0:
256,192,140045,1,8,0:0:0:0:
256,192,140152,1,0,0:0:0:0:
256,192,140259,1,8,0:0:0:0:
256,192,140366,1,0,0:0:0:0:
256,192,140580,1,4,0:0:0:0:
256,192,141223,1,8,0:0:0:0:
256,192,141866,1,8,0:0:0:0:
256,192,142295,1,0,0:0:0:0:
256,192,142938,1,8,0:0:0:0:
256,192,143580,1,8,0:0:0:0:
256,192,143795,1,0,0:0:0:0:
256,192,144009,1,8,0:0:0:0:
256,192,144438,1,0,0:0:0:0:
256,192,144866,1,8,0:0:0:0:
256,192,145295,1,8,0:0:0:0:
256,192,145723,1,8,0:0:0:0:
256,192,147009,1,8,0:0:0:0:
256,192,147116,1,8,0:0:0:0:
256,192,147223,1,8,0:0:0:0:
256,192,147330,1,8,0:0:0:0:
256,192,147438,1,0,0:0:0:0:
256,192,147652,1,8,0:0:0:0:
256,192,147759,1,0,0:0:0:0:
256,192,147973,1,0,0:0:0:0:
256,192,148080,1,8,0:0:0:0:
256,192,148295,1,0,0:0:0:0:
256,192,148509,1,8,0:0:0:0:
256,192,148616,1,0,0:0:0:0:
256,192,148723,1,8,0:0:0:0:
256,192,148830,1,8,0:0:0:0:
256,192,148938,1,0,0:0:0:0:
256,192,149152,1,8,0:0:0:0:
256,192,149366,1,0,0:0:0:0:
256,192,149473,1,0,0:0:0:0:
256,192,149688,1,0,0:0:0:0:
256,192,149795,1,8,0:0:0:0:
256,192,150009,1,0,0:0:0:0:
256,192,150116,1,0,0:0:0:0:
256,192,150223,1,8,0:0:0:0:
256,192,150330,1,0,0:0:0:0:
256,192,150438,1,8,0:0:0:0:
256,192,150545,1,8,0:0:0:0:
256,192,150652,1,0,0:0:0:0:
256,192,150866,1,8,0:0:0:0:
256,192,151080,1,0,0:0:0:0:
256,192,151188,1,0,0:0:0:0:
256,192,151295,1,8,0:0:0:0:
256,192,151509,1,0,0:0:0:0:
256,192,151616,1,0,0:0:0:0:
256,192,151723,1,8,0:0:0:0:
256,192,151830,1,0,0:0:0:0:
256,192,151938,1,0,0:0:0:0:
256,192,152045,1,0,0:0:0:0:
256,192,152152,1,8,0:0:0:0:
256,192,152259,1,8,0:0:0:0:
256,192,152366,1,8,0:0:0:0:
256,96,152580,1,4,0:0:0:0:
256,192,152795,12,0,154295,0:0:0:0:
