osu file format v14

[General]
AudioFilename: audio.mp3
AudioLeadIn: 0
PreviewTime: 28688
Countdown: 0
SampleSet: Normal
StackLeniency: 0.7
Mode: 1
LetterboxInBreaks: 0
WidescreenStoryboard: 1

[Editor]
Bookmarks: 1510,29152,56580,140580,152580
DistanceSpacing: 1.9
BeatDivisor: 4
GridSize: 32
TimelineZoom: 0.9999999

[Metadata]
Title:nanoya
TitleUnicode:nanoya
Artist:Down
ArtistUnicode:Down
Creator:Hivie
Version:collab normal
Source:東方妖々夢 ~ Perfect Cherry Blossom.
Tags:nanoya meiqth d3kuu 西行寺幽々子 Saigyouji Yuyuko 幽雅に咲かせ、墨染の桜 ~ Border of Life ZUN Yuuga ni sakase, sumizome no sakura Bloom Nobly Ink-Black Cherry Blossom th7 touhou Youyoumu 7 instrumental video game folk 東方Project satonodiamond
BeatmapID:4239520
BeatmapSetID:2033193

[Difficulty]
HPDrainRate:7
CircleSize:2
OverallDifficulty:4
ApproachRate:10
SliderMultiplier:1.4
SliderTickRate:1

[Events]
//Background and Video events
0,0,"mommy.jpg",0,40
//Break Periods
2,127066,134988
//Storyboard Layer 0 (Background)
//Storyboard Layer 1 (Fail)
//Storyboard Layer 2 (Pass)
//Storyboard Layer 3 (Foreground)
//Storyboard Layer 4 (Overlay)
//Storyboard Sound Samples

[TimingPoints]
1510,428.571428571429,4,1,0,50,1,0
15224,428.571428571429,4,1,0,50,1,8
15438,428.571428571429,4,1,0,70,1,0
29152,-100,4,1,0,70,0,1
56580,-100,4,1,0,70,0,0
113152,-100,4,1,0,70,0,1
126866,-100,4,1,0,70,0,0

[HitObjects]
256,192,1510,5,0,0:0:0:0:
256,192,2152,1,8,0:0:0:0:
256,192,2795,1,8,0:0:0:0:
256,192,3224,1,0,0:0:0:0:
256,192,3867,1,8,0:0:0:0:
256,192,4510,1,8,0:0:0:0:
256,192,4938,1,8,0:0:0:0:
256,192,5367,1,0,0:0:0:0:
256,192,5795,1,8,0:0:0:0:
256,192,6224,1,0,0:0:0:0:
256,192,6652,1,8,0:0:0:0:
256,192,8367,1,0,0:0:0:0:
256,192,9010,1,0,0:0:0:0:
256,192,9652,1,8,0:0:0:0:
256,192,10081,1,0,0:0:0:0:
256,192,10724,1,0,0:0:0:0:
256,192,11367,1,8,0:0:0:0:
256,192,11795,1,0,0:0:0:0:
256,192,12224,1,8,0:0:0:0:
256,192,12652,1,0,0:0:0:0:
256,192,13081,1,8,0:0:0:0:
256,192,13510,1,0,0:0:0:0:
256,96,15438,5,12,0:0:0:0:
256,192,15866,1,0,0:0:0:0:
256,192,16080,1,8,0:0:0:0:
256,192,16295,1,0,0:0:0:0:
256,192,16509,1,0,0:0:0:0:
256,192,16938,1,8,0:0:0:0:
256,192,17366,1,8,0:0:0:0:
256,192,17580,1,0,0:0:0:0:
256,192,17795,1,8,0:0:0:0:
256,192,18009,1,0,0:0:0:0:
256,192,18223,1,0,0:0:0:0:
256,192,18652,1,8,0:0:0:0:
256,192,18866,1,0,0:0:0:0:
256,192,19295,1,0,0:0:0:0:
256,192,19509,1,8,0:0:0:0:
256,192,19723,1,0,0:0:0:0:
256,192,19938,1,0,0:0:0:0:
256,192,20366,1,8,0:0:0:0:
256,192,20795,1,8,0:0:0:0:
256,192,21009,1,0,0:0:0:0:
256,192,21223,1,8,0:0:0:0:
256,192,21438,1,8,0:0:0:0:
256,192,22295,1,8,0:0:0:0:
256,192,22723,1,0,0:0:0:0:
256,192,22938,1,8,0:0:0:0:
256,192,23152,1,8,0:0:0:0:
256,192,23366,1,0,0:0:0:0:
256,192,23795,1,8,0:0:0:0:
256,192,24223,1,8,0:0:0:0:
256,192,24438,1,0,0:0:0:0:
256,192,24652,1,8,0:0:0:0:
256,192,24866,1,8,0:0:0:0:
256,192,25080,1,0,0:0:0:0:
256,192,25509,1,0,0:0:0:0:
256,192,25723,1,8,0:0:0:0:
256,192,26152,1,0,0:0:0:0:
256,192,26366,1,8,0:0:0:0:
256,192,26580,1,8,0:0:0:0:
256,192,26795,1,0,0:0:0:0:
256,192,27223,1,8,0:0:0:0:
256,192,27652,1,8,0:0:0:0:
256,192,27866,1,0,0:0:0:0:
256,192,28080,1,8,0:0:0:0:
256,192,28295,1,0,0:0:0:0:
256,192,29152,1,12,0:0:0:0:
256,192,29580,1,0,0:0:0:0:
256,192,29795,1,8,0:0:0:0:
256,192,30223,1,8,0:0:0:0:
256,192,30438,1,0,0:0:0:0:
256,192,30652,1,0,0:0:0:0:
256,192,30866,1,8,0:0:0:0:
256,192,31295,1,0,0:0:0:0:
256,192,31509,1,0,0:0:0:0:
256,192,31938,1,8,0:0:0:0:
256,192,32152,1,8,0:0:0:0:
256,192,32366,1,0,0:0:0:0:
256,192,32580,1,8,0:0:0:0:
256,192,33009,1,8,0:0:0:0:
256,192,33223,1,0,0:0:0:0:
256,192,33438,1,8,0:0:0:0:
256,192,33866,1,0,0:0:0:0:
256,192,34080,1,0,0:0:0:0:
256,192,34295,1,8,0:0:0:0:
256,192,34723,1,0,0:0:0:0:
256,192,35152,1,8,0:0:0:0:
256,192,36009,1,4,0:0:0:0:
256,192,36438,1,8,0:0:0:0:
256,192,36652,1,0,0:0:0:0:
256,192,37080,1,8,0:0:0:0:
256,192,37295,1,8,0:0:0:0:
256,192,37509,1,8,0:0:0:0:
256,192,37723,1,0,0:0:0:0:
256,192,38152,1,0,0:0:0:0:
256,192,38366,1,8,0:0:0:0:
256,192,38795,1,8,0:0:0:0:
256,192,39009,1,0,0:0:0:0:
256,192,39223,1,0,0:0:0:0:
256,192,39438,1,8,0:0:0:0:
256,192,39866,1,0,0:0:0:0:
256,192,40080,1,8,0:0:0:0:
256,192,40295,1,0,0:0:0:0:
256,192,40509,1,0,0:0:0:0:
256,192,40723,1,8,0:0:0:0:
256,192,41152,1,0,0:0:0:0:
256,192,42009,1,8,0:0:0:0:
256,192,42438,1,0,0:0:0:0:
256,192,42652,1,0,0:0:0:0:
256,192,42866,1,12,0:0:0:0:
256,192,43295,1,0,0:0:0:0:
256,192,43509,1,8,0:0:0:0:
256,192,43938,1,8,0:0:0:0:
256,192,44152,1,0,0:0:0:0:
256,192,44366,1,8,0:0:0:0:
256,192,44580,1,0,0:0:0:0:
256,192,45009,1,8,0:0:0:0:
256,192,45223,1,8,0:0:0:0:
256,192,45652,1,0,0:0:0:0:
256,192,45866,1,8,0:0:0:0:
256,192,46295,1,0,0:0:0:0:
256,192,46509,1,0,0:0:0:0:
256,192,46723,1,8,0:0:0:0:
256,192,46938,1,0,0:0:0:0:
256,192,47152,1,8,0:0:0:0:
256,192,47580,1,0,0:0:0:0:
256,192,48009,1,8,0:0:0:0:
256,192,48438,1,8,0:0:0:0:
256,192,48866,1,0,0:0:0:0:
256,192,49723,1,8,0:0:0:0:
256,192,50152,1,8,0:0:0:0:
256,192,50366,1,0,0:0:0:0:
256,192,50795,1,0,0:0:0:0:
256,192,51009,1,8,0:0:0:0:
256,192,51223,1,8,0:0:0:0:
256,192,51438,1,0,0:0:0:0:
256,192,51866,1,0,0:0:0:0:
256,192,52080,1,8,0:0:0:0:
256,192,52509,1,8,0:0:0:0:
256,192,52723,1,0,0:0:0:0:
256,192,52938,1,0,0:0:0:0:
256,192,53152,1,8,0:0:0:0:
256,192,53580,1,0,0:0:0:0:
256,192,53795,1,8,0:0:0:0:
256,192,54009,1,0,0:0:0:0:
256,192,54438,1,8,0:0:0:0:
256,192,54652,1,8,0:0:0:0:
256,192,54866,1,4,0:0:0:0:
256,192,55295,1,4,0:0:0:0:
256,192,55723,1,4,0:0:0:0:
256,96,56580,5,12,0:0:0:0:
256,192,57223,1,8,0:0:0:0:
256,192,57866,1,8,0:0:0:0:
256,192,58295,1,0,0:0:0:0:
256,192,58723,1,8,0:0:0:0:
256,192,59152,1,0,0:0:0:0:
256,192,60009,1,8,0:0:0:0:
256,192,60652,1,8,0:0:0:0:
256,192,61295,1,8,0:0:0:0:
256,192,61723,1,0,0:0:0:0:
256,192,62580,1,8,0:0:0:0:
256,192,63009,1,8,0:0:0:0:
256,192,63223,1,8,0:0:0:0:
256,192,63438,1,0,0:0:0:0:
256,192,63866,1,8,0:0:0:0:
256,192,64080,1,0,0:0:0:0:
256,192,64509,1,0,0:0:0:0:
256,192,64723,1,8,0:0:0:0:
256,192,64938,1,8,0:0:0:0:
256,192,65152,1,0,0:0:0:0:
256,192,65580,1,8,0:0:0:0:
256,192,66009,1,0,0:0:0:0:
256,192,66438,1,8,0:0:0:0:
256,192,66866,1,8,0:0:0:0:
256,192,67295,1,0,0:0:0:0:
256,192,67509,1,8,0:0:0:0:
256,192,67938,1,8,0:0:0:0:
256,192,68152,1,0,0:0:0:0:
256,192,68366,1,8,0:0:0:0:
256,192,68580,1,0,0:0:0:0:
256,192,69009,1,0,0:0:0:0:
256,96,69438,1,12,0:0:0:0:
256,96,70080,1,12,0:0:0:0:
256,192,71366,1,0,0:0:0:0:
256,192,71580,1,8,0:0:0:0:
256,96,72009,1,4,0:0:0:0:
256,192,73080,1,0,0:0:0:0:
256,192,73295,1,8,0:0:0:0:
256,192,73723,1,0,0:0:0:0:
256,192,74795,1,8,0:0:0:0:
256,192,75009,1,0,0:0:0:0:
256,192,75223,1,0,0:0:0:0:
256,192,75438,1,8,0:0:0:0:
256,192,75866,1,8,0:0:0:0:
256,192,76080,1,0,0:0:0:0:
256,192,76295,1,8,0:0:0:0:
256,192,76723,1,0,0:0:0:0:
256,192,76938,1,8,0:0:0:0:
256,192,78223,1,8,0:0:0:0:
256,192,78438,1,0,0:0:0:0:
256,192,78866,1,12,0:0:0:0:
256,192,79938,1,0,0:0:0:0:
256,192,80152,1,8,0:0:0:0:
256,192,80366,1,8,0:0:0:0:
256,192,81652,1,8,0:0:0:0:
256,192,81866,1,0,0:0:0:0:
256,96,82295,1,12,0:0:0:0:
256,192,82509,1,0,0:0:0:0:
256,192,82723,1,0,0:0:0:0:
256,192,82938,1,8,0:0:0:0:
256,192,83152,1,0,0:0:0:0:
256,192,83580,1,0,0:0:0:0:
256,192,83795,1,8,0:0:0:0:
256,192,85080,1,8,0:0:0:0:
256,192,85295,1,0,0:0:0:0:
256,192,85509,1,0,0:0:0:0:
256,96,85723,1,12,0:0:0:0:
256,192,86152,1,0,0:0:0:0:
256,192,86580,1,8,0:0:0:0:
256,192,86795,1,0,0:0:0:0:
256,192,87009,1,0,0:0:0:0:
256,192,87223,1,0,0:0:0:0:
256,96,87438,1,12,0:0:0:0:
256,192,87866,1,0,0:0:0:0:
256,192,88295,1,8,0:0:0:0:
256,192,88509,1,0,0:0:0:0:
256,192,88723,1,8,0:0:0:0:
256,192,88938,1,8,0:0:0:0:
256,96,89152,1,4,0:0:0:0:
256,192,89580,1,0,0:0:0:0:
256,192,89795,1,0,0:0:0:0:
256,96,90009,1,12,0:0:0:0:
256,192,90438,1,0,0:0:0:0:
256,96,90652,1,12,0:0:0:0:
256,192,91723,1,0,0:0:0:0:
256,192,91938,1,8,0:0:0:0:
256,192,92152,1,0,0:0:0:0:
256,96,92580,1,12,0:0:0:0:
256,192,93009,1,0,0:0:0:0:
256,192,93438,1,8,0:0:0:0:
256,192,93866,1,0,0:0:0:0:
256,192,94080,1,0,0:0:0:0:
256,64,94295,1,12,0:0:0:0:
256,192,94723,1,0,0:0:0:0:
256,192,95152,1,8,0:0:0:0:
256,192,95580,1,8,0:0:0:0:
256,192,95795,1,0,0:0:0:0:
256,96,96009,1,12,0:0:0:0:
256,192,96438,1,0,0:0:0:0:
256,192,96652,1,8,0:0:0:0:
256,192,96866,1,4,0:0:0:0:
256,192,97295,1,0,0:0:0:0:
256,192,97509,1,0,0:0:0:0:
256,96,97723,1,12,0:0:0:0:
256,96,98152,1,12,0:0:0:0:
256,96,98580,1,12,0:0:0:0:
256,96,99009,1,12,0:0:0:0:
256,96,99438,1,4,0:0:0:0:
256,192,100295,1,0,0:0:0:0:
256,192,100723,1,8,0:0:0:0:
256,192,100938,1,8,0:0:0:0:
256,192,101152,1,0,0:0:0:0:
256,192,101580,1,0,0:0:0:0:
256,192,102009,1,8,0:0:0:0:
256,192,102438,1,0,0:0:0:0:
256,192,102652,1,0,0:0:0:0:
256,192,102866,1,8,0:0:0:0:
256,192,103295,1,0,0:0:0:0:
256,192,103509,1,8,0:0:0:0:
256,192,103938,1,0,0:0:0:0:
256,192,104152,1,8,0:0:0:0:
256,192,104366,1,0,0:0:0:0:
256,192,104580,1,8,0:0:0:0:
256,192,105009,1,8,0:0:0:0:
256,192,105438,1,0,0:0:0:0:
256,192,105652,1,8,0:0:0:0:
256,192,105866,1,8,0:0:0:0:
256,192,106295,1,0,0:0:0:0:
256,192,107152,1,8,0:0:0:0:
256,192,107580,1,8,0:0:0:0:
256,192,107795,1,8,0:0:0:0:
256,192,108009,1,0,0:0:0:0:
256,192,108438,1,8,0:0:0:0:
256,192,108866,1,0,0:0:0:0:
256,192,109295,1,8,0:0:0:0:
256,192,109509,1,0,0:0:0:0:
256,192,109723,1,8,0:0:0:0:
256,192,110152,1,8,0:0:0:0:
256,192,110580,1,0,0:0:0:0:
256,192,110795,1,0,0:0:0:0:
256,192,111009,1,8,0:0:0:0:
256,192,111223,1,0,0:0:0:0:
256,192,111438,1,8,0:0:0:0:
256,192,111866,1,8,0:0:0:0:
256,192,112295,1,0,0:0:0:0:
256,96,113152,1,12,0:0:0:0:
256,192,114009,1,0,0:0:0:0:
256,192,114437,1,8,0:0:0:0:
256,192,114652,1,8,0:0:0:0:
256,192,114866,1,0,0:0:0:0:
256,192,115294,1,0,0:0:0:0:
256,192,115723,1,8,0:0:0:0:
256,192,116152,1,0,0:0:0:0:
256,192,116366,1,0,0:0:0:0:
256,192,116580,1,8,0:0:0:0:
256,192,117009,1,0,0:0:0:0:
256,192,117223,1,8,0:0:0:0:
256,192,117652,1,0,0:0:0:0:
256,192,117866,1,8,0:0:0:0:
256,192,118080,1,0,0:0:0:0:
256,192,118294,1,8,0:0:0:0:
256,192,118723,1,8,0:0:0:0:
256,192,119152,1,0,0:0:0:0:
256,192,119366,1,8,0:0:0:0:
256,192,119580,1,8,0:0:0:0:
256,192,119795,1,0,0:0:0:0:
256,192,120009,1,8,0:0:0:0:
256,192,120866,1,8,0:0:0:0:
256,192,121294,1,0,0:0:0:0:
256,192,121509,1,8,0:0:0:0:
256,192,121723,1,0,0:0:0:0:
256,192,122152,1,8,0:0:0:0:
256,192,122580,1,0,0:0:0:0:
256,192,123009,1,8,0:0:0:0:
256,192,123223,1,0,0:0:0:0:
256,192,123437,1,8,0:0:0:0:
256,192,123866,1,0,0:0:0:0:
256,192,124080,1,8,0:0:0:0:
256,192,124509,1,0,0:0:0:0:
256,192,124723,1,8,0:0:0:0:
256,192,124938,1,8,0:0:0:0:
256,192,125152,1,0,0:0:0:0:
256,192,125580,1,8,0:0:0:0:
256,192,126009,1,0,0:0:0:0:
256,96,126866,1,12,0:0:0:0:
256,192,135438,12,0,139723,0:0:0:0:
256,192,140580,5,4,0:0:0:0:
256,192,141223,1,8,0:0:0:0:
256,192,141866,1,8,0:0:0:0:
256,192,142295,1,0,0:0:0:0:
256,192,142938,1,8,0:0:0:0:
256,192,143580,1,8,0:0:0:0:
256,192,144009,1,0,0:0:0:0:
256,192,144438,1,0,0:0:0:0:
256,192,144866,1,8,0:0:0:0:
256,192,145295,1,8,0:0:0:0:
256,192,145723,1,0,0:0:0:0:
256,192,147009,1,8,0:0:0:0:
256,192,147438,1,0,0:0:0:0:
256,192,147866,1,8,0:0:0:0:
256,192,148080,1,0,0:0:0:0:
256,192,148509,1,0,0:0:0:0:
256,192,148723,1,8,0:0:0:0:
256,192,149152,1,8,0:0:0:0:
256,192,149580,1,0,0:0:0:0:
256,192,149795,1,8,0:0:0:0:
256,192,150009,1,0,0:0:0:0:
256,192,150438,1,8,0:0:0:0:
256,192,150866,1,0,0:0:0:0:
256,192,151295,1,0,0:0:0:0:
256,192,151723,1,8,0:0:0:0:
256,192,152152,1,8,0:0:0:0:
256,192,152580,1,4,0:0:0:0:
