osu file format v14

[General]
AudioFilename: audio.mp3
AudioLeadIn: 0
PreviewTime:28688
Countdown: 0
SampleSet: Normal
StackLeniency: 0.7
Mode: 1
LetterboxInBreaks: 0
WidescreenStoryboard: 1

[Editor]
Bookmarks: 94723
DistanceSpacing: 1.9
BeatDivisor: 4
GridSize: 32
TimelineZoom: 2.2

[Metadata]
Title:nanoya
TitleUnicode:nanoya
Artist:Down
ArtistUnicode:Down
Creator:Hivie
Version:collab lunatic
Source:東方妖々夢 ~ Perfect Cherry Blossom.
Tags:nanoya meiqth d3kuu 西行寺幽々子 Saigyouji Yuyuko 幽雅に咲かせ、墨染の桜 ~ Border of Life ZUN Yuuga ni sakase, sumizome no sakura Bloom Nobly Ink-Black Cherry Blossom th7 touhou Youyoumu 7 instrumental video game folk 東方Project satonodiamond
BeatmapID:4258615
BeatmapSetID:2033193

[Difficulty]
HPDrainRate:5.5
CircleSize:2
OverallDifficulty:5.5
ApproachRate:10
SliderMultiplier:1.4
SliderTickRate:1

[Events]
//Background and Video events
0,0,"mommy.jpg",0,40
//Break Periods
2,127067,140130
//Storyboard Layer 0 (Background)
//Storyboard Layer 1 (Fail)
//Storyboard Layer 2 (Pass)
//Storyboard Layer 3 (Foreground)
//Storyboard Layer 4 (Overlay)
//Storyboard Sound Samples

[TimingPoints]
1510,428.571428571429,4,1,0,50,1,0
15224,428.571428571429,4,1,0,50,1,8
15438,428.571428571429,4,1,0,70,1,0
15438,-100,4,1,0,70,0,0
25935,-100,4,1,0,70,0,0
26149,-100,4,1,0,70,0,0
26256,-100,4,1,0,70,0,0
26363,-100,4,1,0,70,0,0
26577,-100,4,1,0,70,0,0
26685,-100,4,1,0,70,0,0
26792,-100,4,1,0,70,0,0
26899,-100,4,1,0,70,0,0
27006,-100,4,1,0,70,0,0
27220,-100,4,1,0,70,0,0
27327,-100,4,1,0,70,0,0
27435,-100,4,1,0,70,0,0
27649,-100,4,1,0,70,0,0
27863,-100,4,1,0,70,0,0
27970,-100,4,1,0,70,0,0
28077,-100,4,1,0,70,0,0
28292,-100,4,1,0,70,0,0
28399,-100,4,1,0,70,0,0
28506,-100,4,1,0,70,0,0
28613,-100,4,1,0,70,0,0
28720,-100,4,1,0,70,0,0
28827,-100,4,1,0,70,0,0
28935,-100,4,1,0,70,0,0
29152,-100,4,1,0,80,0,1
56580,-100,4,1,0,60,0,0
56902,-100,4,1,0,60,0,0
62792,-100,4,1,0,60,0,0
63006,-100,4,1,0,60,0,0
63113,-100,4,1,0,60,0,0
63220,-100,4,1,0,60,0,0
63327,-100,4,1,0,60,0,0
63435,-100,4,1,0,70,0,0
68792,-100,4,1,0,70,0,0
68899,-100,4,1,0,70,0,0
69006,-100,4,1,0,70,0,0
69220,-100,4,1,0,70,0,0
69435,-100,4,1,0,70,0,0
69756,-100,4,1,0,70,0,0
70077,-100,4,1,0,70,0,0
70292,-100,4,1,0,40,0,0
71363,-100,4,1,0,60,0,0
71577,-100,4,1,0,60,0,0
71792,-100,4,1,0,60,0,0
72006,-100,4,1,0,60,0,0
85077,-100,4,1,0,60,0,0
85185,-100,4,1,0,60,0,0
85292,-100,4,1,0,60,0,0
85399,-100,4,1,0,60,0,0
85506,-100,4,1,0,60,0,0
85720,-100,4,1,0,70,0,0
91078,-100,4,1,0,70,0,0
91292,-100,4,1,0,70,0,0
91399,-100,4,1,0,70,0,0
91506,-100,4,1,0,70,0,0
91721,-100,4,1,0,70,0,0
91828,-100,4,1,0,70,0,0
91935,-100,4,1,0,70,0,0
92042,-100,4,1,0,70,0,0
92149,-100,4,1,0,70,0,0
92256,-100,4,1,0,70,0,0
92363,-100,4,1,0,70,0,0
92577,-100,4,1,0,80,0,0
97935,-100,4,1,0,80,0,0
98042,-100,4,1,0,80,0,0
98149,-100,4,1,0,80,0,0
98256,-100,4,1,0,80,0,0
98363,-100,4,1,0,80,0,0
98470,-100,4,1,0,80,0,0
98577,-100,4,1,0,80,0,0
98685,-100,4,1,0,80,0,0
98792,-100,4,1,0,80,0,0
98899,-100,4,1,0,80,0,0
99006,-100,4,1,0,80,0,0
99113,-100,4,1,0,80,0,0
99220,-100,4,1,0,80,0,0
99435,-100,4,1,0,80,0,0
111649,-100,4,1,0,80,0,0
111756,-100,4,1,0,80,0,0
111863,-100,4,1,0,80,0,0
112077,-100,4,1,0,80,0,0
112185,-100,4,1,0,80,0,0
112292,-100,4,1,0,80,0,0
112506,-100,4,1,0,80,0,0
112720,-100,4,1,0,80,0,0
112827,-100,4,1,0,80,0,0
112935,-100,4,1,0,80,0,0
113152,-100,4,1,0,100,0,1
126866,-100,4,1,0,60,0,0
127077,-100,4,1,0,60,0,0
127292,-100,4,1,0,60,0,0
127506,-100,4,1,0,60,0,0
127720,-100,4,1,0,60,0,0
127935,-100,4,1,0,60,0,0
128149,-100,4,1,0,60,0,0
128363,-100,4,1,0,60,0,0
128577,-100,4,1,0,60,0,0
128792,-100,4,1,0,60,0,0
129006,-100,4,1,0,60,0,0
129220,-100,4,1,0,60,0,0
129435,-100,4,1,0,60,0,0
129649,-100,4,1,0,60,0,0
129863,-100,4,1,0,60,0,0
130077,-100,4,1,0,60,0,0
130292,-100,4,1,0,60,0,0
130506,-100,4,1,0,60,0,0
130720,-100,4,1,0,60,0,0
130935,-100,4,1,0,60,0,0
131149,-100,4,1,0,60,0,0
131363,-100,4,1,0,60,0,0
131577,-100,4,1,0,60,0,0
131792,-100,4,1,0,60,0,0
132006,-100,4,1,0,60,0,0
132220,-100,4,1,0,60,0,0
132435,-100,4,1,0,60,0,0
132649,-100,4,1,0,60,0,0
132756,-100,4,1,0,60,0,0
132863,-100,4,1,0,60,0,0
133077,-100,4,1,0,60,0,0
133292,-100,4,1,0,60,0,0
133506,-100,4,1,0,60,0,0
133720,-100,4,1,0,60,0,0
133935,-100,4,1,0,60,0,0
134149,-100,4,1,0,60,0,0
134363,-100,4,1,0,60,0,0
134577,-100,4,1,0,60,0,0
134792,-100,4,1,0,60,0,0
135006,-100,4,1,0,60,0,0
135220,-100,4,1,0,60,0,0
135435,-100,4,1,0,60,0,0
135649,-100,4,1,0,60,0,0
135863,-100,4,1,0,60,0,0
136077,-100,4,1,0,60,0,0
136291,-100,4,1,0,60,0,0
136506,-100,4,1,0,60,0,0
136720,-100,4,1,0,60,0,0
136934,-100,4,1,0,60,0,0
137149,-100,4,1,0,60,0,0
137363,-100,4,1,0,60,0,0
137577,-100,4,1,0,60,0,0
137792,-100,4,1,0,60,0,0
138006,-100,4,1,0,60,0,0
138220,-100,4,1,0,60,0,0
138435,-100,4,1,0,60,0,0
138649,-100,4,1,0,60,0,0
138863,-100,4,1,0,60,0,0
139077,-100,4,1,0,60,0,0
139292,-100,4,1,0,60,0,0
139506,-100,4,1,0,60,0,0
139720,-100,4,1,0,60,0,0
139935,-100,4,1,0,60,0,0
140042,-100,4,1,0,60,0,0
140149,-100,4,1,0,60,0,0
140256,-100,4,1,0,60,0,0
140363,-100,4,1,0,60,0,0
140577,-100,4,1,0,70,0,0
147006,-100,4,1,0,70,0,0
147113,-100,4,1,0,70,0,0
147220,-100,4,1,0,70,0,0
147327,-100,4,1,0,70,0,0
147435,-100,4,1,0,80,0,0
150866,-100,4,1,0,80,0,0
152795,-100,4,1,0,40,0,0
154295,-100,4,1,0,5,0,0

[HitObjects]
438,146,1510,5,0,0:0:0:0:
498,161,2152,1,8,0:0:0:0:
490,155,2795,1,8,0:0:0:0:
299,205,3224,1,0,0:0:0:0:
418,152,3867,1,8,0:0:0:0:
453,144,4510,1,0,0:0:0:0:
391,141,4938,1,8,0:0:0:0:
391,141,5367,1,8,0:0:0:0:
467,157,5795,1,0,0:0:0:0:
467,157,6224,1,0,0:0:0:0:
485,141,6652,1,8,0:0:0:0:
452,141,7938,1,0,0:0:0:0:
452,141,8152,1,0,0:0:0:0:
470,157,8367,1,8,0:0:0:0:
473,144,9010,1,0,0:0:0:0:
280,160,9652,1,0,0:0:0:0:
399,135,10081,1,8,0:0:0:0:
446,146,10724,1,8,0:0:0:0:
446,146,11367,1,8,0:0:0:0:
452,181,11795,1,0,0:0:0:0:
482,128,12224,1,8,0:0:0:0:
504,142,12652,1,0,0:0:0:0:
504,142,13081,1,0,0:0:0:0:
491,148,13510,1,8,0:0:0:0:
469,137,14795,1,8,0:0:0:0:
469,137,14902,1,8,0:0:0:0:
478,141,15010,1,8,0:0:0:0:
478,141,15117,1,8,0:0:0:0:
425,133,15438,1,4,0:0:0:0:
240,184,15652,1,8,0:0:0:0:
431,206,15866,1,0,0:0:0:0:
431,206,15973,1,0,0:0:0:0:
433,163,16080,1,8,0:0:0:0:
485,173,16295,1,0,0:0:0:0:
479,144,16509,1,8,0:0:0:0:
493,146,16616,1,0,0:0:0:0:
493,146,16723,1,0,0:0:0:0:
191,169,16830,1,0,0:0:0:0:
504,156,16938,1,8,0:0:0:0:
451,135,17152,1,0,0:0:0:0:
462,146,17366,1,8,0:0:0:0:
432,141,17580,1,0,0:0:0:0:
431,141,17688,1,0,0:0:0:0:
483,131,17795,1,8,0:0:0:0:
116,168,18009,1,0,0:0:0:0:
485,142,18223,1,8,0:0:0:0:
468,141,18652,1,0,0:0:0:0:
383,138,18866,1,8,0:0:0:0:
378,95,19080,1,8,0:0:0:0:
403,156,19295,1,0,0:0:0:0:
403,155,19402,1,0,0:0:0:0:
446,132,19509,1,8,0:0:0:0:
228,63,19723,1,0,0:0:0:0:
463,154,19938,1,8,0:0:0:0:
466,151,20045,1,8,0:0:0:0:
490,143,20152,1,0,0:0:0:0:
489,140,20259,1,0,0:0:0:0:
466,138,20366,1,8,0:0:0:0:
476,152,20580,1,0,0:0:0:0:
463,154,20795,1,8,0:0:0:0:
496,181,21009,1,0,0:0:0:0:
495,182,21116,1,0,0:0:0:0:
502,152,21223,1,8,0:0:0:0:
453,163,21438,1,0,0:0:0:0:
357,154,21652,1,8,0:0:0:0:
390,149,21759,1,8,0:0:0:0:
239,197,21866,1,0,0:0:0:0:
492,104,22295,1,4,0:0:0:0:
366,165,22509,1,8,0:0:0:0:
429,202,22723,1,0,0:0:0:0:
429,202,22830,1,0,0:0:0:0:
431,159,22937,1,8,0:0:0:0:
483,169,23152,1,0,0:0:0:0:
477,140,23366,1,8,0:0:0:0:
491,142,23473,1,0,0:0:0:0:
491,142,23580,1,0,0:0:0:0:
189,165,23687,1,0,0:0:0:0:
502,152,23795,1,8,0:0:0:0:
449,131,24009,1,0,0:0:0:0:
460,142,24223,1,8,0:0:0:0:
430,137,24437,1,0,0:0:0:0:
429,137,24545,1,0,0:0:0:0:
481,127,24652,1,8,0:0:0:0:
114,164,24866,1,0,0:0:0:0:
483,138,25080,1,8,0:0:0:0:
466,137,25509,1,8,0:0:0:0:
381,134,25723,1,4,0:0:0:0:
376,91,25937,1,8,0:0:0:0:
401,152,26152,1,0,0:0:0:0:
401,151,26259,1,0,0:0:0:0:
444,128,26366,1,8,0:0:0:0:
226,59,26580,1,0,0:0:0:0:
461,150,26795,1,8,0:0:0:0:
464,147,26902,1,8,0:0:0:0:
488,139,27009,1,0,0:0:0:0:
487,136,27116,1,0,0:0:0:0:
464,134,27223,1,8,0:0:0:0:
474,148,27437,1,0,0:0:0:0:
461,150,27652,1,8,0:0:0:0:
494,177,27866,1,0,0:0:0:0:
493,178,27973,1,0,0:0:0:0:
500,148,28080,1,8,0:0:0:0:
451,159,28295,1,0,0:0:0:0:
399,119,28723,1,8,0:0:0:0:
399,119,28938,1,8,0:0:0:0:
436,79,29152,1,4,0:0:0:0:
510,144,29366,1,8,0:0:0:0:
510,144,29580,1,0,0:0:0:0:
360,173,29688,1,0,0:0:0:0:
466,155,29795,1,8,0:0:0:0:
490,145,30009,1,0,0:0:0:0:
439,164,30223,1,8,0:0:0:0:
394,148,30330,1,8,0:0:0:0:
510,144,30438,1,0,0:0:0:0:
97,181,30545,1,0,0:0:0:0:
384,140,30652,1,8,0:0:0:0:
282,180,30866,1,4,0:0:0:0:
437,154,31080,1,8,0:0:0:0:
94,140,31295,1,0,0:0:0:0:
428,162,31402,1,0,0:0:0:0:
319,116,31509,1,8,0:0:0:0:
325,185,31723,1,0,0:0:0:0:
428,180,31938,1,8,0:0:0:0:
434,175,32045,1,0,0:0:0:0:
499,141,32152,1,8,0:0:0:0:
263,134,32259,1,8,0:0:0:0:
262,125,32366,1,0,0:0:0:0:
472,143,32580,1,4,0:0:0:0:
356,162,33009,1,8,0:0:0:0:
212,178,33116,1,0,0:0:0:0:
356,162,33223,1,8,0:0:0:0:
482,137,33438,1,4,0:0:0:0:
499,141,33866,1,8,0:0:0:0:
383,124,33973,1,8,0:0:0:0:
383,124,34080,1,8,0:0:0:0:
497,147,34295,1,4,0:0:0:0:
383,178,34509,1,8,0:0:0:0:
157,98,34723,1,0,0:0:0:0:
480,153,34830,1,0,0:0:0:0:
482,152,34938,1,8,0:0:0:0:
502,197,35152,1,0,0:0:0:0:
303,114,35259,1,0,0:0:0:0:
291,168,35366,1,8,0:0:0:0:
491,158,35473,1,8,0:0:0:0:
303,114,35580,1,0,0:0:0:0:
455,106,36009,1,4,0:0:0:0:
510,144,36223,1,8,0:0:0:0:
510,144,36438,1,0,0:0:0:0:
360,173,36545,1,0,0:0:0:0:
466,155,36652,1,8,0:0:0:0:
490,145,36866,1,0,0:0:0:0:
439,164,37080,1,8,0:0:0:0:
394,148,37187,1,0,0:0:0:0:
510,144,37295,1,0,0:0:0:0:
248,92,37402,1,0,0:0:0:0:
384,140,37509,1,8,0:0:0:0:
282,180,37723,1,4,0:0:0:0:
437,154,37937,1,8,0:0:0:0:
94,140,38152,1,0,0:0:0:0:
439,161,38259,1,0,0:0:0:0:
476,163,38366,1,8,0:0:0:0:
325,185,38580,1,0,0:0:0:0:
428,180,38795,1,8,0:0:0:0:
434,175,38902,1,8,0:0:0:0:
499,141,39009,1,0,0:0:0:0:
149,136,39116,1,0,0:0:0:0:
262,125,39223,1,8,0:0:0:0:
472,143,39437,1,4,0:0:0:0:
356,162,39866,1,8,0:0:0:0:
382,131,39973,1,8,0:0:0:0:
356,162,40080,1,8,0:0:0:0:
482,137,40295,1,4,0:0:0:0:
499,141,40723,1,8,0:0:0:0:
358,145,40830,1,0,0:0:0:0:
353,148,40938,1,8,0:0:0:0:
497,147,41152,1,4,0:0:0:0:
383,178,41366,1,8,0:0:0:0:
268,146,41473,1,8,0:0:0:0:
170,38,41580,1,0,0:0:0:0:
178,49,41688,1,0,0:0:0:0:
482,152,41795,1,8,0:0:0:0:
502,197,42009,1,0,0:0:0:0:
291,168,42223,1,8,0:0:0:0:
491,158,42330,1,8,0:0:0:0:
303,114,42437,1,0,0:0:0:0:
436,79,42866,1,4,0:0:0:0:
510,144,43080,1,8,0:0:0:0:
510,144,43295,1,0,0:0:0:0:
360,173,43402,1,0,0:0:0:0:
466,155,43509,1,8,0:0:0:0:
490,145,43723,1,0,0:0:0:0:
439,164,43937,1,8,0:0:0:0:
394,148,44044,1,8,0:0:0:0:
510,144,44152,1,0,0:0:0:0:
123,210,44259,1,0,0:0:0:0:
384,140,44366,1,8,0:0:0:0:
282,180,44580,1,4,0:0:0:0:
437,154,44794,1,8,0:0:0:0:
94,140,45009,1,0,0:0:0:0:
439,161,45116,1,0,0:0:0:0:
214,70,45223,1,8,0:0:0:0:
325,185,45438,1,0,0:0:0:0:
428,180,45652,1,8,0:0:0:0:
434,175,45759,1,0,0:0:0:0:
499,141,45866,1,8,0:0:0:0:
186,159,45973,1,8,0:0:0:0:
262,125,46080,1,0,0:0:0:0:
472,143,46294,1,4,0:0:0:0:
356,162,46723,1,8,0:0:0:0:
287,153,46830,1,0,0:0:0:0:
356,162,46937,1,8,0:0:0:0:
482,137,47152,1,4,0:0:0:0:
499,141,47580,1,8,0:0:0:0:
306,167,47688,1,8,0:0:0:0:
310,166,47795,1,8,0:0:0:0:
497,147,48009,1,4,0:0:0:0:
383,178,48223,1,8,0:0:0:0:
483,156,48438,1,0,0:0:0:0:
212,75,48545,1,0,0:0:0:0:
482,152,48652,1,8,0:0:0:0:
502,197,48866,1,0,0:0:0:0:
303,114,48973,1,0,0:0:0:0:
291,168,49080,1,8,0:0:0:0:
491,158,49187,1,8,0:0:0:0:
303,114,49294,1,0,0:0:0:0:
455,106,49723,1,4,0:0:0:0:
510,144,49937,1,8,0:0:0:0:
178,167,50152,1,0,0:0:0:0:
360,173,50259,1,0,0:0:0:0:
466,155,50366,1,8,0:0:0:0:
490,145,50580,1,0,0:0:0:0:
458,146,50795,1,8,0:0:0:0:
279,147,50902,1,0,0:0:0:0:
510,144,51009,1,8,0:0:0:0:
188,69,51116,1,8,0:0:0:0:
384,140,51223,1,0,0:0:0:0:
282,180,51437,1,4,0:0:0:0:
437,154,51651,1,8,0:0:0:0:
340,151,51866,1,0,0:0:0:0:
332,142,51973,1,0,0:0:0:0:
229,124,52080,1,8,0:0:0:0:
325,185,52295,1,0,0:0:0:0:
428,180,52509,1,8,0:0:0:0:
162,148,52616,1,0,0:0:0:0:
499,141,52723,1,0,0:0:0:0:
162,148,52830,1,0,0:0:0:0:
262,125,52937,1,8,0:0:0:0:
472,143,53151,1,4,0:0:0:0:
356,162,53580,1,8,0:0:0:0:
242,175,53688,1,8,0:0:0:0:
356,162,53794,1,8,0:0:0:0:
482,137,54009,1,4,0:0:0:0:
499,141,54437,1,8,0:0:0:0:
503,152,54545,1,0,0:0:0:0:
485,160,54652,1,8,0:0:0:0:
348,128,54866,1,4,0:0:0:0:
260,130,55080,1,8,0:0:0:0:
483,156,55188,1,8,0:0:0:0:
307,172,55295,1,0,0:0:0:0:
198,20,55402,1,8,0:0:0:0:
198,20,55509,1,0,0:0:0:0:
502,197,55723,1,8,0:0:0:0:
479,144,55938,1,0,0:0:0:0:
462,161,56045,1,0,0:0:0:0:
466,149,56152,1,8,0:0:0:0:
443,152,56366,1,8,0:0:0:0:
455,106,56580,1,4,0:0:0:0:
396,167,57009,1,8,0:0:0:0:
495,169,57223,1,0,0:0:0:0:
434,155,57652,1,8,0:0:0:0:
504,170,57866,1,0,0:0:0:0:
486,166,58080,1,8,0:0:0:0:
441,165,58295,1,0,0:0:0:0:
383,146,58723,1,8,0:0:0:0:
459,148,59152,1,8,0:0:0:0:
425,164,59580,1,0,0:0:0:0:
437,157,60009,1,0,0:0:0:0:
435,156,60438,1,8,0:0:0:0:
437,157,60652,1,0,0:0:0:0:
494,146,61080,1,8,0:0:0:0:
344,164,61295,1,0,0:0:0:0:
344,164,61509,1,8,0:0:0:0:
274,166,61723,1,0,0:0:0:0:
260,164,61938,1,0,0:0:0:0:
274,166,62152,1,0,0:0:0:0:
339,142,62580,1,8,0:0:0:0:
391,160,62795,1,0,0:0:0:0:
401,122,63009,1,8,0:0:0:0:
401,122,63116,1,8,0:0:0:0:
401,122,63223,1,8,0:0:0:0:
451,102,63438,1,4,0:0:0:0:
377,235,63866,1,0,0:0:0:0:
403,167,64080,1,8,0:0:0:0:
489,134,64509,1,8,0:0:0:0:
422,166,64723,1,0,0:0:0:0:
422,164,64938,1,0,0:0:0:0:
489,155,65152,1,8,0:0:0:0:
316,186,65580,1,0,0:0:0:0:
350,155,66009,1,8,0:0:0:0:
350,155,66438,1,8,0:0:0:0:
481,157,66866,1,4,0:0:0:0:
480,148,67295,1,8,0:0:0:0:
461,152,67509,1,8,0:0:0:0:
504,147,67938,1,0,0:0:0:0:
480,148,68152,1,8,0:0:0:0:
486,149,68366,1,8,0:0:0:0:
505,153,68580,1,4,0:0:0:0:
417,142,69438,1,12,0:0:0:0:
417,142,69759,1,12,0:0:0:0:
417,142,70080,1,12,0:0:0:0:
503,149,71366,1,0,0:0:0:0:
319,192,71580,1,8,0:0:0:0:
319,192,71795,1,8,0:0:0:0:
453,159,72009,1,4,0:0:0:0:
418,156,73080,1,0,0:0:0:0:
489,136,73295,1,8,0:0:0:0:
489,136,73509,1,8,0:0:0:0:
505,141,73723,1,0,0:0:0:0:
412,165,74795,1,0,0:0:0:0:
441,161,75009,1,8,0:0:0:0:
439,157,75223,1,8,0:0:0:0:
475,142,75438,1,4,0:0:0:0:
477,129,75866,1,8,0:0:0:0:
453,123,76080,1,0,0:0:0:0:
508,141,76295,1,8,0:0:0:0:
378,142,76509,1,0,0:0:0:0:
378,133,76723,1,0,0:0:0:0:
444,114,76938,1,8,0:0:0:0:
505,131,78223,1,0,0:0:0:0:
505,131,78438,1,0,0:0:0:0:
509,140,78652,1,8,0:0:0:0:
321,118,78866,1,4,0:0:0:0:
215,184,79938,1,0,0:0:0:0:
215,184,80152,1,0,0:0:0:0:
391,147,80366,1,8,0:0:0:0:
428,141,81652,1,0,0:0:0:0:
462,151,81866,1,0,0:0:0:0:
405,127,82080,1,8,0:0:0:0:
290,125,82295,1,4,0:0:0:0:
503,149,82509,1,8,0:0:0:0:
445,150,82723,1,0,0:0:0:0:
464,136,82938,1,8,0:0:0:0:
462,134,83152,1,8,0:0:0:0:
503,149,83366,1,0,0:0:0:0:
497,150,83580,1,0,0:0:0:0:
432,164,83795,1,8,0:0:0:0:
388,161,84438,1,8,0:0:0:0:
398,188,84759,1,8,0:0:0:0:
346,171,84866,1,0,0:0:0:0:
490,129,85080,1,8,0:0:0:0:
485,127,85187,1,8,0:0:0:0:
486,135,85294,1,0,0:0:0:0:
486,135,85402,1,0,0:0:0:0:
474,142,85509,1,8,0:0:0:0:
479,102,85723,1,4,0:0:0:0:
476,146,86152,1,0,0:0:0:0:
475,144,86259,1,0,0:0:0:0:
473,137,86366,1,8,0:0:0:0:
482,166,86580,1,0,0:0:0:0:
508,155,86795,1,8,0:0:0:0:
501,146,86902,1,8,0:0:0:0:
507,159,87009,1,0,0:0:0:0:
504,153,87116,1,0,0:0:0:0:
507,167,87223,1,8,0:0:0:0:
503,136,87438,1,4,0:0:0:0:
406,135,87866,1,0,0:0:0:0:
410,135,87973,1,0,0:0:0:0:
473,146,88080,1,8,0:0:0:0:
259,160,88295,1,0,0:0:0:0:
504,137,88509,1,8,0:0:0:0:
504,137,88616,1,8,0:0:0:0:
506,140,88723,1,0,0:0:0:0:
496,130,88830,1,8,0:0:0:0:
504,137,88938,1,0,0:0:0:0:
325,120,89152,1,4,0:0:0:0:
285,124,89366,1,8,0:0:0:0:
302,176,89580,1,0,0:0:0:0:
309,175,89688,1,0,0:0:0:0:
499,172,89795,1,8,0:0:0:0:
499,130,90009,1,4,0:0:0:0:
320,147,90223,1,8,0:0:0:0:
320,147,90330,1,8,0:0:0:0:
409,150,90438,1,8,0:0:0:0:
438,125,90652,1,4,0:0:0:0:
368,166,91080,1,8,0:0:0:0:
454,169,91295,1,0,0:0:0:0:
461,164,91402,1,0,0:0:0:0:
448,155,91509,1,8,0:0:0:0:
332,187,91723,1,0,0:0:0:0:
491,162,91938,1,8,0:0:0:0:
492,162,92045,1,8,0:0:0:0:
503,154,92152,1,0,0:0:0:0:
412,158,92366,1,8,0:0:0:0:
447,123,92580,1,4,0:0:0:0:
353,186,93009,1,8,0:0:0:0:
481,154,93223,1,0,0:0:0:0:
481,154,93330,1,0,0:0:0:0:
489,151,93438,1,8,0:0:0:0:
481,154,93545,1,8,0:0:0:0:
481,154,93652,1,0,0:0:0:0:
476,147,93866,1,8,0:0:0:0:
321,161,93973,1,0,0:0:0:0:
476,143,94080,1,8,0:0:0:0:
422,138,94295,1,4,0:0:0:0:
228,164,94509,1,8,0:0:0:0:
282,166,94616,1,8,0:0:0:0:
192,64,94723,1,8,0:0:0:0:
321,161,94938,1,0,0:0:0:0:
329,167,95152,1,8,0:0:0:0:
428,148,95259,1,0,0:0:0:0:
445,166,95366,1,0,0:0:0:0:
312,144,95473,1,0,0:0:0:0:
458,173,95580,1,8,0:0:0:0:
247,131,95795,1,8,0:0:0:0:
325,171,96009,1,4,0:0:0:0:
479,160,96223,1,8,0:0:0:0:
357,170,96438,1,0,0:0:0:0:
223,136,96545,1,0,0:0:0:0:
292,125,96652,1,8,0:0:0:0:
457,161,96866,1,4,0:0:0:0:
509,158,97080,1,8,0:0:0:0:
292,125,97188,1,0,0:0:0:0:
472,144,97295,1,8,0:0:0:0:
285,122,97402,1,0,0:0:0:0:
466,154,97509,1,8,0:0:0:0:
257,103,97723,1,4,0:0:0:0:
418,225,97938,1,8,0:0:0:0:
509,167,98152,1,4,0:0:0:0:
509,167,98366,1,8,0:0:0:0:
397,149,98580,1,4,0:0:0:0:
495,144,98795,1,8,0:0:0:0:
469,104,99009,1,4,0:0:0:0:
487,117,99438,1,0,0:0:0:0:
216,180,99545,1,8,0:0:0:0:
216,180,99652,1,0,0:0:0:0:
216,180,99759,1,0,0:0:0:0:
447,143,99866,1,8,0:0:0:0:
480,139,100080,1,0,0:0:0:0:
504,153,100295,1,8,0:0:0:0:
373,155,100509,1,0,0:0:0:0:
373,155,100616,1,0,0:0:0:0:
492,151,100723,1,8,0:0:0:0:
471,147,100830,1,0,0:0:0:0:
487,138,101045,1,0,0:0:0:0:
496,136,101152,1,8,0:0:0:0:
416,148,101366,1,0,0:0:0:0:
444,135,101473,1,0,0:0:0:0:
437,103,101580,1,8,0:0:0:0:
234,184,101795,1,0,0:0:0:0:
443,170,102009,1,8,0:0:0:0:
463,146,102116,1,8,0:0:0:0:
505,161,102223,1,8,0:0:0:0:
498,140,102438,1,0,0:0:0:0:
323,143,102652,1,8,0:0:0:0:
323,143,102759,1,8,0:0:0:0:
489,137,102866,1,0,0:0:0:0:
486,149,103295,1,8,0:0:0:0:
495,156,103509,1,0,0:0:0:0:
501,146,103616,1,0,0:0:0:0:
502,149,103723,1,8,0:0:0:0:
502,146,103938,1,0,0:0:0:0:
485,166,104152,1,8,0:0:0:0:
502,165,104366,1,0,0:0:0:0:
468,152,104580,1,8,0:0:0:0:
463,144,104688,1,8,0:0:0:0:
463,142,104795,1,0,0:0:0:0:
464,139,104902,1,0,0:0:0:0:
458,132,105009,1,8,0:0:0:0:
477,172,105223,1,0,0:0:0:0:
482,166,105438,1,8,0:0:0:0:
492,163,105652,1,8,0:0:0:0:
487,161,105866,1,0,0:0:0:0:
428,142,106080,1,8,0:0:0:0:
428,142,106188,1,8,0:0:0:0:
270,123,106295,1,0,0:0:0:0:
312,173,106723,1,8,0:0:0:0:
480,139,106938,1,0,0:0:0:0:
504,153,107153,1,8,0:0:0:0:
373,155,107367,1,0,0:0:0:0:
373,155,107474,1,0,0:0:0:0:
492,151,107581,1,8,0:0:0:0:
471,147,107688,1,0,0:0:0:0:
487,138,107903,1,0,0:0:0:0:
496,136,108010,1,8,0:0:0:0:
416,148,108117,1,8,0:0:0:0:
416,148,108224,1,0,0:0:0:0:
437,103,108438,1,8,0:0:0:0:
234,184,108653,1,0,0:0:0:0:
443,170,108867,1,8,0:0:0:0:
463,146,108974,1,8,0:0:0:0:
505,161,109081,1,8,0:0:0:0:
498,140,109296,1,0,0:0:0:0:
264,183,109509,1,8,0:0:0:0:
271,182,109616,1,8,0:0:0:0:
489,137,109724,1,0,0:0:0:0:
486,149,110153,1,8,0:0:0:0:
495,156,110367,1,0,0:0:0:0:
502,149,110581,1,8,0:0:0:0:
501,146,110688,1,8,0:0:0:0:
502,146,110796,1,0,0:0:0:0:
485,166,111010,1,8,0:0:0:0:
502,165,111116,1,0,0:0:0:0:
102,174,111330,1,0,0:0:0:0:
468,152,111438,1,8,0:0:0:0:
463,142,111653,1,0,0:0:0:0:
464,139,111760,1,0,0:0:0:0:
458,132,111867,1,8,0:0:0:0:
477,172,112081,1,0,0:0:0:0:
225,92,112188,1,0,0:0:0:0:
225,92,112295,1,0,0:0:0:0:
492,163,112510,1,8,0:0:0:0:
487,161,112724,1,0,0:0:0:0:
145,203,112830,1,0,0:0:0:0:
428,142,112938,1,8,0:0:0:0:
270,123,113153,1,4,0:0:0:0:
350,178,113580,1,0,0:0:0:0:
477,172,113795,1,8,0:0:0:0:
496,167,114009,1,0,0:0:0:0:
502,169,114223,1,8,0:0:0:0:
405,157,114330,1,0,0:0:0:0:
441,167,114438,1,0,0:0:0:0:
231,159,114545,1,0,0:0:0:0:
458,159,114652,1,8,0:0:0:0:
457,157,114866,1,8,0:0:0:0:
482,196,115080,1,0,0:0:0:0:
480,191,115188,1,0,0:0:0:0:
496,158,115295,1,8,0:0:0:0:
484,166,115402,1,0,0:0:0:0:
498,161,115509,1,8,0:0:0:0:
422,162,115723,1,0,0:0:0:0:
428,168,115938,1,8,0:0:0:0:
163,146,116045,1,8,0:0:0:0:
414,166,116152,1,0,0:0:0:0:
413,165,116259,1,0,0:0:0:0:
486,141,116366,1,8,0:0:0:0:
315,136,116580,1,0,0:0:0:0:
167,192,116795,1,8,0:0:0:0:
167,192,116902,1,8,0:0:0:0:
167,192,117009,1,0,0:0:0:0:
346,172,117223,1,8,0:0:0:0:
472,159,117438,1,0,0:0:0:0:
472,159,117545,1,8,0:0:0:0:
472,159,117652,1,0,0:0:0:0:
489,159,117866,1,8,0:0:0:0:
489,159,117973,1,8,0:0:0:0:
488,152,118080,1,0,0:0:0:0:
284,164,118188,1,0,0:0:0:0:
478,148,118295,1,8,0:0:0:0:
405,152,118509,1,0,0:0:0:0:
405,152,118616,1,0,0:0:0:0:
474,151,118723,1,8,0:0:0:0:
499,154,118938,1,0,0:0:0:0:
493,164,119152,1,8,0:0:0:0:
454,177,119259,1,8,0:0:0:0:
460,172,119366,1,0,0:0:0:0:
392,155,119473,1,8,0:0:0:0:
461,170,119580,1,0,0:0:0:0:
452,126,119795,1,8,0:0:0:0:
471,121,120009,1,4,0:0:0:0:
350,178,120438,1,0,0:0:0:0:
477,172,120653,1,8,0:0:0:0:
496,167,120867,1,0,0:0:0:0:
502,169,121081,1,8,0:0:0:0:
304,189,121188,1,8,0:0:0:0:
441,167,121296,1,0,0:0:0:0:
171,169,121402,1,0,0:0:0:0:
458,159,121510,1,8,0:0:0:0:
457,157,121724,1,0,0:0:0:0:
482,196,121938,1,8,0:0:0:0:
480,191,122046,1,0,0:0:0:0:
496,158,122153,1,8,0:0:0:0:
484,166,122260,1,0,0:0:0:0:
498,161,122367,1,8,0:0:0:0:
422,162,122581,1,0,0:0:0:0:
428,168,122796,1,8,0:0:0:0:
312,181,122902,1,0,0:0:0:0:
414,166,123010,1,0,0:0:0:0:
413,165,123116,1,0,0:0:0:0:
486,141,123223,1,8,0:0:0:0:
315,136,123438,1,4,0:0:0:0:
167,192,123866,1,0,0:0:0:0:
346,172,124081,1,8,0:0:0:0:
472,159,124296,1,0,0:0:0:0:
472,159,124403,1,8,0:0:0:0:
472,159,124510,1,0,0:0:0:0:
489,159,124724,1,8,0:0:0:0:
489,159,124831,1,8,0:0:0:0:
488,152,124938,1,0,0:0:0:0:
284,164,125046,1,0,0:0:0:0:
478,148,125153,1,8,0:0:0:0:
405,152,125367,1,0,0:0:0:0:
405,152,125474,1,0,0:0:0:0:
474,151,125581,1,8,0:0:0:0:
499,154,125796,1,8,0:0:0:0:
346,170,126009,1,4,0:0:0:0:
471,121,126867,1,4,0:0:0:0:
462,117,140580,5,4,0:0:0:0:
351,209,141223,1,8,0:0:0:0:
445,142,141866,1,8,0:0:0:0:
418,155,142295,1,0,0:0:0:0:
418,152,142938,1,8,0:0:0:0:
453,144,143581,1,0,0:0:0:0:
391,141,144009,1,8,0:0:0:0:
391,141,144438,1,8,0:0:0:0:
467,157,144866,1,0,0:0:0:0:
467,157,145295,1,0,0:0:0:0:
485,141,145723,1,8,0:0:0:0:
452,141,147009,1,8,0:0:0:0:
274,203,147116,1,8,0:0:0:0:
452,141,147223,1,8,0:0:0:0:
274,203,147330,1,8,0:0:0:0:
470,157,147438,1,0,0:0:0:0:
307,162,147652,1,8,0:0:0:0:
327,123,147866,1,0,0:0:0:0:
318,119,147973,1,0,0:0:0:0:
473,144,148080,1,8,0:0:0:0:
127,174,148295,1,0,0:0:0:0:
384,173,148509,1,8,0:0:0:0:
476,155,148616,1,8,0:0:0:0:
489,153,148723,1,0,0:0:0:0:
258,163,148830,1,0,0:0:0:0:
441,163,148938,1,8,0:0:0:0:
399,135,149152,1,0,0:0:0:0:
453,156,149366,1,8,0:0:0:0:
478,172,149580,1,0,0:0:0:0:
477,172,149688,1,0,0:0:0:0:
446,146,149795,1,8,0:0:0:0:
354,190,150009,1,0,0:0:0:0:
340,161,150223,1,8,0:0:0:0:
432,157,150330,1,0,0:0:0:0:
446,146,150438,1,0,0:0:0:0:
431,157,150545,1,0,0:0:0:0:
482,153,150652,1,8,0:0:0:0:
452,181,150866,1,8,0:0:0:0:
282,174,151080,1,0,0:0:0:0:
482,128,151295,1,8,0:0:0:0:
282,174,151509,1,0,0:0:0:0:
504,142,151723,1,8,0:0:0:0:
146,176,151830,1,0,0:0:0:0:
146,176,151938,1,0,0:0:0:0:
146,176,152045,1,0,0:0:0:0:
504,142,152152,1,8,0:0:0:0:
131,172,152366,1,0,0:0:0:0:
491,148,152581,1,12,0:0:0:0:
