osu file format v14

[General]
AudioFilename: audio.mp3
AudioLeadIn: 0
PreviewTime: 51750
Countdown: 0
SampleSet: Soft
StackLeniency: 0.5
Mode: 0
LetterboxInBreaks: 0
WidescreenStoryboard: 0

[Editor]
Bookmarks: 21473,41684,51789,72000,82105,83368,93473,103578,123789,133894,154105
DistanceSpacing: 0.3
BeatDivisor: 3
GridSize: 32
TimelineZoom: 2.2

[Metadata]
Title:Solo Cup
TitleUnicode:Solo Cup
Artist:Down
ArtistUnicode:Down
Creator:Down
Version:Extra
Source:東方地霊殿 ~ Subterranean Animism.
Tags:東方Project Touhou Project Chireiden 霊烏路 空 Utsuho Reiuji 11 th11 霊知の太陽信仰 Reichi no Taiyou Shinkou Solar Sect of Mystic Wisdom ~ Nuclear Fusion jazz instrumental video game swing Team Shanghai Alice ZUN DUO CUP: KOREA 2022
BeatmapID:3603269
BeatmapSetID:1760520

[Difficulty]
HPDrainRate:5
CircleSize:2.8
OverallDifficulty:8.8
ApproachRate:9.5
SliderMultiplier:2
SliderTickRate:1

[Events]
//Background and Video events
0,0,"bg.jpg",0,0
//Break Periods
//Storyboard Layer 0 (Background)
//Storyboard Layer 1 (Fail)
//Storyboard Layer 2 (Pass)
//Storyboard Layer 3 (Foreground)
//Storyboard Layer 4 (Overlay)
//Storyboard Sound Samples

[TimingPoints]
0,315.789473684211,4,2,1,70,1,0
1263,-133.333333333333,4,2,1,55,0,0
11368,-100,4,2,1,60,0,0
51789,-83.3333333333333,4,2,2,75,0,1
72000,-133.333333333333,4,2,1,55,0,0
79578,-100,4,2,1,60,0,0
83052,-200,4,2,1,60,0,0
83368,-100,4,2,1,60,0,0
103578,-133.333333333333,4,2,1,55,0,0
123789,-100,4,2,1,60,0,0
133894,-83.3333333333333,4,2,2,75,0,1
154105,-83.3333333333333,4,2,1,60,0,0

[Colours]
Combo1 : 255,244,43
Combo2 : 40,134,71
Combo3 : 170,255,204
Combo4 : 233,67,67

[HitObjects]
81,17,1263,6,0,P|65:60|123:99,1,100.000003814697,14|0,0:0|0:0,0:0:0:0:
115,188,1578,2,0,P|170:165|238:149,1,100.000003814697,10|8,0:0|0:0,0:0:0:0:
258,83,1894,1,2,1:2:0:0:
376,256,2105,1,0,0:0:0:0:
459,178,2210,2,0,P|464:139|480:99,2,50.0000019073487,10|8|8,0:0|0:0|0:0,0:0:0:0:
344,174,2526,6,0,P|317:137|303:77,1,100.000003814697,10|0,0:0|0:0,0:0:0:0:
234,26,2842,2,0,P|193:42|167:112,1,100.000003814697,10|8,0:0|0:0,0:0:0:0:
94,141,3157,1,2,1:2:0:0:
189,297,3368,1,8,0:0:0:0:
238,199,3473,1,2,1:2:0:0:
0,166,3684,1,8,0:0:0:0:
73,253,3789,38,0,P|99:299|119:377,1,100.000003814697,10|0,0:0|0:0,0:0:0:0:
190,298,4105,2,0,P|246:311|300:322,1,100.000003814697,10|8,0:0|0:0,0:0:0:0:
350,257,4421,1,2,1:2:0:0:
442,109,4631,1,8,0:0:0:0:
350,60,4736,2,0,P|337:28|322:-9,2,50.0000019073487,10|8|8,0:0|0:0|0:0,0:0:0:0:
276,106,5052,6,0,P|240:98|162:71,1,100.000003814697,10|0,0:0|0:0,0:0:0:0:
79,67,5368,2,0,P|98:114|111:177,1,100.000003814697,10|8,0:0|0:0,0:0:0:0:
247,196,5684,37,2,1:2:0:0:
142,242,5789,2,0,P|130:271|118:314,1,50.0000019073487,8|8,0:0|0:0,0:0:0:0:
138,376,6000,5,10,0:3:0:0:
23,332,6105,2,0,P|9:311|6:265,1,50.0000019073487,4|4,0:3|0:3,0:0:0:0:
29,198,6315,38,0,P|80:170|102:112,1,100.000003814697,14|0,0:0|0:0,0:0:0:0:
190,112,6631,2,0,P|164:69|151:12,1,100.000003814697,10|8,0:0|0:0,0:0:0:0:
68,52,6947,1,2,1:2:0:0:
147,277,7157,1,0,0:0:0:0:
221,197,7263,2,0,P|253:188|285:183,1,50.0000019073487,10|8,0:0|0:0,0:0:0:0:
373,133,7473,1,8,0:0:0:0:
301,79,7578,6,0,P|253:49|230:-17,1,100.000003814697,10|0,0:0|0:0,0:0:0:0:
189,112,7894,2,0,P|149:126|104:181,1,100.000003814697,10|8,0:0|0:0,0:0:0:0:
137,249,8210,1,2,1:2:0:0:
25,381,8421,1,8,0:0:0:0:
120,338,8526,1,2,1:2:0:0:
217,205,8736,1,8,0:0:0:0:
300,284,8842,38,0,P|317:338|332:393,1,100.000003814697,10|0,0:0|0:0,0:0:0:0:
418,365,9157,1,10,0:0:0:0:
497,237,9368,1,8,0:0:0:0:
424,148,9473,2,0,P|379:140|309:118,1,100.000003814697,2|8,1:2|0:0,0:0:0:0:
332,35,9789,1,10,0:0:0:0:
252,68,9894,2,0,P|245:93|224:148,1,50.0000019073487,8|8,0:0|0:0,0:0:0:0:
119,182,10105,6,0,P|161:230|173:304,1,100.000003814697,10|0,0:2|0:0,0:0:0:0:
240,320,10421,2,0,P|298:284|301:245,1,100.000003814697,10|8,0:0|0:0,0:0:0:0:
302,119,10736,37,2,1:2:0:0:
383,190,10842,2,0,P|421:182|476:168,1,50.0000019073487,8|8,0:0|0:0,0:0:0:0:
504,243,11052,5,10,0:3:0:0:
436,337,11157,1,10,0:3:0:0:
504,243,11263,1,6,0:3:0:0:
345,329,11368,38,0,P|282:300|198:271,1,133.333333333333,14|8,0:0|0:0,0:0:0:0:
136,301,11684,1,10,0:0:0:0:
306,153,11894,1,8,0:0:0:0:
227,64,12000,2,0,P|241:9|257:-38,1,66.6666666666667,2|8,1:2|0:0,0:0:0:0:
99,1,12210,5,8,0:0:0:0:
0,62,12315,2,0,P|62:134|86:187,1,133.333333333333,10|8,0:0|0:0,0:0:0:0:
129,259,12631,38,0,P|189:232|254:214,1,133.333333333333,10|8,0:0|0:0,0:0:0:0:
323,287,12947,2,0,P|350:203|374:149,1,133.333333333333,10|8,0:0|0:0,0:0:0:0:
365,13,13263,5,2,1:2:0:0:
269,72,13368,2,0,B|262:108|262:108|301:142,1,66.6666666666667,8|8,0:0|0:0,0:0:0:0:
455,171,13578,37,2,1:2:0:0:
512,76,13684,2,0,P|479:63|433:31,1,66.6666666666667,8|0,0:0|0:0,0:0:0:0:
284,127,13894,6,0,P|235:149|205:255,1,133.333333333333,10|8,0:0|0:0,0:0:0:0:
125,260,14210,1,10,0:0:0:0:
24,127,14421,1,8,0:0:0:0:
104,32,14526,2,0,P|141:24|184:16,1,66.6666666666667,2|8,1:2|0:0,0:0:0:0:
284,127,14736,37,8,0:0:0:0:
394,144,14842,2,0,P|406:75|425:-9,1,133.333333333333,10|8,0:0|0:0,0:0:0:0:
418,232,15157,6,0,P|358:256|260:331,1,133.333333333333,10|8,0:0|0:0,0:0:0:0:
225,244,15473,2,0,B|174:210|174:210|196:115,1,133.333333333333,10|8,0:0|0:0,0:0:0:0:
120,37,15789,38,0,P|83:27|28:-1,2,66.6666666666667,2|8|8,1:2|0:0|0:0,0:0:0:0:
275,109,16105,5,10,0:3:0:0:
344,28,16210,1,10,0:3:0:0:
275,109,16316,1,6,0:3:0:0:
430,33,16421,38,0,P|454:88|482:217,1,133.333333333333,14|8,0:0|0:0,0:0:0:0:
412,216,16736,1,10,0:0:0:0:
253,309,16947,1,8,0:0:0:0:
379,352,17052,2,0,P|424:340|467:328,1,66.6666666666667,2|8,1:2|0:0,0:0:0:0:
412,216,17263,5,8,0:0:0:0:
331,99,17368,2,0,P|265:89|190:71,1,133.333333333333,10|8,0:0|0:0,0:0:0:0:
133,15,17684,38,0,P|63:32|-18:51,1,133.333333333333,10|8,0:0|0:0,0:0:0:0:
0,131,18000,1,10,0:0:0:0:
146,310,18210,1,8,0:0:0:0:
244,234,18315,2,0,P|256:185|270:133,1,66.6666666666667,2|8,1:2|0:0,0:0:0:0:
113,227,18526,5,8,0:0:0:0:
7,310,18631,2,0,P|23:344|52:429,2,66.6666666666667,0|8|0,1:2|0:0|0:0,0:0:0:0:
146,310,18947,38,0,P|209:324|299:351,1,133.333333333333,10|8,0:0|0:0,0:0:0:0:
350,298,19263,1,10,0:0:0:0:
286,117,19473,1,8,0:0:0:0:
381,134,19578,5,2,1:2:0:0:
343,17,19683,1,8,0:0:0:0:
381,134,19789,1,8,0:0:0:0:
495,85,19894,38,0,P|479:142|462:249,1,133.333333333333,10|8,0:0|0:0,0:0:0:0:
495,326,20210,5,10,0:0:0:0:
289,283,20421,1,8,0:0:0:0:
337,377,20526,1,10,0:0:0:0:
452,235,20736,1,8,0:0:0:0:
496,164,20842,37,2,1:2:0:0:
430,112,20947,1,10,0:0:0:0:
346,121,21052,1,10,0:0:0:0:
292,186,21157,1,10,0:3:0:0:
207,193,21263,1,10,0:3:0:0:
141,137,21368,1,6,0:3:0:0:
133,50,21473,6,0,P|110:188|103:279,1,200,14|10,0:0|0:0,0:0:0:0:
247,283,22000,1,8,0:0:0:0:
353,359,22105,2,0,P|287:365|194:384,1,133.333333333333,2|0,1:2|0:0,0:0:0:0:
96,333,22421,1,10,0:0:0:0:
247,283,22631,1,8,0:0:0:0:
203,180,22736,38,0,P|214:107|234:22,1,133.333333333333,10|0,0:0|0:0,0:0:0:0:
155,7,23052,1,10,0:0:0:0:
322,168,23263,1,8,0:0:0:0:
372,60,23368,1,2,1:2:0:0:
90,207,23579,1,0,0:0:0:0:
146,287,23684,5,10,0:0:0:0:
203,180,23789,1,8,0:0:0:0:
146,287,23895,1,8,0:0:0:0:
144,116,24000,38,0,P|84:107|1:65,1,133.333333333333,10|0,0:0|0:0,0:0:0:0:
71,7,24315,1,10,0:0:0:0:
317,83,24526,1,8,0:0:0:0:
248,189,24631,2,0,P|272:266|284:349,1,133.333333333333,2|0,1:2|0:0,0:0:0:0:
357,360,24947,1,10,0:0:0:0:
512,291,25157,1,8,0:0:0:0:
445,366,25263,5,10,0:0:0:0:
452,161,25473,1,0,0:0:0:0:
370,233,25578,2,0,P|302:267|280:339,1,133.333333333333,10|8,0:0|0:0,0:0:0:0:
202,351,25894,1,2,1:2:0:0:
71,155,26105,1,0,0:0:0:0:
136,94,26210,37,10,0:3:0:0:
198,202,26315,1,10,0:3:0:0:
136,94,26421,1,6,0:3:0:0:
128,263,26526,6,0,P|236:227|360:194,1,200,14|10,0:0|0:0,0:0:0:0:
344,87,27052,1,8,0:0:0:0:
239,25,27157,2,0,P|173:17|85:3,1,133.333333333333,2|0,1:2|0:0,0:0:0:0:
50,69,27473,1,10,0:0:0:0:
76,310,27684,1,8,0:0:0:0:
186,242,27789,38,0,P|197:153|212:104,1,133.333333333333,10|0,0:0|0:0,0:0:0:0:
283,65,28105,1,10,0:0:0:0:
456,231,28315,1,8,0:0:0:0:
408,124,28421,1,2,1:2:0:0:
225,321,28631,1,0,0:0:0:0:
276,254,28736,5,10,0:0:0:0:
365,344,28841,1,8,0:0:0:0:
276,254,28947,1,8,0:0:0:0:
431,287,29052,38,0,P|443:214|477:146,1,133.333333333333,10|0,0:0|0:0,0:0:0:0:
512,84,29368,2,0,P|451:50|437:26,1,66.6666666666667,10|0,0:0|0:0,0:0:0:0:
371,154,29578,1,8,0:0:0:0:
293,61,29684,6,0,P|242:73|134:122,1,133.333333333333,2|0,1:2|0:0,0:0:0:0:
111,189,30000,1,10,0:0:0:0:
27,121,30105,1,8,0:0:0:0:
111,189,30211,1,8,0:0:0:0:
90,59,30315,37,10,0:0:0:0:
303,161,30526,1,0,0:0:0:0:
205,220,30631,2,0,P|186:281|171:362,1,133.333333333333,10|8,0:0|0:0,0:0:0:0:
87,339,30947,1,2,1:2:0:0:
22,117,31157,1,8,0:0:0:0:
103,166,31263,5,10,0:3:0:0:
173,83,31368,1,8,0:3:0:0:
103,166,31473,1,4,0:3:0:0:
119,7,31578,38,0,P|191:26|269:42,1,133.333333333333,14|8,0:0|0:0,0:0:0:0:
308,99,31894,1,2,1:2:0:0:
320,305,32105,1,8,0:0:0:0:
206,246,32210,2,0,P|195:203|178:152,1,66.6666666666667,10|0,0:0|0:0,0:0:0:0:
407,112,32421,5,8,0:0:0:0:
310,183,32526,1,2,1:2:0:0:
512,384,32736,1,8,0:0:0:0:
412,325,32842,38,0,P|426:259|445:167,1,133.333333333333,10|8,0:0|0:0,0:0:0:0:
512,143,33157,1,2,1:2:0:0:
253,54,33368,1,8,0:0:0:0:
337,110,33473,5,10,0:0:0:0:
413,25,33578,1,0,1:0:0:0:
337,110,33684,1,8,0:0:0:0:
512,25,33789,38,0,P|495:58|482:108,1,66.6666666666667,2|8,1:2|0:0,0:0:0:0:
334,195,34000,1,8,0:0:0:0:
460,236,34105,6,0,P|487:305|508:375,1,133.333333333333,10|8,0:0|0:0,0:0:0:0:
417,380,34421,1,2,1:2:0:0:
247,177,34631,1,8,0:0:0:0:
163,281,34736,2,0,P|147:323|140:363,1,66.6666666666667,10|0,0:0|0:0,0:0:0:0:
49,240,34947,37,8,0:0:0:0:
0,129,35052,1,2,1:2:0:0:
149,98,35263,1,8,0:0:0:0:
199,31,35368,6,0,P|274:55|354:74,1,133.333333333333,10|8,0:0|0:0,0:0:0:0:
447,98,35684,2,0,P|421:119|390:130,1,66.6666666666667,2|0,1:2|0:0,0:0:0:0:
266,168,35894,1,8,0:0:0:0:
220,244,36000,37,10,0:0:0:0:
326,258,36105,1,0,1:0:0:0:
220,244,36211,1,8,0:0:0:0:
367,341,36315,5,10,0:3:0:0:
462,307,36420,1,10,0:3:0:0:
367,341,36526,1,6,0:3:0:0:
501,219,36631,38,0,P|484:163|453:52,1,133.333333333333,14|8,0:0|0:0,0:0:0:0:
404,30,36947,1,2,1:2:0:0:
263,149,37157,1,8,0:0:0:0:
317,49,37263,1,10,0:2:0:0:
113,12,37473,1,8,0:0:0:0:
170,85,37578,5,2,1:2:0:0:
66,103,37683,1,0,0:0:0:0:
170,85,37789,1,8,0:0:0:0:
24,174,37894,38,0,P|53:243|73:318,1,133.333333333333,10|8,0:2|0:0,0:0:0:0:
139,349,38210,1,2,1:2:0:0:
306,265,38421,1,8,0:0:0:0:
253,197,38526,5,10,0:0:0:0:
141,222,38631,1,0,1:0:0:0:
253,197,38737,1,8,0:0:0:0:
101,147,38842,37,2,1:2:0:0:
1,115,38947,1,8,0:0:0:0:
101,147,39053,1,8,0:0:0:0:
21,252,39157,6,0,P|81:294|140:376,1,133.333333333333,10|8,0:0|0:0,0:0:0:0:
206,340,39473,1,2,1:2:0:0:
280,180,39684,1,8,0:0:0:0:
216,75,39789,1,10,0:0:0:0:
437,146,40000,1,8,0:0:0:0:
465,65,40105,37,2,1:2:0:0:
339,36,40210,1,0,0:0:0:0:
465,65,40316,1,8,0:0:0:0:
345,129,40421,6,0,P|386:169|422:270,1,133.333333333333,10|8,0:0|0:0,0:0:0:0:
512,287,40736,2,0,P|484:332|473:371,1,66.6666666666667,2|0,1:2|0:0,0:0:0:0:
377,384,40947,1,8,0:0:0:0:
329,315,41052,37,10,0:0:0:0:
225,333,41157,1,0,1:0:0:0:
329,315,41263,1,8,0:0:0:0:
148,373,41368,5,10,0:3:0:0:
72,335,41473,1,10,0:3:0:0:
46,253,41579,1,6,0:3:0:0:
88,179,41684,38,0,P|157:163|233:139,1,133.333333333333,14|8,0:0|0:0,0:0:0:0:
373,56,42000,2,0,P|337:49|280:6,1,66.6666666666667,2|0,1:2|0:0,0:0:0:0:
305,157,42210,1,8,0:0:0:0:
412,223,42315,6,0,P|392:291|390:338,1,66.6666666666667,10|0,0:0|0:0,0:0:0:0:
250,306,42526,1,8,0:0:0:0:
152,376,42631,2,0,P|121:341|125:286,1,66.6666666666667,2|0,1:2|0:0,0:0:0:0:
167,128,42842,1,8,0:0:0:0:
74,62,42947,38,0,P|30:95|2:211,1,133.333333333333,10|8,0:0|0:0,0:0:0:0:
0,290,43263,2,0,P|42:251|73:245,1,66.6666666666667,2|0,1:2|0:0,0:0:0:0:
169,217,43473,1,8,0:0:0:0:
250,306,43578,6,0,P|233:344|219:387,1,66.6666666666667,10|0,0:0|0:0,0:0:0:0:
346,166,43789,1,8,0:0:0:0:
367,84,43894,37,2,1:2:0:0:
249,57,43999,1,0,1:0:0:0:
367,84,44105,1,0,1:0:0:0:
232,146,44210,6,0,P|167:162|46:197,1,133.333333333333,10|8,0:0|0:0,0:0:0:0:
354,326,44526,2,0,P|399:335|454:348,1,66.6666666666667,2|0,1:2|0:0,0:0:0:0:
275,226,44736,1,8,0:0:0:0:
353,149,44842,38,0,P|362:101|378:40,1,66.6666666666667,10|0,0:0|0:0,0:0:0:0:
508,0,45052,1,8,0:0:0:0:
455,105,45157,1,2,1:2:0:0:
180,0,45368,1,8,0:0:0:0:
268,92,45473,6,0,P|292:155|314:245,1,133.333333333333,10|8,0:0|0:0,0:0:0:0:
418,359,45789,2,0,B|445:343|445:343|459:277,1,66.6666666666667,2|0,1:2|0:0,0:0:0:0:
311,309,46000,1,8,0:0:0:0:
219,362,46105,38,0,P|187:370|113:392,1,66.6666666666667,10|0,0:0|0:0,0:0:0:0:
96,283,46315,1,8,0:0:0:0:
39,212,46421,5,10,0:3:0:0:
154,190,46526,1,10,0:3:0:0:
39,212,46632,1,6,0:3:0:0:
229,146,46736,38,0,P|238:56|253:-24,1,133.333333333333,14|8,0:0|0:0,0:0:0:0:
422,53,47052,2,0,P|436:85|468:154,1,66.6666666666667,2|0,1:2|0:0,0:0:0:0:
315,192,47263,1,8,0:0:0:0:
430,217,47368,6,0,P|460:205|519:188,1,66.6666666666667,10|0,0:0|0:0,0:0:0:0:
343,319,47578,1,8,0:0:0:0:
248,384,47684,1,2,1:2:0:0:
182,198,47894,1,8,0:0:0:0:
95,100,48000,38,0,P|103:64|114:15,1,66.6666666666667,10|0,0:0|0:0,0:0:0:0:
270,17,48210,1,8,0:0:0:0:
374,92,48315,2,0,P|344:106|305:139,1,66.6666666666667,2|0,1:2|0:0,0:0:0:0:
173,299,48526,1,8,0:0:0:0:
60,226,48631,6,0,B|30:212|30:212|31:153,1,66.6666666666667,10|0,0:0|0:0,0:0:0:0:
145,59,48842,1,8,0:0:0:0:
212,128,48947,37,2,1:2:0:0:
293,20,49052,1,0,1:0:0:0:
212,128,49158,1,0,1:0:0:0:
381,46,49263,6,0,P|396:110|433:220,1,133.333333333333,10|8,0:0|0:0,0:0:0:0:
486,358,49578,2,0,P|491:312|507:248,1,66.6666666666667,2|0,1:2|0:0,0:0:0:0:
380,253,49789,1,8,0:0:0:0:
303,353,49894,38,0,P|273:363|208:384,1,66.6666666666667,10|0,0:0|0:0,0:0:0:0:
133,233,50105,1,8,0:0:0:0:
45,136,50210,1,2,1:2:0:0:
370,0,50421,1,8,0:0:0:0:
254,65,50526,6,0,P|188:81|115:101,1,133.333333333333,10|8,0:0|0:0,0:0:0:0:
59,46,50842,1,2,1:2:0:0:
65,214,51052,1,8,0:0:0:0:
15,282,51158,37,2,1:2:0:0:
81,334,51263,1,2,1:2:0:0:
165,325,51368,1,2,1:2:0:0:
219,260,51473,1,10,0:3:0:0:
304,253,51579,1,10,0:3:0:0:
370,309,51684,1,6,0:3:0:0:
448,272,51789,22,0,P|454:195|470:90,1,159.999995117188,14|0,0:1|0:0,0:0:0:0:
370,0,52105,1,2,1:2:0:0:
284,77,52210,2,0,P|246:91|200:114,1,79.9999975585938,0|8,0:0|0:0,0:0:0:0:
14,188,52421,5,10,0:0:0:0:
141,267,52526,1,8,0:0:0:0:
14,188,52632,1,8,0:0:0:0:
197,196,52736,2,0,P|186:142|129:12,1,159.999995117188,2|8,1:2|0:0,0:0:0:0:
441,0,53052,38,0,P|409:55|382:187,1,159.999995117188,10|0,0:1|0:0,0:0:0:0:
500,249,53368,1,2,1:2:0:0:
389,351,53473,2,0,B|360:345|360:345|340:288,1,79.9999975585938,0|8,0:0|0:0,0:0:0:0:
383,147,53684,5,10,0:0:0:0:
248,133,53789,1,8,0:0:0:0:
383,147,53894,1,8,0:0:0:0:
184,196,54000,2,0,P|202:115|219:18,1,159.999995117188,2|8,1:2|0:0,0:0:0:0:
3,5,54315,38,0,P|78:46|88:127,1,159.999995117188,10|8,0:1|0:0,0:0:0:0:
258,257,54631,2,0,P|228:275|174:347,1,79.9999975585938,2|0,1:1|0:0,0:0:0:0:
16,167,54842,1,8,0:0:0:0:
75,278,54947,6,0,P|88:313|106:366,1,79.9999975585938,10|0,0:1|1:0,0:0:0:0:
101,353,55105,37,2,1:0:0:0:
101,353,55157,1,10,0:3:0:0:
75,278,55473,5,2,1:1:0:0:
168,209,55578,2,0,P|153:171|120:119,1,79.9999975585938,10|0,0:2|0:0,0:0:0:0:
245,80,55789,1,10,0:1:0:0:
326,166,55894,37,2,1:1:0:0:
377,25,55999,1,0,0:0:0:0:
326,166,56105,2,0,P|348:190|373:233,1,79.9999975585938,8|10,0:0|0:1,0:0:0:0:
512,135,56315,5,2,1:0:0:0:
512,135,56368,1,2,1:0:0:0:
512,135,56421,1,10,0:3:0:0:
512,135,56736,37,6,1:0:0:0:
469,246,56842,2,0,P|429:258|374:386,1,159.999995117188,10|8,0:0|0:0,0:0:0:0:
282,339,57157,5,2,1:2:0:0:
140,375,57262,1,2,0:0:0:0:
282,339,57368,1,2,0:0:0:0:
175,293,57473,37,10,0:0:0:0:
44,254,57578,1,10,0:0:0:0:
175,293,57684,1,10,0:0:0:0:
172,175,57789,5,2,1:2:0:0:
172,175,57894,1,2,0:0:0:0:
172,175,58000,1,10,0:0:0:0:
74,169,58105,38,0,P|83:131|105:83,1,79.9999975585938,10|2,0:1|0:0,0:0:0:0:
242,22,58315,1,10,0:0:0:0:
360,80,58421,2,0,P|326:90|233:126,1,79.9999975585938,2|2,1:2|0:0,0:0:0:0:
172,175,58631,1,2,0:0:0:0:
117,256,58736,5,10,0:0:0:0:
246,319,58841,1,10,0:0:0:0:
117,256,58947,1,10,0:0:0:0:
268,232,59052,2,0,P|280:132|303:26,1,159.999995117188,2|8,1:0|0:0,0:0:0:0:
488,14,59368,38,0,P|439:43|361:165,1,159.999995117188,10|8,0:1|0:0,0:0:0:0:
203,61,59684,2,0,P|174:41|175:-28,1,79.9999975585938,2|0,1:1|0:0,0:0:0:0:
291,73,59894,1,10,0:1:0:0:
268,232,60000,6,0,P|214:255|85:331,1,159.999995117188,8|8,0:2|0:0,0:0:0:0:
33,181,60315,1,2,1:0:0:0:
354,282,60526,1,8,0:0:0:0:
439,262,60631,38,0,P|422:228|369:195,1,79.9999975585938,10|0,0:3|0:0,0:0:0:0:
329,366,60842,2,0,P|366:368|422:338,1,79.9999975585938,10|0,0:3|0:0,0:0:0:0:
290,220,61052,2,0,P|269:251|266:314,1,79.9999975585938,10|0,0:3|0:0,0:0:0:0:
381,119,61263,5,2,1:2:0:0:
300,89,61368,1,2,1:2:0:0:
222,123,61473,1,10,0:3:0:0:
190,202,61578,1,10,0:3:0:0:
110,232,61684,1,6,0:3:0:0:
30,199,61789,1,6,0:3:0:0:
43,117,61894,38,0,P|142:105|220:86,1,159.999995117188,14|0,0:1|0:0,0:0:0:0:
312,5,62210,1,2,1:2:0:0:
412,75,62315,2,0,P|396:124|385:184,1,79.9999975585938,0|8,0:0|0:0,0:0:0:0:
265,251,62526,5,10,0:0:0:0:
122,178,62631,1,8,0:0:0:0:
265,251,62737,1,8,0:0:0:0:
40,211,62842,2,0,P|18:262|-1:376,1,159.999995117188,2|8,1:2|0:0,0:0:0:0:
304,372,63157,38,0,P|381:331|489:303,1,159.999995117188,10|0,0:1|0:0,0:0:0:0:
392,145,63473,1,2,1:2:0:0:
512,74,63578,2,0,B|511:43|511:43|470:2,1,79.9999975585938,0|8,0:0|0:0,0:0:0:0:
297,37,63789,5,10,0:0:0:0:
183,142,63894,1,8,0:0:0:0:
297,37,64000,1,8,0:0:0:0:
267,186,64105,2,0,P|306:267|324:366,1,159.999995117188,2|8,1:2|0:0,0:0:0:0:
111,362,64421,38,0,B|30:320|30:320|85:247,1,159.999995117188,10|8,0:1|0:0,0:0:0:0:
267,186,64736,2,0,P|225:176|163:151,1,79.9999975585938,2|0,1:0|0:0,0:0:0:0:
212,12,64947,1,8,0:0:0:0:
46,66,65052,6,0,P|39:95|27:180,1,79.9999975585938,10|2,0:1|1:0,0:0:0:0:
30,144,65210,37,2,1:0:0:0:
30,144,65263,1,10,0:3:0:0:
46,66,65578,5,2,0:1:0:0:
212,12,65684,2,0,P|254:23|287:68,1,79.9999975585938,10|0,0:0|0:0,0:0:0:0:
267,186,65894,1,10,0:1:0:0:
381,159,66000,37,2,1:1:0:0:
445,302,66105,1,0,0:0:0:0:
381,159,66211,2,0,P|403:135|428:92,1,79.9999975585938,10|10,0:1|0:1,0:0:0:0:
293,21,66421,5,2,1:0:0:0:
293,21,66473,1,2,1:0:0:0:
293,21,66526,1,10,0:3:0:0:
293,21,66842,37,6,0:1:0:0:
140,88,66947,2,0,P|122:140|89:283,1,159.999995117188,10|8,0:0|0:0,0:0:0:0:
210,328,67263,5,2,1:2:0:0:
339,365,67368,1,2,0:0:0:0:
210,328,67474,1,2,0:0:0:0:
425,326,67579,37,10,0:0:0:0:
364,219,67684,1,10,0:0:0:0:
425,326,67790,1,10,0:0:0:0:
448,174,67894,5,2,1:2:0:0:
448,174,68000,1,2,0:0:0:0:
448,174,68105,1,10,0:0:0:0:
507,91,68210,38,0,P|474:82|403:45,1,79.9999975585938,10|2,0:1|0:0,0:0:0:0:
316,0,68421,1,10,0:0:0:0:
225,116,68526,2,0,P|220:159|209:237,1,79.9999975585938,2|2,1:2|0:0,0:0:0:0:
140,370,68736,1,2,0:0:0:0:
31,301,68841,5,10,0:0:0:0:
133,239,68946,1,10,0:0:0:0:
31,301,69052,1,10,0:0:0:0:
212,285,69157,2,0,P|296:299|370:340,1,159.999995117188,2|8,1:0|0:0,0:0:0:0:
423,190,69473,38,0,P|446:138|479:17,1,159.999995117188,10|8,0:1|0:0,0:0:0:0:
202,18,69789,2,0,P|247:58|268:127,1,79.9999975585938,2|0,1:0|0:0,0:0:0:0:
375,61,70000,1,10,0:1:0:0:
283,203,70105,6,0,P|214:242|199:356,1,159.999995117188,10|8,0:0|0:0,0:0:0:0:
268,355,70421,1,2,1:0:0:0:
72,238,70631,1,8,0:0:0:0:
163,146,70736,37,10,0:3:0:0:
320,283,70842,1,10,0:3:0:0:
349,146,71368,5,6,0:3:0:0:
192,283,71474,1,6,0:3:0:0:
256,192,72000,5,10,0:0:0:0:
256,192,72631,1,10,0:0:0:0:
256,192,73263,1,10,0:0:0:0:
256,192,73894,1,10,0:0:0:0:
256,192,74526,1,10,0:0:0:0:
256,192,75157,1,10,0:0:0:0:
256,192,75789,1,10,0:0:0:0:
256,192,76420,1,10,0:0:0:0:
322,372,76736,5,10,0:3:0:0:
195,337,76841,1,10,0:3:0:0:
322,372,76947,1,6,0:3:0:0:
154,264,77052,38,0,P|137:178|121:128,1,100.000003814697,14|0,0:0|0:0,0:0:0:0:
187,97,77368,2,0,P|235:75|277:19,1,100.000003814697,10|8,0:0|0:0,0:0:0:0:
351,64,77684,1,2,1:0:0:0:
405,220,77894,1,0,0:0:0:0:
317,300,78000,2,0,P|295:308|234:324,2,50.0000019073487,10|8|8,0:0|0:0|0:0,0:0:0:0:
453,352,78315,6,0,P|468:304|500:213,1,100.000003814697,10|0,0:0|0:0,0:0:0:0:
405,220,78631,2,0,P|386:160|351:96,1,100.000003814697,10|8,0:0|0:0,0:0:0:0:
436,31,78947,1,2,1:0:0:0:
165,13,79157,1,8,0:0:0:0:
252,84,79263,2,0,P|236:110|226:170,1,50.0000019073487,10|0,0:0|0:0,0:0:0:0:
147,236,79473,1,8,0:0:0:0:
38,169,79578,38,0,P|26:112|-13:12,1,133.333333333333,10|8,0:0|0:0,0:0:0:0:
108,0,79894,2,0,P|145:8|188:27,1,66.6666666666667,2|0,1:0|0:0,0:0:0:0:
252,84,80105,1,8,0:0:0:0:
204,182,80210,2,0,P|173:206|156:267,1,66.6666666666667,10|8,0:0|0:0,0:0:0:0:
0,247,80421,1,8,0:0:0:0:
88,316,80526,2,0,P|145:323|245:344,1,133.333333333333,2|8,1:0|0:0,0:0:0:0:
371,377,80842,6,0,P|393:273|430:223,1,133.333333333333,10|8,0:0|0:0,0:0:0:0:
257,159,81157,2,0,P|263:241|314:303,1,133.333333333333,2|8,1:0|0:0,0:0:0:0:
406,251,81473,2,0,P|457:244|516:234,1,66.6666666666667,2|0,1:0|0:0,0:0:0:0:
338,132,81684,1,8,0:0:0:0:
409,75,81789,37,10,0:3:0:0:
290,3,81894,1,8,0:3:0:0:
409,75,82000,1,4,0:3:0:0:
213,83,82105,5,10,0:0:0:0:
224,78,83052,38,0,L|214:135,2,33.3333333333333
317,28,83368,6,0,P|242:37|82:60,1,200,14|10,0:0|0:0,0:0:0:0:
232,343,83894,1,8,0:0:0:0:
336,268,84000,2,0,P|349:200|363:134,1,133.333333333333,2|0,1:0|0:0,0:0:0:0:
437,90,84315,1,10,0:0:0:0:
292,0,84526,1,8,0:0:0:0:
222,97,84631,38,0,P|176:120|71:174,1,133.333333333333,10|0,0:0|0:0,0:0:0:0:
59,258,84947,2,0,P|27:234|-7:212,2,66.6666666666667,10|0|8,0:0|0:0|0:0,0:0:0:0:
134,341,85263,2,0,P|153:273|191:204,1,133.333333333333,2|0,1:0|0:0,0:0:0:0:
222,97,85578,5,10,0:0:0:0:
343,120,85683,1,8,0:0:0:0:
222,97,85789,1,8,0:0:0:0:
383,197,85894,38,0,B|471:143|471:143|496:18,1,200,10|10,0:0|0:0,0:0:0:0:
399,377,86421,1,8,0:0:0:0:
333,274,86526,2,0,P|257:254|153:225,1,133.333333333333,2|0,1:0|0:0,0:0:0:0:
135,303,86842,1,10,0:0:0:0:
176,41,87052,1,8,0:0:0:0:
99,129,87157,5,10,0:0:0:0:
311,120,87368,1,0,0:0:0:0:
365,9,87473,1,10,0:0:0:0:
69,0,87684,1,8,0:0:0:0:
170,87,87789,2,0,P|189:147|208:239,1,133.333333333333,2|0,1:0|0:0,0:0:0:0:
250,328,88105,37,10,0:3:0:0:
377,281,88210,1,10,0:3:0:0:
250,328,88316,1,6,0:3:0:0:
429,212,88421,6,0,P|439:146|484:0,1,200,10|10,0:0|0:0,0:0:0:0:
170,87,88947,1,8,0:0:0:0:
249,176,89052,2,0,P|320:144|343:60,1,133.333333333333,2|0,1:0|0:0,0:0:0:0:
379,17,89368,1,10,0:0:0:0:
481,344,89578,1,8,0:0:0:0:
376,276,89684,38,0,P|325:289|213:338,1,133.333333333333,10|0,0:0|0:0,0:0:0:0:
81,271,90000,2,0,P|60:251|45:209,2,66.6666666666667,10|0|8,0:0|0:0|0:0,0:0:0:0:
152,355,90315,2,0,P|171:278|229:177,1,133.333333333333,2|0,1:0|0:0,0:0:0:0:
294,149,90631,5,10,0:0:0:0:
164,73,90736,1,8,0:0:0:0:
294,149,90842,1,8,0:0:0:0:
134,166,90947,38,0,B|46:96|46:96|100:4,1,200,10|10,0:0|0:0,0:0:0:0:
404,81,91473,1,8,0:0:0:0:
294,149,91578,2,0,P|275:208|262:313,1,133.333333333333,2|0,1:0|0:0,0:0:0:0:
218,384,91894,2,0,P|164:361|116:345,2,66.6666666666667,10|0|8,0:0|0:0|0:0,0:0:0:0:
350,301,92210,5,10,0:0:0:0:
187,220,92421,1,0,0:0:0:0:
155,119,92526,1,10,0:0:0:0:
415,0,92736,1,8,0:0:0:0:
343,88,92842,2,0,P|279:70|216:6,1,133.333333333333,2|0,1:0|0:0,0:0:0:0:
155,119,93157,37,10,0:3:0:0:
23,139,93262,1,10,0:3:0:0:
155,119,93368,1,6,0:3:0:0:
20,227,93473,6,0,P|58:277|101:369,1,133.333333333333,14|8,0:0|0:0,0:0:0:0:
234,371,93789,2,0,P|248:334|285:286,1,66.6666666666667,2|0,1:0|0:0,0:0:0:0:
410,282,94000,1,8,0:0:0:0:
333,168,94105,38,0,P|280:152|210:116,1,133.333333333333,10|8,0:0|0:0,0:0:0:0:
206,29,94421,1,2,1:0:0:0:
383,0,94631,1,8,0:0:0:0:
480,91,94736,6,0,P|437:155|415:240,1,133.333333333333,10|8,0:0|0:0,0:0:0:0:
462,283,95052,1,2,1:0:0:0:
248,375,95263,1,8,0:0:0:0:
203,282,95368,37,10,0:0:0:0:
104,240,95473,1,0,1:0:0:0:
203,282,95579,1,8,0:0:0:0:
65,163,95684,5,2,1:0:0:0:
141,125,95789,1,8,0:0:0:0:
167,43,95895,1,8,0:0:0:0:
256,42,96000,38,0,P|291:113|305:188,1,133.333333333333,10|8,0:0|0:0,0:0:0:0:
453,277,96315,2,0,P|466:226|482:193,1,66.6666666666667,2|0,1:0|0:0,0:0:0:0:
394,68,96526,1,8,0:0:0:0:
302,165,96631,6,0,P|236:182|133:212,1,133.333333333333,10|8,0:0|0:0,0:0:0:0:
153,282,96947,1,2,1:0:0:0:
12,19,97157,1,8,0:0:0:0:
117,81,97263,38,0,P|108:112|103:158,1,66.6666666666667,10|0,0:0|0:0,0:0:0:0:
47,347,97473,1,8,0:0:0:0:
153,282,97578,2,0,P|202:288|239:304,1,66.6666666666667,2|0,1:0|0:0,0:0:0:0:
346,209,97789,1,8,0:0:0:0:
282,149,97894,5,10,0:0:0:0:
183,191,97999,1,0,1:0:0:0:
282,149,98105,1,8,0:0:0:0:
276,39,98210,37,10,0:3:0:0:
415,89,98315,1,8,0:3:0:0:
276,39,98421,1,4,0:3:0:0:
371,169,98526,6,0,P|395:245|419:326,1,133.333333333333,10|8,0:0|0:0,0:0:0:0:
356,361,98842,1,2,1:0:0:0:
187,324,99052,1,8,0:0:0:0:
145,212,99157,2,0,P|77:199|14:185,1,133.333333333333,10|8,0:0|0:0,0:0:0:0:
124,57,99473,37,2,1:0:0:0:
15,94,99578,1,0,0:0:0:0:
124,57,99684,1,8,0:0:0:0:
14,185,99789,6,0,P|45:269|58:322,1,133.333333333333,10|8,0:0|0:0,0:0:0:0:
163,377,100105,2,0,P|178:336|201:296,1,66.6666666666667,2|0,1:0|0:0,0:0:0:0:
319,176,100315,1,8,0:0:0:0:
232,213,100421,37,10,0:0:0:0:
114,160,100526,1,0,1:0:0:0:
232,213,100632,1,8,0:0:0:0:
84,80,100736,5,2,1:0:0:0:
134,12,100841,1,8,0:0:0:0:
219,1,100947,1,8,0:0:0:0:
285,56,101052,38,0,P|369:68|456:80,1,133.333333333333,10|8,0:0|0:0,0:0:0:0:
463,222,101368,2,0,P|432:229|367:251,1,66.6666666666667,2|0,1:0|0:0,0:0:0:0:
274,144,101578,1,8,0:0:0:0:
165,223,101684,2,0,P|152:283|136:383,1,133.333333333333,10|8,0:0|0:0,0:0:0:0:
287,372,102000,5,2,1:0:0:0:
405,325,102105,1,0,0:0:0:0:
287,372,102211,1,8,0:0:0:0:
464,259,102315,37,10,0:0:0:0:
436,0,102526,1,8,0:0:0:0:
362,101,102631,1,2,1:0:0:0:
189,190,102842,1,8,0:0:0:0:
210,108,102947,5,10,0:0:0:0:
91,79,103052,1,0,1:0:0:0:
62,198,103157,1,8,0:0:0:0:
164,277,103263,37,10,0:3:0:0:
262,235,103368,1,10,0:3:0:0:
164,277,103474,1,6,0:3:0:0:
301,315,103578,6,0,P|314:240|340:132,1,150.000005722046,14|10,0:0|0:0,0:0:0:0:
62,6,104105,1,8,0:0:0:0:
169,73,104210,2,0,P|216:59|278:13,1,100.000003814697,2|0,1:0|0:0,0:0:0:0:
331,82,104526,1,10,0:0:0:0:
197,277,104736,1,8,0:0:0:0:
280,196,104842,38,0,P|355:205|445:224,2,150.000005722046,10|10|2,0:0|0:0|1:0,0:0:0:0:
141,334,105684,1,8,0:0:0:0:
70,245,105789,1,0,0:0:0:0:
356,4,106000,1,8,0:0:0:0:
294,105,106105,6,0,P|315:175|340:281,1,150.000005722046,10|10,0:0|0:0,0:0:0:0:
512,89,106631,1,8,0:0:0:0:
443,172,106736,2,0,P|435:205|415:312,1,100.000003814697,2|0,1:0|0:0,0:0:0:0:
487,330,107052,1,10,0:0:0:0:
305,382,107263,1,8,0:0:0:0:
190,338,107368,38,0,P|133:346|15:368,2,150.000005722046,10|10|2,0:0|0:0|1:0,0:0:0:0:
304,87,108210,1,8,0:0:0:0:
234,30,108315,5,10,0:3:0:0:
133,53,108420,1,10,0:3:0:0:
234,30,108526,1,6,0:3:0:0:
86,124,108631,38,0,P|76:182|47:302,1,150.000005722046,10|10,0:0|0:0,0:0:0:0:
287,218,109157,1,8,0:0:0:0:
389,300,109263,2,0,P|445:275|523:240,1,100.000003814697,2|0,1:0|0:0,0:0:0:0:
502,175,109578,1,10,0:0:0:0:
298,20,109789,1,8,0:0:0:0:
201,97,109894,6,0,P|186:173|164:276,2,150.000005722046,10|10|2,0:0|0:0|1:0,0:0:0:0:
359,266,110736,1,8,0:0:0:0:
289,368,110842,1,0,0:0:0:0:
88,207,111052,1,8,0:0:0:0:
17,115,111157,38,0,P|114:94|188:71,1,150.000005722046,10|10,0:0|0:0,0:0:0:0:
356,0,111684,1,8,0:0:0:0:
445,80,111789,2,0,P|432:118|416:220,1,100.000003814697,2|0,1:0|0:0,0:0:0:0:
317,231,112105,5,10,0:0:0:0:
241,269,112210,1,0,0:0:0:0:
215,351,112316,1,8,0:0:0:0:
126,336,112421,38,0,P|98:243|76:187,1,150.000005722046,10|10,0:0|0:0,0:0:0:0:
235,116,112947,1,0,0:0:0:0:
300,21,113052,2,0,P|356:11|405:-1,1,100.000003814697,2|8,1:0|0:0,0:0:0:0:
465,119,113368,5,10,0:3:0:0:
488,220,113473,1,10,0:3:0:0:
465,119,113579,1,6,0:3:0:0:
430,282,113684,38,0,P|377:293|287:325,1,150.000005722046,14|0,0:0|0:0,0:0:0:0:
286,325,114315,1,10,0:0:0:0:
166,79,114842,1,8,0:0:0:0:
166,79,114947,5,10,0:0:0:0:
166,79,115578,1,10,0:0:0:0:
379,158,116210,37,10,0:0:0:0:
379,158,116842,1,10,0:0:0:0:
76,294,117368,1,8,0:0:0:0:
76,294,117473,5,10,0:0:0:0:
76,294,118105,1,10,0:0:0:0:
207,124,118421,37,10,0:3:0:0:
308,147,118526,1,10,0:3:0:0:
207,124,118632,1,6,0:3:0:0:
364,78,118736,5,10,0:0:0:0:
364,78,119368,1,10,0:0:0:0:
221,337,119894,1,8,0:0:0:0:
221,337,120000,37,10,0:0:0:0:
221,337,120631,1,10,0:0:0:0:
151,15,121263,5,10,0:0:0:0:
151,15,121894,1,10,0:0:0:0:
345,350,122421,1,8,0:0:0:0:
280,291,122526,37,2,1:0:0:0:
137,330,122631,1,2,1:0:0:0:
280,291,122737,1,2,1:0:0:0:
141,238,122842,5,10,0:3:0:0:
65,200,122947,1,2,1:0:0:0:
39,118,123053,1,2,1:0:0:0:
132,103,123157,37,6,0:3:0:0:
53,16,123262,1,6,0:3:0:0:
132,103,123368,1,10,0:0:0:0:
246,50,123473,5,2,1:0:0:0:
246,50,123578,1,2,1:0:0:0:
246,50,123684,1,10,0:0:0:0:
356,132,123789,38,0,P|416:110|494:86,1,133.333333333333,14|8,0:0|0:0,0:0:0:0:
465,224,124105,2,0,P|449:261|437:331,1,66.6666666666667,2|0,1:0|0:0,0:0:0:0:
341,376,124315,1,8,0:0:0:0:
239,294,124421,6,0,P|210:274|188:210,1,66.6666666666667,10|0,0:0|0:0,0:0:0:0:
216,79,124631,1,8,0:0:0:0:
108,13,124736,2,0,P|73:44|18:77,1,66.6666666666667,2|0,1:0|0:0,0:0:0:0:
1,166,124947,1,8,0:0:0:0:
90,240,125052,38,0,P|111:288|132:373,1,133.333333333333,10|8,0:0|0:0,0:0:0:0:
248,319,125368,2,0,P|257:270|275:237,1,66.6666666666667,2|0,1:0|0:0,0:0:0:0:
350,170,125578,1,8,0:0:0:0:
285,79,125684,2,0,P|258:74|203:41,1,66.6666666666667,10|0,0:0|0:0,0:0:0:0:
462,29,125894,1,8,0:0:0:0:
424,114,126000,5,2,1:0:0:0:
471,245,126105,1,0,1:0:0:0:
424,114,126211,1,0,1:0:0:0:
389,279,126315,38,0,P|317:264|225:241,1,133.333333333333,10|8,0:0|0:0,0:0:0:0:
153,132,126631,2,0,P|124:143|62:158,1,66.6666666666667,2|0,1:0|0:0,0:0:0:0:
20,255,126842,1,8,0:0:0:0:
132,329,126947,6,0,P|154:359|176:396,1,66.6666666666667,10|0,0:0|0:0,0:0:0:0:
258,249,127157,1,8,0:0:0:0:
336,164,127263,2,0,P|349:119|359:61,1,66.6666666666667,2|0,1:0|0:0,0:0:0:0:
276,0,127473,1,8,0:0:0:0:
193,72,127578,38,0,P|113:95|26:116,1,133.333333333333,10|8,0:0|0:0,0:0:0:0:
195,226,127894,2,0,P|229:236|269:255,1,66.6666666666667,2|0,1:0|0:0,0:0:0:0:
353,99,128105,1,8,0:0:0:0:
462,164,128210,2,0,P|480:226|488:268,1,66.6666666666667,10|0,0:0|0:0,0:0:0:0:
330,313,128421,1,8,0:0:0:0:
244,354,128526,5,10,0:3:0:0:
132,316,128631,1,10,0:3:0:0:
244,354,128737,1,6,0:3:0:0:
51,364,128842,38,0,P|32:287|10:227,1,133.333333333333,10|8,0:0|0:0,0:0:0:0:
84,172,129157,1,2,1:0:0:0:
277,64,129368,1,8,0:0:0:0:
162,0,129473,2,0,P|119:8|68:27,1,66.6666666666667,10|0,0:0|0:0,0:0:0:0:
167,129,129684,1,8,0:0:0:0:
289,191,129789,2,0,P|323:255|346:346,1,133.333333333333,2|8,1:0|0:0,0:0:0:0:
449,231,130105,6,0,P|458:191|472:145,1,66.6666666666667,10|0,0:0|0:0,0:0:0:0:
432,3,130315,1,8,0:0:0:0:
328,80,130421,2,0,B|302:72|302:72|273:21,1,66.6666666666667,2|0,1:0|0:0,0:0:0:0:
83,8,130631,1,8,0:0:0:0:
178,97,130736,2,0,P|199:135|214:184,1,66.6666666666667,10|0,0:0|0:0,0:0:0:0:
340,313,130947,1,8,0:0:0:0:
258,277,131052,37,2,1:0:0:0:
149,340,131157,1,0,1:0:0:0:
258,277,131263,1,0,1:0:0:0:
81,277,131368,6,0,P|68:215|41:140,1,133.333333333333,10|8,0:0|0:0,0:0:0:0:
183,9,131684,2,0,P|172:56|161:98,1,66.6666666666667,2|0,1:0|0:0,0:0:0:0:
301,180,131894,1,8,0:0:0:0:
362,87,132000,38,0,P|353:61|330:-1,1,66.6666666666667,10|0,0:0|0:0,0:0:0:0:
146,158,132210,1,8,0:0:0:0:
245,250,132315,2,0,P|262:297|283:387,1,133.333333333333,2|8,1:0|0:0,0:0:0:0:
364,333,132631,5,10,0:0:0:0:
460,73,132842,1,8,0:0:0:0:
398,169,132947,1,2,1:0:0:0:
127,63,133157,1,8,0:0:0:0:
99,145,133263,37,2,1:0:0:0:
173,184,133368,1,2,1:0:0:0:
254,161,133473,1,2,1:0:0:0:
296,87,133578,1,10,0:3:0:0:
378,66,133684,1,10,0:3:0:0:
453,109,133789,1,6,0:3:0:0:
426,191,133894,22,0,P|405:267|392:390,1,159.999995117188,14|0,0:1|0:0,0:0:0:0:
239,363,134210,1,2,1:2:0:0:
134,297,134315,2,0,P|110:264|105:196,1,79.9999975585938,0|8,0:0|0:0,0:0:0:0:
237,52,134526,5,10,0:0:0:0:
109,114,134631,1,8,0:0:0:0:
237,52,134737,1,8,0:0:0:0:
33,56,134842,2,0,P|19:139|4:226,1,159.999995117188,2|8,1:2|0:0,0:0:0:0:
168,317,135157,38,0,P|247:266|269:186,1,159.999995117188,10|0,0:1|0:0,0:0:0:0:
429,156,135473,1,2,1:2:0:0:
360,52,135578,2,0,P|301:36|263:22,1,79.9999975585938,0|8,0:0|0:0,0:0:0:0:
89,97,135789,5,10,0:0:0:0:
156,220,135894,1,8,0:0:0:0:
89,97,136000,1,8,0:0:0:0:
97,285,136105,2,0,P|179:262|263:242,1,159.999995117188,2|8,1:2|0:0,0:0:0:0:
382,355,136421,38,0,P|404:275|452:191,1,159.999995117188,10|8,0:1|0:0,0:0:0:0:
236,239,136736,2,0,P|224:199|186:156,1,79.9999975585938,2|0,1:1|0:0,0:0:0:0:
227,23,136947,1,8,0:0:0:0:
350,80,137052,6,0,P|397:70|450:58,1,79.9999975585938,10|0,0:1|1:0,0:0:0:0:
428,63,137210,37,2,1:0:0:0:
428,63,137263,1,10,0:3:0:0:
350,80,137578,5,2,1:1:0:0:
247,175,137684,2,0,P|273:219|298:278,1,79.9999975585938,10|0,0:2|0:0,0:0:0:0:
174,314,137894,1,10,0:1:0:0:
107,260,138000,37,2,1:1:0:0:
26,364,138105,1,0,0:0:0:0:
107,260,138211,2,0,P|106:228|84:177,1,79.9999975585938,8|10,0:0|0:1,0:0:0:0:
0,92,138421,5,2,1:0:0:0:
0,92,138473,1,2,1:0:0:0:
0,92,138526,1,10,0:3:0:0:
0,92,138842,37,6,1:0:0:0:
112,0,138947,2,0,P|205:25|233:99,1,159.999995117188,10|8,0:0|0:0,0:0:0:0:
221,198,139263,5,2,1:2:0:0:
356,232,139368,1,2,0:0:0:0:
221,198,139474,1,2,0:0:0:0:
392,319,139579,37,10,0:0:0:0:
512,277,139684,1,10,0:0:0:0:
392,319,139790,1,10,0:0:0:0:
483,196,139895,5,2,1:2:0:0:
483,196,140000,1,2,0:0:0:0:
483,196,140106,1,10,0:0:0:0:
408,134,140210,38,0,P|421:98|434:59,1,79.9999975585938,10|2,0:1|0:0,0:0:0:0:
296,0,140421,1,10,0:0:0:0:
206,97,140526,2,0,P|168:110|113:132,1,79.9999975585938,2|2,1:2|0:0,0:0:0:0:
213,304,140736,1,2,0:0:0:0:
305,266,140842,5,10,0:0:0:0:
348,150,140947,1,10,0:0:0:0:
305,266,141053,1,10,0:0:0:0:
422,99,141157,2,0,P|490:170|506:274,1,159.999995117188,2|8,1:0|0:0,0:0:0:0:
382,352,141473,38,0,P|327:333|221:312,1,159.999995117188,10|8,0:1|0:0,0:0:0:0:
103,174,141789,2,0,P|68:190|-5:212,1,79.9999975585938,2|0,1:1|0:0,0:0:0:0:
185,238,142000,1,10,0:1:0:0:
282,155,142105,6,0,P|292:98|335:-18,1,159.999995117188,8|8,0:2|0:0,0:0:0:0:
417,17,142421,1,2,1:0:0:0:
104,103,142631,1,8,0:0:0:0:
189,123,142736,38,0,P|172:157|119:190,1,79.9999975585938,10|0,0:3|0:0,0:0:0:0:
79,19,142947,2,0,P|116:17|172:47,1,79.9999975585938,10|0,0:3|0:0,0:0:0:0:
40,165,143157,2,0,P|19:134|16:71,1,79.9999975585938,10|0,0:3|0:0,0:0:0:0:
119,268,143368,5,2,1:2:0:0:
202,282,143473,1,2,1:2:0:0:
273,236,143578,1,10,0:3:0:0:
291,153,143683,1,10,0:3:0:0:
365,109,143789,1,6,0:3:0:0:
449,128,143894,1,6,0:3:0:0:
478,210,144000,38,0,P|444:267|420:368,1,159.999995117188,14|0,0:1|0:0,0:0:0:0:
273,236,144315,1,2,1:2:0:0:
175,169,144421,2,0,P|167:137|149:89,1,79.9999975585938,0|8,0:0|0:0,0:0:0:0:
310,67,144631,5,10,0:0:0:0:
428,1,144736,1,8,0:0:0:0:
310,67,144842,1,8,0:0:0:0:
512,32,144947,2,0,P|489:97|468:226,1,159.999995117188,2|8,1:2|0:0,0:0:0:0:
273,236,145263,38,0,P|206:204|112:193,1,159.999995117188,10|0,0:1|0:0,0:0:0:0:
0,108,145578,1,2,1:2:0:0:
72,15,145684,2,0,P|110:7|162:-1,1,79.9999975585938,0|8,0:0|0:0,0:0:0:0:
385,4,145894,5,10,0:0:0:0:
274,102,145999,1,8,0:0:0:0:
385,4,146105,1,8,0:0:0:0:
330,171,146210,2,0,P|319:242|314:337,1,159.999995117188,2|8,1:2|0:0,0:0:0:0:
140,325,146526,38,0,P|76:301|73:198,1,159.999995117188,10|8,0:1|0:0,0:0:0:0:
71,35,146842,2,0,P|116:48|169:64,1,79.9999975585938,2|0,1:0|0:0,0:0:0:0:
282,54,147052,1,8,0:0:0:0:
279,203,147157,6,0,P|262:245|250:309,1,79.9999975585938,10|2,0:1|1:0,0:0:0:0:
253,278,147315,37,2,1:0:0:0:
253,278,147368,1,10,0:3:0:0:
279,203,147684,5,2,0:1:0:0:
379,107,147789,2,0,P|347:27|324:-17,1,79.9999975585938,10|0,0:0|0:0,0:0:0:0:
197,14,148000,1,10,0:1:0:0:
100,63,148105,37,2,1:1:0:0:
167,183,148210,1,0,0:0:0:0:
100,63,148316,2,0,P|56:46|35:10,1,79.9999975585938,10|10,0:1|0:1,0:0:0:0:
0,131,148526,5,2,1:0:0:0:
0,131,148578,1,2,1:0:0:0:
0,131,148631,1,10,0:3:0:0:
0,131,148947,37,6,0:1:0:0:
120,219,149052,2,0,P|153:293|188:391,1,159.999995117188,10|8,0:0|0:0,0:0:0:0:
277,340,149368,5,2,1:2:0:0:
421,384,149473,1,2,0:0:0:0:
277,340,149579,1,2,0:0:0:0:
459,297,149684,37,10,0:0:0:0:
399,175,149789,1,10,0:0:0:0:
459,297,149895,1,10,0:0:0:0:
320,257,150000,5,2,1:2:0:0:
320,257,150105,1,2,0:0:0:0:
320,257,150210,1,10,0:0:0:0:
223,227,150315,38,0,P|212:191|183:139,1,79.9999975585938,10|2,0:1|0:0,0:0:0:0:
271,3,150526,1,10,0:0:0:0:
389,34,150631,2,0,P|429:70|456:105,1,79.9999975585938,2|2,1:2|0:0,0:0:0:0:
476,254,150842,1,2,0:0:0:0:
400,323,150947,5,10,0:0:0:0:
282,233,151052,1,10,0:0:0:0:
400,323,151158,1,10,0:0:0:0:
226,304,151263,2,0,P|142:318|68:359,1,159.999995117188,2|8,1:0|0:0,0:0:0:0:
9,210,151578,38,0,P|69:143|62:20,1,159.999995117188,10|8,0:1|0:0,0:0:0:0:
270,11,151894,2,0,P|252:55|252:122,1,79.9999975585938,2|0,1:0|0:0,0:0:0:0:
148,189,152105,1,10,0:1:0:0:
285,214,152210,6,0,P|390:177|461:152,1,159.999995117188,10|8,0:0|0:0,0:0:0:0:
442,73,152526,1,2,1:0:0:0:
345,319,152736,1,8,0:0:0:0:
262,295,152842,37,10,0:3:0:0:
302,91,152948,1,10,0:3:0:0:
70,335,153473,5,6,0:3:0:0:
110,130,153579,1,6,0:3:0:0:
262,295,154105,37,10,0:0:0:0:
256,192,154210,12,4,156526,0:3:0:0:
